  0
SECTION
  2
HEADER
  9
$ACADVER
  1
AC1018
  9
$ACADMAINTVER
 70
     0
  9
$DWGCODEPAGE
  3
ANSI_932
  9
$LASTSAVEDBY
  1
otat
  9
$INSBASE
 10
0.0
 20
0.0
 30
0.0
  9
$EXTMIN
 10
-21498.43616260763
 20
-61811.18061254341
 30
0.0
  9
$EXTMAX
 10
221266.2447341395
 20
29598.33105708579
 30
0.0
  9
$LIMMIN
 10
0.0
 20
0.0
  9
$LIMMAX
 10
2969.996969696967
 20
2100.0
  9
$ORTHOMODE
 70
     1
  9
$REGENMODE
 70
     1
  9
$FILLMODE
 70
     1
  9
$QTEXTMODE
 70
     0
  9
$MIRRTEXT
 70
     0
  9
$LTSCALE
 40
50.0
  9
$ATTMODE
 70
     1
  9
$TEXTSIZE
 40
0.2
  9
$TRACEWID
 40
0.05
  9
$TEXTSTYLE
  7
スタイル1
  9
$CLAYER
  8
141-パーツ
  9
$CELTYPE
  6
BYLAYER
  9
$CECOLOR
 62
   256
  9
$CELTSCALE
 40
1.0
  9
$DISPSILH
 70
     0
  9
$DIMSCALE
 40
30.0
  9
$DIMASZ
 40
0.6
  9
$DIMEXO
 40
1.2
  9
$DIMDLI
 40
4.5
  9
$DIMRND
 40
0.0
  9
$DIMDLE
 40
1.0
  9
$DIMEXE
 40
0.3
  9
$DIMTP
 40
0.0
  9
$DIMTM
 40
0.0
  9
$DIMTXT
 40
2.0
  9
$DIMCEN
 40
1.0
  9
$DIMTSZ
 40
0.0
  9
$DIMTOL
 70
     0
  9
$DIMLIM
 70
     0
  9
$DIMTIH
 70
     0
  9
$DIMTOH
 70
     0
  9
$DIMSE1
 70
     0
  9
$DIMSE2
 70
     0
  9
$DIMTAD
 70
     3
  9
$DIMZIN
 70
     8
  9
$DIMBLK
  1
Dot
  9
$DIMASO
 70
     1
  9
$DIMSHO
 70
     1
  9
$DIMPOST
  1

  9
$DIMAPOST
  1

  9
$DIMALT
 70
     0
  9
$DIMALTD
 70
     2
  9
$DIMALTF
 40
25.4
  9
$DIMLFAC
 40
1.0
  9
$DIMTOFL
 70
     1
  9
$DIMTVP
 40
0.0
  9
$DIMTIX
 70
     1
  9
$DIMSOXD
 70
     0
  9
$DIMSAH
 70
     0
  9
$DIMBLK1
  1

  9
$DIMBLK2
  1

  9
$DIMSTYLE
  2
KH1xx030
  9
$DIMCLRD
 70
   256
  9
$DIMCLRE
 70
   256
  9
$DIMCLRT
 70
   256
  9
$DIMTFAC
 40
1.0
  9
$DIMGAP
 40
0.5
  9
$DIMJUST
 70
     0
  9
$DIMSD1
 70
     0
  9
$DIMSD2
 70
     0
  9
$DIMTOLJ
 70
     1
  9
$DIMTZIN
 70
     0
  9
$DIMALTZ
 70
     0
  9
$DIMALTTZ
 70
     0
  9
$DIMUPT
 70
     0
  9
$DIMDEC
 70
     1
  9
$DIMTDEC
 70
     1
  9
$DIMALTU
 70
     2
  9
$DIMALTTD
 70
     2
  9
$DIMTXSTY
  7
KH001
  9
$DIMAUNIT
 70
     0
  9
$DIMADEC
 70
     0
  9
$DIMALTRND
 40
0.0
  9
$DIMAZIN
 70
     0
  9
$DIMDSEP
 70
    46
  9
$DIMATFIT
 70
     3
  9
$DIMFRAC
 70
     0
  9
$DIMLDRBLK
  1
ClosedBlank
  9
$DIMLUNIT
 70
     6
  9
$DIMLWD
 70
    -1
  9
$DIMLWE
 70
    -1
  9
$DIMTMOVE
 70
     2
  9
$LUNITS
 70
     2
  9
$LUPREC
 70
     1
  9
$SKETCHINC
 40
0.1
  9
$FILLETRAD
 40
0.0
  9
$AUNITS
 70
     0
  9
$AUPREC
 70
     0
  9
$MENU
  1
WAVES
  9
$ELEVATION
 40
0.0
  9
$PELEVATION
 40
0.0
  9
$THICKNESS
 40
0.0
  9
$LIMCHECK
 70
     0
  9
$CHAMFERA
 40
0.0
  9
$CHAMFERB
 40
0.0
  9
$CHAMFERC
 40
0.0
  9
$CHAMFERD
 40
0.0
  9
$SKPOLY
 70
     0
  9
$TDCREATE
 40
2450631.675926736
  9
$TDUCREATE
 40
2450631.300926736
  9
$TDUPDATE
 40
2457938.449499028
  9
$TDUUPDATE
 40
2457938.074499028
  9
$TDINDWG
 40
0.0
  9
$TDUSRTIMER
 40
0.0
  9
$USRTIMER
 70
     1
  9
$ANGBASE
 50
0.0
  9
$ANGDIR
 70
     0
  9
$PDMODE
 70
     0
  9
$PDSIZE
 40
0.0
  9
$PLINEWID
 40
0.0
  9
$SPLFRAME
 70
     0
  9
$SPLINETYPE
 70
     6
  9
$SPLINESEGS
 70
     8
  9
$HANDSEED
  5
403
  9
$SURFTAB1
 70
     6
  9
$SURFTAB2
 70
     6
  9
$SURFTYPE
 70
     6
  9
$SURFU
 70
     6
  9
$SURFV
 70
     6
  9
$UCSBASE
  2

  9
$UCSNAME
  2

  9
$UCSORG
 10
0.0
 20
0.0
 30
0.0
  9
$UCSXDIR
 10
1.0
 20
0.0
 30
0.0
  9
$UCSYDIR
 10
0.0
 20
1.0
 30
0.0
  9
$UCSORTHOREF
  2

  9
$UCSORTHOVIEW
 70
     0
  9
$UCSORGTOP
 10
0.0
 20
0.0
 30
0.0
  9
$UCSORGBOTTOM
 10
0.0
 20
0.0
 30
0.0
  9
$UCSORGLEFT
 10
0.0
 20
0.0
 30
0.0
  9
$UCSORGRIGHT
 10
0.0
 20
0.0
 30
0.0
  9
$UCSORGFRONT
 10
0.0
 20
0.0
 30
0.0
  9
$UCSORGBACK
 10
0.0
 20
0.0
 30
0.0
  9
$PUCSBASE
  2

  9
$PUCSNAME
  2

  9
$PUCSORG
 10
0.0
 20
0.0
 30
0.0
  9
$PUCSXDIR
 10
1.0
 20
0.0
 30
0.0
  9
$PUCSYDIR
 10
0.0
 20
1.0
 30
0.0
  9
$PUCSORTHOREF
  2

  9
$PUCSORTHOVIEW
 70
     0
  9
$PUCSORGTOP
 10
0.0
 20
0.0
 30
0.0
  9
$PUCSORGBOTTOM
 10
0.0
 20
0.0
 30
0.0
  9
$PUCSORGLEFT
 10
0.0
 20
0.0
 30
0.0
  9
$PUCSORGRIGHT
 10
0.0
 20
0.0
 30
0.0
  9
$PUCSORGFRONT
 10
0.0
 20
0.0
 30
0.0
  9
$PUCSORGBACK
 10
0.0
 20
0.0
 30
0.0
  9
$USERI1
 70
     0
  9
$USERI2
 70
     0
  9
$USERI3
 70
     0
  9
$USERI4
 70
     0
  9
$USERI5
 70
     0
  9
$USERR1
 40
0.0
  9
$USERR2
 40
0.0
  9
$USERR3
 40
0.0
  9
$USERR4
 40
0.0
  9
$USERR5
 40
0.0
  9
$WORLDVIEW
 70
     1
  9
$SHADEDGE
 70
     3
  9
$SHADEDIF
 70
    70
  9
$TILEMODE
 70
     1
  9
$MAXACTVP
 70
    16
  9
$PINSBASE
 10
0.0
 20
0.0
 30
0.0
  9
$PLIMCHECK
 70
     0
  9
$PEXTMIN
 10
1.000000000000000E+20
 20
1.000000000000000E+20
 30
1.000000000000000E+20
  9
$PEXTMAX
 10
-1.000000000000000E+20
 20
-1.000000000000000E+20
 30
-1.000000000000000E+20
  9
$PLIMMIN
 10
-5.365753173828125
 20
-5.365749835968018
  9
$PLIMMAX
 10
414.750244140625
 20
291.5602450370789
  9
$UNITMODE
 70
     0
  9
$VISRETAIN
 70
     0
  9
$PLINEGEN
 70
     0
  9
$PSLTSCALE
 70
     0
  9
$TREEDEPTH
 70
  3020
  9
$CMLSTYLE
  2
STANDARD
  9
$CMLJUST
 70
     0
  9
$CMLSCALE
 40
1.0
  9
$PROXYGRAPHICS
 70
     1
  9
$MEASUREMENT
 70
     0
  9
$CELWEIGHT
370
    -1
  9
$ENDCAPS
280
     0
  9
$JOINSTYLE
280
     0
  9
$LWDISPLAY
290
     0
  9
$INSUNITS
 70
     0
  9
$HYPERLINKBASE
  1

  9
$STYLESHEET
  1
KH1xx.ctb
  9
$XEDIT
290
     1
  9
$CEPSNTYPE
380
     0
  9
$PSTYLEMODE
290
     1
  9
$FINGERPRINTGUID
  2
{3A219652-3426-4B31-A692-0CE8BD366F52}
  9
$VERSIONGUID
  2
{C67F6051-AD58-4382-A626-7501B01E92ED}
  9
$EXTNAMES
290
     1
  9
$PSVPSCALE
 40
0.0
  9
$OLESTARTUP
290
     0
  9
$SORTENTS
280
   127
  9
$INDEXCTL
280
     0
  9
$HIDETEXT
280
     0
  9
$XCLIPFRAME
290
     0
  9
$HALOGAP
280
     0
  9
$OBSCOLOR
 70
   257
  9
$OBSLTYPE
280
     0
  9
$INTERSECTIONDISPLAY
280
     0
  9
$INTERSECTIONCOLOR
 70
   257
  9
$DIMASSOC
280
     1
  9
$PROJECTNAME
  1

  0
ENDSEC
  0
SECTION
  2
CLASSES
  0
CLASS
  1
ACDBDICTIONARYWDFLT
  2
AcDbDictionaryWithDefault
  3
ObjectDBX Classes
 90
        0
 91
        6
280
     0
281
     0
  0
CLASS
  1
MATERIAL
  2
AcDbMaterial
  3
ObjectDBX Classes
 90
     1153
 91
        6
280
     0
281
     0
  0
CLASS
  1
SORTENTSTABLE
  2
AcDbSortentsTable
  3
ObjectDBX Classes
 90
        0
 91
        6
280
     0
281
     0
  0
CLASS
  1
VISUALSTYLE
  2
AcDbVisualStyle
  3
ObjectDBX Classes
 90
     4095
 91
        6
280
     0
281
     0
  0
CLASS
  1
SUN
  2
AcDbSun
  3
SCENEOE
 90
     1153
 91
        6
280
     0
281
     0
  0
CLASS
  1
SCALE
  2
AcDbScale
  3
ObjectDBX Classes
 90
     1153
 91
        6
280
     0
281
     0
  0
CLASS
  1
DICTIONARYVAR
  2
AcDbDictionaryVar
  3
ObjectDBX Classes
 90
        0
 91
        5
280
     0
281
     0
  0
ENDSEC
  0
SECTION
  2
TABLES
  0
TABLE
  2
VPORT
  5
3A
330
0
100
AcDbSymbolTable
 70
     1
  0
VPORT
  5
3F
330
3A
100
AcDbSymbolTableRecord
100
AcDbViewportTableRecord
  2
*Active
 70
     0
 10
0.0
 20
0.0
 11
1.0
 21
1.0
 12
6236.993636422518
 22
-17629.99999999121
 13
0.0
 23
0.0
 14
45.0
 24
45.0
 15
40.0
 25
40.0
 16
0.0
 26
0.0
 36
1.0
 17
0.0
 27
0.0
 37
0.0
 40
10584.00000009993
 41
1.41428427128427
 42
50.0
 43
0.0
 44
0.0
 50
0.0
 51
0.0
 71
    16
 72
   100
 73
     1
 74
     0
 75
     0
 76
     0
 77
     0
 78
     1
281
     0
 65
     1
110
0.0
120
0.0
130
0.0
111
1.0
121
0.0
131
0.0
112
0.0
122
1.0
132
0.0
 79
     0
146
0.0
1001
ACAD_NAV_VCDISPLAY
1070
     3
  0
ENDTAB
  0
TABLE
  2
LTYPE
  5
12
330
0
100
AcDbSymbolTable
 70
    11
  0
LTYPE
  5
13
330
12
100
AcDbSymbolTableRecord
100
AcDbLinetypeTableRecord
  2
BYBLOCK
 70
     0
  3

 72
    65
 73
     0
 40
0.0
  0
LTYPE
  5
14
330
12
100
AcDbSymbolTableRecord
100
AcDbLinetypeTableRecord
  2
BYLAYER
 70
     0
  3

 72
    65
 73
     0
 40
0.0
  0
LTYPE
  5
11
330
12
100
AcDbSymbolTableRecord
100
AcDbLinetypeTableRecord
  2
CONTINUOUS
 70
     0
  3
Solid line
 72
    65
 73
     0
 40
0.0
  0
LTYPE
  5
111
330
12
100
AcDbSymbolTableRecord
100
AcDbLinetypeTableRecord
  2
HIDDEN
 70
     0
  3
Hidden __ __ __ __ __ __ __ __ __ __ __ __ __ _
 72
    65
 73
     2
 40
0.375
 49
0.25
 74
     0
 49
-0.125
 74
     0
  0
LTYPE
  5
1DD
330
12
100
AcDbSymbolTableRecord
100
AcDbLinetypeTableRecord
  2
CENTER
 70
     0
  3
Center ____ _ ____ _ ____ _ ____ _ ____ _ ____
 72
    65
 73
     4
 40
2.0
 49
1.25
 74
     0
 49
-0.25
 74
     0
 49
0.25
 74
     0
 49
-0.25
 74
     0
  0
LTYPE
  5
1C1
330
12
100
AcDbSymbolTableRecord
100
AcDbLinetypeTableRecord
  2
DASHED
 70
     0
  3
__ __ __ __ __ __ __ __ __ __ __ __ __ __ __
 72
    65
 73
     2
 40
0.75
 49
0.5
 74
     0
 49
-0.25
 74
     0
  0
ENDTAB
  0
TABLE
  2
LAYER
  5
2
102
{ACAD_XDICTIONARY
360
3
102
}
330
0
100
AcDbSymbolTable
 70
    19
  0
LAYER
  5
20
102
{ACAD_XDICTIONARY
360
21
102
}
330
2
100
AcDbSymbolTableRecord
100
AcDbLayerTableRecord
  2
0
 70
     0
 62
     7
  6
CONTINUOUS
370
    -3
390
A
  0
LAYER
  5
90
102
{ACAD_XDICTIONARY
360
91
102
}
330
2
100
AcDbSymbolTableRecord
100
AcDbLayerTableRecord
  2
160-文字
 70
     0
 62
   254
  6
CONTINUOUS
370
    -3
390
A
  0
LAYER
  5
7B
102
{ACAD_XDICTIONARY
360
7C
102
}
330
2
100
AcDbSymbolTableRecord
100
AcDbLayerTableRecord
  2
190-図面外枠
 70
     0
 62
     5
  6
CONTINUOUS
370
    -3
390
A
  0
LAYER
  5
8A
102
{ACAD_XDICTIONARY
360
8B
102
}
330
2
100
AcDbSymbolTableRecord
100
AcDbLayerTableRecord
  2
191-図面内枠
 70
     0
 62
     4
  6
CONTINUOUS
370
    -3
390
A
  0
LAYER
  5
C1
102
{ACAD_XDICTIONARY
360
C2
102
}
330
2
100
AcDbSymbolTableRecord
100
AcDbLayerTableRecord
  2
120-キャビネット（外）
 70
     0
 62
     7
  6
CONTINUOUS
370
    -3
390
A
  0
LAYER
  5
10E
102
{ACAD_XDICTIONARY
360
10F
102
}
330
2
100
AcDbSymbolTableRecord
100
AcDbLayerTableRecord
  2
121-キャビネット（中）
 70
     0
 62
   253
  6
HIDDEN
370
    -3
390
A
  0
LAYER
  5
72
102
{ACAD_XDICTIONARY
360
73
102
}
330
2
100
AcDbSymbolTableRecord
100
AcDbLayerTableRecord
  2
122-扉
 70
     0
 62
     6
  6
CONTINUOUS
370
    -3
390
A
  0
LAYER
  5
1DA
102
{ACAD_XDICTIONARY
360
1DB
102
}
330
2
100
AcDbSymbolTableRecord
100
AcDbLayerTableRecord
  2
123-扉向き
 70
     0
 62
   231
  6
CENTER
370
    -3
390
A
  0
LAYER
  5
6D
102
{ACAD_XDICTIONARY
360
6E
102
}
330
2
100
AcDbSymbolTableRecord
100
AcDbLayerTableRecord
  2
111-壁仕上
 70
     0
 62
     3
  6
CONTINUOUS
370
    -3
390
A
  0
LAYER
  5
69
102
{ACAD_XDICTIONARY
360
6A
102
}
330
2
100
AcDbSymbolTableRecord
100
AcDbLayerTableRecord
  2
126-甲板
 70
     0
 62
     2
  6
CONTINUOUS
370
    -3
390
A
  0
LAYER
  5
295
102
{ACAD_XDICTIONARY
360
296
102
}
330
2
100
AcDbSymbolTableRecord
100
AcDbLayerTableRecord
  2
150-機器
 70
     0
 62
     8
  6
CONTINUOUS
370
    -3
390
A
1001
AcAecLayerStandard
1000

1000

  0
LAYER
  5
83
330
2
100
AcDbSymbolTableRecord
100
AcDbLayerTableRecord
  2
DEFPOINTS
 70
     0
 62
  -146
  6
CONTINUOUS
290
     0
370
    -3
390
A
  0
LAYER
  5
95
102
{ACAD_XDICTIONARY
360
96
102
}
330
2
100
AcDbSymbolTableRecord
100
AcDbLayerTableRecord
  2
166-寸法B
 70
     0
 62
    11
  6
CONTINUOUS
370
    -3
390
A
1001
AcAecLayerStandard
1000

1000

  0
LAYER
  5
18B
102
{ACAD_XDICTIONARY
360
18C
102
}
330
2
100
AcDbSymbolTableRecord
100
AcDbLayerTableRecord
  2
180-補助
 70
     0
 62
   161
  6
CONTINUOUS
370
    -3
390
A
1001
AcAecLayerStandard
1000

1000

  0
LAYER
  5
121
102
{ACAD_XDICTIONARY
360
122
102
}
330
2
100
AcDbSymbolTableRecord
100
AcDbLayerTableRecord
  2
161-番号
 70
     0
 62
   110
  6
CONTINUOUS
370
    -3
390
A
1001
AcAecLayerStandard
1000

1000

  0
LAYER
  5
1
330
2
100
AcDbSymbolTableRecord
100
AcDbLayerTableRecord
  2
141-パーツ
 70
     0
 62
    31
  6
CONTINUOUS
370
    -3
390
A
  0
ENDTAB
  0
TABLE
  2
STYLE
  5
16
330
0
100
AcDbSymbolTable
 70
     6
  0
STYLE
  5
19
330
16
100
AcDbSymbolTableRecord
100
AcDbTextStyleTableRecord
  2
KH001
 70
     0
 40
0.0
 41
1.0
 50
0.0
 71
     0
 42
0.2
  3

  4

1001
ACAD
1000
MS Gothic
1071
    32817
  0
STYLE
  5
192
330
16
100
AcDbSymbolTableRecord
100
AcDbTextStyleTableRecord
  2
ＭＳ ゴシック
 70
     0
 40
10.0
 41
1.0
 50
0.0
 71
     0
 42
0.2
  3

  4

1001
ACAD
1000
MS PGothic
1071
    32818
  0
STYLE
  5
15
330
16
100
AcDbSymbolTableRecord
100
AcDbTextStyleTableRecord
  2
スタイル1
 70
     0
 40
0.0
 41
0.8
 50
0.0
 71
     0
 42
0.2
  3

  4

1001
ACAD
1000
HGSGothicE
1071
    32818
  0
ENDTAB
  0
TABLE
  2
VIEW
  5
38
330
0
100
AcDbSymbolTable
 70
     1
  0
ENDTAB
  0
TABLE
  2
UCS
  5
39
330
0
100
AcDbSymbolTable
 70
     0
  0
ENDTAB
  0
TABLE
  2
APPID
  5
8
330
0
100
AcDbSymbolTable
 70
    44
  0
APPID
  5
7
330
8
100
AcDbSymbolTableRecord
100
AcDbRegAppTableRecord
  2
ACAD
 70
     0
  0
APPID
  5
26
330
8
100
AcDbSymbolTableRecord
100
AcDbRegAppTableRecord
  2
ACAD_PSEXT
 70
     0
  0
APPID
  5
98
330
8
100
AcDbSymbolTableRecord
100
AcDbRegAppTableRecord
  2
AcAecLayerStandard
 70
     0
  0
APPID
  5
257
330
8
100
AcDbSymbolTableRecord
100
AcDbRegAppTableRecord
  2
ACAD_DSTYLE_DIMINSPECT
 70
     0
  0
APPID
  5
42
330
8
100
AcDbSymbolTableRecord
100
AcDbRegAppTableRecord
  2
ACAD_NAV_VCDISPLAY
 70
     0
  0
APPID
  5
3F8
330
8
100
AcDbSymbolTableRecord
100
AcDbRegAppTableRecord
  2
ACAD_DSTYLE_DIMARC_LENGTH_SYMBOL
 70
     0
  0
APPID
  5
3F9
330
8
100
AcDbSymbolTableRecord
100
AcDbRegAppTableRecord
  2
ACAD_DSTYLE_DIM_LINETYPE
 70
     0
  0
APPID
  5
3FA
330
8
100
AcDbSymbolTableRecord
100
AcDbRegAppTableRecord
  2
ACAD_DSTYLE_DIM_EXT1_LINETYPE
 70
     0
  0
APPID
  5
3FB
330
8
100
AcDbSymbolTableRecord
100
AcDbRegAppTableRecord
  2
ACAD_DSTYLE_DIM_EXT2_LINETYPE
 70
     0
  0
ENDTAB
  0
TABLE
  2
DIMSTYLE
  5
18
330
0
100
AcDbSymbolTable
 70
     9
100
AcDbDimStyleTable
  0
DIMSTYLE
105
17
102
{ACAD_REACTORS
330
94
330
A5
330
B2
330
C4
330
D3
330
E0
330
F0
330
100
330
113
330
147
330
15E
330
16E
330
17B
330
222
330
22F
330
23C
330
249
330
258
330
263
330
26F
330
299
330
2AB
330
2BE
330
2CB
330
2D8
330
2E8
330
2F5
330
302
330
312
330
31F
330
349
330
35D
330
36D
330
37A
330
387
330
397
330
3A4
330
3B1
330
3BE
330
3CC
102
}
330
18
100
AcDbSymbolTableRecord
100
AcDbDimStyleTableRecord
  2
KH1xx030
 70
     0
 40
30.0
 41
0.6
 42
1.2
 43
4.5
 44
0.3
 46
1.0
 73
     0
 74
     0
 77
     3
 78
     8
140
2.0
141
1.0
147
0.5
172
     1
174
     1
176
   256
177
   256
271
     1
178
   256
271
     1
272
     1
277
     6
279
     2
340
19
341
1A
342
30
371
    -1
372
    -1
  0
ENDTAB
  0
TABLE
  2
BLOCK_RECORD
  5
1B
330
0
100
AcDbSymbolTable
 70
  1303
  0
BLOCK_RECORD
  5
1C
102
{ACAD_XDICTIONARY
360
1D
102
}
330
1B
100
AcDbSymbolTableRecord
100
AcDbBlockTableRecord
  2
*MODEL_SPACE
340
24
  0
BLOCK_RECORD
  5
27
330
1B
100
AcDbSymbolTableRecord
100
AcDbBlockTableRecord
  2
*PAPER_SPACE
340
2A
  0
BLOCK_RECORD
  5
1A
330
1B
100
AcDbSymbolTableRecord
100
AcDbBlockTableRecord
  2
_ClosedBlank
340
0
310
2800000020000000200000000100080000000000000400000000000000000000000000000000000000000000000080000080000000808000800000008000800080800000C0C0C000C0DCC000F0CAA6000020400000206000002080000020A0000020C0000020E00000400000004020000040400000406000004080000040A0
310
000040C0000040E00000600000006020000060400000606000006080000060A0000060C0000060E00000800000008020000080400000806000008080000080A0000080C0000080E00000A0000000A0200000A0400000A0600000A0800000A0A00000A0C00000A0E00000C0000000C0200000C0400000C0600000C0800000C0
310
A00000C0C00000C0E00000E0000000E0200000E0400000E0600000E0800000E0A00000E0C00000E0E00040000000400020004000400040006000400080004000A0004000C0004000E00040200000402020004020400040206000402080004020A0004020C0004020E000404000004040200040404000404060004040800040
310
40A0004040C0004040E00040600000406020004060400040606000406080004060A0004060C0004060E00040800000408020004080400040806000408080004080A0004080C0004080E00040A0000040A0200040A0400040A0600040A0800040A0A00040A0C00040A0E00040C0000040C0200040C0400040C0600040C08000
310
40C0A00040C0C00040C0E00040E0000040E0200040E0400040E0600040E0800040E0A00040E0C00040E0E00080000000800020008000400080006000800080008000A0008000C0008000E00080200000802020008020400080206000802080008020A0008020C0008020E00080400000804020008040400080406000804080
310
008040A0008040C0008040E00080600000806020008060400080606000806080008060A0008060C0008060E00080800000808020008080400080806000808080008080A0008080C0008080E00080A0000080A0200080A0400080A0600080A0800080A0A00080A0C00080A0E00080C0000080C0200080C0400080C0600080C0
310
800080C0A00080C0C00080C0E00080E0000080E0200080E0400080E0600080E0800080E0A00080E0C00080E0E000C0000000C0002000C0004000C0006000C0008000C000A000C000C000C000E000C0200000C0202000C0204000C0206000C0208000C020A000C020C000C020E000C0400000C0402000C0404000C0406000C0
310
408000C040A000C040C000C040E000C0600000C0602000C0604000C0606000C0608000C060A000C060C000C060E000C0800000C0802000C0804000C0806000C0808000C080A000C080C000C080E000C0A00000C0A02000C0A04000C0A06000C0A08000C0A0A000C0A0C000C0A0E000C0C00000C0C02000C0C04000C0C06000
310
C0C08000C0C0A000F0FBFF00A4A0A000808080000000FF0000FF000000FFFF00FF000000FF00FF00FFFF0000FFFFFF0000000000000000000000000000000000000000000000000000000000000000000000000000000000000000000000000000000000000000000000000000000000000000000000000000000000000000
310
00000000000000000000000000000000000000000000000000000000000000000000000000000000000000000000000000000000000000000000000000000000000000000000000000000000000000000000000000000000000000000000000000000000000000000000000000000000000000000000000000000000000000
310
00000000000000000000000000000000000000000000000000000000000000000000000000000000000000000000000000000000000000000000000000000000000000000000000000000000000000000000000000000000000000000000000000000000000000000000000000000000000000000000000000000000000000
310
0000000000000000000000000000000000000000FFFFFF0000000000000000000000000000000000000000000000000000000000FF0000FFFFFFFFFFFF0000000000000000000000000000000000000000000000FF0000000000000000FFFFFFFFFFFF0000000000000000000000000000000000FF00000000000000000000
310
00000000FFFFFFFFFFFF0000000000000000000000FF0000000000000000000000000000000000000000FFFFFFFFFFFF0000000000FF00000000000000000000000000000000000000000000000000FFFFFFFF0000FF000000000000000000000000000000000000FFFFFFFFFFFFFF000000000000FF000000000000000000
310
00FFFFFFFFFFFFFFFF00000000000000000000000000FF000000FFFFFFFFFFFFFF000000000000000000000000000000000000000000FFFFFFFF000000000000000000000000000000000000000000000000000000000000000000000000000000000000000000000000000000000000000000000000000000000000000000
310
00000000000000000000000000000000000000000000000000000000000000000000000000000000000000000000000000000000000000000000000000000000000000000000000000000000000000000000000000000000000000000000000000000000000000000000000000000000000000000000000000000000000000
310
00000000000000000000000000000000000000000000000000000000000000000000000000000000000000000000000000000000000000000000000000000000000000000000000000000000000000000000000000000000000000000000000000000000000000000000000000000000000000000000000000000000000000
310
0000000000000000000000000000000000000000000000000000000000000000000000000000000000000000000000000000000000000000
  0
BLOCK_RECORD
  5
30
330
1B
100
AcDbSymbolTableRecord
100
AcDbBlockTableRecord
  2
_Dot
340
0
310
2800000020000000200000000100080000000000000400000000000000000000000000000000000000000000000080000080000000808000800000008000800080800000C0C0C000C0DCC000F0CAA6000020400000206000002080000020A0000020C0000020E00000400000004020000040400000406000004080000040A0
310
000040C0000040E00000600000006020000060400000606000006080000060A0000060C0000060E00000800000008020000080400000806000008080000080A0000080C0000080E00000A0000000A0200000A0400000A0600000A0800000A0A00000A0C00000A0E00000C0000000C0200000C0400000C0600000C0800000C0
310
A00000C0C00000C0E00000E0000000E0200000E0400000E0600000E0800000E0A00000E0C00000E0E00040000000400020004000400040006000400080004000A0004000C0004000E00040200000402020004020400040206000402080004020A0004020C0004020E000404000004040200040404000404060004040800040
310
40A0004040C0004040E00040600000406020004060400040606000406080004060A0004060C0004060E00040800000408020004080400040806000408080004080A0004080C0004080E00040A0000040A0200040A0400040A0600040A0800040A0A00040A0C00040A0E00040C0000040C0200040C0400040C0600040C08000
310
40C0A00040C0C00040C0E00040E0000040E0200040E0400040E0600040E0800040E0A00040E0C00040E0E00080000000800020008000400080006000800080008000A0008000C0008000E00080200000802020008020400080206000802080008020A0008020C0008020E00080400000804020008040400080406000804080
310
008040A0008040C0008040E00080600000806020008060400080606000806080008060A0008060C0008060E00080800000808020008080400080806000808080008080A0008080C0008080E00080A0000080A0200080A0400080A0600080A0800080A0A00080A0C00080A0E00080C0000080C0200080C0400080C0600080C0
310
800080C0A00080C0C00080C0E00080E0000080E0200080E0400080E0600080E0800080E0A00080E0C00080E0E000C0000000C0002000C0004000C0006000C0008000C000A000C000C000C000E000C0200000C0202000C0204000C0206000C0208000C020A000C020C000C020E000C0400000C0402000C0404000C0406000C0
310
408000C040A000C040C000C040E000C0600000C0602000C0604000C0606000C0608000C060A000C060C000C060E000C0800000C0802000C0804000C0806000C0808000C080A000C080C000C080E000C0A00000C0A02000C0A04000C0A06000C0A08000C0A0A000C0A0C000C0A0E000C0C00000C0C02000C0C04000C0C06000
310
C0C08000C0C0A000F0FBFF00A4A0A000808080000000FF0000FF000000FFFF00FF000000FF00FF00FFFF0000FFFFFF0000000000000000000000000000000000000000000000000000000000000000000000000000000000000000000000000000000000000000000000000000000000000000000000000000000000000000
310
000000000000000000FF000000000000000000000000000000000000000000000000000000000000FFFFFF00000000000000000000000000000000000000000000000000000000FF00FF00FF0000000000000000000000000000000000000000000000000000FF0000FF0000FF000000000000000000000000000000000000
310
000000000000FF000000FF000000FF00000000000000000000000000000000000000000000FF00000000FF00000000FF0000000000000000000000000000000000000000FF0000000000FF0000000000FF000000000000000000000000000000000000FF000000000000FF000000000000FF00000000000000000000000000
310
000000FF00000000000000FF00000000000000000000000000000000000000000000FF0000000000000000FF000000000000000000000000000000000000000000FF000000000000000000FF0000000000000000000000000000000000000000FF00000000000000000000FF00000000000000000000000000000000000000
310
FF00000000000000000000FFFFFF0000000000000000000000000000000000FF00000000000000000000FFFFFFFFFFFFFFFFFFFF00FFFFFFFFFFFFFFFFFFFFFFFFFFFFFFFFFFFFFFFFFFFFFFFFFFFF00000000000000000000000000000000FF0000000000000000000000FFFFFF0000000000000000000000000000000000
310
00FF0000000000000000000000FF0000000000000000000000000000000000000000FF00000000000000000000FF000000000000000000000000000000000000000000FF000000000000000000FF00000000000000000000000000000000000000000000FF0000000000000000FF0000000000000000000000000000000000
310
000000000000FFFF000000000000FF000000000000FF000000000000000000000000000000000000FF0000000000FF0000000000FF0000000000000000000000000000000000000000FF00000000FF00000000FF00000000000000000000000000000000000000000000FF000000FF000000FF000000000000000000000000
310
000000000000000000000000FF0000FF0000FF0000000000000000000000000000000000000000000000000000FF00FF00FF00000000000000000000000000000000000000000000000000000000FFFFFF000000000000000000000000000000000000000000000000000000000000FF000000000000000000000000000000
310
0000000000000000000000000000000000000000000000000000000000000000000000000000000000000000000000000000000000000000
102
{BLKREFS
331
AB
331
AC
331
B8
331
B9
331
CD
331
D9
331
DA
331
E9
331
EA
331
106
331
107
331
174
331
175
331
181
331
182
331
228
331
229
331
235
331
236
331
242
331
243
331
24E
331
25D
331
29F
331
2A0
331
2B3
331
2C4
331
2C5
331
2D1
331
2D2
331
2EE
331
2EF
331
2FB
331
2FC
331
318
331
319
331
325
331
326
331
34F
331
350
331
365
331
373
331
374
331
380
331
381
331
39D
331
39E
331
3AA
331
3AB
331
3B7
331
3B8
331
3C6
331
9E
331
9F
331
119
331
11A
331
CC
331
FA
331
F9
331
151
331
150
331
168
331
167
331
2B2
331
2E2
331
2E1
331
30C
331
30B
331
364
331
391
331
390
331
3C5
331
3D6
331
3D5
102
}
  0
BLOCK_RECORD
  5
7E
102
{ACAD_XDICTIONARY
360
7F
102
}
330
1B
100
AcDbSymbolTableRecord
100
AcDbBlockTableRecord
  2
A$C5D946DDC
340
0
310
2800000020000000200000000100080000000000000400000000000000000000000000000000000000000000000080000080000000808000800000008000800080800000C0C0C000C0DCC000F0CAA6000020400000206000002080000020A0000020C0000020E00000400000004020000040400000406000004080000040A0
310
000040C0000040E00000600000006020000060400000606000006080000060A0000060C0000060E00000800000008020000080400000806000008080000080A0000080C0000080E00000A0000000A0200000A0400000A0600000A0800000A0A00000A0C00000A0E00000C0000000C0200000C0400000C0600000C0800000C0
310
A00000C0C00000C0E00000E0000000E0200000E0400000E0600000E0800000E0A00000E0C00000E0E00040000000400020004000400040006000400080004000A0004000C0004000E00040200000402020004020400040206000402080004020A0004020C0004020E000404000004040200040404000404060004040800040
310
40A0004040C0004040E00040600000406020004060400040606000406080004060A0004060C0004060E00040800000408020004080400040806000408080004080A0004080C0004080E00040A0000040A0200040A0400040A0600040A0800040A0A00040A0C00040A0E00040C0000040C0200040C0400040C0600040C08000
310
40C0A00040C0C00040C0E00040E0000040E0200040E0400040E0600040E0800040E0A00040E0C00040E0E00080000000800020008000400080006000800080008000A0008000C0008000E00080200000802020008020400080206000802080008020A0008020C0008020E00080400000804020008040400080406000804080
310
008040A0008040C0008040E00080600000806020008060400080606000806080008060A0008060C0008060E00080800000808020008080400080806000808080008080A0008080C0008080E00080A0000080A0200080A0400080A0600080A0800080A0A00080A0C00080A0E00080C0000080C0200080C0400080C0600080C0
310
800080C0A00080C0C00080C0E00080E0000080E0200080E0400080E0600080E0800080E0A00080E0C00080E0E000C0000000C0002000C0004000C0006000C0008000C000A000C000C000C000E000C0200000C0202000C0204000C0206000C0208000C020A000C020C000C020E000C0400000C0402000C0404000C0406000C0
310
408000C040A000C040C000C040E000C0600000C0602000C0604000C0606000C0608000C060A000C060C000C060E000C0800000C0802000C0804000C0806000C0808000C080A000C080C000C080E000C0A00000C0A02000C0A04000C0A06000C0A08000C0A0A000C0A0C000C0A0E000C0C00000C0C02000C0C04000C0C06000
310
C0C08000C0C0A000F0FBFF00A4A0A000808080000000FF0000FF000000FFFF00FF000000FF00FF00FFFF0000FFFFFF0000000000000000000000000000000000000000000000000000000000000000000000000000000000000000000000000000000000000000000000000000000000000000000000000000000000000000
310
00000000000000000000000000000000000000000000000000000000000000000000000000000000000000000000000000000000000000000000000000000000000000000000000000000000000000000000000000000000000000000000000000000000000000000000000000000000000098FCFCFCFCFCFCFCFCFCFCFCFC
310
FCFCFCFCFCFCFCFCFCFCFCFCFCFCFCFC98000098FC0000000000000000000000000000000000000000000000000000FC98000098FC0000000000000000000000000000000000000000000000000000FC98000098FC0000000000000000000000000000000000000000000000000000FC98000098FC00000000000000000000
310
00000000000000000000000000000000FC98000098FC0000000000000000000000000000000000000000000000000000FC98000098FC0000000000000000000000000000000000000000000000000000FC98000098FC0000000000000000000000000000000000000000000000000000FC98000098FC000000000000000000
310
0000000000000000000000000000000000FC98000098FC0000000000000000000000000000000000000000000000000000FC98000098FC0000000000000000000000000000000000000000000000000000FC98000098FC0000000000000000000000000000000000000000000000000000FC98000098FC0000000000000000
310
000000000000000000000000000000000000FC98000098FC0000000000000000000000000000000000000000000000000000FC98000098FC0000000000000000000000000000000000000000000000000000FC98000098FC0000000000000000000000000000000000000000000000000000FC98000098FC00000000000000
310
00000000000000000000000000000000000000FC98000098FC0000000000000000000000000000000000000000000000000000FC98000098FC0000000000000000000000000000000000000000000000000000FC98000098FCFCFCFCFCFCFCFCFCFCFCFCFCFCFCFCFCFCFCFCFCFCFCFCFCFCFCFC9800000000000000000000
310
00000000000000000000000000000000000000000000000000000000000000000000000000000000000000000000000000000000000000000000000000000000000000000000000000000000000000000000000000000000000000000000000000000000000000000000000000000000000000000000000000000000000000
310
0000000000000000000000000000000000000000000000000000000000000000000000000000000000000000000000000000000000000000
102
{BLKREFS
331
7A
102
}
1001
ACAD
1000
DesignCenter Data
1002
{
1070
     1
1070
     4
1002
}
  0
BLOCK_RECORD
  5
3EA
330
1B
100
AcDbSymbolTableRecord
100
AcDbBlockTableRecord
  2
取付下地注釈
340
0
310
2800000020000000200000000100080000000000000400000000000000000000000000000000000000000000000080000080000000808000800000008000800080800000C0C0C000C0DCC000F0CAA6000020400000206000002080000020A0000020C0000020E00000400000004020000040400000406000004080000040A0
310
000040C0000040E00000600000006020000060400000606000006080000060A0000060C0000060E00000800000008020000080400000806000008080000080A0000080C0000080E00000A0000000A0200000A0400000A0600000A0800000A0A00000A0C00000A0E00000C0000000C0200000C0400000C0600000C0800000C0
310
A00000C0C00000C0E00000E0000000E0200000E0400000E0600000E0800000E0A00000E0C00000E0E00040000000400020004000400040006000400080004000A0004000C0004000E00040200000402020004020400040206000402080004020A0004020C0004020E000404000004040200040404000404060004040800040
310
40A0004040C0004040E00040600000406020004060400040606000406080004060A0004060C0004060E00040800000408020004080400040806000408080004080A0004080C0004080E00040A0000040A0200040A0400040A0600040A0800040A0A00040A0C00040A0E00040C0000040C0200040C0400040C0600040C08000
310
40C0A00040C0C00040C0E00040E0000040E0200040E0400040E0600040E0800040E0A00040E0C00040E0E00080000000800020008000400080006000800080008000A0008000C0008000E00080200000802020008020400080206000802080008020A0008020C0008020E00080400000804020008040400080406000804080
310
008040A0008040C0008040E00080600000806020008060400080606000806080008060A0008060C0008060E00080800000808020008080400080806000808080008080A0008080C0008080E00080A0000080A0200080A0400080A0600080A0800080A0A00080A0C00080A0E00080C0000080C0200080C0400080C0600080C0
310
800080C0A00080C0C00080C0E00080E0000080E0200080E0400080E0600080E0800080E0A00080E0C00080E0E000C0000000C0002000C0004000C0006000C0008000C000A000C000C000C000E000C0200000C0202000C0204000C0206000C0208000C020A000C020C000C020E000C0400000C0402000C0404000C0406000C0
310
408000C040A000C040C000C040E000C0600000C0602000C0604000C0606000C0608000C060A000C060C000C060E000C0800000C0802000C0804000C0806000C0808000C080A000C080C000C080E000C0A00000C0A02000C0A04000C0A06000C0A08000C0A0A000C0A0C000C0A0E000C0C00000C0C02000C0C04000C0C06000
310
C0C08000C0C0A000F0FBFF00A4A0A000808080000000FF0000FF000000FFFF00FF000000FF00FF00FFFF0000FFFFFF0000000000000000000000000000000000000000000000000000000000000000000000000000000000000000000000000000000000000000000000000000000000000000000000000000000000000000
310
00000000000000000000000000000000000000000000000808080808080808080808080808080808080808000000000000000000000808000000000000000000000000000000000000000008080000000000000008000000000000000000000000000000000000000000000000080000000000080000000008080808080808
310
08080000000000080000080000000008000000000800000000080808080808080808080808080808080808000000000008000008000000000808080808080808080800080800080808080808000000000800000800000000000808080808080808080808080808080808080000000000080000080000000000080808080008
310
08080000000000000800000800000000000800000800000000000000000000000000000000000008000000000000000000080000080000080808080808080808080808080800000808080808080808000008000008000000080800080008000008080808080008080808080808080000000800000800000808080808080808
310
08080808080808000808080808080808000008000008000008080808080808000000000000000800080008080808080000000800000800000000000000000000000000000000000000000000000000000000080000080000000000000000080808080808080008080808000000000000000008000008000000000000000008
310
08080800080800080808080000000000000000080000080000000000000000080808080008080008080808000000000000000008000008000000000000000008080808000000000808080800000000000000000800000800000000000000000000000000000000000000000000000000000000080000080000000008080808
310
08080808000808000808080808080800000000000800000800000000080808080808080800080808080808080808080000000000080000000800000008080808080808080808080808080808080808080000000008000000080000000808080000080808080808080808080008080800000000080000000000080000000000
310
00000000000000000000000000000000000000080000000000000008000000000000000000000000000000000000000000000800000000000000000008080808080808080808080808080808080808080808000000000000000000000000000000000000000000000000000000000000000000000000000000000000000000
310
0000000000000000000000000000000000000000000000000000000000000000000000000000000000000000000000000000000000000000
102
{BLKREFS
331
3E9
102
}
  0
BLOCK_RECORD
  5
1D7
330
1B
100
AcDbSymbolTableRecord
100
AcDbBlockTableRecord
  2
B_OPEN_750
340
0
310
28000000200000002000000001002000000000000010000001000000010000000000000000000000302821FF302821FF302821FF302821FF302821FF302821FF302821FF302821FF302821FF302821FF302821FF302821FF302821FF302821FF302821FF302821FF302821FF302821FF302821FF302821FF302821FF302821
310
FF302821FF302821FF302821FF302821FF302821FF302821FF302821FF302821FF302821FF302821FF302821FF302821FFFF00FFFF302821FF302821FF302821FF302821FF302821FF302821FF302821FF302821FF302821FF302821FF302821FF302821FF302821FF302821FF302821FF302821FF302821FF302821FF3028
310
21FF302821FF302821FF302821FF302821FF302821FFFF00FFFF302821FF302821FF302821FF302821FF302821FF302821FFFF00FFFFBF7FFFFF302821FF302821FF302821FF302821FF302821FF302821FF302821FF302821FF302821FF302821FF302821FF302821FF302821FF302821FF302821FF302821FF302821FF30
310
2821FF302821FF302821FF302821FF302821FFBF7FFFFFFF00FFFF302821FF302821FF302821FF302821FF302821FF302821FFFF00FFFF302821FFBF7FFFFF302821FF302821FF302821FF302821FF302821FF302821FF302821FF302821FF302821FF302821FF302821FF302821FF302821FF302821FF302821FF302821FF
310
302821FF302821FF302821FF302821FFBF7FFFFF302821FFFF00FFFF302821FF302821FF302821FF302821FF302821FF302821FFFF00FFFF302821FF302821FFBF7FFFFFBF7FFFFF302821FF302821FF302821FF302821FF302821FF302821FF302821FF302821FF302821FF302821FF302821FF302821FF302821FF302821
310
FF302821FF302821FF302821FFBF7FFFFF302821FF302821FFFF00FFFF302821FF302821FF302821FF302821FF302821FF302821FFFF00FFFF302821FF302821FF302821FF302821FFBF7FFFFF302821FF302821FF302821FF302821FF302821FF302821FF302821FF302821FF302821FF302821FF302821FF302821FF3028
310
21FF302821FFBF7FFFFFBF7FFFFF302821FF302821FF302821FFFF00FFFF302821FF302821FF302821FF302821FF302821FF302821FFFF00FFFF302821FF302821FF302821FF302821FF302821FFBF7FFFFF302821FF302821FF302821FF302821FF302821FF302821FF302821FF302821FF302821FF302821FF302821FF30
310
2821FFBF7FFFFF302821FF302821FF302821FF302821FF302821FFFF00FFFF302821FF302821FF302821FF302821FF302821FF302821FFFF00FFFF302821FF302821FF302821FF302821FF302821FF302821FFBF7FFFFF302821FF302821FF302821FF302821FF302821FF302821FF302821FF302821FF302821FF302821FF
310
BF7FFFFF302821FF302821FF302821FF302821FF302821FF302821FFFF00FFFF302821FF302821FF302821FF302821FF302821FF302821FFFF00FFFF302821FF302821FF302821FF302821FF302821FF302821FF302821FFBF7FFFFF302821FF302821FF302821FF302821FF302821FF302821FF302821FF302821FFBF7FFF
310
FF302821FF302821FF302821FF302821FF302821FF302821FF302821FFFF00FFFF302821FF302821FF302821FF302821FF302821FF302821FFFF00FFFF302821FF302821FF302821FF302821FF302821FF302821FF302821FF302821FFBF7FFFFFBF7FFFFF302821FF302821FF302821FF302821FF302821FFBF7FFFFF3028
310
21FF302821FF302821FF302821FF302821FF302821FF302821FF302821FFFF00FFFF302821FF302821FF302821FF302821FF302821FF302821FFFF00FFFF302821FF302821FF302821FF302821FF302821FF302821FF302821FF302821FF302821FF302821FFBF7FFFFF302821FF302821FF302821FFBF7FFFFF302821FF30
310
2821FF302821FF302821FF302821FF302821FF302821FF302821FF302821FFFF00FFFF302821FF302821FF302821FF302821FF302821FF302821FFFF00FFFF302821FF302821FF302821FF302821FF302821FF302821FF302821FF302821FF302821FF302821FF302821FFBF7FFFFF302821FFBF7FFFFF302821FF302821FF
310
302821FF302821FF302821FF302821FF302821FF302821FF302821FF302821FFFF00FFFF302821FF302821FF302821FF302821FF302821FF302821FFFF00FFFF302821FF302821FF302821FF302821FF302821FF302821FF302821FF302821FF302821FF302821FF302821FFBF7FFFFFBF7FFFFF302821FF302821FF302821
310
FF302821FF302821FF302821FF302821FF302821FF302821FF302821FF302821FFFF00FFFF302821FF302821FF302821FF302821FF302821FF302821FFFF00FFFF302821FF302821FF302821FF302821FF302821FF302821FF302821FF302821FF302821FF302821FFBF7FFFFF302821FF302821FFBF7FFFFF302821FF3028
310
21FF302821FF302821FF302821FF302821FF302821FF302821FF302821FF302821FFFF00FFFF302821FF302821FF302821FF302821FF302821FF302821FFFF00FFFF302821FF302821FF302821FF302821FF302821FF302821FF302821FF302821FF302821FFBF7FFFFF302821FF302821FF302821FF302821FFBF7FFFFFBF
310
7FFFFF302821FF302821FF302821FF302821FF302821FF302821FF302821FF302821FFFF00FFFF302821FF302821FF302821FF302821FF302821FF302821FFFF00FFFF302821FF302821FF302821FF302821FF302821FF302821FF302821FF302821FFBF7FFFFF302821FF302821FF302821FF302821FF302821FF302821FF
310
302821FFBF7FFFFF302821FF302821FF302821FF302821FF302821FF302821FF302821FFFF00FFFF302821FF302821FF302821FF302821FF302821FF302821FFFF00FFFF302821FF302821FF302821FF302821FF302821FF302821FF302821FFBF7FFFFF302821FF302821FF302821FF302821FF302821FF302821FF302821
310
FF302821FF302821FFBF7FFFFF302821FF302821FF302821FF302821FF302821FF302821FFFF00FFFF302821FF302821FF302821FF302821FF302821FF302821FFFF00FFFF302821FF302821FF302821FF302821FF302821FF302821FFBF7FFFFF302821FF302821FF302821FF302821FF302821FF302821FF302821FF3028
310
21FF302821FF302821FF302821FFBF7FFFFF302821FF302821FF302821FF302821FF302821FFFF00FFFF302821FF302821FF302821FF302821FF302821FF302821FFFF00FFFF302821FF302821FF302821FF302821FF302821FFBF7FFFFF302821FF302821FF302821FF302821FF302821FF302821FF302821FF302821FF30
310
2821FF302821FF302821FF302821FF302821FFBF7FFFFF302821FF302821FF302821FF302821FFFF00FFFF302821FF302821FF302821FF302821FF302821FF302821FFFF00FFFF302821FF302821FF302821FFBF7FFFFFBF7FFFFF302821FF302821FF302821FF302821FF302821FF302821FF302821FF302821FF302821FF
310
302821FF302821FF302821FF302821FF302821FF302821FFBF7FFFFFBF7FFFFF302821FF302821FFFF00FFFF302821FF302821FF302821FF302821FF302821FF302821FFFF00FFFF302821FF302821FFBF7FFFFF302821FF302821FF302821FF302821FF302821FF302821FF302821FF302821FF302821FF302821FF302821
310
FF302821FF302821FF302821FF302821FF302821FF302821FF302821FF302821FFBF7FFFFF302821FFFF00FFFF302821FF302821FF302821FF302821FF302821FF302821FFFF00FFFF302821FFBF7FFFFF302821FF302821FF302821FF302821FF302821FF302821FF302821FF302821FF302821FF302821FF302821FF3028
310
21FF302821FF302821FF302821FF302821FF302821FF302821FF302821FF302821FF302821FFBF7FFFFFFF00FFFF302821FF302821FF302821FF302821FF302821FF302821FFFF00FFFFFF00FFFFFF00FFFFFF00FFFFFF00FFFFFF00FFFFFF00FFFFFF00FFFFFF00FFFFFF00FFFFFF00FFFFFF00FFFFFF00FFFFFF00FFFFFF
310
00FFFFFF00FFFFFF00FFFFFF00FFFFFF00FFFFFF00FFFFFF00FFFFFF00FFFFFF00FFFFFF00FFFFFF00FFFFFF00FFFF302821FF302821FF302821FF302821FF302821FF302821FFBF7FFFFFFF00FFFFFF00FFFFFF00FFFFFF00FFFFFF00FFFFFF00FFFFFF00FFFFFF00FFFFFF00FFFFFF00FFFFFF00FFFFFF00FFFFFF00FFFF
310
FF00FFFFFF00FFFFFF00FFFFFF00FFFFFF00FFFFFF00FFFFFF00FFFFFF00FFFFFF00FFFFFF00FFFFFF00FFFFFF00FFFF302821FF302821FF302821FF302821FF302821FF302821FFFF00FFFF5252A5FF5252A5FF5252A5FF5252A5FF5252A5FF5252A5FF5252A5FF5252A5FF5252A5FF5252A5FF5252A5FF5252A5FF5252A5
310
FF5252A5FF5252A5FF5252A5FF5252A5FF5252A5FF5252A5FF5252A5FF5252A5FF5252A5FF5252A5FF5252A5FFFF00FFFF302821FF302821FF302821FF302821FF302821FF302821FFFF00FFFF5252A5FF302821FFBF7FFFFFBF7FFFFF302821FF302821FF302821FF302821FF302821FF302821FF302821FF5252A5FF5252
310
A5FF302821FF302821FFBF7FFFFFBF7FFFFF302821FF302821FF302821FF302821FF302821FF302821FF5252A5FFFF00FFFF302821FF302821FF302821FF302821FF302821FF302821FFFF00FFFF5252A5FF302821FF302821FF302821FFBF7FFFFFBF7FFFFF302821FF302821FF302821FF302821FF302821FF5252A5FF52
310
52A5FF302821FF302821FF302821FF302821FFBF7FFFFFBF7FFFFF302821FF302821FF302821FF302821FF5252A5FFFF00FFFF302821FF302821FF302821FF302821FF302821FF302821FFFF00FFFF5252A5FF5252A5FF5252A5FF5252A5FF5252A5FF5252A5FF5252A5FF5252A5FF5252A5FF5252A5FF5252A5FF5252A5FF
310
5252A5FF5252A5FF5252A5FF5252A5FF5252A5FF5252A5FF5252A5FF5252A5FF5252A5FF5252A5FF5252A5FF5252A5FFFF00FFFF302821FF302821FF302821FF302821FF302821FF302821FFFF00FFFF302821FF302821FFFF00FFFFFF00FFFFFF00FFFFFF00FFFFFF00FFFFFF00FFFFFF00FFFFBF7FFFFF302821FF302821
310
FFFF00FFFF302821FF302821FFFF00FFFFFF00FFFFFF00FFFFFF00FFFFFF00FFFFFF00FFFFFF00FFFF302821FF302821FFFF00FFFF302821FF302821FF302821FF302821FF302821FF302821FFFF00FFFF302821FF302821FFFF00FFFFFF00FFFFFF00FFFFFF00FFFFFF00FFFFFF00FFFFFF00FFFF302821FFBF7FFFFFBF7F
310
FFFFFF00FFFF302821FF302821FFFF00FFFFFF00FFFFFF00FFFFFF00FFFFFF00FFFFFF00FFFFFF00FFFFBF7FFFFFBF7FFFFFFF00FFFF302821FF302821FF302821FF302821FF302821FF302821FFFF00FFFFFF00FFFFFF00FFFFFF00FFFFFF00FFFFFF00FFFFFF00FFFFFF00FFFFFF00FFFFFF00FFFFFF00FFFFFF00FFFFFF
310
00FFFFFF00FFFFFF00FFFFFF00FFFFFF00FFFFFF00FFFFFF00FFFFFF00FFFFFF00FFFFFF00FFFFFF00FFFFFF00FFFFFF00FFFFFF00FFFF302821FF302821FF302821FF302821FF302821FF302821FF302821FF302821FF302821FF302821FF302821FF302821FF302821FF302821FF302821FF302821FF302821FF302821FF
310
302821FF302821FF302821FF302821FF302821FF302821FF302821FF302821FF302821FF302821FF302821FF302821FF302821FF302821FF302821FF302821FF302821FF302821FF
102
{BLKREFS
331
1D6
102
}
  0
BLOCK_RECORD
  5
1F7
330
1B
100
AcDbSymbolTableRecord
100
AcDbBlockTableRecord
  2
B_KADEN_750
340
0
310
2800000020000000200000000100080000000000000400000000000000000000000000000000000000000000000080000080000000808000800000008000800080800000C0C0C000C0DCC000F0CAA6000020400000206000002080000020A0000020C0000020E00000400000004020000040400000406000004080000040A0
310
000040C0000040E00000600000006020000060400000606000006080000060A0000060C0000060E00000800000008020000080400000806000008080000080A0000080C0000080E00000A0000000A0200000A0400000A0600000A0800000A0A00000A0C00000A0E00000C0000000C0200000C0400000C0600000C0800000C0
310
A00000C0C00000C0E00000E0000000E0200000E0400000E0600000E0800000E0A00000E0C00000E0E00040000000400020004000400040006000400080004000A0004000C0004000E00040200000402020004020400040206000402080004020A0004020C0004020E000404000004040200040404000404060004040800040
310
40A0004040C0004040E00040600000406020004060400040606000406080004060A0004060C0004060E00040800000408020004080400040806000408080004080A0004080C0004080E00040A0000040A0200040A0400040A0600040A0800040A0A00040A0C00040A0E00040C0000040C0200040C0400040C0600040C08000
310
40C0A00040C0C00040C0E00040E0000040E0200040E0400040E0600040E0800040E0A00040E0C00040E0E00080000000800020008000400080006000800080008000A0008000C0008000E00080200000802020008020400080206000802080008020A0008020C0008020E00080400000804020008040400080406000804080
310
008040A0008040C0008040E00080600000806020008060400080606000806080008060A0008060C0008060E00080800000808020008080400080806000808080008080A0008080C0008080E00080A0000080A0200080A0400080A0600080A0800080A0A00080A0C00080A0E00080C0000080C0200080C0400080C0600080C0
310
800080C0A00080C0C00080C0E00080E0000080E0200080E0400080E0600080E0800080E0A00080E0C00080E0E000C0000000C0002000C0004000C0006000C0008000C000A000C000C000C000E000C0200000C0202000C0204000C0206000C0208000C020A000C020C000C020E000C0400000C0402000C0404000C0406000C0
310
408000C040A000C040C000C040E000C0600000C0602000C0604000C0606000C0608000C060A000C060C000C060E000C0800000C0802000C0804000C0806000C0808000C080A000C080C000C080E000C0A00000C0A02000C0A04000C0A06000C0A08000C0A0A000C0A0C000C0A0E000C0C00000C0C02000C0C04000C0C06000
310
C0C08000C0C0A000F0FBFF00A4A0A000808080000000FF0000FF000000FFFF00FF000000FF00FF00FFFF0000FFFFFF000000000000000000000000000000000000000000000000000000000000000000000000000000000000000000000000000000000000000000000000000000000000E7E7FDFDFDFDFDFDFDFDFDFDFDFD
310
FDFDFDFDFDFDFDFDFDFDFDFDFDFDFDFD0000FD009E9E9E9E9E9E9E9E9E9E9E9E9E9E9E9E9E9E9E9E9E9E9E9E9E9E00FD0000FD009E00E7E7E700000000000000000000000000000000000000009E00FD0000FD009E00000000E7E7E700000000000000000000000000000000009E00FD0000FD009E00000000000000E7E700
310
00000000000000000000000000009E00FD0000FD009E000000000000000000E7E7E70000000000000000000000009E00FD0000FD009E9E9E9E9E9E9E9E9E9E9E9E9E9E9E9E9E9E9E9E9E9E9E9E9E9E00FD0000FD0000000000000000000000000000000000E7E7000000000000000000FD0000FD0000000000000000000000
310
0000000000000000E7E7E7000000000000FD0000FD00000000000000000000000000000000000000000000E7E7E7000000FD0000FD0000000000000000FDFDFDFDFDFDFDFDFDFDFDFD0000000000E7E700FD0000E7E7E7E7E7FDFDFDFDFDFDFDFDFDFDFDFDFDFDFDFDFDFDFDFDFDFDFDE7E70000FD00000000E7E7E7E7E7E7
310
E7E7E7E70000000000000000000000000000FD0000FD009E9E9E9E9E9E9E9E9E9E9E9E9E9E9E9E9E9E9E9E9E9E9E9E9E9E00FD0000FDFD9E9E9E9E9E9E9E9E9E9E9E9E9E9E9E9E9E9E9E9E9E9E9E9E9E9EE7E70000FDFD0000000000000000000000000000000000000000000000EC0000FDFD0000FDFD0000000000000000
310
0000000000000000000000000000F7EC0000FDFD0000FDFD00000000000000000000000000000000000000000000F7ECF700FDFD0000FDFD0000000000000000000000000000000000000000ECECECECECECECFD0000FDFD00000000000000000000000000000000000000000000F7ECF700FDFD0000FDFD00000000000000
310
000000000000000000000000000000F7ECF700FDFD0000FDFD0000000000000000000000000000000000000000000000EC0000FDFD0000FDFD0000000000000000000000000000000000000000000000000000FDFD0000FDFD0000000000000000000000000000000000000000000000000000FDFD0000FDFD000000000000
310
0000000000000000000000000000000000000000FDFD0000FDFD0000000000000000000000000000000000000000000000000000FDFD0000FDFDFDFDFDFDFDFDFDFDFDFDFDFDFDFDFDFDFDFDFDFDFDFDFDFDFDFDFDFD0000FDFDFDFDFDFDFDFDFDFDFDFDFDFDFDFDFDFDFDFDFDFDFDFDFDFDFDFDFDFD000000000000000000
310
0000000000000000000000000000000000000000000000000000000000000000000000000000000000000000000000000000000000000000
102
{BLKREFS
331
1F6
102
}
  0
BLOCK_RECORD
  5
254
330
1B
100
AcDbSymbolTableRecord
100
AcDbBlockTableRecord
  2
_None
340
0
  0
BLOCK_RECORD
  5
99
330
1B
100
AcDbSymbolTableRecord
100
AcDbBlockTableRecord
  2
*D1048
340
0
  0
BLOCK_RECORD
  5
A6
330
1B
100
AcDbSymbolTableRecord
100
AcDbBlockTableRecord
  2
*D1049
340
0
  0
BLOCK_RECORD
  5
B3
330
1B
100
AcDbSymbolTableRecord
100
AcDbBlockTableRecord
  2
*D1050
340
0
  0
BLOCK_RECORD
  5
C5
330
1B
100
AcDbSymbolTableRecord
100
AcDbBlockTableRecord
  2
*D1051
340
0
  0
BLOCK_RECORD
  5
D4
330
1B
100
AcDbSymbolTableRecord
100
AcDbBlockTableRecord
  2
*D1052
340
0
  0
BLOCK_RECORD
  5
E1
330
1B
100
AcDbSymbolTableRecord
100
AcDbBlockTableRecord
  2
*D1053
340
0
  0
BLOCK_RECORD
  5
F1
330
1B
100
AcDbSymbolTableRecord
100
AcDbBlockTableRecord
  2
*D1054
340
0
  0
BLOCK_RECORD
  5
101
330
1B
100
AcDbSymbolTableRecord
100
AcDbBlockTableRecord
  2
*D1055
340
0
  0
BLOCK_RECORD
  5
114
330
1B
100
AcDbSymbolTableRecord
100
AcDbBlockTableRecord
  2
*D1056
340
0
  0
BLOCK_RECORD
  5
148
330
1B
100
AcDbSymbolTableRecord
100
AcDbBlockTableRecord
  2
*D1057
340
0
  0
BLOCK_RECORD
  5
15F
330
1B
100
AcDbSymbolTableRecord
100
AcDbBlockTableRecord
  2
*D1058
340
0
  0
BLOCK_RECORD
  5
16F
330
1B
100
AcDbSymbolTableRecord
100
AcDbBlockTableRecord
  2
*D1059
340
0
  0
BLOCK_RECORD
  5
17C
330
1B
100
AcDbSymbolTableRecord
100
AcDbBlockTableRecord
  2
*D1060
340
0
  0
BLOCK_RECORD
  5
223
330
1B
100
AcDbSymbolTableRecord
100
AcDbBlockTableRecord
  2
*D1061
340
0
  0
BLOCK_RECORD
  5
230
330
1B
100
AcDbSymbolTableRecord
100
AcDbBlockTableRecord
  2
*D1062
340
0
  0
BLOCK_RECORD
  5
23D
330
1B
100
AcDbSymbolTableRecord
100
AcDbBlockTableRecord
  2
*D1063
340
0
  0
BLOCK_RECORD
  5
24A
330
1B
100
AcDbSymbolTableRecord
100
AcDbBlockTableRecord
  2
*D1064
340
0
  0
BLOCK_RECORD
  5
259
330
1B
100
AcDbSymbolTableRecord
100
AcDbBlockTableRecord
  2
*D1065
340
0
  0
BLOCK_RECORD
  5
264
330
1B
100
AcDbSymbolTableRecord
100
AcDbBlockTableRecord
  2
*D1068
340
0
  0
BLOCK_RECORD
  5
270
330
1B
100
AcDbSymbolTableRecord
100
AcDbBlockTableRecord
  2
*D1069
340
0
  0
BLOCK_RECORD
  5
29A
330
1B
100
AcDbSymbolTableRecord
100
AcDbBlockTableRecord
  2
*D1096
340
0
  0
BLOCK_RECORD
  5
2AC
330
1B
100
AcDbSymbolTableRecord
100
AcDbBlockTableRecord
  2
*D1097
340
0
  0
BLOCK_RECORD
  5
2BF
330
1B
100
AcDbSymbolTableRecord
100
AcDbBlockTableRecord
  2
*D1100
340
0
  0
BLOCK_RECORD
  5
2CC
330
1B
100
AcDbSymbolTableRecord
100
AcDbBlockTableRecord
  2
*D1101
340
0
  0
BLOCK_RECORD
  5
2D9
330
1B
100
AcDbSymbolTableRecord
100
AcDbBlockTableRecord
  2
*D1102
340
0
  0
BLOCK_RECORD
  5
2E9
330
1B
100
AcDbSymbolTableRecord
100
AcDbBlockTableRecord
  2
*D1103
340
0
  0
BLOCK_RECORD
  5
2F6
330
1B
100
AcDbSymbolTableRecord
100
AcDbBlockTableRecord
  2
*D1104
340
0
  0
BLOCK_RECORD
  5
303
330
1B
100
AcDbSymbolTableRecord
100
AcDbBlockTableRecord
  2
*D1105
340
0
  0
BLOCK_RECORD
  5
313
330
1B
100
AcDbSymbolTableRecord
100
AcDbBlockTableRecord
  2
*D1106
340
0
  0
BLOCK_RECORD
  5
320
330
1B
100
AcDbSymbolTableRecord
100
AcDbBlockTableRecord
  2
*D1107
340
0
  0
BLOCK_RECORD
  5
34A
330
1B
100
AcDbSymbolTableRecord
100
AcDbBlockTableRecord
  2
*D1109
340
0
  0
BLOCK_RECORD
  5
35E
330
1B
100
AcDbSymbolTableRecord
100
AcDbBlockTableRecord
  2
*D1110
340
0
  0
BLOCK_RECORD
  5
36E
330
1B
100
AcDbSymbolTableRecord
100
AcDbBlockTableRecord
  2
*D1111
340
0
  0
BLOCK_RECORD
  5
37B
330
1B
100
AcDbSymbolTableRecord
100
AcDbBlockTableRecord
  2
*D1112
340
0
  0
BLOCK_RECORD
  5
388
330
1B
100
AcDbSymbolTableRecord
100
AcDbBlockTableRecord
  2
*D1113
340
0
  0
BLOCK_RECORD
  5
398
330
1B
100
AcDbSymbolTableRecord
100
AcDbBlockTableRecord
  2
*D1114
340
0
  0
BLOCK_RECORD
  5
3A5
330
1B
100
AcDbSymbolTableRecord
100
AcDbBlockTableRecord
  2
*D1115
340
0
  0
BLOCK_RECORD
  5
3B2
330
1B
100
AcDbSymbolTableRecord
100
AcDbBlockTableRecord
  2
*D1116
340
0
  0
BLOCK_RECORD
  5
3BF
330
1B
100
AcDbSymbolTableRecord
100
AcDbBlockTableRecord
  2
*D1117
340
0
  0
BLOCK_RECORD
  5
3CD
330
1B
100
AcDbSymbolTableRecord
100
AcDbBlockTableRecord
  2
*D1118
340
0
  0
ENDTAB
  0
ENDSEC
  0
SECTION
  2
BLOCKS
  0
BLOCK
  5
1F
330
1C
100
AcDbEntity
  8
0
100
AcDbBlockBegin
  2
*MODEL_SPACE
 70
     0
 10
0.0
 20
0.0
 30
0.0
  3
*MODEL_SPACE
  1
*MODEL_SPACE
  0
ENDBLK
  5
23
330
1C
100
AcDbEntity
  8
0
100
AcDbBlockEnd
  0
BLOCK
  5
28
330
27
100
AcDbEntity
 67
     1
  8
0
100
AcDbBlockBegin
  2
*PAPER_SPACE
 70
     0
 10
0.0
 20
0.0
 30
0.0
  3
*PAPER_SPACE
  1
*PAPER_SPACE
  0
ENDBLK
  5
29
330
27
100
AcDbEntity
 67
     1
  8
0
100
AcDbBlockEnd
  0
BLOCK
  5
2B
330
1A
100
AcDbEntity
  8
0
100
AcDbBlockBegin
  2
_ClosedBlank
 70
     0
 10
0.0
 20
0.0
 30
0.0
  3
_ClosedBlank
  1
_ClosedBlank
  0
LINE
  5
2C
330
1A
100
AcDbEntity
  8
0
  6
ByBlock
 62
     0
370
    -2
100
AcDbLine
 10
-1.0
 20
0.1666666666666667
 30
0.0
 11
0.0
 21
0.0
 31
0.0
  0
LINE
  5
2D
330
1A
100
AcDbEntity
  8
0
  6
ByBlock
 62
     0
370
    -2
100
AcDbLine
 10
0.0
 20
0.0
 30
0.0
 11
-1.0
 21
-0.1666666666666667
 31
0.0
  0
LINE
  5
2E
330
1A
100
AcDbEntity
  8
0
  6
ByBlock
 62
     0
370
    -2
100
AcDbLine
 10
-1.0
 20
0.1666666666666667
 30
0.0
 11
-1.0
 21
-0.1666666666666667
 31
0.0
  0
ENDBLK
  5
2F
330
1A
100
AcDbEntity
  8
0
100
AcDbBlockEnd
  0
BLOCK
  5
31
330
30
100
AcDbEntity
  8
0
100
AcDbBlockBegin
  2
_Dot
 70
     0
 10
0.0
 20
0.0
 30
0.0
  3
_Dot
  1
_Dot
  0
LWPOLYLINE
  5
32
330
30
100
AcDbEntity
  8
0
  6
ByBlock
 62
     0
100
AcDbPolyline
 90
        2
 70
     1
 43
0.5
 10
-0.25
 20
0.0
 42
1.0
 10
0.25
 20
0.0
 42
1.0
  0
LINE
  5
34
330
30
100
AcDbEntity
  8
0
  6
ByBlock
 62
     0
370
    -2
100
AcDbLine
 10
-0.5
 20
0.0
 30
0.0
 11
-1.0
 21
0.0
 31
0.0
  0
ENDBLK
  5
35
330
30
100
AcDbEntity
  8
0
100
AcDbBlockEnd
  0
BLOCK
  5
81
330
7E
100
AcDbEntity
  8
0
100
AcDbBlockBegin
  2
A$C5D946DDC
 70
     0
 10
0.0
 20
0.0
 30
0.0
  3
A$C5D946DDC
  1
A$C5D946DDC
  0
LWPOLYLINE
  5
82
330
7E
100
AcDbEntity
  8
DEFPOINTS
100
AcDbPolyline
 90
        4
 70
     1
 43
0.0
 10
0.0
 20
0.0
 10
20789.97878787337
 20
0.0
 10
20789.97878787337
 20
14699.99999999618
 10
0.0
 20
14699.99999999618
  0
LINE
  5
84
330
7E
100
AcDbEntity
  8
190-図面外枠
100
AcDbLine
 10
270.9727272700184
 20
14349.33333333142
 30
0.0
 11
20519.00606060335
 21
14349.33333333142
 31
0.0
  0
LINE
  5
85
330
7E
100
AcDbEntity
  8
190-図面外枠
100
AcDbLine
 10
20519.00606060335
 20
14349.33333333142
 30
0.0
 11
20519.00606060335
 21
350.6666666647579
 31
0.0
  0
LINE
  5
86
330
7E
100
AcDbEntity
  8
190-図面外枠
100
AcDbLine
 10
20519.00606060335
 20
350.6666666647579
 30
0.0
 11
270.9727272700184
 21
350.6666666647579
 31
0.0
  0
LINE
  5
87
330
7E
100
AcDbEntity
  8
190-図面外枠
100
AcDbLine
 10
270.9727272700184
 20
350.6666666647579
 30
0.0
 11
270.9727272700184
 21
14349.33333333142
 31
0.0
  0
ENDBLK
  5
88
330
7E
100
AcDbEntity
  8
0
100
AcDbBlockEnd
  0
BLOCK
  5
3EB
330
3EA
100
AcDbEntity
  8
0
100
AcDbBlockBegin
  2
取付下地注釈
 70
     0
 10
0.0
 20
0.0
 30
0.0
  3
取付下地注釈
  1
取付下地注釈
  0
MTEXT
  5
3EC
330
3EA
100
AcDbEntity
  8
160-文字
100
AcDbMText
 10
0.0
 20
-240.4792316188104
 30
0.0
 40
60.0
 41
0.0
 71
     5
 72
     1
  1
\A1;取付下地材\P30×90\P又はｺﾝﾊﾟﾈ12t\P（建築工事）
 73
     1
 44
1.0
  0
LWPOLYLINE
  5
3ED
330
3EA
100
AcDbEntity
  8
160-文字
100
AcDbPolyline
 90
        8
 70
     1
 43
0.0
 10
-181.8609081803297
 20
0.0
 10
181.8609081803297
 20
0.0
 42
-0.414213562373095
 10
281.8609081803297
 20
-100.0
 10
281.8609081803588
 20
-380.9584632376136
 42
-0.4142135623731174
 10
181.8609081803588
 20
-480.9584632376209
 10
-181.8609081803588
 20
-480.9584632376191
 42
-0.4142135623731174
 10
-281.8609081803588
 20
-380.9584632376118
 10
-281.8609081803297
 20
-100.0
 42
-0.414213562373095
  0
ENDBLK
  5
3EE
330
3EA
100
AcDbEntity
  8
0
100
AcDbBlockEnd
  0
BLOCK
  5
1D8
330
1D7
100
AcDbEntity
  8
0
100
AcDbBlockBegin
  2
B_OPEN_750
 70
     0
 10
0.0
 20
0.0
 30
0.0
  3
B_OPEN_750
  1
B_OPEN_750
  0
LINE
  5
1D9
330
1D7
100
AcDbEntity
  8
123-扉向き
 48
2.0
100
AcDbLine
 10
374.9999921557028
 20
0.0
 30
0.0
 11
-0.0012046126648784
 21
-184.9999698999454
 31
0.0
  0
LINE
  5
1DE
330
1D7
100
AcDbEntity
  8
123-扉向き
 48
2.0
100
AcDbLine
 10
749.9987953873351
 20
0.0
 30
0.0
 11
374.9987953873351
 21
-184.9999698999454
 31
0.0
  0
LINE
  5
1DF
330
1D7
100
AcDbEntity
  8
122-扉
100
AcDbLine
 10
-0.0012046126648784
 20
-184.9999698999454
 30
0.0
 11
0.0011889240704477
 21
-820.0
 31
0.0
  0
LINE
  5
1E0
330
1D7
100
AcDbEntity
  8
122-扉
100
AcDbLine
 10
374.9987953873351
 20
-184.9999698999454
 30
0.0
 11
374.9999921557028
 21
0.0
 31
0.0
  0
LINE
  5
1E1
330
1D7
100
AcDbEntity
  8
122-扉
100
AcDbLine
 10
0.0
 20
0.0
 30
0.0
 11
-0.0012046126648784
 21
-184.9999698999454
 31
0.0
  0
LINE
  5
1E2
330
1D7
100
AcDbEntity
  8
122-扉
100
AcDbLine
 10
374.9987953873351
 20
-184.9999698999454
 30
0.0
 11
749.9975986189675
 21
-184.9999698999454
 31
0.0
  0
LINE
  5
1E3
330
1D7
100
AcDbEntity
  8
122-扉
100
AcDbLine
 10
749.9975986189675
 20
-184.9999698999454
 30
0.0
 11
-0.0012045936891809
 21
-184.9970397605539
 31
0.0
  0
LINE
  5
1E4
330
1D7
100
AcDbEntity
  8
122-扉
100
AcDbLine
 10
374.9987953873351
 20
-184.9999698999454
 30
0.0
 11
374.9999921557028
 21
0.0
 31
0.0
  0
LINE
  5
1E5
330
1D7
100
AcDbEntity
  8
122-扉
100
AcDbLine
 10
0.0
 20
0.0
 30
0.0
 11
749.9987953873351
 21
0.0
 31
0.0
  0
LINE
  5
1E6
330
1D7
100
AcDbEntity
  8
122-扉
100
AcDbLine
 10
18.99880669545382
 20
-187.9999968892807
 30
0.0
 11
19.00118892407045
 21
-820.0
 31
0.0
  0
LINE
  5
1E7
330
1D7
100
AcDbEntity
  8
122-扉
100
AcDbLine
 10
730.9976099269697
 20
-187.9999680601541
 30
0.0
 11
730.9999921557028
 21
-820.0
 31
0.0
  0
LINE
  5
1E8
330
1D7
100
AcDbEntity
  8
122-扉
100
AcDbLine
 10
0.0
 20
-187.9999975246901
 30
0.0
 11
749.9999921557028
 21
-187.9999674246355
 31
0.0
  0
LINE
  5
1E9
330
1D7
100
AcDbEntity
  8
123-扉向き
 48
2.0
100
AcDbLine
 10
19.00118892407045
 20
-820.0
 30
0.0
 11
730.9976815447444
 21
-206.9999975246901
 31
0.0
  0
LINE
  5
1EA
330
1D7
100
AcDbEntity
  8
123-扉向き
 48
2.0
100
AcDbLine
 10
18.99879538733512
 20
-187.9999674246355
 30
0.0
 11
730.9999921557028
 21
-820.0
 31
0.0
  0
LWPOLYLINE
  5
1EB
330
1D7
100
AcDbEntity
  8
121-キャビネット（中）
 62
    13
 48
4.0
100
AcDbPolyline
 90
        4
 70
     1
 43
0.0
 10
396.4987953873351
 20
-149.180206624631
 10
718.9987953873351
 20
-149.180206624631
 10
718.9987953873351
 20
-65.18021520763432
 10
396.4987953873351
 20
-65.18021520763432
  0
LWPOLYLINE
  5
1EC
330
1D7
100
AcDbEntity
  8
121-キャビネット（中）
 62
    13
 48
4.0
100
AcDbPolyline
 90
        4
 70
     1
 43
0.0
 10
353.5011889240704
 20
-149.180206624631
 10
31.00118892407045
 20
-149.180206624631
 10
31.00118892407045
 20
-65.18021520763432
 10
353.5011889240704
 20
-65.18021520763432
  0
LINE
  5
1ED
330
1D7
100
AcDbEntity
  8
122-扉
100
AcDbLine
 10
18.99887831287924
 20
-206.9999372193415
 30
0.0
 11
730.9976815447444
 21
-206.9999975246901
 31
0.0
  0
LINE
  5
1EE
330
1D7
100
AcDbEntity
  8
122-扉
100
AcDbLine
 10
749.9999921557028
 20
0.0
 30
0.0
 11
749.9999921557028
 21
-820.0
 31
0.0
  0
LINE
  5
1EF
330
1D7
100
AcDbEntity
  8
122-扉
100
AcDbLine
 10
730.9999921557028
 20
-820.0
 30
0.0
 11
749.9999921557028
 21
-820.0
 31
0.0
  0
LINE
  5
1F0
330
1D7
100
AcDbEntity
  8
122-扉
100
AcDbLine
 10
0.0011889240704477
 20
-820.0
 30
0.0
 11
19.00118892407045
 21
-820.0
 31
0.0
  0
HATCH
  5
1F1
330
1D7
100
AcDbEntity
  8
122-扉
100
AcDbHatch
 10
0.0
 20
0.0
 30
0.0
210
0.0
220
0.0
230
1.0
  2
ANSI31
 70
     0
 71
     0
 91
        1
 92
        1
 93
        4
 72
     1
 10
106.9999960823916
 20
-29.99999999147258
 11
106.9999960823916
 21
-40.99999999147258
 72
     1
 10
106.9999960823916
 20
-40.99999999147258
 11
267.9999960823916
 21
-40.99999999147258
 72
     1
 10
267.9999960823916
 20
-40.99999999147258
 11
267.9999960823916
 21
-29.99999999147258
 72
     1
 10
267.9999960823916
 20
-29.99999999147258
 11
106.9999960823916
 21
-29.99999999147258
 97
        0
 75
     0
 76
     1
 52
0.0
 41
1.0
 77
     0
 78
     1
 53
45.0
 43
14225.95525889223
 44
-20298.11385061085
 45
-0.0883883476483184
 46
0.0883883476483184
 79
     0
 98
        0
1001
ACAD
1010
0.0
1020
0.0
1030
0.0
  0
LWPOLYLINE
  5
1F2
330
1D7
100
AcDbEntity
  8
122-扉
100
AcDbPolyline
 90
        4
 70
     1
 43
0.0
 10
106.9999960823916
 20
-29.99999999147258
 10
106.9999960823916
 20
-40.99999999147258
 10
267.9999960823916
 20
-40.99999999147258
 10
267.9999960823916
 20
-29.99999999147258
  0
LWPOLYLINE
  5
1F3
330
1D7
100
AcDbEntity
  8
122-扉
100
AcDbPolyline
 90
        4
 70
     1
 43
0.0
 10
481.9993937760592
 20
-29.99999999147258
 10
481.9993937760592
 20
-40.99999999147258
 10
642.9993937760592
 20
-40.99999999147258
 10
642.9993937760592
 20
-29.99999999147258
  0
HATCH
  5
1F4
330
1D7
100
AcDbEntity
  8
122-扉
100
AcDbHatch
 10
0.0
 20
0.0
 30
0.0
210
0.0
220
0.0
230
1.0
  2
ANSI31
 70
     0
 71
     0
 91
        1
 92
        1
 93
        4
 72
     1
 10
481.9993937760592
 20
-29.99999999147258
 11
481.9993937760592
 21
-40.99999999147258
 72
     1
 10
481.9993937760592
 20
-40.99999999147258
 11
642.9993937760592
 21
-40.99999999147258
 72
     1
 10
642.9993937760592
 20
-40.99999999147258
 11
642.9993937760592
 21
-29.99999999147258
 72
     1
 10
642.9993937760592
 20
-29.99999999147258
 11
481.9993937760592
 21
-29.99999999147258
 97
        0
 75
     0
 76
     1
 52
0.0
 41
1.0
 77
     0
 78
     1
 53
45.0
 43
14600.9546565859
 44
-20298.11385061085
 45
-0.0883883476483184
 46
0.0883883476483184
 79
     0
 98
        0
1001
ACAD
1010
0.0
1020
0.0
1030
0.0
  0
ENDBLK
  5
1F5
330
1D7
100
AcDbEntity
  8
0
100
AcDbBlockEnd
  0
BLOCK
  5
1F8
330
1F7
100
AcDbEntity
  8
0
100
AcDbBlockBegin
  2
B_KADEN_750
 70
     0
 10
0.0
 20
0.0
 30
0.0
  3
B_KADEN_750
  1
B_KADEN_750
  0
LINE
  5
1F9
330
1F7
100
AcDbEntity
  8
122-扉
100
AcDbLine
 10
0.0
 20
0.0
 30
0.0
 11
749.9999999997672
 21
0.0
 31
0.0
  0
LINE
  5
1FA
330
1F7
100
AcDbEntity
  8
122-扉
100
AcDbLine
 10
19.0
 20
-19.0
 30
0.0
 11
731.0000000001164
 21
-19.0
 31
0.0
  0
LINE
  5
1FB
330
1F7
100
AcDbEntity
  8
122-扉
100
AcDbLine
 10
0.0
 20
0.0
 30
0.0
 11
0.0
 21
-720.0
 31
0.0
  0
LINE
  5
1FC
330
1F7
100
AcDbEntity
  8
122-扉
100
AcDbLine
 10
749.9999999998836
 20
0.0
 30
0.0
 11
750.0
 21
-720.0
 31
0.0
  0
LWPOLYLINE
  5
1FD
330
1F7
100
AcDbEntity
  8
122-扉
100
AcDbPolyline
 90
        4
 70
     1
 43
0.0
 10
0.0
 20
-335.9999985884642
 10
750.0
 20
-335.9999985884642
 10
750.0
 20
-418.9999985884642
 10
0.0
 20
-418.9999985884642
  0
LWPOLYLINE
  5
1FE
330
1F7
100
AcDbEntity
  8
122-扉
100
AcDbPolyline
 90
        4
 70
     1
 43
0.0
 10
0.0
 20
-418.9999985884642
 10
750.0
 20
-418.9999985884642
 10
750.0
 20
-720.0
 10
0.0
 20
-720.0
  0
LINE
  5
1FF
330
1F7
100
AcDbEntity
  8
122-扉
100
AcDbLine
 10
19.0
 20
-335.9999985884642
 30
0.0
 11
19.0
 21
0.0
 31
0.0
  0
LINE
  5
200
330
1F7
100
AcDbEntity
  8
122-扉
100
AcDbLine
 10
731.0
 20
0.0
 30
0.0
 11
731.0
 21
-335.9999985884642
 31
0.0
  0
LINE
  5
201
330
1F7
100
AcDbEntity
  8
122-扉
 62
   253
100
AcDbLine
 10
629.2499999997672
 20
-288.5
 30
0.0
 11
662.2500000006985
 21
-288.5
 31
0.0
  0
ARC
  5
202
330
1F7
100
AcDbEntity
  8
122-扉
 62
   253
100
AcDbCircle
 10
662.2500000006985
 20
-279.5
 30
0.0
 40
9.000000000000057
100
AcDbArc
 50
270.0
 51
0.0
  0
ARC
  5
203
330
1F7
100
AcDbEntity
  8
122-扉
 62
   253
100
AcDbCircle
 10
662.2500000006985
 20
-194.5
 30
0.0
 40
9.000000000000057
100
AcDbArc
 50
0.0
 51
90.0
  0
LINE
  5
204
330
1F7
100
AcDbEntity
  8
122-扉
 62
   253
100
AcDbLine
 10
662.2500000006985
 20
-185.5000000001164
 30
0.0
 11
629.2499999997672
 21
-185.5000000001164
 31
0.0
  0
LINE
  5
205
330
1F7
100
AcDbEntity
  8
122-扉
100
AcDbLine
 10
671.2499999997672
 20
-279.5
 30
0.0
 11
671.2499999997672
 21
-194.5
 31
0.0
  0
ARC
  5
206
330
1F7
100
AcDbEntity
  8
122-扉
 62
   253
100
AcDbCircle
 10
629.2499999997672
 20
-279.5
 30
0.0
 40
9.000000000000057
100
AcDbArc
 50
180.0
 51
270.0
  0
LINE
  5
207
330
1F7
100
AcDbEntity
  8
122-扉
100
AcDbLine
 10
620.2499999997672
 20
-194.5
 30
0.0
 11
620.2499999997672
 21
-279.5
 31
0.0
  0
ARC
  5
208
330
1F7
100
AcDbEntity
  8
122-扉
 62
   253
100
AcDbCircle
 10
629.2499999997672
 20
-194.5
 30
0.0
 40
9.000000000000057
100
AcDbArc
 50
90.0
 51
180.0
  0
LWPOLYLINE
  5
209
330
1F7
100
AcDbEntity
  8
122-扉
 62
   253
100
AcDbPolyline
 90
        2
 70
   128
 43
0.0
 10
620.2499999997672
 20
-194.5
 10
620.2499999997672
 20
-194.5
  0
LWPOLYLINE
  5
20A
330
1F7
100
AcDbEntity
  8
122-扉
 62
   253
100
AcDbPolyline
 90
        2
 70
   128
 43
0.0
 10
620.2499999997672
 20
-279.5
 10
620.2499999997672
 20
-279.5
  0
LWPOLYLINE
  5
20B
330
1F7
100
AcDbEntity
  8
122-扉
 62
   253
100
AcDbPolyline
 90
        2
 70
   128
 43
0.0
 10
671.2499999997672
 20
-194.5
 10
671.2499999997672
 20
-194.5
  0
LWPOLYLINE
  5
20C
330
1F7
100
AcDbEntity
  8
122-扉
 62
   253
100
AcDbPolyline
 90
        2
 70
   128
 43
0.0
 10
629.2499999997672
 20
-288.5
 10
629.2499999997672
 20
-288.5
  0
LWPOLYLINE
  5
20D
330
1F7
100
AcDbEntity
  8
122-扉
 62
   253
100
AcDbPolyline
 90
        2
 70
   128
 43
0.0
 10
662.2500000006985
 20
-185.5000000001164
 10
662.2500000006985
 20
-185.5000000001164
  0
LWPOLYLINE
  5
20E
330
1F7
100
AcDbEntity
  8
122-扉
 62
   253
100
AcDbPolyline
 90
        2
 70
   128
 43
0.0
 10
629.2499999997672
 20
-185.5000000001164
 10
629.2499999997672
 20
-185.5000000001164
  0
LWPOLYLINE
  5
20F
330
1F7
100
AcDbEntity
  8
122-扉
 62
   253
100
AcDbPolyline
 90
        2
 70
   128
 43
0.0
 10
662.2500000006985
 20
-288.5
 10
662.2500000006985
 20
-288.5
  0
LWPOLYLINE
  5
210
330
1F7
100
AcDbEntity
  8
122-扉
 62
   253
100
AcDbPolyline
 90
        2
 70
   128
 43
0.0
 10
671.2499999997672
 20
-279.5
 10
671.2499999997672
 20
-279.5
  0
ARC
  5
211
330
1F7
100
AcDbEntity
  8
122-扉
 62
   253
100
AcDbCircle
 10
662.2500000006985
 20
-279.5
 30
0.0
 40
9.000000000000057
100
AcDbArc
 50
270.0
 51
0.0
  0
LINE
  5
212
330
1F7
100
AcDbEntity
  8
122-扉
 62
   253
100
AcDbLine
 10
662.2500000006985
 20
-185.5000000001164
 30
0.0
 11
629.2499999997672
 21
-185.5000000001164
 31
0.0
  0
LINE
  5
213
330
1F7
100
AcDbEntity
  8
122-扉
 62
   253
100
AcDbLine
 10
629.2499999997672
 20
-288.5
 30
0.0
 11
662.2500000006985
 21
-288.5
 31
0.0
  0
ARC
  5
214
330
1F7
100
AcDbEntity
  8
122-扉
 62
   253
100
AcDbCircle
 10
662.2500000006985
 20
-194.5
 30
0.0
 40
9.000000000000057
100
AcDbArc
 50
0.0
 51
90.0
  0
LINE
  5
215
330
1F7
100
AcDbEntity
  8
122-扉
 62
   253
100
AcDbLine
 10
671.2499999997672
 20
-279.5
 30
0.0
 11
671.2499999997672
 21
-194.5
 31
0.0
  0
ARC
  5
216
330
1F7
100
AcDbEntity
  8
122-扉
 62
   253
100
AcDbCircle
 10
629.2499999997672
 20
-279.5
 30
0.0
 40
9.000000000000057
100
AcDbArc
 50
180.0
 51
270.0
  0
LINE
  5
217
330
1F7
100
AcDbEntity
  8
122-扉
 62
   253
100
AcDbLine
 10
620.2499999997672
 20
-194.5
 30
0.0
 11
620.2499999997672
 21
-279.5
 31
0.0
  0
ARC
  5
218
330
1F7
100
AcDbEntity
  8
122-扉
 62
   253
100
AcDbCircle
 10
629.2499999997672
 20
-194.5
 30
0.0
 40
9.000000000000057
100
AcDbArc
 50
90.0
 51
180.0
  0
LINE
  5
219
330
1F7
100
AcDbEntity
  8
123-扉向き
 48
2.0
100
AcDbLine
 10
0.0
 20
-720.0
 30
0.0
 11
750.0
 21
-418.9999985884642
 31
0.0
  0
LINE
  5
21A
330
1F7
100
AcDbEntity
  8
123-扉向き
 48
2.0
100
AcDbLine
 10
0.0
 20
-418.9999985884642
 30
0.0
 11
749.9999999998836
 21
-335.9999985884642
 31
0.0
  0
LWPOLYLINE
  5
21B
330
1F7
100
AcDbEntity
  8
121-キャビネット（中）
 62
    13
 48
4.0
100
AcDbPolyline
 90
        4
 70
     1
 43
0.0
 10
31.00120278936811
 20
-551.5999987055548
 10
718.9987972106319
 20
-551.5999987055548
 10
718.9987972106319
 20
-684.1802392000027
 10
31.00120278936811
 20
-684.1802392000027
  0
LWPOLYLINE
  5
21C
330
1F7
100
AcDbEntity
  8
121-キャビネット（中）
 62
    13
 48
4.0
100
AcDbPolyline
 90
        4
 70
     1
 43
0.0
 10
31.00120278936811
 20
-355.0000011253869
 10
718.9987972106319
 20
-355.0000011253869
 10
718.9987972106319
 20
-373.9999949263874
 10
31.00120278936811
 20
-373.9999949263874
  0
LINE
  5
21D
330
1F7
100
AcDbEntity
  8
180-補助
  6
CENTER
100
AcDbLine
 10
564.7232296288712
 20
-237.0
 30
0.0
 11
726.7767703715945
 21
-237.0
 31
0.0
  0
LINE
  5
21E
330
1F7
100
AcDbEntity
  8
180-補助
  6
CENTER
100
AcDbLine
 10
645.7500000002328
 20
-323.1211447196474
 30
0.0
 11
645.7500000002328
 21
-150.8788552803599
 31
0.0
  0
HATCH
  5
21F
330
1F7
100
AcDbEntity
  8
122-扉
100
AcDbHatch
 10
0.0
 20
0.0
 30
0.0
210
0.0
220
0.0
230
1.0
  2
ANSI31
 70
     0
 71
     0
 91
        1
 92
        1
 93
        4
 72
     1
 10
244.5
 20
-452.2499985884642
 11
244.5
 21
-463.2499985884642
 72
     1
 10
244.5
 20
-463.2499985884642
 11
505.5
 21
-463.2499985884642
 72
     1
 10
505.5
 20
-463.2499985884642
 11
505.5
 21
-452.2499985884642
 72
     1
 10
505.5
 20
-452.2499985884642
 11
244.5
 21
-452.2499985884642
 97
        0
 75
     0
 76
     1
 52
0.0
 41
1.0
 77
     0
 78
     1
 53
45.0
 43
14363.45526280984
 44
-20443.77736124867
 45
-0.0883883476483184
 46
0.0883883476483184
 79
     0
 98
        0
1001
ACAD
1010
0.0
1020
0.0
1030
0.0
  0
LWPOLYLINE
  5
220
330
1F7
100
AcDbEntity
  8
122-扉
100
AcDbPolyline
 90
        4
 70
     1
 43
0.0
 10
244.5
 20
-452.2499985884642
 10
244.5
 20
-463.2499985884642
 10
505.5
 20
-463.2499985884642
 10
505.5
 20
-452.2499985884642
  0
ENDBLK
  5
221
330
1F7
100
AcDbEntity
  8
0
100
AcDbBlockEnd
  0
BLOCK
  5
255
330
254
100
AcDbEntity
  8
0
100
AcDbBlockBegin
  2
_None
 70
     0
 10
0.0
 20
0.0
 30
0.0
  3
_None
  1
_None
  0
ENDBLK
  5
256
330
254
100
AcDbEntity
  8
0
100
AcDbBlockEnd
  0
BLOCK
  5
9A
330
99
100
AcDbEntity
  8
0
100
AcDbBlockBegin
  2
*D1048
 70
     1
 10
0.0
 20
0.0
 30
0.0
  3
*D1048
  1
*D1048
  0
LINE
  5
9B
330
99
100
AcDbEntity
  8
166-寸法B
100
AcDbLine
 10
2411.938699500402
 20
-15269.54801573074
 30
0.0
 11
2411.938699500402
 21
-15633.50187713383
 31
0.0
  0
LINE
  5
9C
330
99
100
AcDbEntity
  8
166-寸法B
100
AcDbLine
 10
3955.946567993586
 20
-15270.54837277227
 30
0.0
 11
3955.946567993586
 21
-15633.50187713383
 31
0.0
  0
LINE
  5
9D
330
99
100
AcDbEntity
  8
166-寸法B
100
AcDbLine
 10
2429.938699500402
 20
-15624.50187713383
 30
0.0
 11
3937.946567993586
 21
-15624.50187713383
 31
0.0
  0
INSERT
  5
9E
330
99
100
AcDbEntity
  8
166-寸法B
100
AcDbBlockReference
  2
_Dot
 10
2411.938699500402
 20
-15624.50187713383
 30
0.0
 41
18.0
 42
18.0
 43
18.0
 50
180.0
  0
INSERT
  5
9F
330
99
100
AcDbEntity
  8
166-寸法B
100
AcDbBlockReference
  2
_Dot
 10
3955.946567993586
 20
-15624.50187713383
 30
0.0
 41
18.0
 42
18.0
 43
18.0
  0
MTEXT
  5
A0
330
99
100
AcDbEntity
  8
166-寸法B
100
AcDbMText
 10
3183.942633746994
 20
-15574.19187713383
 30
0.0
 40
60.0
 41
0.0
 71
     5
 72
     1
  1
\A1;1,544〈ﾜｰｸﾄｯﾌﾟ寸法〉
 73
     1
 44
1.0
  0
POINT
  5
A1
330
99
100
AcDbEntity
  8
DEFPOINTS
 62
     0
100
AcDbPoint
 10
2411.938699500402
 20
-15233.54801573074
 30
0.0
  0
POINT
  5
A2
330
99
100
AcDbEntity
  8
DEFPOINTS
 62
     0
100
AcDbPoint
 10
3955.946567993586
 20
-15234.54837277227
 30
0.0
  0
POINT
  5
A3
330
99
100
AcDbEntity
  8
DEFPOINTS
 62
     0
100
AcDbPoint
 10
3955.946567993586
 20
-15624.50187713383
 30
0.0
  0
ENDBLK
  5
A4
330
99
100
AcDbEntity
  8
0
100
AcDbBlockEnd
  0
BLOCK
  5
A7
330
A6
100
AcDbEntity
  8
0
100
AcDbBlockBegin
  2
*D1049
 70
     1
 10
0.0
 20
0.0
 30
0.0
  3
*D1049
  1
*D1049
  0
LINE
  5
A8
330
A6
100
AcDbEntity
  8
166-寸法B
100
AcDbLine
 10
2433.938699500402
 20
-19908.50403700833
 30
0.0
 11
2433.938699500402
 21
-20273.86492072531
 31
0.0
  0
LINE
  5
A9
330
A6
100
AcDbEntity
  8
166-寸法B
100
AcDbLine
 10
3183.937518420629
 20
-20165.85895387867
 30
0.0
 11
3183.937518420629
 21
-20273.86492072531
 31
0.0
  0
LINE
  5
AA
330
A6
100
AcDbEntity
  8
166-寸法B
100
AcDbLine
 10
2451.938699500402
 20
-20264.86492072531
 30
0.0
 11
3165.937518420629
 21
-20264.86492072531
 31
0.0
  0
INSERT
  5
AB
330
A6
100
AcDbEntity
  8
166-寸法B
100
AcDbBlockReference
  2
_Dot
 10
2433.938699500402
 20
-20264.86492072531
 30
0.0
 41
18.0
 42
18.0
 43
18.0
 50
180.0
  0
INSERT
  5
AC
330
A6
100
AcDbEntity
  8
166-寸法B
100
AcDbBlockReference
  2
_Dot
 10
3183.937518420629
 20
-20264.86492072531
 30
0.0
 41
18.0
 42
18.0
 43
18.0
  0
MTEXT
  5
AD
330
A6
100
AcDbEntity
  8
166-寸法B
100
AcDbMText
 10
2808.938108960516
 20
-20219.86492072531
 30
0.0
 40
60.0
 41
0.0
 71
     5
 72
     1
  1
\A1;750
 73
     1
 44
1.0
  0
POINT
  5
AE
330
A6
100
AcDbEntity
  8
DEFPOINTS
 62
     0
100
AcDbPoint
 10
2433.938699500402
 20
-19872.50403700833
 30
0.0
  0
POINT
  5
AF
330
A6
100
AcDbEntity
  8
DEFPOINTS
 62
     0
100
AcDbPoint
 10
3183.937518420629
 20
-20129.85895387867
 30
0.0
  0
POINT
  5
B0
330
A6
100
AcDbEntity
  8
DEFPOINTS
 62
     0
100
AcDbPoint
 10
3183.937518420629
 20
-20264.86492072531
 30
0.0
  0
ENDBLK
  5
B1
330
A6
100
AcDbEntity
  8
0
100
AcDbBlockEnd
  0
BLOCK
  5
B4
330
B3
100
AcDbEntity
  8
0
100
AcDbBlockBegin
  2
*D1050
 70
     1
 10
0.0
 20
0.0
 30
0.0
  3
*D1050
  1
*D1050
  0
LINE
  5
B5
330
B3
100
AcDbEntity
  8
166-寸法B
100
AcDbLine
 10
3183.937518420629
 20
-20165.85895387867
 30
0.0
 11
3183.937518420629
 21
-20273.86492072531
 31
0.0
  0
LINE
  5
B6
330
B3
100
AcDbEntity
  8
166-寸法B
100
AcDbLine
 10
3933.938691656105
 20
-20165.85895387867
 30
0.0
 11
3933.938691656105
 21
-20273.86492072531
 31
0.0
  0
LINE
  5
B7
330
B3
100
AcDbEntity
  8
166-寸法B
100
AcDbLine
 10
3201.937518420629
 20
-20264.86492072531
 30
0.0
 11
3915.938691656105
 21
-20264.86492072531
 31
0.0
  0
INSERT
  5
B8
330
B3
100
AcDbEntity
  8
166-寸法B
100
AcDbBlockReference
  2
_Dot
 10
3183.937518420629
 20
-20264.86492072531
 30
0.0
 41
18.0
 42
18.0
 43
18.0
 50
180.0
  0
INSERT
  5
B9
330
B3
100
AcDbEntity
  8
166-寸法B
100
AcDbBlockReference
  2
_Dot
 10
3933.938691656105
 20
-20264.86492072531
 30
0.0
 41
18.0
 42
18.0
 43
18.0
  0
MTEXT
  5
BA
330
B3
100
AcDbEntity
  8
166-寸法B
100
AcDbMText
 10
3558.938105038367
 20
-20219.86492072531
 30
0.0
 40
60.0
 41
0.0
 71
     5
 72
     1
  1
\A1;750
 73
     1
 44
1.0
  0
POINT
  5
BB
330
B3
100
AcDbEntity
  8
DEFPOINTS
 62
     0
100
AcDbPoint
 10
3183.937518420629
 20
-20129.85895387867
 30
0.0
  0
POINT
  5
BC
330
B3
100
AcDbEntity
  8
DEFPOINTS
 62
     0
100
AcDbPoint
 10
3933.938691656105
 20
-20129.85895387867
 30
0.0
  0
POINT
  5
BD
330
B3
100
AcDbEntity
  8
DEFPOINTS
 62
     0
100
AcDbPoint
 10
3933.938691656105
 20
-20264.86492072531
 30
0.0
  0
ENDBLK
  5
BE
330
B3
100
AcDbEntity
  8
0
100
AcDbBlockEnd
  0
BLOCK
  5
C6
330
C5
100
AcDbEntity
  8
0
100
AcDbBlockBegin
  2
*D1051
 70
     1
 10
0.0
 20
0.0
 30
0.0
  3
*D1051
  1
*D1051
  0
LINE
  5
C7
330
C5
100
AcDbEntity
  8
166-寸法B
100
AcDbLine
 10
3933.938691656105
 20
-20165.85895387867
 30
0.0
 11
3933.938691656105
 21
-20273.86492072531
 31
0.0
  0
LINE
  5
C8
330
C5
100
AcDbEntity
  8
166-寸法B
100
AcDbLine
 10
3952.938691656105
 20
-19908.50686649541
 30
0.0
 11
3952.938691656105
 21
-20273.86492072531
 31
0.0
  0
LINE
  5
C9
330
C5
100
AcDbEntity
  8
166-寸法B
100
AcDbLine
 10
3933.938691656105
 20
-20264.86492072531
 30
0.0
 11
3952.938691656105
 21
-20264.86492072531
 31
0.0
  0
LINE
  5
CA
330
C5
100
AcDbEntity
  8
166-寸法B
100
AcDbLine
 10
3915.938691656105
 20
-20264.86492072531
 30
0.0
 11
3897.938691656105
 21
-20264.86492072531
 31
0.0
  0
LINE
  5
CB
330
C5
100
AcDbEntity
  8
166-寸法B
100
AcDbLine
 10
3970.938691656105
 20
-20264.86492072531
 30
0.0
 11
3988.938691656105
 21
-20264.86492072531
 31
0.0
  0
INSERT
  5
CC
330
C5
100
AcDbEntity
  8
166-寸法B
100
AcDbBlockReference
  2
_Dot
 10
3933.938691656105
 20
-20264.86492072531
 30
0.0
 41
18.0
 42
18.0
 43
18.0
  0
INSERT
  5
CD
330
C5
100
AcDbEntity
  8
166-寸法B
100
AcDbBlockReference
  2
_Dot
 10
3952.938691656105
 20
-20264.86492072531
 30
0.0
 41
18.0
 42
18.0
 43
18.0
 50
180.0
  0
MTEXT
  5
CE
330
C5
100
AcDbEntity
  8
166-寸法B
100
AcDbMText
 10
3873.604216219857
 20
-20219.86492072531
 30
0.0
 40
60.0
 41
0.0
 71
     5
 72
     1
  1
\A1;19
 73
     1
 44
1.0
  0
POINT
  5
CF
330
C5
100
AcDbEntity
  8
DEFPOINTS
 62
     0
100
AcDbPoint
 10
3933.938691656105
 20
-20129.85895387867
 30
0.0
  0
POINT
  5
D0
330
C5
100
AcDbEntity
  8
DEFPOINTS
 62
     0
100
AcDbPoint
 10
3952.938691656105
 20
-19872.50686649541
 30
0.0
  0
POINT
  5
D1
330
C5
100
AcDbEntity
  8
DEFPOINTS
 62
     0
100
AcDbPoint
 10
3952.938691656105
 20
-20264.86492072531
 30
0.0
  0
ENDBLK
  5
D2
330
C5
100
AcDbEntity
  8
0
100
AcDbBlockEnd
  0
BLOCK
  5
D5
330
D4
100
AcDbEntity
  8
0
100
AcDbBlockBegin
  2
*D1052
 70
     1
 10
0.0
 20
0.0
 30
0.0
  3
*D1052
  1
*D1052
  0
LINE
  5
D6
330
D4
100
AcDbEntity
  8
166-寸法B
100
AcDbLine
 10
3952.938691656105
 20
-19908.50686649541
 30
0.0
 11
3952.938691656105
 21
-20408.86492072531
 31
0.0
  0
LINE
  5
D7
330
D4
100
AcDbEntity
  8
166-寸法B
100
AcDbLine
 10
2414.938699500402
 20
-19908.50686649541
 30
0.0
 11
2414.938699500402
 21
-20408.86492072531
 31
0.0
  0
LINE
  5
D8
330
D4
100
AcDbEntity
  8
166-寸法B
100
AcDbLine
 10
3934.938691656105
 20
-20399.86492072531
 30
0.0
 11
2432.938699500402
 21
-20399.86492072531
 31
0.0
  0
INSERT
  5
D9
330
D4
100
AcDbEntity
  8
166-寸法B
100
AcDbBlockReference
  2
_Dot
 10
3952.938691656105
 20
-20399.86492072531
 30
0.0
 41
18.0
 42
18.0
 43
18.0
  0
INSERT
  5
DA
330
D4
100
AcDbEntity
  8
166-寸法B
100
AcDbBlockReference
  2
_Dot
 10
2414.938699500402
 20
-20399.86492072531
 30
0.0
 41
18.0
 42
18.0
 43
18.0
 50
180.0
  0
MTEXT
  5
DB
330
D4
100
AcDbEntity
  8
166-寸法B
100
AcDbMText
 10
3183.938695578254
 20
-20351.05492072531
 30
0.0
 40
60.0
 41
0.0
 71
     5
 72
     1
  1
\A1;1,538
 73
     1
 44
1.0
  0
POINT
  5
DC
330
D4
100
AcDbEntity
  8
DEFPOINTS
 62
     0
100
AcDbPoint
 10
3952.938691656105
 20
-19872.50686649541
 30
0.0
  0
POINT
  5
DD
330
D4
100
AcDbEntity
  8
DEFPOINTS
 62
     0
100
AcDbPoint
 10
2414.938699500402
 20
-19872.50686649541
 30
0.0
  0
POINT
  5
DE
330
D4
100
AcDbEntity
  8
DEFPOINTS
 62
     0
100
AcDbPoint
 10
2414.938699500402
 20
-20399.86492072531
 30
0.0
  0
ENDBLK
  5
DF
330
D4
100
AcDbEntity
  8
0
100
AcDbBlockEnd
  0
BLOCK
  5
E2
330
E1
100
AcDbEntity
  8
0
100
AcDbBlockBegin
  2
*D1053
 70
     1
 10
0.0
 20
0.0
 30
0.0
  3
*D1053
  1
*D1053
  0
LINE
  5
E3
330
E1
100
AcDbEntity
  8
166-寸法B
100
AcDbLine
 10
2414.938699500402
 20
-19908.50686402011
 30
0.0
 11
2414.938699500402
 21
-20273.86492072531
 31
0.0
  0
LINE
  5
E4
330
E1
100
AcDbEntity
  8
166-寸法B
100
AcDbLine
 10
2433.938699500402
 20
-19908.50403700833
 30
0.0
 11
2433.938699500402
 21
-20273.86492072531
 31
0.0
  0
LINE
  5
E5
330
E1
100
AcDbEntity
  8
166-寸法B
100
AcDbLine
 10
2433.938699500402
 20
-20264.86492072531
 30
0.0
 11
2560.789963214304
 21
-20264.86492072531
 31
0.0
  0
LINE
  5
E6
330
E1
100
AcDbEntity
  8
166-寸法B
100
AcDbLine
 10
2414.938699500402
 20
-20264.86492072531
 30
0.0
 11
2433.938699500402
 21
-20264.86492072531
 31
0.0
  0
LINE
  5
E7
330
E1
100
AcDbEntity
  8
166-寸法B
100
AcDbLine
 10
2396.938699500402
 20
-20264.86492072531
 30
0.0
 11
2378.938699500402
 21
-20264.86492072531
 31
0.0
  0
LINE
  5
E8
330
E1
100
AcDbEntity
  8
166-寸法B
100
AcDbLine
 10
2451.938699500402
 20
-20264.86492072531
 30
0.0
 11
2469.938699500402
 21
-20264.86492072531
 31
0.0
  0
INSERT
  5
E9
330
E1
100
AcDbEntity
  8
166-寸法B
100
AcDbBlockReference
  2
_Dot
 10
2414.938699500402
 20
-20264.86492072531
 30
0.0
 41
18.0
 42
18.0
 43
18.0
  0
INSERT
  5
EA
330
E1
100
AcDbEntity
  8
166-寸法B
100
AcDbBlockReference
  2
_Dot
 10
2433.938699500402
 20
-20264.86492072531
 30
0.0
 41
18.0
 42
18.0
 43
18.0
 50
180.0
  0
MTEXT
  5
EB
330
E1
100
AcDbEntity
  8
166-寸法B
100
AcDbMText
 10
2512.909963214304
 20
-20219.86492072531
 30
0.0
 40
60.0
 41
0.0
 71
     5
 72
     1
  1
\A1;19
 73
     1
 44
1.0
  0
POINT
  5
EC
330
E1
100
AcDbEntity
  8
DEFPOINTS
 62
     0
100
AcDbPoint
 10
2414.938699500402
 20
-19872.50686402011
 30
0.0
  0
POINT
  5
ED
330
E1
100
AcDbEntity
  8
DEFPOINTS
 62
     0
100
AcDbPoint
 10
2433.938699500402
 20
-19872.50403700833
 30
0.0
  0
POINT
  5
EE
330
E1
100
AcDbEntity
  8
DEFPOINTS
 62
     0
100
AcDbPoint
 10
2433.938699500402
 20
-20264.86492072531
 30
0.0
  0
ENDBLK
  5
EF
330
E1
100
AcDbEntity
  8
0
100
AcDbBlockEnd
  0
BLOCK
  5
F2
330
F1
100
AcDbEntity
  8
0
100
AcDbBlockBegin
  2
*D1054
 70
     1
 10
0.0
 20
0.0
 30
0.0
  3
*D1054
  1
*D1054
  0
LINE
  5
F3
330
F1
100
AcDbEntity
  8
166-寸法B
100
AcDbLine
 10
3952.938691656105
 20
-19908.50686403205
 30
0.0
 11
3952.938691656105
 21
-20408.86492072531
 31
0.0
  0
LINE
  5
F4
330
F1
100
AcDbEntity
  8
166-寸法B
100
AcDbLine
 10
3955.938691656105
 20
-19908.50686403205
 30
0.0
 11
3955.938691656105
 21
-20408.86492072531
 31
0.0
  0
LINE
  5
F5
330
F1
100
AcDbEntity
  8
166-寸法B
100
AcDbLine
 10
3955.938691656105
 20
-20399.86492072531
 30
0.0
 11
4070.915788572156
 21
-20399.86492072531
 31
0.0
  0
LINE
  5
F6
330
F1
100
AcDbEntity
  8
166-寸法B
100
AcDbLine
 10
3952.938691656105
 20
-20399.86492072531
 30
0.0
 11
3955.938691656105
 21
-20399.86492072531
 31
0.0
  0
LINE
  5
F7
330
F1
100
AcDbEntity
  8
166-寸法B
100
AcDbLine
 10
3934.938691656105
 20
-20399.86492072531
 30
0.0
 11
3916.938691656105
 21
-20399.86492072531
 31
0.0
  0
LINE
  5
F8
330
F1
100
AcDbEntity
  8
166-寸法B
100
AcDbLine
 10
3973.938691656105
 20
-20399.86492072531
 30
0.0
 11
3991.938691656105
 21
-20399.86492072531
 31
0.0
  0
INSERT
  5
F9
330
F1
100
AcDbEntity
  8
166-寸法B
100
AcDbBlockReference
  2
_Dot
 10
3952.938691656105
 20
-20399.86492072531
 30
0.0
 41
18.0
 42
18.0
 43
18.0
  0
INSERT
  5
FA
330
F1
100
AcDbEntity
  8
166-寸法B
100
AcDbBlockReference
  2
_Dot
 10
3955.938691656105
 20
-20399.86492072531
 30
0.0
 41
18.0
 42
18.0
 43
18.0
 50
180.0
  0
MTEXT
  5
FB
330
F1
100
AcDbEntity
  8
166-寸法B
100
AcDbMText
 10
4040.405788572156
 20
-20354.86492072531
 30
0.0
 40
60.0
 41
0.0
 71
     5
 72
     1
  1
\A1;3
 73
     1
 44
1.0
  0
POINT
  5
FC
330
F1
100
AcDbEntity
  8
DEFPOINTS
 62
     0
100
AcDbPoint
 10
3952.938691656105
 20
-19872.50686403205
 30
0.0
  0
POINT
  5
FD
330
F1
100
AcDbEntity
  8
DEFPOINTS
 62
     0
100
AcDbPoint
 10
3955.938691656105
 20
-19872.50686403205
 30
0.0
  0
POINT
  5
FE
330
F1
100
AcDbEntity
  8
DEFPOINTS
 62
     0
100
AcDbPoint
 10
3955.938691656105
 20
-20399.86492072531
 30
0.0
  0
ENDBLK
  5
FF
330
F1
100
AcDbEntity
  8
0
100
AcDbBlockEnd
  0
BLOCK
  5
102
330
101
100
AcDbEntity
  8
0
100
AcDbBlockBegin
  2
*D1055
 70
     1
 10
0.0
 20
0.0
 30
0.0
  3
*D1055
  1
*D1055
  0
LINE
  5
103
330
101
100
AcDbEntity
  8
166-寸法B
100
AcDbLine
 10
3955.938691656105
 20
-19908.50686403205
 30
0.0
 11
3955.938691656105
 21
-20543.86492072531
 31
0.0
  0
LINE
  5
104
330
101
100
AcDbEntity
  8
166-寸法B
100
AcDbLine
 10
2411.938699500402
 20
-19908.50686649541
 30
0.0
 11
2411.938699500402
 21
-20543.86492072531
 31
0.0
  0
LINE
  5
105
330
101
100
AcDbEntity
  8
166-寸法B
100
AcDbLine
 10
3937.938691656105
 20
-20534.86492072531
 30
0.0
 11
2429.938699500402
 21
-20534.86492072531
 31
0.0
  0
INSERT
  5
106
330
101
100
AcDbEntity
  8
166-寸法B
100
AcDbBlockReference
  2
_Dot
 10
3955.938691656105
 20
-20534.86492072531
 30
0.0
 41
18.0
 42
18.0
 43
18.0
  0
INSERT
  5
107
330
101
100
AcDbEntity
  8
166-寸法B
100
AcDbBlockReference
  2
_Dot
 10
2411.938699500402
 20
-20534.86492072531
 30
0.0
 41
18.0
 42
18.0
 43
18.0
 50
180.0
  0
MTEXT
  5
108
330
101
100
AcDbEntity
  8
166-寸法B
100
AcDbMText
 10
3183.938695578254
 20
-20486.05492072531
 30
0.0
 40
60.0
 41
0.0
 71
     5
 72
     1
  1
\A1;1,544
 73
     1
 44
1.0
  0
POINT
  5
109
330
101
100
AcDbEntity
  8
DEFPOINTS
 62
     0
100
AcDbPoint
 10
3955.938691656105
 20
-19872.50686403205
 30
0.0
  0
POINT
  5
10A
330
101
100
AcDbEntity
  8
DEFPOINTS
 62
     0
100
AcDbPoint
 10
2411.938699500402
 20
-19872.50686649541
 30
0.0
  0
POINT
  5
10B
330
101
100
AcDbEntity
  8
DEFPOINTS
 62
     0
100
AcDbPoint
 10
2411.938699500402
 20
-20534.86492072531
 30
0.0
  0
ENDBLK
  5
10C
330
101
100
AcDbEntity
  8
0
100
AcDbBlockEnd
  0
BLOCK
  5
115
330
114
100
AcDbEntity
  8
0
100
AcDbBlockBegin
  2
*D1056
 70
     1
 10
0.0
 20
0.0
 30
0.0
  3
*D1056
  1
*D1056
  0
LINE
  5
116
330
114
100
AcDbEntity
  8
166-寸法B
100
AcDbLine
 10
2384.937518420629
 20
-15233.54801573074
 30
0.0
 11
1910.026528336108
 21
-15233.54801573074
 31
0.0
  0
LINE
  5
117
330
114
100
AcDbEntity
  8
166-寸法B
100
AcDbLine
 10
2384.937518420629
 20
-14583.54801573074
 30
0.0
 11
1910.026528336108
 21
-14583.54801573074
 31
0.0
  0
LINE
  5
118
330
114
100
AcDbEntity
  8
166-寸法B
100
AcDbLine
 10
1919.026528336108
 20
-15215.54801573074
 30
0.0
 11
1919.026528336108
 21
-14601.54801573074
 31
0.0
  0
INSERT
  5
119
330
114
100
AcDbEntity
  8
166-寸法B
100
AcDbBlockReference
  2
_Dot
 10
1919.026528336108
 20
-15233.54801573074
 30
0.0
 41
18.0
 42
18.0
 43
18.0
 50
270.0
  0
INSERT
  5
11A
330
114
100
AcDbEntity
  8
166-寸法B
100
AcDbBlockReference
  2
_Dot
 10
1919.026528336108
 20
-14583.54801573074
 30
0.0
 41
18.0
 42
18.0
 43
18.0
 50
90.0
  0
MTEXT
  5
11B
330
114
100
AcDbEntity
  8
166-寸法B
100
AcDbMText
 10
1874.026528336108
 20
-14908.54801573074
 30
0.0
 40
60.0
 41
0.0
 71
     5
 72
     1
  1
\A1;650
 11
0.0
 21
1.0
 31
0.0
 73
     1
 44
1.0
  0
POINT
  5
11C
330
114
100
AcDbEntity
  8
DEFPOINTS
 62
     0
100
AcDbPoint
 10
2420.937518420629
 20
-15233.54801573074
 30
0.0
  0
POINT
  5
11D
330
114
100
AcDbEntity
  8
DEFPOINTS
 62
     0
100
AcDbPoint
 10
2420.937518420629
 20
-14583.54801573074
 30
0.0
  0
POINT
  5
11E
330
114
100
AcDbEntity
  8
DEFPOINTS
 62
     0
100
AcDbPoint
 10
1919.026528336108
 20
-14583.54801573074
 30
0.0
  0
ENDBLK
  5
11F
330
114
100
AcDbEntity
  8
0
100
AcDbBlockEnd
  0
BLOCK
  5
149
330
148
100
AcDbEntity
  8
0
100
AcDbBlockBegin
  2
*D1057
 70
     1
 10
0.0
 20
0.0
 30
0.0
  3
*D1057
  1
*D1057
  0
LINE
  5
14A
330
148
100
AcDbEntity
  8
166-寸法B
100
AcDbLine
 10
2411.938699500402
 20
-19908.50686649541
 30
0.0
 11
2411.938699500402
 21
-20408.86492072531
 31
0.0
  0
LINE
  5
14B
330
148
100
AcDbEntity
  8
166-寸法B
100
AcDbLine
 10
2414.938699500402
 20
-19908.50686649541
 30
0.0
 11
2414.938699500402
 21
-20408.86492072531
 31
0.0
  0
LINE
  5
14C
330
148
100
AcDbEntity
  8
166-寸法B
100
AcDbLine
 10
2411.938699500402
 20
-20399.86492072531
 30
0.0
 11
2306.54551194027
 21
-20399.86492072531
 31
0.0
  0
LINE
  5
14D
330
148
100
AcDbEntity
  8
166-寸法B
100
AcDbLine
 10
2411.938699500402
 20
-20399.86492072531
 30
0.0
 11
2414.938699500402
 21
-20399.86492072531
 31
0.0
  0
LINE
  5
14E
330
148
100
AcDbEntity
  8
166-寸法B
100
AcDbLine
 10
2393.938699500402
 20
-20399.86492072531
 30
0.0
 11
2375.938699500402
 21
-20399.86492072531
 31
0.0
  0
LINE
  5
14F
330
148
100
AcDbEntity
  8
166-寸法B
100
AcDbLine
 10
2432.938699500402
 20
-20399.86492072531
 30
0.0
 11
2450.938699500402
 21
-20399.86492072531
 31
0.0
  0
INSERT
  5
150
330
148
100
AcDbEntity
  8
166-寸法B
100
AcDbBlockReference
  2
_Dot
 10
2411.938699500402
 20
-20399.86492072531
 30
0.0
 41
18.0
 42
18.0
 43
18.0
  0
INSERT
  5
151
330
148
100
AcDbEntity
  8
166-寸法B
100
AcDbBlockReference
  2
_Dot
 10
2414.938699500402
 20
-20399.86492072531
 30
0.0
 41
18.0
 42
18.0
 43
18.0
 50
180.0
  0
MTEXT
  5
152
330
148
100
AcDbEntity
  8
166-寸法B
100
AcDbMText
 10
2337.055511940271
 20
-20354.86492072531
 30
0.0
 40
60.0
 41
0.0
 71
     5
 72
     1
  1
\A1;3
 73
     1
 44
1.0
  0
POINT
  5
153
330
148
100
AcDbEntity
  8
DEFPOINTS
 62
     0
100
AcDbPoint
 10
2411.938699500402
 20
-19872.50686649541
 30
0.0
  0
POINT
  5
154
330
148
100
AcDbEntity
  8
DEFPOINTS
 62
     0
100
AcDbPoint
 10
2414.938699500402
 20
-19872.50686649541
 30
0.0
  0
POINT
  5
155
330
148
100
AcDbEntity
  8
DEFPOINTS
 62
     0
100
AcDbPoint
 10
2414.938699500402
 20
-20399.86492072531
 30
0.0
  0
ENDBLK
  5
156
330
148
100
AcDbEntity
  8
0
100
AcDbBlockEnd
  0
BLOCK
  5
160
330
15F
100
AcDbEntity
  8
0
100
AcDbBlockBegin
  2
*D1058
 70
     1
 10
0.0
 20
0.0
 30
0.0
  3
*D1058
  1
*D1058
  0
LINE
  5
161
330
15F
100
AcDbEntity
  8
166-寸法B
  6
ByBlock
100
AcDbLine
 10
3991.938699500402
 20
-19012.50686402009
 30
0.0
 11
4296.145362695446
 21
-19012.50686402009
 31
0.0
  0
LINE
  5
162
330
15F
100
AcDbEntity
  8
166-寸法B
  6
ByBlock
100
AcDbLine
 10
3991.938699500402
 20
-19052.50686649541
 30
0.0
 11
4296.145362695446
 21
-19052.50686649541
 31
0.0
  0
LINE
  5
163
330
15F
100
AcDbEntity
  8
166-寸法B
  6
ByBlock
100
AcDbLine
 10
4287.145362695446
 20
-19012.50686402009
 30
0.0
 11
4287.145362695446
 21
-18859.21490688227
 31
0.0
  0
LINE
  5
164
330
15F
100
AcDbEntity
  8
166-寸法B
  6
ByBlock
100
AcDbLine
 10
4287.145362695446
 20
-19012.50686402009
 30
0.0
 11
4287.145362695446
 21
-19052.50686649541
 31
0.0
  0
LINE
  5
165
330
15F
100
AcDbEntity
  8
166-寸法B
  6
ByBlock
100
AcDbLine
 10
4287.145362695446
 20
-18994.50686402009
 30
0.0
 11
4287.145362695446
 21
-18976.50686402009
 31
0.0
  0
LINE
  5
166
330
15F
100
AcDbEntity
  8
166-寸法B
  6
ByBlock
100
AcDbLine
 10
4287.145362695446
 20
-19070.50686649541
 30
0.0
 11
4287.145362695446
 21
-19088.50686649541
 31
0.0
  0
INSERT
  5
167
330
15F
100
AcDbEntity
  8
166-寸法B
100
AcDbBlockReference
  2
_Dot
 10
4287.145362695446
 20
-19012.50686402009
 30
0.0
 41
18.0
 42
18.0
 43
18.0
 50
270.0
  0
INSERT
  5
168
330
15F
100
AcDbEntity
  8
166-寸法B
100
AcDbBlockReference
  2
_Dot
 10
4287.145362695446
 20
-19052.50686649541
 30
0.0
 41
18.0
 42
18.0
 43
18.0
 50
90.0
  0
MTEXT
  5
169
330
15F
100
AcDbEntity
  8
166-寸法B
100
AcDbMText
 10
4242.145362695446
 20
-18910.45490688227
 30
0.0
 40
60.0
 41
0.0
 71
     5
 72
     1
  1
\A1;40
 11
0.0
 21
1.0
 31
0.0
 73
     1
 44
1.0
  0
POINT
  5
16A
330
15F
100
AcDbEntity
  8
DEFPOINTS
 62
     0
100
AcDbPoint
 10
3955.938699500402
 20
-19012.50686402009
 30
0.0
  0
POINT
  5
16B
330
15F
100
AcDbEntity
  8
DEFPOINTS
 62
     0
100
AcDbPoint
 10
3955.938699500402
 20
-19052.50686649541
 30
0.0
  0
POINT
  5
16C
330
15F
100
AcDbEntity
  8
DEFPOINTS
 62
     0
100
AcDbPoint
 10
4287.145362695446
 20
-19052.50686649541
 30
0.0
  0
ENDBLK
  5
16D
330
15F
100
AcDbEntity
  8
0
100
AcDbBlockEnd
  0
BLOCK
  5
170
330
16F
100
AcDbEntity
  8
0
100
AcDbBlockBegin
  2
*D1059
 70
     1
 10
0.0
 20
0.0
 30
0.0
  3
*D1059
  1
*D1059
  0
LINE
  5
171
330
16F
100
AcDbEntity
  8
166-寸法B
  6
ByBlock
100
AcDbLine
 10
3991.938699500402
 20
-19052.50686649541
 30
0.0
 11
4296.145362695446
 21
-19052.50686649541
 31
0.0
  0
LINE
  5
172
330
16F
100
AcDbEntity
  8
166-寸法B
  6
ByBlock
100
AcDbLine
 10
3988.938691656105
 20
-19240.50683392004
 30
0.0
 11
4296.145362695446
 21
-19240.50683392004
 31
0.0
  0
LINE
  5
173
330
16F
100
AcDbEntity
  8
166-寸法B
  6
ByBlock
100
AcDbLine
 10
4287.145362695446
 20
-19070.50686649541
 30
0.0
 11
4287.145362695446
 21
-19222.50683392004
 31
0.0
  0
INSERT
  5
174
330
16F
100
AcDbEntity
  8
166-寸法B
100
AcDbBlockReference
  2
_Dot
 10
4287.145362695446
 20
-19052.50686649541
 30
0.0
 41
18.0
 42
18.0
 43
18.0
 50
90.0
  0
INSERT
  5
175
330
16F
100
AcDbEntity
  8
166-寸法B
100
AcDbBlockReference
  2
_Dot
 10
4287.145362695446
 20
-19240.50683392004
 30
0.0
 41
18.0
 42
18.0
 43
18.0
 50
270.0
  0
MTEXT
  5
176
330
16F
100
AcDbEntity
  8
166-寸法B
100
AcDbMText
 10
4242.145362695446
 20
-19146.50685020773
 30
0.0
 40
60.0
 41
0.0
 71
     5
 72
     1
  1
\A1;188
 11
0.0
 21
1.0
 31
0.0
 73
     1
 44
1.0
  0
POINT
  5
177
330
16F
100
AcDbEntity
  8
DEFPOINTS
 62
     0
100
AcDbPoint
 10
3955.938699500402
 20
-19052.50686649541
 30
0.0
  0
POINT
  5
178
330
16F
100
AcDbEntity
  8
DEFPOINTS
 62
     0
100
AcDbPoint
 10
3952.938691656105
 20
-19240.50683392004
 30
0.0
  0
POINT
  5
179
330
16F
100
AcDbEntity
  8
DEFPOINTS
 62
     0
100
AcDbPoint
 10
4287.145362695446
 20
-19240.50683392004
 30
0.0
  0
ENDBLK
  5
17A
330
16F
100
AcDbEntity
  8
0
100
AcDbBlockEnd
  0
BLOCK
  5
17D
330
17C
100
AcDbEntity
  8
0
100
AcDbBlockBegin
  2
*D1060
 70
     1
 10
0.0
 20
0.0
 30
0.0
  3
*D1060
  1
*D1060
  0
LINE
  5
17E
330
17C
100
AcDbEntity
  8
166-寸法B
  6
ByBlock
100
AcDbLine
 10
3988.938691656105
 20
-19240.50683392004
 30
0.0
 11
4296.145362695446
 21
-19240.50683392004
 31
0.0
  0
LINE
  5
17F
330
17C
100
AcDbEntity
  8
166-寸法B
  6
ByBlock
100
AcDbLine
 10
3991.938691656105
 20
-19872.50686403205
 30
0.0
 11
4296.145362695446
 21
-19872.50686403205
 31
0.0
  0
LINE
  5
180
330
17C
100
AcDbEntity
  8
166-寸法B
  6
ByBlock
100
AcDbLine
 10
4287.145362695446
 20
-19258.50683392004
 30
0.0
 11
4287.145362695446
 21
-19854.50686403205
 31
0.0
  0
INSERT
  5
181
330
17C
100
AcDbEntity
  8
166-寸法B
100
AcDbBlockReference
  2
_Dot
 10
4287.145362695446
 20
-19240.50683392004
 30
0.0
 41
18.0
 42
18.0
 43
18.0
 50
90.0
  0
INSERT
  5
182
330
17C
100
AcDbEntity
  8
166-寸法B
100
AcDbBlockReference
  2
_Dot
 10
4287.145362695446
 20
-19872.50686403205
 30
0.0
 41
18.0
 42
18.0
 43
18.0
 50
270.0
  0
MTEXT
  5
183
330
17C
100
AcDbEntity
  8
166-寸法B
100
AcDbMText
 10
4237.135362695448
 20
-19556.50684897605
 30
0.0
 40
60.0
 41
0.0
 71
     5
 72
     1
  1
\A1;632(682)
 11
0.0
 21
1.0
 31
0.0
 73
     1
 44
1.0
  0
POINT
  5
184
330
17C
100
AcDbEntity
  8
DEFPOINTS
 62
     0
100
AcDbPoint
 10
3952.938691656105
 20
-19240.50683392004
 30
0.0
  0
POINT
  5
185
330
17C
100
AcDbEntity
  8
DEFPOINTS
 62
     0
100
AcDbPoint
 10
3955.938691656105
 20
-19872.50686403205
 30
0.0
  0
POINT
  5
186
330
17C
100
AcDbEntity
  8
DEFPOINTS
 62
     0
100
AcDbPoint
 10
4287.145362695446
 20
-19872.50686403205
 30
0.0
  0
ENDBLK
  5
187
330
17C
100
AcDbEntity
  8
0
100
AcDbBlockEnd
  0
BLOCK
  5
224
330
223
100
AcDbEntity
  8
0
100
AcDbBlockBegin
  2
*D1061
 70
     1
 10
0.0
 20
0.0
 30
0.0
  3
*D1061
  1
*D1061
  0
LINE
  5
225
330
223
100
AcDbEntity
  8
166-寸法B
100
AcDbLine
 10
2375.938699500402
 20
-19872.50686402012
 30
0.0
 11
1907.026504803333
 21
-19872.50686402012
 31
0.0
  0
LINE
  5
226
330
223
100
AcDbEntity
  8
166-寸法B
100
AcDbLine
 10
2375.938699500402
 20
-19012.50686409839
 30
0.0
 11
1907.026504803333
 21
-19012.50686409839
 31
0.0
  0
LINE
  5
227
330
223
100
AcDbEntity
  8
166-寸法B
100
AcDbLine
 10
1916.026504803333
 20
-19854.50686402012
 30
0.0
 11
1916.026504803333
 21
-19030.50686409839
 31
0.0
  0
INSERT
  5
228
330
223
100
AcDbEntity
  8
166-寸法B
100
AcDbBlockReference
  2
_Dot
 10
1916.026504803333
 20
-19872.50686402012
 30
0.0
 41
18.0
 42
18.0
 43
18.0
 50
270.0
  0
INSERT
  5
229
330
223
100
AcDbEntity
  8
166-寸法B
100
AcDbBlockReference
  2
_Dot
 10
1916.026504803333
 20
-19012.50686409839
 30
0.0
 41
18.0
 42
18.0
 43
18.0
 50
90.0
  0
MTEXT
  5
22A
330
223
100
AcDbEntity
  8
166-寸法B
100
AcDbMText
 10
1866.016504803334
 20
-19442.50686405926
 30
0.0
 40
60.0
 41
0.0
 71
     5
 72
     1
  1
\A1;860(910)
 11
0.0
 21
1.0
 31
0.0
 73
     1
 44
1.0
  0
POINT
  5
22B
330
223
100
AcDbEntity
  8
DEFPOINTS
 62
     0
100
AcDbPoint
 10
2411.938699500402
 20
-19872.50686402012
 30
0.0
  0
POINT
  5
22C
330
223
100
AcDbEntity
  8
DEFPOINTS
 62
     0
100
AcDbPoint
 10
2411.938699500402
 20
-19012.50686409839
 30
0.0
  0
POINT
  5
22D
330
223
100
AcDbEntity
  8
DEFPOINTS
 62
     0
100
AcDbPoint
 10
1916.026504803333
 20
-19012.50686409839
 30
0.0
  0
ENDBLK
  5
22E
330
223
100
AcDbEntity
  8
0
100
AcDbBlockEnd
  0
BLOCK
  5
231
330
230
100
AcDbEntity
  8
0
100
AcDbBlockBegin
  2
*D1062
 70
     1
 10
0.0
 20
0.0
 30
0.0
  3
*D1062
  1
*D1062
  0
LINE
  5
232
330
230
100
AcDbEntity
  8
166-寸法B
100
AcDbLine
 10
2232.617390305037
 20
-19289.50089709517
 30
0.0
 11
2042.026504803333
 21
-19289.50089709517
 31
0.0
  0
LINE
  5
233
330
230
100
AcDbEntity
  8
166-寸法B
100
AcDbLine
 10
2199.618594917702
 20
-19872.50089717346
 30
0.0
 11
2042.026504803333
 21
-19872.50089717346
 31
0.0
  0
LINE
  5
234
330
230
100
AcDbEntity
  8
166-寸法B
100
AcDbLine
 10
2051.026504803333
 20
-19307.50089709517
 30
0.0
 11
2051.026504803333
 21
-19854.50089717346
 31
0.0
  0
INSERT
  5
235
330
230
100
AcDbEntity
  8
166-寸法B
100
AcDbBlockReference
  2
_Dot
 10
2051.026504803333
 20
-19289.50089709517
 30
0.0
 41
18.0
 42
18.0
 43
18.0
 50
90.0
  0
INSERT
  5
236
330
230
100
AcDbEntity
  8
166-寸法B
100
AcDbBlockReference
  2
_Dot
 10
2051.026504803333
 20
-19872.50089717346
 30
0.0
 41
18.0
 42
18.0
 43
18.0
 50
270.0
  0
MTEXT
  5
237
330
230
100
AcDbEntity
  8
166-寸法B
100
AcDbMText
 10
2006.026504803333
 20
-19581.00089713431
 30
0.0
 40
60.0
 41
0.0
 71
     5
 72
     1
  1
\A1;583
 11
0.0
 21
1.0
 31
0.0
 73
     1
 44
1.0
  0
POINT
  5
238
330
230
100
AcDbEntity
  8
DEFPOINTS
 62
     0
100
AcDbPoint
 10
2268.617390305037
 20
-19289.50089709517
 30
0.0
  0
POINT
  5
239
330
230
100
AcDbEntity
  8
DEFPOINTS
 62
     0
100
AcDbPoint
 10
2235.618594917702
 20
-19872.50089717346
 30
0.0
  0
POINT
  5
23A
330
230
100
AcDbEntity
  8
DEFPOINTS
 62
     0
100
AcDbPoint
 10
2051.026504803333
 20
-19872.50089717346
 30
0.0
  0
ENDBLK
  5
23B
330
230
100
AcDbEntity
  8
0
100
AcDbBlockEnd
  0
BLOCK
  5
23E
330
23D
100
AcDbEntity
  8
0
100
AcDbBlockBegin
  2
*D1063
 70
     1
 10
0.0
 20
0.0
 30
0.0
  3
*D1063
  1
*D1063
  0
LINE
  5
23F
330
23D
100
AcDbEntity
  8
166-寸法B
100
AcDbLine
 10
3079.685629824053
 20
-19908.50647105389
 30
0.0
 11
3079.685629824053
 21
-20138.85895387867
 31
0.0
  0
LINE
  5
240
330
23D
100
AcDbEntity
  8
166-寸法B
100
AcDbLine
 10
3955.938691656105
 20
-19908.50686403205
 30
0.0
 11
3955.938691656105
 21
-20138.85895387867
 31
0.0
  0
LINE
  5
241
330
23D
100
AcDbEntity
  8
166-寸法B
100
AcDbLine
 10
3097.685629824053
 20
-20129.85895387867
 30
0.0
 11
3937.938691656105
 21
-20129.85895387867
 31
0.0
  0
INSERT
  5
242
330
23D
100
AcDbEntity
  8
166-寸法B
100
AcDbBlockReference
  2
_Dot
 10
3079.685629824053
 20
-20129.85895387867
 30
0.0
 41
18.0
 42
18.0
 43
18.0
 50
180.0
  0
INSERT
  5
243
330
23D
100
AcDbEntity
  8
166-寸法B
100
AcDbBlockReference
  2
_Dot
 10
3955.938691656105
 20
-20129.85895387867
 30
0.0
 41
18.0
 42
18.0
 43
18.0
  0
MTEXT
  5
244
330
23D
100
AcDbEntity
  8
166-寸法B
100
AcDbMText
 10
3517.812160740079
 20
-20084.85895387867
 30
0.0
 40
60.0
 41
0.0
 71
     5
 72
     1
  1
\A1;876
 73
     1
 44
1.0
  0
POINT
  5
245
330
23D
100
AcDbEntity
  8
DEFPOINTS
 62
     0
100
AcDbPoint
 10
3079.685629824053
 20
-19872.50647105389
 30
0.0
  0
POINT
  5
246
330
23D
100
AcDbEntity
  8
DEFPOINTS
 62
     0
100
AcDbPoint
 10
3955.938691656105
 20
-19872.50686403205
 30
0.0
  0
POINT
  5
247
330
23D
100
AcDbEntity
  8
DEFPOINTS
 62
     0
100
AcDbPoint
 10
3955.938691656105
 20
-20129.85895387867
 30
0.0
  0
ENDBLK
  5
248
330
23D
100
AcDbEntity
  8
0
100
AcDbBlockEnd
  0
BLOCK
  5
24B
330
24A
100
AcDbEntity
  8
0
100
AcDbBlockBegin
  2
*D1064
 70
     1
 10
0.0
 20
0.0
 30
0.0
  3
*D1064
  1
*D1064
  0
LINE
  5
24C
330
24A
100
AcDbEntity
  8
166-寸法B
100
AcDbLine
 10
2232.618594917702
 20
-19872.50089964877
 30
0.0
 11
2039.026504803333
 21
-19872.50089964877
 31
0.0
  0
LINE
  5
24D
330
24A
100
AcDbEntity
  8
166-寸法B
100
AcDbLine
 10
2048.026504803333
 20
-19890.50089964877
 30
0.0
 11
2048.026504803333
 21
-20476.60622588028
 31
0.0
  0
INSERT
  5
24E
330
24A
100
AcDbEntity
  8
166-寸法B
100
AcDbBlockReference
  2
_Dot
 10
2048.026504803333
 20
-19872.50089964877
 30
0.0
 41
18.0
 42
18.0
 43
18.0
 50
90.0
  0
MTEXT
  5
24F
330
24A
100
AcDbEntity
  8
166-寸法B
100
AcDbMText
 10
1997.386504803333
 20
-20168.55356276453
 30
0.0
 40
60.0
 41
0.0
 71
     5
 72
     1
  1
\A1;Fｹｰﾌﾞﾙ取出位置
 11
0.0
 21
1.0
 31
0.0
 73
     1
 44
1.0
  0
POINT
  5
250
330
24A
100
AcDbEntity
  8
DEFPOINTS
 62
     0
100
AcDbPoint
 10
2268.618594917702
 20
-19872.50089964877
 30
0.0
  0
POINT
  5
251
330
24A
100
AcDbEntity
  8
DEFPOINTS
 62
     0
100
AcDbPoint
 10
2178.296234611422
 20
-20446.60622588028
 30
0.0
  0
POINT
  5
252
330
24A
100
AcDbEntity
  8
DEFPOINTS
 62
     0
100
AcDbPoint
 10
2048.026504803333
 20
-20446.60622588028
 30
0.0
  0
ENDBLK
  5
253
330
24A
100
AcDbEntity
  8
0
100
AcDbBlockEnd
  0
BLOCK
  5
25A
330
259
100
AcDbEntity
  8
0
100
AcDbBlockBegin
  2
*D1065
 70
     1
 10
0.0
 20
0.0
 30
0.0
  3
*D1065
  1
*D1065
  0
LINE
  5
25B
330
259
100
AcDbEntity
  8
166-寸法B
100
AcDbLine
 10
3955.938691656105
 20
-19908.50686403205
 30
0.0
 11
3955.938691656105
 21
-20138.85895387867
 31
0.0
  0
LINE
  5
25C
330
259
100
AcDbEntity
  8
166-寸法B
100
AcDbLine
 10
3973.938691656105
 20
-20129.85895387867
 30
0.0
 11
4619.693162319949
 21
-20129.85895387867
 31
0.0
  0
INSERT
  5
25D
330
259
100
AcDbEntity
  8
166-寸法B
100
AcDbBlockReference
  2
_Dot
 10
3955.938691656105
 20
-20129.85895387867
 30
0.0
 41
18.0
 42
18.0
 43
18.0
 50
180.0
  0
MTEXT
  5
25E
330
259
100
AcDbEntity
  8
166-寸法B
100
AcDbMText
 10
4281.815926988027
 20
-20079.21895387867
 30
0.0
 40
60.0
 41
0.0
 71
     5
 72
     1
  1
\A1;Fｹｰﾌﾞﾙ取出位置
 73
     1
 44
1.0
  0
POINT
  5
25F
330
259
100
AcDbEntity
  8
DEFPOINTS
 62
     0
100
AcDbPoint
 10
3955.938691656105
 20
-19872.50686403205
 30
0.0
  0
POINT
  5
260
330
259
100
AcDbEntity
  8
DEFPOINTS
 62
     0
100
AcDbPoint
 10
4589.693162319949
 20
-19972.00096019632
 30
0.0
  0
POINT
  5
261
330
259
100
AcDbEntity
  8
DEFPOINTS
 62
     0
100
AcDbPoint
 10
4589.693162319949
 20
-20129.85895387867
 30
0.0
  0
ENDBLK
  5
262
330
259
100
AcDbEntity
  8
0
100
AcDbBlockEnd
  0
BLOCK
  5
265
330
264
100
AcDbEntity
  8
0
100
AcDbBlockBegin
  2
*D1068
 70
     1
 10
0.0
 20
0.0
 30
0.0
  3
*D1068
  1
*D1068
  0
LINE
  5
266
330
264
100
AcDbEntity
  8
166-寸法B
100
AcDbLine
 10
3955.93989626877
 20
-15982.16076999487
 30
0.0
 11
3955.93989626877
 21
-15975.71164670322
 31
0.0
  0
LINE
  5
267
330
264
100
AcDbEntity
  8
166-寸法B
100
AcDbLine
 10
4060.93989626877
 20
-15972.71164670322
 30
0.0
 11
4557.902857371722
 21
-15972.71164670322
 31
0.0
  0
SOLID
  5
268
330
264
100
AcDbEntity
  8
166-寸法B
100
AcDbTrace
 10
4060.93989626877
 20
-15955.21164670322
 30
0.0
 11
4060.93989626877
 21
-15990.21164670322
 31
0.0
 12
3955.93989626877
 22
-15972.71164670322
 32
0.0
 13
3955.93989626877
 23
-15972.71164670322
 33
0.0
  0
MTEXT
  5
269
330
264
100
AcDbEntity
  8
166-寸法B
100
AcDbMText
 10
4304.921376820246
 20
-15910.24564670322
 30
0.0
 40
81.0
 41
0.0
 71
     5
 72
     1
  1
\A1;基準位置
 73
     1
 44
1.0
  0
POINT
  5
26A
330
264
100
AcDbEntity
  8
DEFPOINTS
 62
     0
100
AcDbPoint
 10
3955.93989626877
 20
-15952.16076999487
 30
0.0
  0
POINT
  5
26B
330
264
100
AcDbEntity
  8
DEFPOINTS
 62
     0
100
AcDbPoint
 10
4548.902857371722
 20
-15984.00648246895
 30
0.0
  0
POINT
  5
26C
330
264
100
AcDbEntity
  8
DEFPOINTS
 62
     0
100
AcDbPoint
 10
4548.902857371722
 20
-15972.71164670322
 30
0.0
  0
ENDBLK
  5
26D
330
264
100
AcDbEntity
  8
0
100
AcDbBlockEnd
  0
BLOCK
  5
271
330
270
100
AcDbEntity
  8
0
100
AcDbBlockBegin
  2
*D1069
 70
     1
 10
0.0
 20
0.0
 30
0.0
  3
*D1069
  1
*D1069
  0
LINE
  5
272
330
270
100
AcDbEntity
  8
166-寸法B
100
AcDbLine
 10
3958.939896268654
 20
-20787.12789375478
 30
0.0
 11
3958.939896268654
 21
-20780.67877046313
 31
0.0
  0
LINE
  5
273
330
270
100
AcDbEntity
  8
166-寸法B
100
AcDbLine
 10
4063.939896268654
 20
-20777.67877046313
 30
0.0
 11
4560.902857371606
 21
-20777.67877046313
 31
0.0
  0
SOLID
  5
274
330
270
100
AcDbEntity
  8
166-寸法B
100
AcDbTrace
 10
4063.939896268654
 20
-20760.17877046313
 30
0.0
 11
4063.939896268654
 21
-20795.17877046313
 31
0.0
 12
3958.939896268654
 22
-20777.67877046313
 32
0.0
 13
3958.939896268654
 23
-20777.67877046313
 33
0.0
  0
MTEXT
  5
275
330
270
100
AcDbEntity
  8
166-寸法B
100
AcDbMText
 10
4307.92137682013
 20
-20715.21277046313
 30
0.0
 40
81.0
 41
0.0
 71
     5
 72
     1
  1
\A1;基準位置
 73
     1
 44
1.0
  0
POINT
  5
276
330
270
100
AcDbEntity
  8
DEFPOINTS
 62
     0
100
AcDbPoint
 10
3958.939896268654
 20
-20757.12789375478
 30
0.0
  0
POINT
  5
277
330
270
100
AcDbEntity
  8
DEFPOINTS
 62
     0
100
AcDbPoint
 10
4551.902857371606
 20
-20788.97360622886
 30
0.0
  0
POINT
  5
278
330
270
100
AcDbEntity
  8
DEFPOINTS
 62
     0
100
AcDbPoint
 10
4551.902857371606
 20
-20777.67877046313
 30
0.0
  0
ENDBLK
  5
279
330
270
100
AcDbEntity
  8
0
100
AcDbBlockEnd
  0
BLOCK
  5
29B
330
29A
100
AcDbEntity
  8
0
100
AcDbBlockBegin
  2
*D1096
 70
     1
 10
0.0
 20
0.0
 30
0.0
  3
*D1096
  1
*D1096
  0
LINE
  5
29C
330
29A
100
AcDbEntity
  8
166-寸法B
100
AcDbLine
 10
10096.13424401644
 20
-19722.50683245694
 30
0.0
 11
10592.75683522289
 21
-19722.50683245694
 31
0.0
  0
LINE
  5
29D
330
29A
100
AcDbEntity
  8
166-寸法B
100
AcDbLine
 10
10105.21540608613
 20
-19102.50683373199
 30
0.0
 11
10592.75683522289
 21
-19102.50683373199
 31
0.0
  0
LINE
  5
29E
330
29A
100
AcDbEntity
  8
166-寸法B
100
AcDbLine
 10
10583.75683522289
 20
-19704.50683245694
 30
0.0
 11
10583.75683522289
 21
-19120.50683373199
 31
0.0
  0
INSERT
  5
29F
330
29A
100
AcDbEntity
  8
166-寸法B
100
AcDbBlockReference
  2
_Dot
 10
10583.75683522289
 20
-19722.50683245694
 30
0.0
 41
18.0
 42
18.0
 43
18.0
 50
270.0
  0
INSERT
  5
2A0
330
29A
100
AcDbEntity
  8
166-寸法B
100
AcDbBlockReference
  2
_Dot
 10
10583.75683522289
 20
-19102.50683373199
 30
0.0
 41
18.0
 42
18.0
 43
18.0
 50
90.0
  0
MTEXT
  5
2A1
330
29A
100
AcDbEntity
  8
166-寸法B
100
AcDbMText
 10
10538.75683522289
 20
-19412.50683309447
 30
0.0
 40
60.0
 41
0.0
 71
     5
 72
     1
  1
\A1;620
 11
0.0
 21
1.0
 31
0.0
 73
     1
 44
1.0
  0
POINT
  5
2A2
330
29A
100
AcDbEntity
  8
DEFPOINTS
 62
     0
100
AcDbPoint
 10
10060.13424401644
 20
-19722.50683245694
 30
0.0
  0
POINT
  5
2A3
330
29A
100
AcDbEntity
  8
DEFPOINTS
 62
     0
100
AcDbPoint
 10
10069.21540608613
 20
-19102.50683373199
 30
0.0
  0
POINT
  5
2A4
330
29A
100
AcDbEntity
  8
DEFPOINTS
 62
     0
100
AcDbPoint
 10
10583.75683522289
 20
-19102.50683373199
 30
0.0
  0
ENDBLK
  5
2A5
330
29A
100
AcDbEntity
  8
0
100
AcDbBlockEnd
  0
BLOCK
  5
2AD
330
2AC
100
AcDbEntity
  8
0
100
AcDbBlockBegin
  2
*D1097
 70
     1
 10
0.0
 20
0.0
 30
0.0
  3
*D1097
  1
*D1097
  0
LINE
  5
2AE
330
2AC
100
AcDbEntity
  8
166-寸法B
100
AcDbLine
 10
10096.13424401644
 20
-19722.50683245694
 30
0.0
 11
10592.75683522289
 21
-19722.50683245694
 31
0.0
  0
LINE
  5
2AF
330
2AC
100
AcDbEntity
  8
166-寸法B
100
AcDbLine
 10
10066.13424401632
 20
-19872.50683394677
 30
0.0
 11
10592.75683522289
 21
-19872.50683394677
 31
0.0
  0
LINE
  5
2B0
330
2AC
100
AcDbEntity
  8
166-寸法B
100
AcDbLine
 10
10583.75683522289
 20
-19872.50683394677
 30
0.0
 11
10583.75683522289
 21
-20206.79298558034
 31
0.0
  0
LINE
  5
2B1
330
2AC
100
AcDbEntity
  8
166-寸法B
100
AcDbLine
 10
10583.75683522289
 20
-19740.50683245694
 30
0.0
 11
10583.75683522289
 21
-19854.50683394677
 31
0.0
  0
INSERT
  5
2B2
330
2AC
100
AcDbEntity
  8
166-寸法B
100
AcDbBlockReference
  2
_Dot
 10
10583.75683522289
 20
-19722.50683245694
 30
0.0
 41
18.0
 42
18.0
 43
18.0
 50
90.0
  0
INSERT
  5
2B3
330
2AC
100
AcDbEntity
  8
166-寸法B
100
AcDbBlockReference
  2
_Dot
 10
10583.75683522289
 20
-19872.50683394677
 30
0.0
 41
18.0
 42
18.0
 43
18.0
 50
270.0
  0
MTEXT
  5
2B4
330
2AC
100
AcDbEntity
  8
166-寸法B
100
AcDbMText
 10
10533.74683522289
 20
-20048.75298558034
 30
0.0
 40
60.0
 41
0.0
 71
     5
 72
     1
  1
\A1;150(200)
 11
0.0
 21
1.0
 31
0.0
 73
     1
 44
1.0
  0
POINT
  5
2B5
330
2AC
100
AcDbEntity
  8
DEFPOINTS
 62
     0
100
AcDbPoint
 10
10060.13424401644
 20
-19722.50683245694
 30
0.0
  0
POINT
  5
2B6
330
2AC
100
AcDbEntity
  8
DEFPOINTS
 62
     0
100
AcDbPoint
 10
10030.13424401632
 20
-19872.50683394677
 30
0.0
  0
POINT
  5
2B7
330
2AC
100
AcDbEntity
  8
DEFPOINTS
 62
     0
100
AcDbPoint
 10
10583.75683522289
 20
-19872.50683394677
 30
0.0
  0
ENDBLK
  5
2B8
330
2AC
100
AcDbEntity
  8
0
100
AcDbBlockEnd
  0
BLOCK
  5
2C0
330
2BF
100
AcDbEntity
  8
0
100
AcDbBlockBegin
  2
*D1100
 70
     1
 10
0.0
 20
0.0
 30
0.0
  3
*D1100
  1
*D1100
  0
LINE
  5
2C1
330
2BF
100
AcDbEntity
  8
166-寸法B
100
AcDbLine
 10
9380.134241430387
 20
-18976.42040337458
 30
0.0
 11
9380.134241430387
 21
-18845.68669497883
 31
0.0
  0
LINE
  5
2C2
330
2BF
100
AcDbEntity
  8
166-寸法B
100
AcDbLine
 10
10030.13424143039
 20
-18976.42040337458
 30
0.0
 11
10030.13424143039
 21
-18845.68669497883
 31
0.0
  0
LINE
  5
2C3
330
2BF
100
AcDbEntity
  8
166-寸法B
100
AcDbLine
 10
9398.134241430387
 20
-18854.68669497883
 30
0.0
 11
10012.13424143039
 21
-18854.68669497883
 31
0.0
  0
INSERT
  5
2C4
330
2BF
100
AcDbEntity
  8
166-寸法B
100
AcDbBlockReference
  2
_Dot
 10
9380.134241430387
 20
-18854.68669497883
 30
0.0
 41
18.0
 42
18.0
 43
18.0
 50
180.0
  0
INSERT
  5
2C5
330
2BF
100
AcDbEntity
  8
166-寸法B
100
AcDbBlockReference
  2
_Dot
 10
10030.13424143039
 20
-18854.68669497883
 30
0.0
 41
18.0
 42
18.0
 43
18.0
  0
MTEXT
  5
2C6
330
2BF
100
AcDbEntity
  8
166-寸法B
100
AcDbMText
 10
9705.134241430387
 20
-18809.68669497883
 30
0.0
 40
60.0
 41
0.0
 71
     5
 72
     1
  1
\A1;650
 73
     1
 44
1.0
  0
POINT
  5
2C7
330
2BF
100
AcDbEntity
  8
DEFPOINTS
 62
     0
100
AcDbPoint
 10
9380.134241430387
 20
-19012.42040337458
 30
0.0
  0
POINT
  5
2C8
330
2BF
100
AcDbEntity
  8
DEFPOINTS
 62
     0
100
AcDbPoint
 10
10030.13424143039
 20
-19012.42040337458
 30
0.0
  0
POINT
  5
2C9
330
2BF
100
AcDbEntity
  8
DEFPOINTS
 62
     0
100
AcDbPoint
 10
10030.13424143039
 20
-18854.68669497883
 30
0.0
  0
ENDBLK
  5
2CA
330
2BF
100
AcDbEntity
  8
0
100
AcDbBlockEnd
  0
BLOCK
  5
2CD
330
2CC
100
AcDbEntity
  8
0
100
AcDbBlockBegin
  2
*D1101
 70
     1
 10
0.0
 20
0.0
 30
0.0
  3
*D1101
  1
*D1101
  0
LINE
  5
2CE
330
2CC
100
AcDbEntity
  8
166-寸法B
100
AcDbLine
 10
10030.13424570945
 20
-19908.50683394678
 30
0.0
 11
10030.13426924197
 21
-20408.86488809629
 31
0.0
  0
LINE
  5
2CF
330
2CC
100
AcDbEntity
  8
166-寸法B
100
AcDbLine
 10
9390.134248257664
 20
-19908.50686404685
 30
0.0
 11
9390.134271790184
 21
-20408.86491819636
 31
0.0
  0
LINE
  5
2D0
330
2CC
100
AcDbEntity
  8
166-寸法B
100
AcDbLine
 10
10012.13426881869
 20
-20399.86488894286
 30
0.0
 11
9408.134271366902
 21
-20399.86491734979
 31
0.0
  0
INSERT
  5
2D1
330
2CC
100
AcDbEntity
  8
166-寸法B
100
AcDbBlockReference
  2
_Dot
 10
10030.13426881869
 20
-20399.86488809629
 30
0.0
 41
18.0
 42
18.0
 43
18.0
 50
0.0000026946983294
  0
INSERT
  5
2D2
330
2CC
100
AcDbEntity
  8
166-寸法B
100
AcDbBlockReference
  2
_Dot
 10
9390.134271366902
 20
-20399.86491819636
 30
0.0
 41
18.0
 42
18.0
 43
18.0
 50
180.0000026946983
  0
MTEXT
  5
2D3
330
2CC
100
AcDbEntity
  8
166-寸法B
100
AcDbMText
 10
9710.134267976384
 20
-20354.86490314632
 30
0.0
 40
60.0
 41
0.0
 71
     5
 72
     1
  1
\A1;640
 11
0.9999999999999989
 21
4.703135819535767E-8
 31
0.0
 73
     1
 44
1.0
  0
POINT
  5
2D4
330
2CC
100
AcDbEntity
  8
DEFPOINTS
 62
     0
100
AcDbPoint
 10
10030.13424401632
 20
-19872.50683394678
 30
0.0
  0
POINT
  5
2D5
330
2CC
100
AcDbEntity
  8
DEFPOINTS
 62
     0
100
AcDbPoint
 10
9390.134246564536
 20
-19872.50686404685
 30
0.0
  0
POINT
  5
2D6
330
2CC
100
AcDbEntity
  8
DEFPOINTS
 62
     0
100
AcDbPoint
 10
9390.134271366902
 20
-20399.86491819636
 30
0.0
  0
ENDBLK
  5
2D7
330
2CC
100
AcDbEntity
  8
0
100
AcDbBlockEnd
  0
BLOCK
  5
2DA
330
2D9
100
AcDbEntity
  8
0
100
AcDbBlockBegin
  2
*D1102
 70
     1
 10
0.0
 20
0.0
 30
0.0
  3
*D1102
  1
*D1102
  0
LINE
  5
2DB
330
2D9
100
AcDbEntity
  8
166-寸法B
100
AcDbLine
 10
9380.135438198871
 20
-19088.42040581408
 30
0.0
 11
9380.135438198871
 21
-19353.02958456029
 31
0.0
  0
LINE
  5
2DC
330
2D9
100
AcDbEntity
  8
166-寸法B
100
AcDbLine
 10
9390.13544074697
 20
-19182.42038372884
 30
0.0
 11
9390.13544074697
 21
-19353.02958456029
 31
0.0
  0
LINE
  5
2DD
330
2D9
100
AcDbEntity
  8
166-寸法B
100
AcDbLine
 10
9380.135438198871
 20
-19344.02958456029
 30
0.0
 11
9242.990975947218
 21
-19344.02958456029
 31
0.0
  0
LINE
  5
2DE
330
2D9
100
AcDbEntity
  8
166-寸法B
100
AcDbLine
 10
9380.135438198871
 20
-19344.02958456029
 30
0.0
 11
9390.13544074697
 21
-19344.02958456029
 31
0.0
  0
LINE
  5
2DF
330
2D9
100
AcDbEntity
  8
166-寸法B
100
AcDbLine
 10
9362.135438198871
 20
-19344.02958456029
 30
0.0
 11
9344.135438198871
 21
-19344.02958456029
 31
0.0
  0
LINE
  5
2E0
330
2D9
100
AcDbEntity
  8
166-寸法B
100
AcDbLine
 10
9408.13544074697
 20
-19344.02958456029
 30
0.0
 11
9426.13544074697
 21
-19344.02958456029
 31
0.0
  0
INSERT
  5
2E1
330
2D9
100
AcDbEntity
  8
166-寸法B
100
AcDbBlockReference
  2
_Dot
 10
9380.135438198871
 20
-19344.02958456029
 30
0.0
 41
18.0
 42
18.0
 43
18.0
  0
INSERT
  5
2E2
330
2D9
100
AcDbEntity
  8
166-寸法B
100
AcDbBlockReference
  2
_Dot
 10
9390.13544074697
 20
-19344.02958456029
 30
0.0
 41
18.0
 42
18.0
 43
18.0
 50
180.0
  0
MTEXT
  5
2E3
330
2D9
100
AcDbEntity
  8
166-寸法B
100
AcDbMText
 10
9291.650975947217
 20
-19299.02958456029
 30
0.0
 40
60.0
 41
0.0
 71
     5
 72
     1
  1
\A1;10
 73
     1
 44
1.0
  0
POINT
  5
2E4
330
2D9
100
AcDbEntity
  8
DEFPOINTS
 62
     0
100
AcDbPoint
 10
9380.135438198871
 20
-19052.42040581408
 30
0.0
  0
POINT
  5
2E5
330
2D9
100
AcDbEntity
  8
DEFPOINTS
 62
     0
100
AcDbPoint
 10
9390.13544074697
 20
-19146.42038372884
 30
0.0
  0
POINT
  5
2E6
330
2D9
100
AcDbEntity
  8
DEFPOINTS
 62
     0
100
AcDbPoint
 10
9390.13544074697
 20
-19344.02958456029
 30
0.0
  0
ENDBLK
  5
2E7
330
2D9
100
AcDbEntity
  8
0
100
AcDbBlockEnd
  0
BLOCK
  5
2EA
330
2E9
100
AcDbEntity
  8
0
100
AcDbBlockBegin
  2
*D1103
 70
     1
 10
0.0
 20
0.0
 30
0.0
  3
*D1103
  1
*D1103
  0
LINE
  5
2EB
330
2E9
100
AcDbEntity
  8
166-寸法B
100
AcDbLine
 10
9390.13544074697
 20
-19182.42038372884
 30
0.0
 11
9390.13544074697
 21
-19353.02958456029
 31
0.0
  0
LINE
  5
2EC
330
2E9
100
AcDbEntity
  8
166-寸法B
100
AcDbLine
 10
10030.13543819875
 20
-19257.23722013683
 30
0.0
 11
10030.13543819875
 21
-19353.02958456029
 31
0.0
  0
LINE
  5
2ED
330
2E9
100
AcDbEntity
  8
166-寸法B
100
AcDbLine
 10
9408.13544074697
 20
-19344.02958456029
 30
0.0
 11
10012.13543819875
 21
-19344.02958456029
 31
0.0
  0
INSERT
  5
2EE
330
2E9
100
AcDbEntity
  8
166-寸法B
100
AcDbBlockReference
  2
_Dot
 10
9390.13544074697
 20
-19344.02958456029
 30
0.0
 41
18.0
 42
18.0
 43
18.0
 50
180.0
  0
INSERT
  5
2EF
330
2E9
100
AcDbEntity
  8
166-寸法B
100
AcDbBlockReference
  2
_Dot
 10
10030.13543819875
 20
-19344.02958456029
 30
0.0
 41
18.0
 42
18.0
 43
18.0
  0
MTEXT
  5
2F0
330
2E9
100
AcDbEntity
  8
166-寸法B
100
AcDbMText
 10
9710.135439472862
 20
-19299.02958456029
 30
0.0
 40
60.0
 41
0.0
 71
     5
 72
     1
  1
\A1;640
 73
     1
 44
1.0
  0
POINT
  5
2F1
330
2E9
100
AcDbEntity
  8
DEFPOINTS
 62
     0
100
AcDbPoint
 10
9390.13544074697
 20
-19146.42038372884
 30
0.0
  0
POINT
  5
2F2
330
2E9
100
AcDbEntity
  8
DEFPOINTS
 62
     0
100
AcDbPoint
 10
10030.13543819875
 20
-19221.23722013683
 30
0.0
  0
POINT
  5
2F3
330
2E9
100
AcDbEntity
  8
DEFPOINTS
 62
     0
100
AcDbPoint
 10
10030.13543819875
 20
-19344.02958456029
 30
0.0
  0
ENDBLK
  5
2F4
330
2E9
100
AcDbEntity
  8
0
100
AcDbBlockEnd
  0
BLOCK
  5
2F7
330
2F6
100
AcDbEntity
  8
0
100
AcDbBlockBegin
  2
*D1104
 70
     1
 10
0.0
 20
0.0
 30
0.0
  3
*D1104
  1
*D1104
  0
LINE
  5
2F8
330
2F6
100
AcDbEntity
  8
166-寸法B
100
AcDbLine
 10
9344.134241430504
 20
-19872.50683386851
 30
0.0
 11
9013.222070266092
 21
-19872.50683386851
 31
0.0
  0
LINE
  5
2F9
330
2F6
100
AcDbEntity
  8
166-寸法B
100
AcDbLine
 10
9344.134241430387
 20
-19012.50683394677
 30
0.0
 11
9013.222070266092
 21
-19012.50683394677
 31
0.0
  0
LINE
  5
2FA
330
2F6
100
AcDbEntity
  8
166-寸法B
100
AcDbLine
 10
9022.222070266092
 20
-19854.50683386851
 30
0.0
 11
9022.222070266092
 21
-19030.50683394677
 31
0.0
  0
INSERT
  5
2FB
330
2F6
100
AcDbEntity
  8
166-寸法B
100
AcDbBlockReference
  2
_Dot
 10
9022.222070266092
 20
-19872.50683386851
 30
0.0
 41
18.0
 42
18.0
 43
18.0
 50
270.0
  0
INSERT
  5
2FC
330
2F6
100
AcDbEntity
  8
166-寸法B
100
AcDbBlockReference
  2
_Dot
 10
9022.222070266092
 20
-19012.50683394677
 30
0.0
 41
18.0
 42
18.0
 43
18.0
 50
90.0
  0
MTEXT
  5
2FD
330
2F6
100
AcDbEntity
  8
166-寸法B
100
AcDbMText
 10
8972.212070266094
 20
-19442.50683390764
 30
0.0
 40
60.0
 41
0.0
 71
     5
 72
     1
  1
\A1;860(910)
 11
0.0
 21
1.0
 31
0.0
 73
     1
 44
1.0
  0
POINT
  5
2FE
330
2F6
100
AcDbEntity
  8
DEFPOINTS
 62
     0
100
AcDbPoint
 10
9380.134241430504
 20
-19872.50683386851
 30
0.0
  0
POINT
  5
2FF
330
2F6
100
AcDbEntity
  8
DEFPOINTS
 62
     0
100
AcDbPoint
 10
9380.134241430387
 20
-19012.50683394677
 30
0.0
  0
POINT
  5
300
330
2F6
100
AcDbEntity
  8
DEFPOINTS
 62
     0
100
AcDbPoint
 10
9022.222070266092
 20
-19012.50683394677
 30
0.0
  0
ENDBLK
  5
301
330
2F6
100
AcDbEntity
  8
0
100
AcDbBlockEnd
  0
BLOCK
  5
304
330
303
100
AcDbEntity
  8
0
100
AcDbBlockBegin
  2
*D1105
 70
     1
 10
0.0
 20
0.0
 30
0.0
  3
*D1105
  1
*D1105
  0
LINE
  5
305
330
303
100
AcDbEntity
  8
166-寸法B
100
AcDbLine
 10
9344.134241430387
 20
-19052.50683394677
 30
0.0
 11
9148.222070266092
 21
-19052.50683394677
 31
0.0
  0
LINE
  5
306
330
303
100
AcDbEntity
  8
166-寸法B
100
AcDbLine
 10
9344.134241430387
 20
-19012.50683394677
 30
0.0
 11
9148.222070266092
 21
-19012.50683394677
 31
0.0
  0
LINE
  5
307
330
303
100
AcDbEntity
  8
166-寸法B
100
AcDbLine
 10
9157.222070266092
 20
-19012.50683394677
 30
0.0
 11
9157.222070266092
 21
-18868.67040909102
 31
0.0
  0
LINE
  5
308
330
303
100
AcDbEntity
  8
166-寸法B
100
AcDbLine
 10
9157.222070266092
 20
-19052.50683394677
 30
0.0
 11
9157.222070266092
 21
-19012.50683394677
 31
0.0
  0
LINE
  5
309
330
303
100
AcDbEntity
  8
166-寸法B
100
AcDbLine
 10
9157.222070266092
 20
-19070.50683394677
 30
0.0
 11
9157.222070266092
 21
-19088.50683394677
 31
0.0
  0
LINE
  5
30A
330
303
100
AcDbEntity
  8
166-寸法B
100
AcDbLine
 10
9157.222070266092
 20
-18994.50683394677
 30
0.0
 11
9157.222070266092
 21
-18976.50683394677
 31
0.0
  0
INSERT
  5
30B
330
303
100
AcDbEntity
  8
166-寸法B
100
AcDbBlockReference
  2
_Dot
 10
9157.222070266092
 20
-19052.50683394677
 30
0.0
 41
18.0
 42
18.0
 43
18.0
 50
90.0
  0
INSERT
  5
30C
330
303
100
AcDbEntity
  8
166-寸法B
100
AcDbBlockReference
  2
_Dot
 10
9157.222070266092
 20
-19012.50683394677
 30
0.0
 41
18.0
 42
18.0
 43
18.0
 50
270.0
  0
MTEXT
  5
30D
330
303
100
AcDbEntity
  8
166-寸法B
100
AcDbMText
 10
9112.222070266092
 20
-18919.91040909102
 30
0.0
 40
60.0
 41
0.0
 71
     5
 72
     1
  1
\A1;40
 11
0.0
 21
1.0
 31
0.0
 73
     1
 44
1.0
  0
POINT
  5
30E
330
303
100
AcDbEntity
  8
DEFPOINTS
 62
     0
100
AcDbPoint
 10
9380.134241430387
 20
-19052.50683394677
 30
0.0
  0
POINT
  5
30F
330
303
100
AcDbEntity
  8
DEFPOINTS
 62
     0
100
AcDbPoint
 10
9380.134241430387
 20
-19012.50683394677
 30
0.0
  0
POINT
  5
310
330
303
100
AcDbEntity
  8
DEFPOINTS
 62
     0
100
AcDbPoint
 10
9157.222070266092
 20
-19012.50683394677
 30
0.0
  0
ENDBLK
  5
311
330
303
100
AcDbEntity
  8
0
100
AcDbBlockEnd
  0
BLOCK
  5
314
330
313
100
AcDbEntity
  8
0
100
AcDbBlockBegin
  2
*D1106
 70
     1
 10
0.0
 20
0.0
 30
0.0
  3
*D1106
  1
*D1106
  0
LINE
  5
315
330
313
100
AcDbEntity
  8
166-寸法B
  6
ByBlock
100
AcDbLine
 10
9344.134241430387
 20
-19052.50683394677
 30
0.0
 11
9148.222070266092
 21
-19052.50683394677
 31
0.0
  0
LINE
  5
316
330
313
100
AcDbEntity
  8
166-寸法B
  6
ByBlock
100
AcDbLine
 10
9344.135438198871
 20
-19240.50680137141
 30
0.0
 11
9148.222070266092
 21
-19240.50680137141
 31
0.0
  0
LINE
  5
317
330
313
100
AcDbEntity
  8
166-寸法B
  6
ByBlock
100
AcDbLine
 10
9157.222070266092
 20
-19070.50683394677
 30
0.0
 11
9157.222070266092
 21
-19222.50680137141
 31
0.0
  0
INSERT
  5
318
330
313
100
AcDbEntity
  8
166-寸法B
100
AcDbBlockReference
  2
_Dot
 10
9157.222070266092
 20
-19052.50683394677
 30
0.0
 41
18.0
 42
18.0
 43
18.0
 50
90.0
  0
INSERT
  5
319
330
313
100
AcDbEntity
  8
166-寸法B
100
AcDbBlockReference
  2
_Dot
 10
9157.222070266092
 20
-19240.50680137141
 30
0.0
 41
18.0
 42
18.0
 43
18.0
 50
270.0
  0
MTEXT
  5
31A
330
313
100
AcDbEntity
  8
166-寸法B
100
AcDbMText
 10
9112.222070266092
 20
-19146.50681765909
 30
0.0
 40
60.0
 41
0.0
 71
     5
 72
     1
  1
\A1;188
 11
0.0
 21
1.0
 31
0.0
 73
     1
 44
1.0
  0
POINT
  5
31B
330
313
100
AcDbEntity
  8
DEFPOINTS
 62
     0
100
AcDbPoint
 10
9380.134241430387
 20
-19052.50683394677
 30
0.0
  0
POINT
  5
31C
330
313
100
AcDbEntity
  8
DEFPOINTS
 62
     0
100
AcDbPoint
 10
9380.135438198871
 20
-19240.50680137141
 30
0.0
  0
POINT
  5
31D
330
313
100
AcDbEntity
  8
DEFPOINTS
 62
     0
100
AcDbPoint
 10
9157.222070266092
 20
-19240.50680137141
 30
0.0
  0
ENDBLK
  5
31E
330
313
100
AcDbEntity
  8
0
100
AcDbBlockEnd
  0
BLOCK
  5
321
330
320
100
AcDbEntity
  8
0
100
AcDbBlockBegin
  2
*D1107
 70
     1
 10
0.0
 20
0.0
 30
0.0
  3
*D1107
  1
*D1107
  0
LINE
  5
322
330
320
100
AcDbEntity
  8
166-寸法B
  6
ByBlock
100
AcDbLine
 10
9344.135438198871
 20
-19240.50680137141
 30
0.0
 11
9148.222070266092
 21
-19240.50680137141
 31
0.0
  0
LINE
  5
323
330
320
100
AcDbEntity
  8
166-寸法B
  6
ByBlock
100
AcDbLine
 10
9344.134241430504
 20
-19872.50683386851
 30
0.0
 11
9148.222070266092
 21
-19872.50683386851
 31
0.0
  0
LINE
  5
324
330
320
100
AcDbEntity
  8
166-寸法B
  6
ByBlock
100
AcDbLine
 10
9157.222070266092
 20
-19258.50680137141
 30
0.0
 11
9157.222070266092
 21
-19854.50683386851
 31
0.0
  0
INSERT
  5
325
330
320
100
AcDbEntity
  8
166-寸法B
100
AcDbBlockReference
  2
_Dot
 10
9157.222070266092
 20
-19240.50680137141
 30
0.0
 41
18.0
 42
18.0
 43
18.0
 50
90.0
  0
INSERT
  5
326
330
320
100
AcDbEntity
  8
166-寸法B
100
AcDbBlockReference
  2
_Dot
 10
9157.222070266092
 20
-19872.50683386851
 30
0.0
 41
18.0
 42
18.0
 43
18.0
 50
270.0
  0
MTEXT
  5
327
330
320
100
AcDbEntity
  8
166-寸法B
100
AcDbMText
 10
9107.212070266094
 20
-19556.50681761996
 30
0.0
 40
60.0
 41
0.0
 71
     5
 72
     1
  1
\A1;632(682)
 11
0.0
 21
1.0
 31
0.0
 73
     1
 44
1.0
  0
POINT
  5
328
330
320
100
AcDbEntity
  8
DEFPOINTS
 62
     0
100
AcDbPoint
 10
9380.135438198871
 20
-19240.50680137141
 30
0.0
  0
POINT
  5
329
330
320
100
AcDbEntity
  8
DEFPOINTS
 62
     0
100
AcDbPoint
 10
9380.134241430504
 20
-19872.50683386851
 30
0.0
  0
POINT
  5
32A
330
320
100
AcDbEntity
  8
DEFPOINTS
 62
     0
100
AcDbPoint
 10
9157.222070266092
 20
-19872.50683386851
 30
0.0
  0
ENDBLK
  5
32B
330
320
100
AcDbEntity
  8
0
100
AcDbBlockEnd
  0
BLOCK
  5
34B
330
34A
100
AcDbEntity
  8
0
100
AcDbBlockBegin
  2
*D1109
 70
     1
 10
0.0
 20
0.0
 30
0.0
  3
*D1109
  1
*D1109
  0
LINE
  5
34C
330
34A
100
AcDbEntity
  8
166-寸法B
100
AcDbLine
 10
7207.335555316364
 20
-19722.50683245695
 30
0.0
 11
7703.958146522818
 21
-19722.50683245695
 31
0.0
  0
LINE
  5
34D
330
34A
100
AcDbEntity
  8
166-寸法B
100
AcDbLine
 10
7216.416717386055
 20
-19102.50683373201
 30
0.0
 11
7703.958146522818
 21
-19102.50683373201
 31
0.0
  0
LINE
  5
34E
330
34A
100
AcDbEntity
  8
166-寸法B
100
AcDbLine
 10
7694.958146522818
 20
-19704.50683245695
 30
0.0
 11
7694.958146522818
 21
-19120.50683373201
 31
0.0
  0
INSERT
  5
34F
330
34A
100
AcDbEntity
  8
166-寸法B
100
AcDbBlockReference
  2
_Dot
 10
7694.958146522818
 20
-19722.50683245695
 30
0.0
 41
18.0
 42
18.0
 43
18.0
 50
270.0
  0
INSERT
  5
350
330
34A
100
AcDbEntity
  8
166-寸法B
100
AcDbBlockReference
  2
_Dot
 10
7694.958146522818
 20
-19102.50683373201
 30
0.0
 41
18.0
 42
18.0
 43
18.0
 50
90.0
  0
MTEXT
  5
351
330
34A
100
AcDbEntity
  8
166-寸法B
100
AcDbMText
 10
7649.958146522818
 20
-19412.50683309448
 30
0.0
 40
60.0
 41
0.0
 71
     5
 72
     1
  1
\A1;620
 11
0.0
 21
1.0
 31
0.0
 73
     1
 44
1.0
  0
POINT
  5
352
330
34A
100
AcDbEntity
  8
DEFPOINTS
 62
     0
100
AcDbPoint
 10
7171.335555316364
 20
-19722.50683245695
 30
0.0
  0
POINT
  5
353
330
34A
100
AcDbEntity
  8
DEFPOINTS
 62
     0
100
AcDbPoint
 10
7180.416717386055
 20
-19102.50683373201
 30
0.0
  0
POINT
  5
354
330
34A
100
AcDbEntity
  8
DEFPOINTS
 62
     0
100
AcDbPoint
 10
7694.958146522818
 20
-19102.50683373201
 30
0.0
  0
ENDBLK
  5
355
330
34A
100
AcDbEntity
  8
0
100
AcDbBlockEnd
  0
BLOCK
  5
35F
330
35E
100
AcDbEntity
  8
0
100
AcDbBlockBegin
  2
*D1110
 70
     1
 10
0.0
 20
0.0
 30
0.0
  3
*D1110
  1
*D1110
  0
LINE
  5
360
330
35E
100
AcDbEntity
  8
166-寸法B
100
AcDbLine
 10
7207.335555316364
 20
-19722.50683245695
 30
0.0
 11
7703.958146522818
 21
-19722.50683245695
 31
0.0
  0
LINE
  5
361
330
35E
100
AcDbEntity
  8
166-寸法B
100
AcDbLine
 10
7177.335555316247
 20
-19872.50683394678
 30
0.0
 11
7703.958146522818
 21
-19872.50683394678
 31
0.0
  0
LINE
  5
362
330
35E
100
AcDbEntity
  8
166-寸法B
100
AcDbLine
 10
7694.958146522818
 20
-19872.50683394678
 30
0.0
 11
7694.958146522818
 21
-20206.79298558035
 31
0.0
  0
LINE
  5
363
330
35E
100
AcDbEntity
  8
166-寸法B
100
AcDbLine
 10
7694.958146522818
 20
-19740.50683245695
 30
0.0
 11
7694.958146522818
 21
-19854.50683394678
 31
0.0
  0
INSERT
  5
364
330
35E
100
AcDbEntity
  8
166-寸法B
100
AcDbBlockReference
  2
_Dot
 10
7694.958146522818
 20
-19722.50683245695
 30
0.0
 41
18.0
 42
18.0
 43
18.0
 50
90.0
  0
INSERT
  5
365
330
35E
100
AcDbEntity
  8
166-寸法B
100
AcDbBlockReference
  2
_Dot
 10
7694.958146522818
 20
-19872.50683394678
 30
0.0
 41
18.0
 42
18.0
 43
18.0
 50
270.0
  0
MTEXT
  5
366
330
35E
100
AcDbEntity
  8
166-寸法B
100
AcDbMText
 10
7644.94814652282
 20
-20048.75298558036
 30
0.0
 40
60.0
 41
0.0
 71
     5
 72
     1
  1
\A1;150(200)
 11
0.0
 21
1.0
 31
0.0
 73
     1
 44
1.0
  0
POINT
  5
367
330
35E
100
AcDbEntity
  8
DEFPOINTS
 62
     0
100
AcDbPoint
 10
7171.335555316364
 20
-19722.50683245695
 30
0.0
  0
POINT
  5
368
330
35E
100
AcDbEntity
  8
DEFPOINTS
 62
     0
100
AcDbPoint
 10
7141.335555316247
 20
-19872.50683394678
 30
0.0
  0
POINT
  5
369
330
35E
100
AcDbEntity
  8
DEFPOINTS
 62
     0
100
AcDbPoint
 10
7694.958146522818
 20
-19872.50683394678
 30
0.0
  0
ENDBLK
  5
36A
330
35E
100
AcDbEntity
  8
0
100
AcDbBlockEnd
  0
BLOCK
  5
36F
330
36E
100
AcDbEntity
  8
0
100
AcDbBlockBegin
  2
*D1111
 70
     1
 10
0.0
 20
0.0
 30
0.0
  3
*D1111
  1
*D1111
  0
LINE
  5
370
330
36E
100
AcDbEntity
  8
166-寸法B
100
AcDbLine
 10
6575.335559906154
 20
-19908.50683394678
 30
0.0
 11
6575.335559906154
 21
-20408.86489065199
 31
0.0
  0
LINE
  5
371
330
36E
100
AcDbEntity
  8
166-寸法B
100
AcDbLine
 10
7141.335555316247
 20
-19908.50683394678
 30
0.0
 11
7141.335555316247
 21
-20408.86489065199
 31
0.0
  0
LINE
  5
372
330
36E
100
AcDbEntity
  8
166-寸法B
100
AcDbLine
 10
6593.335559906154
 20
-20399.86489065199
 30
0.0
 11
7123.335555316247
 21
-20399.86489065199
 31
0.0
  0
INSERT
  5
373
330
36E
100
AcDbEntity
  8
166-寸法B
100
AcDbBlockReference
  2
_Dot
 10
6575.335559906154
 20
-20399.86489065199
 30
0.0
 41
18.0
 42
18.0
 43
18.0
 50
180.0
  0
INSERT
  5
374
330
36E
100
AcDbEntity
  8
166-寸法B
100
AcDbBlockReference
  2
_Dot
 10
7141.335555316247
 20
-20399.86489065199
 30
0.0
 41
18.0
 42
18.0
 43
18.0
  0
MTEXT
  5
375
330
36E
100
AcDbEntity
  8
166-寸法B
100
AcDbMText
 10
6858.335557611201
 20
-20354.86489065199
 30
0.0
 40
60.0
 41
0.0
 71
     5
 72
     1
  1
\A1;566
 73
     1
 44
1.0
  0
POINT
  5
376
330
36E
100
AcDbEntity
  8
DEFPOINTS
 62
     0
100
AcDbPoint
 10
6575.335559906154
 20
-19872.50683394678
 30
0.0
  0
POINT
  5
377
330
36E
100
AcDbEntity
  8
DEFPOINTS
 62
     0
100
AcDbPoint
 10
7141.335555316247
 20
-19872.50683394678
 30
0.0
  0
POINT
  5
378
330
36E
100
AcDbEntity
  8
DEFPOINTS
 62
     0
100
AcDbPoint
 10
7141.335555316247
 20
-20399.86489065199
 30
0.0
  0
ENDBLK
  5
379
330
36E
100
AcDbEntity
  8
0
100
AcDbBlockEnd
  0
BLOCK
  5
37C
330
37B
100
AcDbEntity
  8
0
100
AcDbBlockBegin
  2
*D1112
 70
     1
 10
0.0
 20
0.0
 30
0.0
  3
*D1112
  1
*D1112
  0
LINE
  5
37D
330
37B
100
AcDbEntity
  8
166-寸法B
100
AcDbLine
 10
6491.335555316247
 20
-18976.50683394678
 30
0.0
 11
6491.335555316247
 21
-18845.68669497883
 31
0.0
  0
LINE
  5
37E
330
37B
100
AcDbEntity
  8
166-寸法B
100
AcDbLine
 10
7141.335555316247
 20
-18976.50683394678
 30
0.0
 11
7141.335555316247
 21
-18845.68669497883
 31
0.0
  0
LINE
  5
37F
330
37B
100
AcDbEntity
  8
166-寸法B
100
AcDbLine
 10
6509.335555316247
 20
-18854.68669497883
 30
0.0
 11
7123.335555316247
 21
-18854.68669497883
 31
0.0
  0
INSERT
  5
380
330
37B
100
AcDbEntity
  8
166-寸法B
100
AcDbBlockReference
  2
_Dot
 10
6491.335555316247
 20
-18854.68669497883
 30
0.0
 41
18.0
 42
18.0
 43
18.0
 50
180.0
  0
INSERT
  5
381
330
37B
100
AcDbEntity
  8
166-寸法B
100
AcDbBlockReference
  2
_Dot
 10
7141.335555316247
 20
-18854.68669497883
 30
0.0
 41
18.0
 42
18.0
 43
18.0
  0
MTEXT
  5
382
330
37B
100
AcDbEntity
  8
166-寸法B
100
AcDbMText
 10
6816.335555316247
 20
-18809.68669497883
 30
0.0
 40
60.0
 41
0.0
 71
     5
 72
     1
  1
\A1;650
 73
     1
 44
1.0
  0
POINT
  5
383
330
37B
100
AcDbEntity
  8
DEFPOINTS
 62
     0
100
AcDbPoint
 10
6491.335555316247
 20
-19012.50683394678
 30
0.0
  0
POINT
  5
384
330
37B
100
AcDbEntity
  8
DEFPOINTS
 62
     0
100
AcDbPoint
 10
7141.335555316247
 20
-19012.50683394678
 30
0.0
  0
POINT
  5
385
330
37B
100
AcDbEntity
  8
DEFPOINTS
 62
     0
100
AcDbPoint
 10
7141.335555316247
 20
-18854.68669497883
 30
0.0
  0
ENDBLK
  5
386
330
37B
100
AcDbEntity
  8
0
100
AcDbBlockEnd
  0
BLOCK
  5
389
330
388
100
AcDbEntity
  8
0
100
AcDbBlockBegin
  2
*D1113
 70
     1
 10
0.0
 20
0.0
 30
0.0
  3
*D1113
  1
*D1113
  0
LINE
  5
38A
330
388
100
AcDbEntity
  8
166-寸法B
100
AcDbLine
 10
6491.335555316364
 20
-19088.50683642209
 30
0.0
 11
6491.335555316364
 21
-19353.02958456029
 31
0.0
  0
LINE
  5
38B
330
388
100
AcDbEntity
  8
166-寸法B
100
AcDbLine
 10
6501.335557864579
 20
-19405.91238275217
 30
0.0
 11
6501.335557864579
 21
-19335.02958456029
 31
0.0
  0
LINE
  5
38C
330
388
100
AcDbEntity
  8
166-寸法B
100
AcDbLine
 10
6491.335555316364
 20
-19344.02958456029
 30
0.0
 11
6354.19109306471
 21
-19344.02958456029
 31
0.0
  0
LINE
  5
38D
330
388
100
AcDbEntity
  8
166-寸法B
100
AcDbLine
 10
6491.335555316364
 20
-19344.02958456029
 30
0.0
 11
6501.335557864579
 21
-19344.02958456029
 31
0.0
  0
LINE
  5
38E
330
388
100
AcDbEntity
  8
166-寸法B
100
AcDbLine
 10
6473.335555316364
 20
-19344.02958456029
 30
0.0
 11
6455.335555316364
 21
-19344.02958456029
 31
0.0
  0
LINE
  5
38F
330
388
100
AcDbEntity
  8
166-寸法B
100
AcDbLine
 10
6519.335557864579
 20
-19344.02958456029
 30
0.0
 11
6537.335557864579
 21
-19344.02958456029
 31
0.0
  0
INSERT
  5
390
330
388
100
AcDbEntity
  8
166-寸法B
100
AcDbBlockReference
  2
_Dot
 10
6491.335555316364
 20
-19344.02958456029
 30
0.0
 41
18.0
 42
18.0
 43
18.0
  0
INSERT
  5
391
330
388
100
AcDbEntity
  8
166-寸法B
100
AcDbBlockReference
  2
_Dot
 10
6501.335557864579
 20
-19344.02958456029
 30
0.0
 41
18.0
 42
18.0
 43
18.0
 50
180.0
  0
MTEXT
  5
392
330
388
100
AcDbEntity
  8
166-寸法B
100
AcDbMText
 10
6402.85109306471
 20
-19299.02958456029
 30
0.0
 40
60.0
 41
0.0
 71
     5
 72
     1
  1
\A1;10
 73
     1
 44
1.0
  0
POINT
  5
393
330
388
100
AcDbEntity
  8
DEFPOINTS
 62
     0
100
AcDbPoint
 10
6491.335555316364
 20
-19052.50683642209
 30
0.0
  0
POINT
  5
394
330
388
100
AcDbEntity
  8
DEFPOINTS
 62
     0
100
AcDbPoint
 10
6501.335557864579
 20
-19441.91238275217
 30
0.0
  0
POINT
  5
395
330
388
100
AcDbEntity
  8
DEFPOINTS
 62
     0
100
AcDbPoint
 10
6501.335557864579
 20
-19344.02958456029
 30
0.0
  0
ENDBLK
  5
396
330
388
100
AcDbEntity
  8
0
100
AcDbBlockEnd
  0
BLOCK
  5
399
330
398
100
AcDbEntity
  8
0
100
AcDbBlockBegin
  2
*D1114
 70
     1
 10
0.0
 20
0.0
 30
0.0
  3
*D1114
  1
*D1114
  0
LINE
  5
39A
330
398
100
AcDbEntity
  8
166-寸法B
100
AcDbLine
 10
6501.335557864579
 20
-19405.91238275217
 30
0.0
 11
6501.335557864579
 21
-19335.02958456029
 31
0.0
  0
LINE
  5
39B
330
398
100
AcDbEntity
  8
166-寸法B
100
AcDbLine
 10
7141.335555316247
 20
-19257.32365074484
 30
0.0
 11
7141.335555316247
 21
-19353.02958456029
 31
0.0
  0
LINE
  5
39C
330
398
100
AcDbEntity
  8
166-寸法B
100
AcDbLine
 10
6519.335557864579
 20
-19344.02958456029
 30
0.0
 11
7123.335555316247
 21
-19344.02958456029
 31
0.0
  0
INSERT
  5
39D
330
398
100
AcDbEntity
  8
166-寸法B
100
AcDbBlockReference
  2
_Dot
 10
6501.335557864579
 20
-19344.02958456029
 30
0.0
 41
18.0
 42
18.0
 43
18.0
 50
180.0
  0
INSERT
  5
39E
330
398
100
AcDbEntity
  8
166-寸法B
100
AcDbBlockReference
  2
_Dot
 10
7141.335555316247
 20
-19344.02958456029
 30
0.0
 41
18.0
 42
18.0
 43
18.0
  0
MTEXT
  5
39F
330
398
100
AcDbEntity
  8
166-寸法B
100
AcDbMText
 10
6821.335556590413
 20
-19299.02958456029
 30
0.0
 40
60.0
 41
0.0
 71
     5
 72
     1
  1
\A1;640
 73
     1
 44
1.0
  0
POINT
  5
3A0
330
398
100
AcDbEntity
  8
DEFPOINTS
 62
     0
100
AcDbPoint
 10
6501.335557864579
 20
-19441.91238275217
 30
0.0
  0
POINT
  5
3A1
330
398
100
AcDbEntity
  8
DEFPOINTS
 62
     0
100
AcDbPoint
 10
7141.335555316247
 20
-19221.32365074484
 30
0.0
  0
POINT
  5
3A2
330
398
100
AcDbEntity
  8
DEFPOINTS
 62
     0
100
AcDbPoint
 10
7141.335555316247
 20
-19344.02958456029
 30
0.0
  0
ENDBLK
  5
3A3
330
398
100
AcDbEntity
  8
0
100
AcDbBlockEnd
  0
BLOCK
  5
3A6
330
3A5
100
AcDbEntity
  8
0
100
AcDbBlockBegin
  2
*D1115
 70
     1
 10
0.0
 20
0.0
 30
0.0
  3
*D1115
  1
*D1115
  0
LINE
  5
3A7
330
3A5
100
AcDbEntity
  8
166-寸法B
100
AcDbLine
 10
6455.335555316364
 20
-19872.50683386851
 30
0.0
 11
6124.423384151953
 21
-19872.50683386851
 31
0.0
  0
LINE
  5
3A8
330
3A5
100
AcDbEntity
  8
166-寸法B
100
AcDbLine
 10
6455.335555316247
 20
-19012.50683394678
 30
0.0
 11
6124.423384151953
 21
-19012.50683394678
 31
0.0
  0
LINE
  5
3A9
330
3A5
100
AcDbEntity
  8
166-寸法B
100
AcDbLine
 10
6133.423384151953
 20
-19854.50683386851
 30
0.0
 11
6133.423384151953
 21
-19030.50683394678
 31
0.0
  0
INSERT
  5
3AA
330
3A5
100
AcDbEntity
  8
166-寸法B
100
AcDbBlockReference
  2
_Dot
 10
6133.423384151953
 20
-19872.50683386851
 30
0.0
 41
18.0
 42
18.0
 43
18.0
 50
270.0
  0
INSERT
  5
3AB
330
3A5
100
AcDbEntity
  8
166-寸法B
100
AcDbBlockReference
  2
_Dot
 10
6133.423384151953
 20
-19012.50683394678
 30
0.0
 41
18.0
 42
18.0
 43
18.0
 50
90.0
  0
MTEXT
  5
3AC
330
3A5
100
AcDbEntity
  8
166-寸法B
100
AcDbMText
 10
6083.413384151954
 20
-19442.50683390765
 30
0.0
 40
60.0
 41
0.0
 71
     5
 72
     1
  1
\A1;860(910)
 11
0.0
 21
1.0
 31
0.0
 73
     1
 44
1.0
  0
POINT
  5
3AD
330
3A5
100
AcDbEntity
  8
DEFPOINTS
 62
     0
100
AcDbPoint
 10
6491.335555316364
 20
-19872.50683386851
 30
0.0
  0
POINT
  5
3AE
330
3A5
100
AcDbEntity
  8
DEFPOINTS
 62
     0
100
AcDbPoint
 10
6491.335555316247
 20
-19012.50683394678
 30
0.0
  0
POINT
  5
3AF
330
3A5
100
AcDbEntity
  8
DEFPOINTS
 62
     0
100
AcDbPoint
 10
6133.423384151953
 20
-19012.50683394678
 30
0.0
  0
ENDBLK
  5
3B0
330
3A5
100
AcDbEntity
  8
0
100
AcDbBlockEnd
  0
BLOCK
  5
3B3
330
3B2
100
AcDbEntity
  8
0
100
AcDbBlockBegin
  2
*D1116
 70
     1
 10
0.0
 20
0.0
 30
0.0
  3
*D1116
  1
*D1116
  0
LINE
  5
3B4
330
3B2
100
AcDbEntity
  8
166-寸法B
100
AcDbLine
 10
6455.335555316247
 20
-19052.50683394678
 30
0.0
 11
6259.423384151953
 21
-19052.50683394678
 31
0.0
  0
LINE
  5
3B5
330
3B2
100
AcDbEntity
  8
166-寸法B
100
AcDbLine
 10
6455.335555316364
 20
-19772.5068338685
 30
0.0
 11
6259.423384151953
 21
-19772.5068338685
 31
0.0
  0
LINE
  5
3B6
330
3B2
100
AcDbEntity
  8
166-寸法B
100
AcDbLine
 10
6268.423384151953
 20
-19070.50683394678
 30
0.0
 11
6268.423384151953
 21
-19754.5068338685
 31
0.0
  0
INSERT
  5
3B7
330
3B2
100
AcDbEntity
  8
166-寸法B
100
AcDbBlockReference
  2
_Dot
 10
6268.423384151953
 20
-19052.50683394678
 30
0.0
 41
18.0
 42
18.0
 43
18.0
 50
90.0
  0
INSERT
  5
3B8
330
3B2
100
AcDbEntity
  8
166-寸法B
100
AcDbBlockReference
  2
_Dot
 10
6268.423384151953
 20
-19772.5068338685
 30
0.0
 41
18.0
 42
18.0
 43
18.0
 50
270.0
  0
MTEXT
  5
3B9
330
3B2
100
AcDbEntity
  8
166-寸法B
100
AcDbMText
 10
6223.423384151953
 20
-19412.50683390764
 30
0.0
 40
60.0
 41
0.0
 71
     5
 72
     1
  1
\A1;720
 11
0.0
 21
1.0
 31
0.0
 73
     1
 44
1.0
  0
POINT
  5
3BA
330
3B2
100
AcDbEntity
  8
DEFPOINTS
 62
     0
100
AcDbPoint
 10
6491.335555316247
 20
-19052.50683394678
 30
0.0
  0
POINT
  5
3BB
330
3B2
100
AcDbEntity
  8
DEFPOINTS
 62
     0
100
AcDbPoint
 10
6491.335555316364
 20
-19772.5068338685
 30
0.0
  0
POINT
  5
3BC
330
3B2
100
AcDbEntity
  8
DEFPOINTS
 62
     0
100
AcDbPoint
 10
6268.423384151953
 20
-19772.5068338685
 30
0.0
  0
ENDBLK
  5
3BD
330
3B2
100
AcDbEntity
  8
0
100
AcDbBlockEnd
  0
BLOCK
  5
3C0
330
3BF
100
AcDbEntity
  8
0
100
AcDbBlockBegin
  2
*D1117
 70
     1
 10
0.0
 20
0.0
 30
0.0
  3
*D1117
  1
*D1117
  0
LINE
  5
3C1
330
3BF
100
AcDbEntity
  8
166-寸法B
100
AcDbLine
 10
6455.335555316364
 20
-19772.5068338685
 30
0.0
 11
6259.423384151953
 21
-19772.5068338685
 31
0.0
  0
LINE
  5
3C2
330
3BF
100
AcDbEntity
  8
166-寸法B
100
AcDbLine
 10
6455.335555316364
 20
-19872.5068338685
 30
0.0
 11
6259.423384151953
 21
-19872.5068338685
 31
0.0
  0
LINE
  5
3C3
330
3BF
100
AcDbEntity
  8
166-寸法B
100
AcDbLine
 10
6268.423384151953
 20
-19872.5068338685
 30
0.0
 11
6268.423384151953
 21
-20210.00046575868
 31
0.0
  0
LINE
  5
3C4
330
3BF
100
AcDbEntity
  8
166-寸法B
100
AcDbLine
 10
6268.423384151953
 20
-19790.5068338685
 30
0.0
 11
6268.423384151953
 21
-19854.5068338685
 31
0.0
  0
INSERT
  5
3C5
330
3BF
100
AcDbEntity
  8
166-寸法B
100
AcDbBlockReference
  2
_Dot
 10
6268.423384151953
 20
-19772.5068338685
 30
0.0
 41
18.0
 42
18.0
 43
18.0
 50
90.0
  0
INSERT
  5
3C6
330
3BF
100
AcDbEntity
  8
166-寸法B
100
AcDbBlockReference
  2
_Dot
 10
6268.423384151953
 20
-19872.5068338685
 30
0.0
 41
18.0
 42
18.0
 43
18.0
 50
270.0
  0
MTEXT
  5
3C7
330
3BF
100
AcDbEntity
  8
166-寸法B
100
AcDbMText
 10
6218.413384151954
 20
-20051.96046575868
 30
0.0
 40
60.0
 41
0.0
 71
     5
 72
     1
  1
\A1;100(150)
 11
0.0
 21
1.0
 31
0.0
 73
     1
 44
1.0
  0
POINT
  5
3C8
330
3BF
100
AcDbEntity
  8
DEFPOINTS
 62
     0
100
AcDbPoint
 10
6491.335555316364
 20
-19772.5068338685
 30
0.0
  0
POINT
  5
3C9
330
3BF
100
AcDbEntity
  8
DEFPOINTS
 62
     0
100
AcDbPoint
 10
6491.335555316364
 20
-19872.5068338685
 30
0.0
  0
POINT
  5
3CA
330
3BF
100
AcDbEntity
  8
DEFPOINTS
 62
     0
100
AcDbPoint
 10
6268.423384151953
 20
-19872.5068338685
 30
0.0
  0
ENDBLK
  5
3CB
330
3BF
100
AcDbEntity
  8
0
100
AcDbBlockEnd
  0
BLOCK
  5
3CE
330
3CD
100
AcDbEntity
  8
0
100
AcDbBlockBegin
  2
*D1118
 70
     1
 10
0.0
 20
0.0
 30
0.0
  3
*D1118
  1
*D1118
  0
LINE
  5
3CF
330
3CD
100
AcDbEntity
  8
166-寸法B
100
AcDbLine
 10
6455.335555316247
 20
-19052.50683394678
 30
0.0
 11
6259.423384151953
 21
-19052.50683394678
 31
0.0
  0
LINE
  5
3D0
330
3CD
100
AcDbEntity
  8
166-寸法B
100
AcDbLine
 10
6455.335555316247
 20
-19012.50683394678
 30
0.0
 11
6259.423384151953
 21
-19012.50683394678
 31
0.0
  0
LINE
  5
3D1
330
3CD
100
AcDbEntity
  8
166-寸法B
100
AcDbLine
 10
6268.423384151953
 20
-19012.50683394678
 30
0.0
 11
6268.423384151953
 21
-18868.67040909103
 31
0.0
  0
LINE
  5
3D2
330
3CD
100
AcDbEntity
  8
166-寸法B
100
AcDbLine
 10
6268.423384151953
 20
-19052.50683394678
 30
0.0
 11
6268.423384151953
 21
-19012.50683394678
 31
0.0
  0
LINE
  5
3D3
330
3CD
100
AcDbEntity
  8
166-寸法B
100
AcDbLine
 10
6268.423384151953
 20
-19070.50683394678
 30
0.0
 11
6268.423384151953
 21
-19088.50683394678
 31
0.0
  0
LINE
  5
3D4
330
3CD
100
AcDbEntity
  8
166-寸法B
100
AcDbLine
 10
6268.423384151953
 20
-18994.50683394678
 30
0.0
 11
6268.423384151953
 21
-18976.50683394678
 31
0.0
  0
INSERT
  5
3D5
330
3CD
100
AcDbEntity
  8
166-寸法B
100
AcDbBlockReference
  2
_Dot
 10
6268.423384151953
 20
-19052.50683394678
 30
0.0
 41
18.0
 42
18.0
 43
18.0
 50
90.0
  0
INSERT
  5
3D6
330
3CD
100
AcDbEntity
  8
166-寸法B
100
AcDbBlockReference
  2
_Dot
 10
6268.423384151953
 20
-19012.50683394678
 30
0.0
 41
18.0
 42
18.0
 43
18.0
 50
270.0
  0
MTEXT
  5
3D7
330
3CD
100
AcDbEntity
  8
166-寸法B
100
AcDbMText
 10
6223.423384151953
 20
-18919.91040909103
 30
0.0
 40
60.0
 41
0.0
 71
     5
 72
     1
  1
\A1;40
 11
0.0
 21
1.0
 31
0.0
 73
     1
 44
1.0
  0
POINT
  5
3D8
330
3CD
100
AcDbEntity
  8
DEFPOINTS
 62
     0
100
AcDbPoint
 10
6491.335555316247
 20
-19052.50683394678
 30
0.0
  0
POINT
  5
3D9
330
3CD
100
AcDbEntity
  8
DEFPOINTS
 62
     0
100
AcDbPoint
 10
6491.335555316247
 20
-19012.50683394678
 30
0.0
  0
POINT
  5
3DA
330
3CD
100
AcDbEntity
  8
DEFPOINTS
 62
     0
100
AcDbPoint
 10
6268.423384151953
 20
-19012.50683394678
 30
0.0
  0
ENDBLK
  5
3DB
330
3CD
100
AcDbEntity
  8
0
100
AcDbBlockEnd
  0
ENDSEC
  0
SECTION
  2
ENTITIES
  0
LWPOLYLINE
  5
68
330
1C
100
AcDbEntity
  8
126-甲板
100
AcDbPolyline
 90
        4
 70
     1
 43
0.0
 10
2411.938699500402
 20
-15233.54801573074
 10
3955.93989626877
 20
-15233.54801573074
 10
3955.93989626877
 20
-14583.54801573074
 10
2411.938699500402
 20
-14583.54801573074
  0
LINE
  5
6C
330
1C
100
AcDbEntity
  8
111-壁仕上
 48
2.0
100
AcDbLine
 10
2050.008279028814
 20
-14583.54801573074
 30
0.0
 11
4317.866757812328
 21
-14583.54801573074
 31
0.0
  0
LWPOLYLINE
  5
70
330
1C
100
AcDbEntity
  8
126-甲板
100
AcDbPolyline
 90
        4
 70
     1
 43
0.0
 10
2411.938699500402
 20
-19052.50686402009
 10
2411.938699500402
 20
-19012.50686402009
 10
3955.938699500402
 20
-19012.50686402009
 10
3955.938699500402
 20
-19052.50686402009
  0
LWPOLYLINE
  5
71
330
1C
100
AcDbEntity
  8
122-扉
100
AcDbPolyline
 90
        4
 70
     1
 43
0.0
 10
2433.939084277477
 20
-19772.50742942389
 10
2433.938707355366
 20
-19872.50403700836
 10
3183.938699500402
 20
-19872.50686402009
 10
3183.938699500402
 20
-19772.5068640201
  0
LINE
  5
75
330
1C
100
AcDbEntity
  8
111-壁仕上
 48
2.0
100
AcDbLine
 10
1806.622181977902
 20
-19872.50686402011
 30
0.0
 11
4401.801030624134
 21
-19872.5068640201
 31
0.0
  0
LINE
  5
76
330
1C
100
AcDbEntity
  8
122-扉
100
AcDbLine
 10
3183.937510576332
 20
-19872.50686649541
 30
0.0
 11
2733.937510576332
 21
-19872.50686649541
 31
0.0
  0
LINE
  5
77
330
1C
100
AcDbEntity
  8
122-扉
100
AcDbLine
 10
2433.9387073447
 20
-19872.50686649541
 30
0.0
 11
2883.937510576332
 21
-19872.50686649541
 31
0.0
  0
LINE
  5
78
330
1C
100
AcDbEntity
  8
122-扉
100
AcDbLine
 10
2433.941100881435
 20
-19237.50683639535
 30
0.0
 11
2433.9387073447
 21
-19872.50686649541
 31
0.0
  0
LINE
  5
79
330
1C
100
AcDbEntity
  8
122-扉
100
AcDbLine
 10
3933.937494887738
 20
-19052.50686649541
 30
0.0
 11
3933.93629811937
 21
-19237.50683639535
 31
0.0
  0
INSERT
  5
7A
330
1C
100
AcDbEntity
  8
190-図面外枠
100
AcDbBlockReference
  2
A$C5D946DDC
 10
0.0
 20
-22040.00000003285
 30
0.0
 41
0.6000000000058208
 42
0.6000000000058208
 43
0.6000000000058208
  0
LINE
  5
89
330
1C
100
AcDbEntity
  8
191-図面内枠
100
AcDbLine
 10
162.5836363619892
 20
-21012.67000003656
 30
0.0
 11
12311.40363632329
 21
-21012.67000003656
 31
0.0
  0
MTEXT
  5
8D
330
1C
100
AcDbEntity
  8
191-図面内枠
100
AcDbMText
 10
210.5431393617764
 20
-21089.84325003633
 30
0.0
 40
65.9999999997899
 41
576.9368594981635
 71
     4
 72
     1
  1
備考欄/NOTE 
 73
     1
 44
0.7828267384257844
  0
LWPOLYLINE
  5
8E
330
1C
100
AcDbEntity
  8
190-図面外枠
100
AcDbPolyline
 90
        2
 70
     0
 43
0.0
 10
162.5836363621056
 20
-13656.43838383652
 10
12311.40363635076
 20
-13656.43838383652
  0
MTEXT
  5
8F
330
1C
100
AcDbEntity
  8
160-文字
100
AcDbMText
 10
3186.938695578254
 20
-20864.16408193015
 30
0.0
 40
68.0
 41
0.0
 71
     5
 72
     1
  1
{\fArial|b0|i0|c0|p32;A}面展開図
 73
     1
 44
1.0
  0
LWPOLYLINE
  5
93
330
1C
100
AcDbEntity
  8
160-文字
100
AcDbPolyline
 90
        4
 70
     1
 43
0.0
 10
2901.924192124046
 20
-20798.95078966991
 10
3471.953199032345
 20
-20798.95078966991
 10
3471.953199032345
 20
-20929.37737419036
 10
2901.924192124046
 20
-20929.37737419036
  0
DIMENSION
  5
94
330
1C
100
AcDbEntity
  8
166-寸法B
100
AcDbDimension
  2
*D1048
 10
3955.946567993586
 20
-15624.50187713383
 30
0.0
 11
3183.942633746994
 21
-15574.19187713383
 31
0.0
 70
    32
  1
<>〈ﾜｰｸﾄｯﾌﾟ寸法〉
 71
     5
 42
1544.007868493183
  3
KH1xx030
100
AcDbAlignedDimension
 13
2411.938699500402
 23
-15233.54801573074
 33
0.0
 14
3955.946567993586
 24
-15234.54837277227
 34
0.0
100
AcDbRotatedDimension
  0
DIMENSION
  5
A5
330
1C
100
AcDbEntity
  8
166-寸法B
100
AcDbDimension
  2
*D1049
 10
3183.937518420629
 20
-20264.86492072531
 30
0.0
 11
2808.938108960516
 21
-20219.86492072531
 31
0.0
 70
    32
 71
     5
 42
749.9988189202268
  3
KH1xx030
100
AcDbAlignedDimension
 13
2433.938699500402
 23
-19872.50403700833
 33
0.0
 14
3183.937518420629
 24
-20129.85895387867
 34
0.0
100
AcDbRotatedDimension
  0
DIMENSION
  5
B2
330
1C
100
AcDbEntity
  8
166-寸法B
100
AcDbDimension
  2
*D1050
 10
3933.938691656105
 20
-20264.86492072531
 30
0.0
 11
3558.938105038367
 21
-20219.86492072531
 31
0.0
 70
    32
 71
     5
 42
750.001173235476
  3
KH1xx030
100
AcDbAlignedDimension
 13
3183.937518420629
 23
-20129.85895387867
 33
0.0
 14
3933.938691656105
 24
-20129.85895387867
 34
0.0
100
AcDbRotatedDimension
  0
LWPOLYLINE
  5
BF
330
1C
100
AcDbEntity
  8
122-扉
100
AcDbPolyline
 90
        4
 70
     1
 43
0.0
 10
3933.938691656105
 20
-19872.50686649541
 10
3952.938691656105
 20
-19872.50686649541
 10
3952.938691656105
 20
-19052.50686649541
 10
3933.938691656105
 20
-19052.50686649541
  0
LWPOLYLINE
  5
C0
330
1C
100
AcDbEntity
  8
120-キャビネット（外）
 62
     6
100
AcDbPolyline
 90
        4
 70
     1
 43
0.0
 10
2414.938699500402
 20
-19052.50686394187
 10
2433.938699500402
 20
-19052.50686409219
 10
2433.938699500402
 20
-19872.50686409219
 10
2414.938699500402
 20
-19872.50686409219
  0
DIMENSION
  5
C4
330
1C
100
AcDbEntity
  8
166-寸法B
100
AcDbDimension
  2
*D1051
 10
3952.938691656105
 20
-20264.86492072531
 30
0.0
 11
3873.604216219857
 21
-20264.86492072531
 31
0.0
 70
   160
 71
     5
 42
19.0
  3
KH1xx030
100
AcDbAlignedDimension
 13
3933.938691656105
 23
-20129.85895387867
 33
0.0
 14
3952.938691656105
 24
-19872.50686649541
 34
0.0
100
AcDbRotatedDimension
1001
ACAD
1000
DSTYLE
1002
{
1070
   279
1070
     1
1002
}
  0
DIMENSION
  5
D3
330
1C
100
AcDbEntity
  8
166-寸法B
100
AcDbDimension
  2
*D1052
 10
2414.938699500402
 20
-20399.86492072531
 30
0.0
 11
3183.938695578254
 21
-20351.05492072531
 31
0.0
 70
    32
 71
     5
 42
1537.999992155703
  3
KH1xx030
100
AcDbAlignedDimension
 13
3952.938691656105
 23
-19872.50686649541
 33
0.0
 14
2414.938699500402
 24
-19872.50686649541
 34
0.0
100
AcDbRotatedDimension
  0
DIMENSION
  5
E0
330
1C
100
AcDbEntity
  8
166-寸法B
100
AcDbDimension
  2
*D1053
 10
2433.938699500402
 20
-20264.86492072531
 30
0.0
 11
2512.909963214304
 21
-20264.86492072531
 31
0.0
 70
   160
 71
     5
 42
19.0
  3
KH1xx030
100
AcDbAlignedDimension
 13
2414.938699500402
 23
-19872.50686402011
 33
0.0
 14
2433.938699500402
 24
-19872.50403700833
 34
0.0
100
AcDbRotatedDimension
1001
ACAD
1000
DSTYLE
1002
{
1070
   279
1070
     1
1002
}
  0
DIMENSION
  5
F0
330
1C
100
AcDbEntity
  8
166-寸法B
100
AcDbDimension
  2
*D1054
 10
3955.938691656105
 20
-20399.86492072531
 30
0.0
 11
4040.405788572156
 21
-20416.35376612307
 31
0.0
 70
   160
 71
     5
 42
3.0
  3
KH1xx030
100
AcDbAlignedDimension
 13
3952.938691656105
 23
-19872.50686403205
 33
0.0
 14
3955.938691656105
 24
-19872.50686403205
 34
0.0
100
AcDbRotatedDimension
1001
ACAD
1000
DSTYLE
1002
{
1070
   279
1070
     1
1002
}
  0
DIMENSION
  5
100
330
1C
100
AcDbEntity
  8
166-寸法B
100
AcDbDimension
  2
*D1055
 10
2411.938699500402
 20
-20534.86492072531
 30
0.0
 11
3183.938695578254
 21
-20486.05492072531
 31
0.0
 70
    32
 71
     5
 42
1543.999992155703
  3
KH1xx030
100
AcDbAlignedDimension
 13
3955.938691656105
 23
-19872.50686403205
 33
0.0
 14
2411.938699500402
 24
-19872.50686649541
 34
0.0
100
AcDbRotatedDimension
  0
LINE
  5
10D
330
1C
100
AcDbEntity
  8
121-キャビネット（中）
 48
2.0
100
AcDbLine
 10
2414.938699500402
 20
-15223.54801573073
 30
0.0
 11
3952.938691656105
 21
-15223.54801573073
 31
0.0
  0
LINE
  5
112
330
1C
100
AcDbEntity
  8
121-キャビネット（中）
 48
2.0
100
AcDbLine
 10
3952.938691656105
 20
-15223.54801573073
 30
0.0
 11
3952.938691656105
 21
-14583.54801573074
 31
0.0
  0
DIMENSION
  5
113
330
1C
100
AcDbEntity
  8
166-寸法B
100
AcDbDimension
  2
*D1056
 10
1919.026528336108
 20
-14583.54801573074
 30
0.0
 11
1874.026528336108
 21
-14908.54801573074
 31
0.0
 70
    32
 71
     5
 42
650.0
  3
KH1xx030
100
AcDbAlignedDimension
 13
2420.937518420629
 23
-15233.54801573074
 33
0.0
 14
2420.937518420629
 24
-14583.54801573074
 34
0.0
 50
90.0
100
AcDbRotatedDimension
  0
MTEXT
  5
120
330
1C
100
AcDbEntity
  8
161-番号
100
AcDbMText
 10
2508.04760003672
 20
-19949.23809165719
 30
0.0
 40
90.0
 41
0.0
 71
     1
 72
     1
  1
②
 73
     1
 44
1.0
  0
LEADER
  5
124
330
1C
100
AcDbEntity
  8
161-番号
100
AcDbLeader
  3
KH1xx030
 74
     0
 76
     2
 10
2809.182522797026
 20
-19579.6825857783
 30
0.0
 10
2591.210837132297
 20
-19957.59288294872
 30
0.0
1001
ACAD
1000
DSTYLE
1002
{
1070
    41
1040
2.0
1070
   341
1005
0
1070
   147
1040
0.5
1070
    77
1070
     1
1002
}
  0
MTEXT
  5
125
330
1C
100
AcDbEntity
  8
161-番号
100
AcDbMText
 10
3305.572008112911
 20
-18736.14381514055
 30
0.0
 40
90.0
 41
0.0
 71
     1
 72
     1
  1
①
 73
     1
 44
1.0
  0
LEADER
  5
126
330
1C
100
AcDbEntity
  8
161-番号
100
AcDbLeader
  3
KH1xx030
 74
     0
 76
     2
 10
3235.15472216194
 20
-19032.67880402711
 30
0.0
 10
3335.218152790796
 20
-18839.9498003963
 30
0.0
1001
ACAD
1000
DSTYLE
1002
{
1070
    41
1040
2.0
1070
   341
1005
0
1070
   147
1040
0.5
1070
    77
1070
     1
1002
}
  0
MTEXT
  5
127
330
1C
100
AcDbEntity
  8
161-番号
100
AcDbMText
 10
3322.504977828823
 20
-19949.23809165719
 30
0.0
 40
90.0
 41
0.0
 71
     1
 72
     1
  1
④
 73
     1
 44
1.0
  0
LEADER
  5
128
330
1C
100
AcDbEntity
  8
161-番号
100
AcDbLeader
  3
KH1xx030
 74
     0
 76
     2
 10
3620.164559377474
 20
-19583.24539969029
 30
0.0
 10
3405.668214924401
 20
-19957.59288294872
 30
0.0
1001
ACAD
1000
DSTYLE
1002
{
1070
    41
1040
2.0
1070
   341
1005
0
1070
   147
1040
0.5
1070
    77
1070
     1
1002
}
  0
MTEXT
  5
129
330
1C
100
AcDbEntity
  8
161-番号
100
AcDbMText
 10
2736.730594522902
 20
-19949.23809165719
 30
0.0
 40
90.0
 41
0.0
 71
     1
 72
     1
  1
⑤
 73
     1
 44
1.0
  0
LEADER
  5
12A
330
1C
100
AcDbEntity
  8
161-番号
100
AcDbLeader
  3
KH1xx030
 74
     0
 76
     2
 10
2911.353703237255
 20
-19803.92679442751
 30
0.0
 10
2819.893831618479
 20
-19957.59288294872
 30
0.0
1001
ACAD
1000
DSTYLE
1002
{
1070
    41
1040
2.0
1070
   341
1005
0
1070
   147
1040
0.5
1070
    77
1070
     1
1002
}
  0
MTEXT
  5
12B
330
1C
100
AcDbEntity
  8
161-番号
100
AcDbMText
 10
4067.566711307969
 20
-19298.53241355193
 30
0.0
 40
90.0
 41
0.0
 71
     1
 72
     1
  1
⑥
 73
     1
 44
1.0
  0
LEADER
  5
12C
330
1C
100
AcDbEntity
  8
161-番号
100
AcDbLeader
  3
KH1xx030
 74
     0
 76
     2
 10
3941.331338370452
 20
-19703.4914083986
 30
0.0
 10
4108.935944012366
 20
-19407.78123750234
 30
0.0
1001
ACAD
1000
DSTYLE
1002
{
1070
    41
1040
2.0
1070
   341
1005
0
1070
   147
1040
0.5
1070
    77
1070
     1
1002
}
  0
MTEXT
  5
12D
330
1C
100
AcDbEntity
  8
160-文字
100
AcDbMText
 10
11871.187661362
 20
-21498.30825003397
 30
0.0
 40
90.0
 41
0.0
 71
     5
 72
     1
  1
{G00742-0}
 73
     1
 44
0.8762322015334065
1001
ACAD
1000
ACAD_MTEXT_DEFINED_HEIGHT_BEGIN
1070
    46
1040
90.0
1000
ACAD_MTEXT_DEFINED_HEIGHT_END
  0
MTEXT
  5
12E
330
1C
100
AcDbEntity
  8
160-文字
100
AcDbMText
 10
9255.764408031013
 20
-21494.72690003398
 30
0.0
 40
90.0
 41
0.0
 71
     5
 72
     1
  1
1/30
 73
     1
 44
0.8762322015334063
  0
MTEXT
  5
12F
330
1C
100
AcDbEntity
  8
160-文字
100
AcDbMText
 10
9255.764408031013
 20
-21626.72690003398
 30
0.0
 40
90.0
 41
0.0
 71
     5
 72
     1
  1
(A3)
 73
     1
 44
0.8762322015334063
  0
MTEXT
  5
130
330
1C
100
AcDbEntity
  8
191-図面内枠
100
AcDbMText
 10
11470.70841132605
 20
-21089.84325003633
 30
0.0
 40
65.9999999997899
 41
0.0
 71
     4
 72
     1
  1
図面番号/NO.
 73
     1
 44
0.7828267384257844
  0
MTEXT
  5
131
330
1C
100
AcDbEntity
  8
191-図面内枠
100
AcDbMText
 10
9576.051902712556
 20
-21089.84325003633
 30
0.0
 40
65.9999999997899
 41
0.0
 71
     4
 72
     1
  1
図面名称/TITLE
 73
     1
 44
0.7828267384257844
  0
LINE
  5
132
330
1C
100
AcDbEntity
  8
191-図面内枠
100
AcDbLine
 10
11430.9716863262
 20
-21012.67000003656
 30
0.0
 11
11430.9716863262
 21
-21829.60000003399
 31
0.0
  0
MTEXT
  5
133
330
1C
100
AcDbEntity
  8
191-図面内枠
100
AcDbMText
 10
9275.95849673776
 20
-21089.84325003633
 30
0.0
 40
65.9999999997899
 41
0.0
 71
     5
 72
     1
  1
縮尺/SCALE
 73
     1
 44
0.7828267384257844
  0
LINE
  5
134
330
1C
100
AcDbEntity
  8
191-図面内枠
100
AcDbLine
 10
9529.094089957187
 20
-21012.67000003656
 30
0.0
 11
9529.094089957187
 21
-21829.60000003399
 31
0.0
  0
LINE
  5
135
330
1C
100
AcDbEntity
  8
191-図面内枠
100
AcDbLine
 10
9005.365276399534
 20
-21012.67000003656
 30
0.0
 11
9005.365276399534
 21
-21829.60000003399
 31
0.0
  0
LINE
  5
136
330
1C
100
AcDbEntity
  8
191-図面内枠
100
AcDbLine
 10
9005.365276399534
 20
-21167.01650003608
 30
0.0
 11
9529.094089957187
 21
-21167.01650003608
 31
0.0
  0
LINE
  5
137
330
1C
100
AcDbEntity
  8
191-図面内枠
100
AcDbLine
 10
4382.845561770606
 20
-21012.67000003656
 30
0.0
 11
4382.845561770606
 21
-21829.60000003399
 31
0.0
  0
LINE
  5
138
330
1C
100
AcDbEntity
  8
191-図面内枠
100
AcDbLine
 10
4520.960723311757
 20
-21012.67000003656
 30
0.0
 11
4520.960723311757
 21
-21829.60000003399
 31
0.0
  0
LINE
  5
139
330
1C
100
AcDbEntity
  8
191-図面内枠
100
AcDbLine
 10
4701.924533011741
 20
-21012.67000003656
 30
0.0
 11
4701.924533011741
 21
-21829.60000003399
 31
0.0
  0
MTEXT
  5
13A
330
1C
100
AcDbEntity
  8
160-文字
100
AcDbMText
 10
4451.903142541065
 20
-21421.13500003584
 30
0.0
 40
72.0
 41
0.0
 71
     5
 72
     1
  1
改\P\P訂
 73
     1
 44
0.8762322015334063
  0
LINE
  5
13B
330
1C
100
AcDbEntity
  8
191-図面内枠
100
AcDbLine
 10
4520.960723311757
 20
-21501.60000003514
 30
0.0
 11
9005.365276399534
 21
-21501.60000003514
 31
0.0
  0
LINE
  5
13C
330
1C
100
AcDbEntity
  8
191-図面内枠
100
AcDbLine
 10
4520.960723311757
 20
-21665.60000003514
 30
0.0
 11
9005.365276399534
 21
-21665.60000003514
 31
0.0
  0
MTEXT
  5
13D
330
1C
100
AcDbEntity
  8
160-文字
100
AcDbMText
 10
4611.442628161749
 20
-21747.60000003456
 30
0.0
 40
60.0
 41
0.0
 71
     5
 72
     1
  1
0
 73
     1
 44
0.8762322015334063
  0
MTEXT
  5
13E
330
1C
100
AcDbEntity
  8
160-文字
100
AcDbMText
 10
4611.442628161749
 20
-21583.60000003456
 30
0.0
 40
60.0
 41
0.0
 71
     5
 72
     1
  1
1
 73
     1
 44
0.8762322015334063
  0
LINE
  5
13F
330
1C
100
AcDbEntity
  8
191-図面内枠
100
AcDbLine
 10
4520.960723311757
 20
-21338.60000003514
 30
0.0
 11
9005.36527639965
 21
-21338.60000003514
 31
0.0
  0
MTEXT
  5
140
330
1C
100
AcDbEntity
  8
160-文字
100
AcDbMText
 10
4611.442628161865
 20
-21420.10000003456
 30
0.0
 40
60.0
 41
0.0
 71
     5
 72
     1
  1
2
 73
     1
 44
0.8762322015334063
  0
MTEXT
  5
141
330
1C
100
AcDbEntity
  8
160-文字
100
AcDbMText
 10
4611.442628161865
 20
-21257.10000003513
 30
0.0
 40
60.0
 41
0.0
 71
     5
 72
     1
  1
3
 73
     1
 44
0.8762322015334063
  0
MTEXT
  5
142
330
1C
100
AcDbEntity
  8
160-文字
100
AcDbMText
 10
4611.442628161865
 20
-21094.17000003654
 30
0.0
 40
60.0
 41
0.0
 71
     5
 72
     1
  1
4
 73
     1
 44
0.8762322015334063
  0
LINE
  5
143
330
1C
100
AcDbEntity
  8
191-図面内枠
100
AcDbLine
 10
4520.960723311757
 20
-21175.60000003514
 30
0.0
 11
9005.36527639965
 21
-21175.60000003514
 31
0.0
  0
LINE
  5
144
330
1C
100
AcDbEntity
  8
191-図面内枠
100
AcDbLine
 10
5376.566365486593
 20
-21012.67000003656
 30
0.0
 11
5376.566365486593
 21
-21829.60000003399
 31
0.0
  0
MTEXT
  5
145
330
1C
100
AcDbEntity
  8
160-文字
100
AcDbMText
 10
5401.875109901186
 20
-21747.60000003399
 30
0.0
 40
60.0
 41
0.0
 71
     4
 72
     1
  1
新規作成
 73
     1
 44
0.8762322015334063
  0
LINE
  5
146
330
1C
100
AcDbEntity
  8
121-キャビネット（中）
 48
2.0
100
AcDbLine
 10
2414.938699500402
 20
-15223.54801573073
 30
0.0
 11
2414.938699500402
 21
-14583.54801573074
 31
0.0
  0
DIMENSION
  5
147
330
1C
100
AcDbEntity
  8
166-寸法B
100
AcDbDimension
  2
*D1057
 10
2414.938699500402
 20
-20399.86492072531
 30
0.0
 11
2337.055511940271
 21
-20374.11740545088
 31
0.0
 70
   160
 71
     5
 42
3.0
  3
KH1xx030
100
AcDbAlignedDimension
 13
2411.938699500402
 23
-19872.50686649541
 33
0.0
 14
2414.938699500402
 24
-19872.50686649541
 34
0.0
100
AcDbRotatedDimension
1001
ACAD
1000
DSTYLE
1002
{
1070
   279
1070
     1
1002
}
  0
MTEXT
  5
157
330
1C
100
AcDbEntity
  8
161-番号
100
AcDbMText
 10
2300.310687692836
 20
-19101.77948088374
 30
0.0
 40
90.0
 41
0.0
 71
     3
 72
     1
  1
⑥
 73
     1
 44
1.0
  0
LEADER
  5
158
330
1C
100
AcDbEntity
  8
161-番号
100
AcDbLeader
  3
KH1xx030
 74
     0
 76
     2
 10
2426.546060630353
 20
-19506.7384757304
 30
0.0
 10
2258.941454988439
 20
-19211.02830483414
 30
0.0
211
-1.0
221
0.0
231
0.0
1001
ACAD
1000
DSTYLE
1002
{
1070
    41
1040
2.0
1070
   341
1005
0
1070
   147
1040
0.5
1070
    77
1070
     1
1002
}
  0
CIRCLE
  5
159
330
1C
100
AcDbEntity
  8
166-寸法B
100
AcDbCircle
 10
3163.510802072473
 20
-15954.98923119224
 30
0.0
 40
115.6761142463528
  0
LINE
  5
15A
330
1C
100
AcDbEntity
  8
166-寸法B
100
AcDbLine
 10
3163.510802072473
 20
-15803.31311694587
 30
0.0
 11
3163.510802072473
 21
-15875.31311694587
 31
0.0
  0
LINE
  5
15B
330
1C
100
AcDbEntity
  8
166-寸法B
100
AcDbLine
 10
3083.834687826224
 20
-15954.98923119224
 30
0.0
 11
3011.834687826224
 21
-15954.98923119224
 31
0.0
  0
MTEXT
  5
15C
330
1C
100
AcDbEntity
  8
166-寸法B
100
AcDbMText
 10
3163.510802072473
 20
-15752.91311694589
 30
0.0
 40
72.0
 41
0.0
 71
     5
 72
     1
  1
{\fArial|b0|i0|c0|p32;A}
 73
     1
 44
1.0
  0
MTEXT
  5
15D
330
1C
100
AcDbEntity
  8
166-寸法B
100
AcDbMText
 10
2975.745036826702
 20
-15954.98923119224
 30
0.0
 40
72.0
 41
0.0
 71
     5
 72
     1
  1
{\fArial|b0|i0|c0|p32;B}
 73
     1
 44
1.0
  0
DIMENSION
  5
15E
330
1C
100
AcDbEntity
  8
166-寸法B
100
AcDbDimension
  2
*D1058
 10
4287.145362695446
 20
-19052.50686649541
 30
0.0
 11
4277.297725974815
 21
-18910.45490688227
 31
0.0
 70
   160
 71
     5
 42
40.00000247531716
  3
KH1xx030
100
AcDbAlignedDimension
 13
3955.938699500402
 23
-19012.50686402009
 33
0.0
 14
3955.938699500402
 24
-19052.50686649541
 34
0.0
 50
90.0
100
AcDbRotatedDimension
1001
ACAD
1000
DSTYLE
1002
{
1070
    49
1040
0.5
1070
    90
1070
     1
1070
   279
1070
     1
1070
   345
1005
13
1070
   346
1005
13
1070
   347
1005
13
1002
}
1001
ACAD_DSTYLE_DIMARC_LENGTH_SYMBOL
1070
   379
1070
     1
1001
ACAD_DSTYLE_DIM_LINETYPE
1070
   380
1005
13
1001
ACAD_DSTYLE_DIM_EXT1_LINETYPE
1070
   381
1005
13
1001
ACAD_DSTYLE_DIM_EXT2_LINETYPE
1070
   382
1005
13
  0
DIMENSION
  5
16E
330
1C
100
AcDbEntity
  8
166-寸法B
100
AcDbDimension
  2
*D1059
 10
4287.145362695446
 20
-19240.50683392004
 30
0.0
 11
4242.145362695446
 21
-19146.50685020773
 31
0.0
 70
    32
 71
     5
 42
187.9999674246355
  3
KH1xx030
100
AcDbAlignedDimension
 13
3955.938699500402
 23
-19052.50686649541
 33
0.0
 14
3952.938691656105
 24
-19240.50683392004
 34
0.0
 50
90.0
100
AcDbRotatedDimension
1001
ACAD
1000
DSTYLE
1002
{
1070
    49
1040
0.5
1070
    90
1070
     1
1070
   345
1005
13
1070
   346
1005
13
1070
   347
1005
13
1002
}
1001
ACAD_DSTYLE_DIMARC_LENGTH_SYMBOL
1070
   379
1070
     1
1001
ACAD_DSTYLE_DIM_LINETYPE
1070
   380
1005
13
1001
ACAD_DSTYLE_DIM_EXT1_LINETYPE
1070
   381
1005
13
1001
ACAD_DSTYLE_DIM_EXT2_LINETYPE
1070
   382
1005
13
  0
DIMENSION
  5
17B
330
1C
100
AcDbEntity
  8
166-寸法B
100
AcDbDimension
  2
*D1060
 10
4287.145362695446
 20
-19872.50686403205
 30
0.0
 11
4237.135362695448
 21
-19556.50684897605
 31
0.0
 70
    32
 71
     5
 42
632.000030112009
  3
KH1xx030
100
AcDbAlignedDimension
 13
3952.938691656105
 23
-19240.50683392004
 33
0.0
 14
3955.938691656105
 24
-19872.50686403205
 34
0.0
 50
90.0
100
AcDbRotatedDimension
1001
ACAD
1000
DSTYLE
1002
{
1070
     3
1000
(682)
1070
    49
1040
0.5
1070
    90
1070
     1
1070
   345
1005
13
1070
   346
1005
13
1070
   347
1005
13
1002
}
1001
ACAD_DSTYLE_DIMARC_LENGTH_SYMBOL
1070
   379
1070
     1
1001
ACAD_DSTYLE_DIM_LINETYPE
1070
   380
1005
13
1001
ACAD_DSTYLE_DIM_EXT1_LINETYPE
1070
   381
1005
13
1001
ACAD_DSTYLE_DIM_EXT2_LINETYPE
1070
   382
1005
13
  0
MTEXT
  5
188
330
1C
100
AcDbEntity
  8
161-番号
100
AcDbMText
 10
3811.537640917581
 20
-18736.14381514055
 30
0.0
 40
90.0
 41
0.0
 71
     1
 72
     1
  1
③
 73
     1
 44
1.0
  0
LEADER
  5
189
330
1C
100
AcDbEntity
  8
161-番号
100
AcDbLeader
  3
KH1xx030
 74
     0
 76
     2
 10
3661.824093886768
 20
-19188.76139201265
 30
0.0
 10
3841.183785595465
 20
-18839.9498003963
 30
0.0
1001
ACAD
1000
DSTYLE
1002
{
1070
    41
1040
2.0
1070
   341
1005
0
1070
   147
1040
0.5
1070
    77
1070
     1
1002
}
  0
HATCH
  5
18A
330
1C
100
AcDbEntity
  8
180-補助
 62
    13
100
AcDbHatch
 10
0.0
 20
0.0
 30
0.0
210
0.0
220
0.0
230
1.0
  2
ANSI31
 70
     0
 71
     1
 91
        1
 92
        1
 93
        4
 72
     1
 10
2414.938699500402
 20
-19057.50687234102
 11
3952.938691656105
 21
-19057.50687234102
 72
     1
 10
3952.938691656105
 20
-19057.50687234102
 11
3952.938691656105
 21
-19147.50685526962
 72
     1
 10
3952.938691656105
 20
-19147.50685526962
 11
2414.938699500402
 21
-19147.50685526962
 72
     1
 10
2414.938699500402
 20
-19147.50685526962
 11
2414.938699500402
 21
-19057.50687234102
 97
        1
330
18E
 75
     0
 76
     1
 52
0.0
 41
300.0
 77
     0
 78
     1
 53
45.0
 43
-397834.1384340504
 44
-6144.454937544651
 45
-26.51650429449553
 46
26.51650429449553
 79
     0
 98
        1
 10
-397834.1384340504
 20
-6144.454937544651
  0
LWPOLYLINE
  5
18E
102
{ACAD_REACTORS
330
18A
102
}
330
1C
100
AcDbEntity
  8
180-補助
 62
    13
100
AcDbPolyline
 90
        4
 70
     1
 43
0.0
 10
2414.938699500402
 20
-19057.50687234102
 10
3952.938691656105
 20
-19057.50687234102
 10
3952.938691656105
 20
-19147.50685526962
 10
2414.938699500402
 20
-19147.50685526962
  0
HATCH
  5
18F
330
1C
100
AcDbEntity
  8
180-補助
 62
    13
100
AcDbHatch
 10
0.0
 20
0.0
 30
0.0
210
0.0
220
0.0
230
1.0
  2
ANSI31
 70
     0
 71
     1
 91
        1
 92
        1
 93
        4
 72
     1
 10
2433.939442365339
 20
-19677.50750808866
 11
3952.938691656105
 21
-19677.50750808866
 72
     1
 10
3952.938691656105
 20
-19677.50750808866
 11
3952.938691656105
 21
-19767.50685399457
 72
     1
 10
3952.938691656105
 20
-19767.50685399457
 11
2433.939103150107
 21
-19767.50056295262
 72
     1
 10
2433.939103150107
 20
-19767.50056295262
 11
2433.939442365339
 21
-19677.50750808866
 97
        1
330
190
 75
     0
 76
     1
 52
0.0
 41
300.0
 77
     0
 78
     1
 53
45.0
 43
-397834.1384340504
 44
-6764.454936269598
 45
-26.51650429449553
 46
26.51650429449553
 79
     0
 98
        1
 10
-397834.1384340504
 20
-6764.454936269598
  0
LWPOLYLINE
  5
190
102
{ACAD_REACTORS
330
18F
102
}
330
1C
100
AcDbEntity
  8
180-補助
 62
    13
100
AcDbPolyline
 90
        4
 70
     1
 43
0.0
 10
2433.939442365339
 20
-19677.50750808866
 10
3952.938691656105
 20
-19677.50750808866
 10
3952.938691656105
 20
-19767.50685399457
 10
2433.939103150107
 20
-19767.50056295262
  0
MTEXT
  5
191
330
1C
100
AcDbEntity
  8
160-文字
 62
     4
370
     0
100
AcDbMText
 10
2294.366949396441
 20
-19797.96241020598
 30
0.0
 40
56.0
 41
0.0
 71
     3
 72
     1
  1
▼FL
  7
ＭＳ ゴシック
 73
     1
 44
0.7828267384257843
  0
TEXT
  5
193
330
1C
100
AcDbEntity
  8
160-文字
100
AcDbText
 10
258.9836072050966
 20
-21244.10694467127
 30
0.0
 40
72.0
  1
1、（　）内寸法は、ワークトップ高さ910mmの場合を示す。
100
AcDbText
1001
ACAD
1000
ACAD_MTEXT_DEFINED_HEIGHT_BEGIN
1070
    46
1040
0.0
1000
ACAD_MTEXT_DEFINED_HEIGHT_END
  0
TEXT
  5
194
330
1C
100
AcDbEntity
  8
160-文字
100
AcDbText
 10
258.9836072050966
 20
-21354.10694467127
 30
0.0
 40
72.0
  1
2、クリアランスは推奨寸法で記載しております。
100
AcDbText
1001
ACAD
1000
ACAD_MTEXT_DEFINED_HEIGHT_BEGIN
1070
    46
1040
0.0
1000
ACAD_MTEXT_DEFINED_HEIGHT_END
  0
TEXT
  5
195
330
1C
100
AcDbEntity
  8
160-文字
100
AcDbText
 10
258.9836072048638
 20
-21464.10694467242
 30
0.0
 40
72.0
  1
3、仕様は改良のため予告なく変更することがあります。
100
AcDbText
1001
ACAD
1000
ACAD_MTEXT_DEFINED_HEIGHT_BEGIN
1070
    46
1040
0.0
1000
ACAD_MTEXT_DEFINED_HEIGHT_END
  0
LWPOLYLINE
  5
196
330
1C
100
AcDbEntity
  8
160-文字
 62
     6
100
AcDbPolyline
 90
        4
 70
     1
 43
0.0
 10
10073.87328256084
 20
-13706.43838383653
 10
10285.05455610389
 20
-13706.43838383653
 10
10285.05455610389
 20
-13816.59838383652
 10
10073.87328256084
 20
-13816.59838383652
  0
MTEXT
  5
197
330
1C
100
AcDbEntity
  8
160-文字
100
AcDbMText
 10
10179.46391933236
 20
-13761.51838383653
 30
0.0
 40
52.65
 41
0.0
 71
     5
 72
     1
  1
番号
 73
     1
 44
1.0
  0
LWPOLYLINE
  5
198
330
1C
100
AcDbEntity
  8
160-文字
 62
     6
100
AcDbPolyline
 90
        4
 70
     1
 43
0.0
 10
10285.05455610389
 20
-13706.43838383653
 10
12027.92329837102
 20
-13706.43838383652
 10
12027.92329837102
 20
-13816.59838383652
 10
10285.05455610389
 20
-13816.59838383652
  0
MTEXT
  5
199
330
1C
100
AcDbEntity
  8
160-文字
100
AcDbMText
 10
11156.48892723745
 20
-13761.51838383653
 30
0.0
 40
52.65
 41
0.0
 71
     5
 72
     1
  1
名　称
 73
     1
 44
1.0
  0
MTEXT
  5
19A
330
1C
100
AcDbEntity
  8
160-文字
100
AcDbMText
 10
10179.46391933248
 20
-13871.67838383652
 30
0.0
 40
66.42
 41
0.0
 71
     5
 72
     1
  1
①
 73
     1
 44
1.0
  0
LWPOLYLINE
  5
19B
330
1C
100
AcDbEntity
  8
160-文字
 62
     6
100
AcDbPolyline
 90
        4
 70
     1
 43
0.0
 10
10073.87328256084
 20
-13816.59838383652
 10
10285.05455610389
 20
-13816.59838383652
 10
10285.05455610389
 20
-13926.75838383652
 10
10073.87328256084
 20
-13926.75838383652
  0
MTEXT
  5
19C
330
1C
100
AcDbEntity
  8
160-文字
100
AcDbMText
 10
10317.45455610391
 20
-13871.67838383652
 30
0.0
 40
56.7
 41
0.0
 71
     4
 72
     1
  1
ﾜｰｸﾄｯﾌﾟ
 73
     1
 44
1.0
  0
LWPOLYLINE
  5
19D
330
1C
100
AcDbEntity
  8
160-文字
 62
     6
100
AcDbPolyline
 90
        4
 70
     1
 43
0.0
 10
10285.05455610389
 20
-13816.59838383652
 10
12027.92329837102
 20
-13816.59838383652
 10
12027.92329837102
 20
-13926.75838383652
 10
10285.05455610389
 20
-13926.75838383652
  0
MTEXT
  5
19E
330
1C
100
AcDbEntity
  8
160-文字
100
AcDbMText
 10
10179.46391933248
 20
-13981.83838383653
 30
0.0
 40
66.42
 41
0.0
 71
     5
 72
     1
  1
②
 73
     1
 44
1.0
  0
LWPOLYLINE
  5
19F
330
1C
100
AcDbEntity
  8
160-文字
 62
     6
100
AcDbPolyline
 90
        4
 70
     1
 43
0.0
 10
10073.87328256084
 20
-13926.75838383652
 10
10285.05455610389
 20
-13926.75838383652
 10
10285.05455610389
 20
-14036.91838383653
 10
10073.87328256084
 20
-14036.91838383653
  0
MTEXT
  5
1A0
330
1C
100
AcDbEntity
  8
160-文字
100
AcDbMText
 10
10317.45455610391
 20
-13981.83838383653
 30
0.0
 40
56.7
 41
0.0
 71
     4
 72
     1
  1
家電収納ｷｬﾋﾞﾈｯﾄ
 73
     1
 44
1.0
  0
LWPOLYLINE
  5
1A1
330
1C
100
AcDbEntity
  8
160-文字
 62
     6
100
AcDbPolyline
 90
        4
 70
     1
 43
0.0
 10
10285.05455610389
 20
-13926.75838383652
 10
12027.92329837102
 20
-13926.75838383652
 10
12027.92329837102
 20
-14036.91838383653
 10
10285.05455610389
 20
-14036.91838383653
  0
MTEXT
  5
1A2
330
1C
100
AcDbEntity
  8
160-文字
100
AcDbMText
 10
11362.17285397357
 20
-13983.2754267659
 30
0.0
 40
56.7
 41
0.0
 71
     4
 72
     1
  1
W750
 73
     1
 44
1.0
  0
MTEXT
  5
1A3
330
1C
100
AcDbEntity
  8
160-文字
100
AcDbMText
 10
10179.46391933248
 20
-14091.99838383653
 30
0.0
 40
66.42
 41
0.0
 71
     5
 72
     1
  1
③
 73
     1
 44
1.0
  0
LWPOLYLINE
  5
1A4
330
1C
100
AcDbEntity
  8
160-文字
 62
     6
100
AcDbPolyline
 90
        4
 70
     1
 43
0.0
 10
10073.87328256084
 20
-14036.91838383653
 10
10285.05455610389
 20
-14036.91838383653
 10
10285.05455610389
 20
-14147.07838383653
 10
10073.87328256084
 20
-14147.07838383653
  0
MTEXT
  5
1A5
330
1C
100
AcDbEntity
  8
160-文字
100
AcDbMText
 10
10317.45455610391
 20
-14091.99838383653
 30
0.0
 40
56.7
 41
0.0
 71
     4
 72
     1
  1
1段引出ｷｬﾋﾞﾈｯﾄ
 73
     1
 44
1.0
  0
LWPOLYLINE
  5
1A6
330
1C
100
AcDbEntity
  8
160-文字
 62
     6
100
AcDbPolyline
 90
        4
 70
     1
 43
0.0
 10
10285.05455610389
 20
-14036.91838383653
 10
12027.92329837102
 20
-14036.91838383653
 10
12027.92329837102
 20
-14147.07838383653
 10
10285.05455610389
 20
-14147.07838383653
  0
MTEXT
  5
1A7
330
1C
100
AcDbEntity
  8
160-文字
100
AcDbMText
 10
11362.17285397357
 20
-14093.43542676591
 30
0.0
 40
56.7
 41
0.0
 71
     4
 72
     1
  1
W750
 73
     1
 44
1.0
  0
MTEXT
  5
1A8
330
1C
100
AcDbEntity
  8
160-文字
100
AcDbMText
 10
10179.46391933248
 20
-14202.15838383652
 30
0.0
 40
66.42
 41
0.0
 71
     5
 72
     1
  1
④
 73
     1
 44
1.0
  0
LWPOLYLINE
  5
1A9
330
1C
100
AcDbEntity
  8
160-文字
 62
     6
100
AcDbPolyline
 90
        4
 70
     1
 43
0.0
 10
10073.87328256084
 20
-14257.23838383653
 10
10285.05455610389
 20
-14257.23838383653
 10
10285.05455610389
 20
-14367.39838383652
 10
10073.87328256084
 20
-14367.39838383652
  0
MTEXT
  5
1AA
330
1C
100
AcDbEntity
  8
160-文字
100
AcDbMText
 10
10179.46391933248
 20
-14312.31838383652
 30
0.0
 40
66.42
 41
0.0
 71
     5
 72
     1
  1
⑤
 73
     1
 44
1.0
  0
LWPOLYLINE
  5
1AB
330
1C
100
AcDbEntity
  8
160-文字
 62
     6
100
AcDbPolyline
 90
        4
 70
     1
 43
0.0
 10
10073.87328256084
 20
-14367.39838383652
 10
10285.05455610389
 20
-14367.39838383652
 10
10285.05455610389
 20
-14477.55838383653
 10
10073.87328256084
 20
-14477.55838383653
  0
MTEXT
  5
1AC
330
1C
100
AcDbEntity
  8
160-文字
100
AcDbMText
 10
10179.46391933248
 20
-14422.47838383653
 30
0.0
 40
66.42
 41
0.0
 71
     5
 72
     1
  1
⑥
 73
     1
 44
1.0
  0
MTEXT
  5
1AD
330
1C
100
AcDbEntity
  8
160-文字
100
AcDbMText
 10
10317.45455610391
 20
-14312.31838383652
 30
0.0
 40
56.7
 41
0.0
 71
     4
 72
     1
  1
巾木
 73
     1
 44
1.0
  0
LWPOLYLINE
  5
1AE
330
1C
100
AcDbEntity
  8
160-文字
 62
     6
100
AcDbPolyline
 90
        4
 70
     1
 43
0.0
 10
10285.05455610389
 20
-14257.23838383653
 10
12027.92329837102
 20
-14257.23838383653
 10
12027.92329837102
 20
-14367.39838383652
 10
10285.05455610389
 20
-14367.39838383652
  0
MTEXT
  5
1AF
330
1C
100
AcDbEntity
  8
160-文字
100
AcDbMText
 10
10317.45455610391
 20
-14422.47838383653
 30
0.0
 40
56.7
 41
0.0
 71
     4
 72
     1
  1
ｻｲﾄﾞﾊﾟﾈﾙ
 73
     1
 44
1.0
  0
LWPOLYLINE
  5
1B0
330
1C
100
AcDbEntity
  8
160-文字
 62
     6
100
AcDbPolyline
 90
        4
 70
     1
 43
0.0
 10
10285.05455610389
 20
-14367.39838383652
 10
12027.92329837102
 20
-14367.39838383652
 10
12027.92329837102
 20
-14477.55838383653
 10
10285.05455610389
 20
-14477.55838383653
  0
MTEXT
  5
1B1
330
1C
100
AcDbEntity
  8
160-文字
100
AcDbMText
 10
11362.17285397357
 20
-14423.9154267659
 30
0.0
 40
56.7
 41
0.0
 71
     4
 72
     1
  1
t19
 73
     1
 44
1.0
  0
LWPOLYLINE
  5
1B2
330
1C
100
AcDbEntity
  8
160-文字
 62
     6
100
AcDbPolyline
 90
        4
 70
     1
 43
0.0
 10
12027.92329837102
 20
-13706.43838383653
 10
12256.8036363509
 20
-13706.43838383653
 10
12256.8036363509
 20
-13816.59838383652
 10
12027.92329837102
 20
-13816.59838383652
  0
MTEXT
  5
1B3
330
1C
100
AcDbEntity
  8
160-文字
100
AcDbMText
 10
12142.36346736096
 20
-13761.51838383652
 30
0.0
 40
52.65
 41
0.0
 71
     5
 72
     1
  1
数量
 73
     1
 44
1.0
  0
MTEXT
  5
1B4
330
1C
100
AcDbEntity
  8
160-文字
100
AcDbMText
 10
12142.36346736096
 20
-13871.67838383652
 30
0.0
 40
66.42
 41
0.0
 71
     5
 72
     1
  1
1
 73
     1
 44
1.0
  0
LWPOLYLINE
  5
1B5
330
1C
100
AcDbEntity
  8
160-文字
 62
     6
100
AcDbPolyline
 90
        4
 70
     1
 43
0.0
 10
12027.92329837102
 20
-13816.59838383652
 10
12256.8036363509
 20
-13816.59838383652
 10
12256.8036363509
 20
-13926.75838383652
 10
12027.92329837102
 20
-13926.75838383652
  0
LWPOLYLINE
  5
1B6
330
1C
100
AcDbEntity
  8
160-文字
 62
     6
100
AcDbPolyline
 90
        4
 70
     1
 43
0.0
 10
12027.92329837102
 20
-13926.75838383652
 10
12256.8036363509
 20
-13926.75838383652
 10
12256.8036363509
 20
-14036.91838383653
 10
12027.92329837102
 20
-14036.91838383653
  0
LWPOLYLINE
  5
1B7
330
1C
100
AcDbEntity
  8
160-文字
 62
     6
100
AcDbPolyline
 90
        4
 70
     1
 43
0.0
 10
12027.92329837102
 20
-14036.91838383653
 10
12256.8036363509
 20
-14036.91838383653
 10
12256.8036363509
 20
-14147.07838383653
 10
12027.92329837102
 20
-14147.07838383653
  0
LWPOLYLINE
  5
1B8
330
1C
100
AcDbEntity
  8
160-文字
 62
     6
100
AcDbPolyline
 90
        4
 70
     1
 43
0.0
 10
12027.92329837102
 20
-14257.23838383653
 10
12256.8036363509
 20
-14257.23838383653
 10
12256.8036363509
 20
-14367.39838383652
 10
12027.92329837102
 20
-14367.39838383652
  0
LWPOLYLINE
  5
1B9
330
1C
100
AcDbEntity
  8
160-文字
 62
     6
100
AcDbPolyline
 90
        4
 70
     1
 43
0.0
 10
12027.92329837102
 20
-14367.39838383652
 10
12256.8036363509
 20
-14367.39838383652
 10
12256.8036363509
 20
-14477.55838383653
 10
12027.92329837102
 20
-14477.55838383653
  0
MTEXT
  5
1BA
330
1C
100
AcDbEntity
  8
160-文字
100
AcDbMText
 10
12142.36346736096
 20
-13981.83838383653
 30
0.0
 40
66.42
 41
0.0
 71
     5
 72
     1
  1
1
 73
     1
 44
1.0
  0
MTEXT
  5
1BB
330
1C
100
AcDbEntity
  8
160-文字
100
AcDbMText
 10
12142.36346736096
 20
-14091.99838383653
 30
0.0
 40
66.42
 41
0.0
 71
     5
 72
     1
  1
1
 73
     1
 44
1.0
  0
MTEXT
  5
1BC
330
1C
100
AcDbEntity
  8
160-文字
100
AcDbMText
 10
12142.36346736096
 20
-14312.31838383654
 30
0.0
 40
66.42
 41
0.0
 71
     5
 72
     1
  1
1
 73
     1
 44
1.0
  0
MTEXT
  5
1BD
330
1C
100
AcDbEntity
  8
160-文字
100
AcDbMText
 10
12142.36346736096
 20
-14422.47838383654
 30
0.0
 40
66.42
 41
0.0
 71
     5
 72
     1
  1
2
 73
     1
 44
1.0
  0
MTEXT
  5
1BE
330
1C
100
AcDbEntity
  8
160-文字
100
AcDbMText
 10
11362.17285397357
 20
-14313.75542676591
 30
0.0
 40
56.7
 41
0.0
 71
     4
 72
     1
  1
t19
 73
     1
 44
1.0
  0
MTEXT
  5
1BF
330
1C
100
AcDbEntity
  8
160-文字
100
AcDbMText
 10
10317.45455610391
 20
-14642.79838383652
 30
0.0
 40
56.7
 41
0.0
 71
     4
 72
     1
  1
　・取っ手
 73
     1
 44
1.0
  0
LWPOLYLINE
  5
1C0
330
1C
100
AcDbEntity
  8
160-文字
  6
DASHED
 48
1.5
100
AcDbPolyline
 90
        4
 70
     1
 43
0.0
 10
10285.05455610389
 20
-14587.71838383652
 10
12027.92329837102
 20
-14587.71838383652
 10
12027.92329837102
 20
-14697.87838383652
 10
10285.05455610389
 20
-14697.87838383652
  0
MTEXT
  5
1C2
330
1C
100
AcDbEntity
  8
160-文字
100
AcDbMText
 10
11362.17285397357
 20
-14644.2354267659
 30
0.0
 40
56.7
 41
0.0
 71
     4
 72
     1
  1
L161
 73
     1
 44
1.0
  0
LWPOLYLINE
  5
1C3
330
1C
100
AcDbEntity
  8
160-文字
 62
     6
100
AcDbPolyline
 90
        4
 70
     1
 43
0.0
 10
10073.87328256084
 20
-14477.55838383653
 10
10285.05455610389
 20
-14477.55838383653
 10
10285.05455610389
 20
-14918.19838383653
 10
10073.87328256084
 20
-14918.19838383653
  0
MTEXT
  5
1C4
330
1C
100
AcDbEntity
  8
160-文字
100
AcDbMText
 10
10317.45455610391
 20
-14532.63838383653
 30
0.0
 40
56.7
 41
0.0
 71
     4
 72
     1
  1
別梱ﾊﾟｰﾂｾｯﾄ
 73
     1
 44
1.0
  0
LWPOLYLINE
  5
1C5
330
1C
100
AcDbEntity
  8
160-文字
 62
     6
100
AcDbPolyline
 90
        4
 70
     1
 43
0.0
 10
10285.05455610389
 20
-14477.55838383653
 10
12256.8036363509
 20
-14477.55838383653
 10
12256.8036363509
 20
-14918.19838383653
 10
10285.05455610389
 20
-14918.19838383653
  0
LWPOLYLINE
  5
1C6
330
1C
100
AcDbEntity
  8
160-文字
  6
DASHED
 48
1.5
100
AcDbPolyline
 90
        4
 70
     1
 43
0.0
 10
12027.92329837102
 20
-14587.71838383652
 10
12256.8036363509
 20
-14587.71838383652
 10
12256.8036363509
 20
-14697.87838383652
 10
12027.92329837102
 20
-14697.87838383652
  0
MTEXT
  5
1C7
330
1C
100
AcDbEntity
  8
160-文字
100
AcDbMText
 10
12142.36346736096
 20
-14642.79838383652
 30
0.0
 40
66.42
 41
0.0
 71
     5
 72
     1
  1
2
 73
     1
 44
1.0
  0
MTEXT
  5
1C8
330
1C
100
AcDbEntity
  8
160-文字
100
AcDbMText
 10
12142.36346736096
 20
-14532.63838383653
 30
0.0
 40
66.42
 41
0.0
 71
     5
 72
     1
  1
1
 73
     1
 44
1.0
  0
LINE
  5
1C9
330
1C
100
AcDbEntity
  8
160-文字
 62
     6
100
AcDbLine
 10
12027.92329837102
 20
-14477.55838383653
 30
0.0
 11
12027.92329837102
 21
-14918.19838383653
 31
0.0
  0
MTEXT
  5
1CA
330
1C
100
AcDbEntity
  8
160-文字
100
AcDbMText
 10
10317.45455610379
 20
-14863.1183838365
 30
0.0
 40
56.7
 41
0.0
 71
     4
 72
     1
  1
　・取付部材各種
 73
     1
 44
1.0
  0
LWPOLYLINE
  5
1CB
330
1C
100
AcDbEntity
  8
160-文字
 62
     6
100
AcDbPolyline
 90
        4
 70
     1
 43
0.0
 10
10073.87328256084
 20
-14147.07838383653
 10
10285.05455610389
 20
-14147.07838383653
 10
10285.05455610389
 20
-14257.23838383653
 10
10073.87328256084
 20
-14257.23838383653
  0
MTEXT
  5
1CC
330
1C
100
AcDbEntity
  8
160-文字
100
AcDbMText
 10
10317.45455610391
 20
-14202.15838383653
 30
0.0
 40
56.7
 41
0.0
 71
     4
 72
     1
  1
ｵｰﾌﾟﾝﾍﾞｰｽｷｬﾋﾞﾈｯﾄ
 73
     1
 44
1.0
  0
LWPOLYLINE
  5
1CD
330
1C
100
AcDbEntity
  8
160-文字
 62
     6
100
AcDbPolyline
 90
        4
 70
     1
 43
0.0
 10
10285.05455610389
 20
-14147.07838383653
 10
12027.92329837102
 20
-14147.07838383653
 10
12027.92329837102
 20
-14257.23838383653
 10
10285.05455610389
 20
-14257.23838383653
  0
MTEXT
  5
1CE
330
1C
100
AcDbEntity
  8
160-文字
100
AcDbMText
 10
11362.17285397357
 20
-14203.59542676591
 30
0.0
 40
56.7
 41
0.0
 71
     4
 72
     1
  1
W750
 73
     1
 44
1.0
  0
LWPOLYLINE
  5
1CF
330
1C
100
AcDbEntity
  8
160-文字
 62
     6
100
AcDbPolyline
 90
        4
 70
     1
 43
0.0
 10
12027.92329837102
 20
-14147.07838383653
 10
12256.8036363509
 20
-14147.07838383653
 10
12256.8036363509
 20
-14257.23838383653
 10
12027.92329837102
 20
-14257.23838383653
  0
MTEXT
  5
1D0
330
1C
100
AcDbEntity
  8
160-文字
100
AcDbMText
 10
12142.36346736096
 20
-14202.15838383653
 30
0.0
 40
66.42
 41
0.0
 71
     5
 72
     1
  1
1
 73
     1
 44
1.0
  0
LWPOLYLINE
  5
1D1
330
1C
100
AcDbEntity
  8
160-文字
  6
DASHED
 48
1.5
100
AcDbPolyline
 90
        4
 70
     1
 43
0.0
 10
10285.05455610389
 20
-14697.87838383651
 10
12027.92329837102
 20
-14697.87838383651
 10
12027.92329837102
 20
-14808.03838383652
 10
10285.05455610389
 20
-14808.03838383652
  0
LWPOLYLINE
  5
1D2
330
1C
100
AcDbEntity
  8
160-文字
  6
DASHED
 48
1.5
100
AcDbPolyline
 90
        4
 70
     1
 43
0.0
 10
12027.92329837102
 20
-14697.87838383651
 10
12256.8036363509
 20
-14697.87838383651
 10
12256.8036363509
 20
-14808.03838383652
 10
12027.92329837102
 20
-14808.03838383652
  0
MTEXT
  5
1D3
330
1C
100
AcDbEntity
  8
160-文字
100
AcDbMText
 10
10317.45455610391
 20
-14752.9583838365
 30
0.0
 40
56.7
 41
0.0
 71
     4
 72
     1
  1
　・取っ手
 73
     1
 44
1.0
  0
MTEXT
  5
1D4
330
1C
100
AcDbEntity
  8
160-文字
100
AcDbMText
 10
11362.17285397357
 20
-14754.39542676588
 30
0.0
 40
56.7
 41
0.0
 71
     4
 72
     1
  1
L261
 73
     1
 44
1.0
  0
MTEXT
  5
1D5
330
1C
100
AcDbEntity
  8
160-文字
100
AcDbMText
 10
12142.36346736096
 20
-14752.9583838365
 30
0.0
 40
66.42
 41
0.0
 71
     5
 72
     1
  1
1
 73
     1
 44
1.0
  0
INSERT
  5
1D6
330
1C
100
AcDbEntity
  8
0
100
AcDbBlockReference
  2
B_OPEN_750
 10
3183.937502732035
 20
-19052.50686649541
 30
0.0
  0
INSERT
  5
1F6
330
1C
100
AcDbEntity
  8
120-キャビネット（外）
100
AcDbBlockReference
  2
B_KADEN_750
 10
2433.937502732151
 20
-19052.50686649541
 30
0.0
  0
DIMENSION
  5
222
330
1C
100
AcDbEntity
  8
166-寸法B
100
AcDbDimension
  2
*D1061
 10
1916.026504803333
 20
-19012.50686409839
 30
0.0
 11
1866.016504803334
 21
-19442.50686405926
 31
0.0
 70
    32
 71
     5
 42
859.9999999217325
  3
KH1xx030
100
AcDbAlignedDimension
 13
2411.938699500402
 23
-19872.50686402012
 33
0.0
 14
2411.938699500402
 24
-19012.50686409839
 34
0.0
 50
90.0
100
AcDbRotatedDimension
1001
ACAD
1000
DSTYLE
1002
{
1070
     3
1000
(910)
1002
}
  0
DIMENSION
  5
22F
330
1C
100
AcDbEntity
  8
166-寸法B
100
AcDbDimension
  2
*D1062
 10
2051.026504803333
 20
-19872.50089717346
 30
0.0
 11
2006.026504803333
 21
-19581.00089713431
 31
0.0
 70
    32
 71
     5
 42
583.0000000782893
  3
KH1xx030
100
AcDbAlignedDimension
 13
2268.617390305037
 23
-19289.50089709517
 33
0.0
 14
2235.618594917702
 24
-19872.50089717346
 34
0.0
 50
90.0
100
AcDbRotatedDimension
  0
DIMENSION
  5
23C
330
1C
100
AcDbEntity
  8
166-寸法B
100
AcDbDimension
  2
*D1063
 10
3955.938691656105
 20
-20129.85895387867
 30
0.0
 11
3517.812160740079
 21
-20084.85895387867
 31
0.0
 70
    32
 71
     5
 42
876.2530618320525
 52
-270.0
  3
KH1xx030
100
AcDbAlignedDimension
 13
3079.685629824053
 23
-19872.50647105389
 33
0.0
 14
3955.938691656105
 24
-19872.50686403205
 34
0.0
 50
180.0
100
AcDbRotatedDimension
1001
ACAD
1000
DSTYLE
1002
{
1070
   271
1070
     0
1002
}
  0
DIMENSION
  5
249
330
1C
100
AcDbEntity
  8
166-寸法B
100
AcDbDimension
  2
*D1064
 10
2048.026504803333
 20
-20446.60622588028
 30
0.0
 11
1997.386504803333
 21
-20168.55356276453
 31
0.0
 70
    32
  1
Fｹｰﾌﾞﾙ取出位置
 71
     5
 42
574.1053262315181
  3
KH1xx030
100
AcDbAlignedDimension
 13
2268.618594917702
 23
-19872.50089964877
 33
0.0
 14
2178.296234611422
 24
-20446.60622588028
 34
0.0
 50
90.0
100
AcDbRotatedDimension
1001
ACAD
1000
DSTYLE
1002
{
1070
    76
1070
     1
1070
   344
1005
254
1070
   342
1005
0
1070
   173
1070
     1
1070
   343
1005
30
1070
    49
1040
0.5
1070
    90
1070
     1
1070
   345
1005
14
1070
   346
1005
14
1070
   347
1005
14
1002
}
1001
ACAD_DSTYLE_DIMINSPECT
1070
   396
1000
100%
1070
   395
1000

1070
   394
1070
    33
1070
   393
1070
     0
1001
ACAD_DSTYLE_DIMARC_LENGTH_SYMBOL
1070
   379
1070
     1
1001
ACAD_DSTYLE_DIM_LINETYPE
1070
   380
1005
14
1001
ACAD_DSTYLE_DIM_EXT1_LINETYPE
1070
   381
1005
14
1001
ACAD_DSTYLE_DIM_EXT2_LINETYPE
1070
   382
1005
14
  0
DIMENSION
  5
258
330
1C
100
AcDbEntity
  8
166-寸法B
100
AcDbDimension
  2
*D1065
 10
4589.693162319949
 20
-20129.85895387867
 30
0.0
 11
4281.815926988027
 21
-20079.21895387867
 31
0.0
 70
    32
  1
Fｹｰﾌﾞﾙ取出位置
 71
     5
 42
633.7544706638437
 52
-270.0
  3
KH1xx030
100
AcDbAlignedDimension
 13
3955.938691656105
 23
-19872.50686403205
 33
0.0
 14
4589.693162319949
 24
-19972.00096019632
 34
0.0
 50
180.0
100
AcDbRotatedDimension
1001
ACAD
1000
DSTYLE
1002
{
1070
    76
1070
     1
1070
   344
1005
254
1070
   342
1005
0
1070
   173
1070
     1
1070
   343
1005
30
1070
    49
1040
0.5
1070
    90
1070
     1
1070
   345
1005
14
1070
   346
1005
14
1070
   347
1005
14
1002
}
1001
ACAD_DSTYLE_DIMINSPECT
1070
   396
1000
100%
1070
   395
1000

1070
   394
1070
    33
1070
   393
1070
     0
1001
ACAD_DSTYLE_DIMARC_LENGTH_SYMBOL
1070
   379
1070
     1
1001
ACAD_DSTYLE_DIM_LINETYPE
1070
   380
1005
14
1001
ACAD_DSTYLE_DIM_EXT1_LINETYPE
1070
   381
1005
14
1001
ACAD_DSTYLE_DIM_EXT2_LINETYPE
1070
   382
1005
14
  0
DIMENSION
  5
263
330
1C
100
AcDbEntity
  8
166-寸法B
100
AcDbDimension
  2
*D1068
 10
4548.902857371722
 20
-15972.71164670322
 30
0.0
 11
4304.921376820246
 21
-15910.24564670322
 31
0.0
 70
    32
  1
基準位置
 71
     5
 42
592.9629611029522
 52
-270.0
  3
KH1xx030
100
AcDbAlignedDimension
 13
3955.93989626877
 23
-15952.16076999487
 33
0.0
 14
4548.902857371722
 24
-15984.00648246895
 34
0.0
 50
180.0
100
AcDbRotatedDimension
1001
ACAD
1000
DSTYLE
1002
{
1070
    46
1040
0.3
1070
    44
1040
0.1
1070
    42
1040
1.0
1070
   140
1040
2.7
1070
    41
1040
3.5
1070
    76
1070
     1
1070
   173
1070
     1
1070
   342
1005
0
1070
   343
1005
0
1070
   344
1005
254
1002
}
1001
ACAD_DSTYLE_DIMINSPECT
1070
   396
1000
100%
1070
   395
1000

1070
   394
1070
    33
1070
   393
1070
     0
  0
LINE
  5
26E
330
1C
100
AcDbEntity
  8
111-壁仕上
  6
CENTER
 62
   253
 48
2.0
100
AcDbLine
 10
3955.939896268654
 20
-20825.69223889304
 30
0.0
 11
3955.93989626877
 21
-14583.54801573072
 31
0.0
  0
DIMENSION
  5
26F
330
1C
100
AcDbEntity
  8
166-寸法B
100
AcDbDimension
  2
*D1069
 10
4551.902857371606
 20
-20777.67877046313
 30
0.0
 11
4307.92137682013
 21
-20715.21277046313
 31
0.0
 70
    32
  1
基準位置
 71
     5
 42
592.9629611029522
 52
-270.0
  3
KH1xx030
100
AcDbAlignedDimension
 13
3958.939896268654
 23
-20757.12789375478
 33
0.0
 14
4551.902857371606
 24
-20788.97360622886
 34
0.0
 50
180.0
100
AcDbRotatedDimension
1001
ACAD
1000
DSTYLE
1002
{
1070
    46
1040
0.3
1070
    44
1040
0.1
1070
    42
1040
1.0
1070
   140
1040
2.7
1070
    41
1040
3.5
1070
    76
1070
     1
1070
   173
1070
     1
1070
   342
1005
0
1070
   343
1005
0
1070
   344
1005
254
1002
}
1001
ACAD_DSTYLE_DIMINSPECT
1070
   396
1000
100%
1070
   395
1000

1070
   394
1070
    33
1070
   393
1070
     0
  0
MTEXT
  5
27B
102
{ACAD_REACTORS
330
27A
102
}
330
1C
100
AcDbEntity
  8
160-文字
100
AcDbMText
 10
2638.651709208032
 20
-20928.64872737318
 30
0.0
 40
60.0
 41
0.0
 71
     9
 72
     1
  1
\A1;ｺﾝｾﾝﾄ用開口  W55xH95\PFｹｰﾌﾞﾙ 壁面より500mm伸ばし\P家具用ｺﾝｾﾝﾄ（別途手配）はｷｬﾋﾞﾈｯﾄ背板に取付
 73
     1
 44
1.0
  0
LEADER
  5
27A
330
1C
100
AcDbEntity
  8
160-文字
100
AcDbLeader
  3
KH1xx030
 73
     0
 75
     1
 40
278.54
 41
1626.66
 76
     3
 10
3069.586708956049
 20
-19289.50089957048
 30
0.0
 10
2654.251709208032
 20
-20943.64872737318
 30
0.0
 10
2653.651709208032
 20
-20943.64872737318
 30
0.0
340
27B
1001
ACAD
1000
DSTYLE
1002
{
1070
   147
1040
0.5
1070
    77
1070
     1
1002
}
  0
TEXT
  5
27C
330
1C
100
AcDbEntity
  8
160-文字
100
AcDbText
 10
290.8233742385346
 20
-13596.94059523793
 30
0.0
 40
125.0
  1
キッチンバックセット　bs-B4　ベースのみ　家電収納・オープンスペース付き　引出仕様　間口1550　奥行650　オープンスペース右　背面壁
 11
290.8233742385346
 21
-13534.44059523793
 31
0.0
100
AcDbText
 73
     2
  0
MTEXT
  5
27D
330
1C
100
AcDbEntity
  8
160-文字
100
AcDbMText
 10
10488.40542206354
 20
-21471.13500046483
 30
0.0
 40
70.0
 41
0.0
 71
     5
 72
     1
  1
キッチンバックセット　bs-B4\Pベースのみ\P家電収納・オープンスペース付き\P引出仕様\P間口1550　奥行650\Pオープンスペース右\P背面壁
 73
     1
 44
0.7829999999999999
  0
MTEXT
  5
27E
330
1C
100
AcDbEntity
  8
160-文字
100
AcDbMText
 10
5039.245449249167
 20
-21747.60000003514
 30
0.0
 40
60.0
 41
0.0
 71
     5
 72
     1
  1
2017.07.05
 73
     1
 44
0.8762322015334063
1001
ACAD
1000
ACAD_MTEXT_DEFINED_HEIGHT_BEGIN
1070
    46
1040
60.0
1000
ACAD_MTEXT_DEFINED_HEIGHT_END
  0
LINE
  5
27F
330
1C
100
AcDbEntity
  8
121-キャビネット（中）
  6
Continuous
100
AcDbLine
 10
9415.13424590027
 20
-19872.00686303385
 30
0.0
 11
9415.13424590027
 21
-19872.50686404683
 31
0.0
  0
LINE
  5
280
330
1C
100
AcDbEntity
  8
121-キャビネット（中）
  6
Continuous
100
AcDbLine
 10
10030.13424401632
 20
-19872.50686404683
 30
0.0
 11
9415.13424590027
 21
-19872.50686404683
 31
0.0
  0
LINE
  5
281
330
1C
100
AcDbEntity
  8
122-扉
 62
   253
100
AcDbLine
 10
9415.134245900153
 20
-19068.506866372
 30
0.0
 11
9415.13424590027
 21
-19240.50683627165
 31
0.0
  0
LINE
  5
282
330
1C
100
AcDbEntity
  8
122-扉
 62
   253
100
AcDbLine
 10
9390.13424656442
 20
-19240.50683394678
 30
0.0
 11
9390.134246564536
 21
-19872.50686404683
 31
0.0
  0
LINE
  5
283
330
1C
100
AcDbEntity
  8
122-扉
 62
   253
100
AcDbLine
 10
9390.13424656442
 20
-19237.50680384673
 30
0.0
 11
9410.134245954403
 21
-19237.50680384673
 31
0.0
  0
LINE
  5
284
330
1C
100
AcDbEntity
  8
122-扉
 62
   253
100
AcDbLine
 10
9410.134245954403
 20
-19055.50685492703
 30
0.0
 11
9390.13424656442
 21
-19055.50685492703
 31
0.0
  0
LINE
  5
285
330
1C
100
AcDbEntity
  8
122-扉
 62
   253
100
AcDbLine
 10
9410.134245954403
 20
-19237.50680384673
 30
0.0
 11
9410.134245954403
 21
-19055.50685492703
 31
0.0
  0
LINE
  5
286
330
1C
100
AcDbEntity
  8
122-扉
 62
   253
100
AcDbLine
 10
9390.13424656442
 20
-19055.50685492703
 30
0.0
 11
9390.13424656442
 21
-19237.50680384673
 31
0.0
  0
LINE
  5
287
330
1C
100
AcDbEntity
  8
122-扉
 62
   253
100
AcDbLine
 10
10014.1342413943
 20
-19240.50683627165
 30
0.0
 11
9415.134245900153
 21
-19240.50683627165
 31
0.0
  0
LINE
  5
288
330
1C
100
AcDbEntity
  8
122-扉
100
AcDbLine
 10
10030.13424401632
 20
-19872.50686404683
 30
0.0
 11
10014.1342413943
 21
-19872.50686404683
 31
0.0
  0
LINE
  5
289
330
1C
100
AcDbEntity
  8
122-扉
 62
   253
100
AcDbLine
 10
10030.13424401632
 20
-19052.50683394678
 30
0.0
 11
10030.13424401632
 21
-19872.50686404683
 31
0.0
  0
LINE
  5
28A
330
1C
100
AcDbEntity
  8
122-扉
 62
   253
100
AcDbLine
 10
10030.13424401632
 20
-19052.50683394678
 30
0.0
 11
10014.1342413943
 21
-19052.50683394678
 31
0.0
  0
LINE
  5
28B
330
1C
100
AcDbEntity
  8
122-扉
 62
   253
100
AcDbLine
 10
10014.1342413943
 20
-19068.50683627171
 30
0.0
 11
10014.1342413943
 21
-19872.50686404683
 31
0.0
  0
LINE
  5
28C
330
1C
100
AcDbEntity
  8
122-扉
 62
   253
100
AcDbLine
 10
10014.1342413943
 20
-19052.50683394678
 30
0.0
 11
9415.134245900153
 21
-19052.50683394678
 31
0.0
  0
LINE
  5
28D
330
1C
100
AcDbEntity
  8
122-扉
 62
   253
100
AcDbLine
 10
9415.134245900153
 20
-19226.50688502709
 30
0.0
 11
9415.134245900153
 21
-19240.50683627165
 31
0.0
  0
LINE
  5
28E
330
1C
100
AcDbEntity
  8
122-扉
 62
   253
100
AcDbLine
 10
9415.134245900153
 20
-19068.506866372
 30
0.0
 11
9415.134245900153
 21
-19052.50683394678
 31
0.0
  0
LINE
  5
28F
330
1C
100
AcDbEntity
  8
111-壁仕上
 48
2.0
100
AcDbLine
 10
9045.415971492715
 20
-19872.50683394678
 30
0.0
 11
10030.13424401632
 21
-19872.50683394678
 31
0.0
  0
LINE
  5
290
330
1C
100
AcDbEntity
  8
111-壁仕上
 48
2.0
100
AcDbLine
 10
10030.13424401632
 20
-19872.50683394678
 30
0.0
 11
10030.13424401632
 21
-17472.50683394678
 31
0.0
  0
LWPOLYLINE
  5
291
330
1C
100
AcDbEntity
  8
126-甲板
100
AcDbPolyline
 90
        4
 70
     1
 43
0.0
 10
10030.13424401632
 20
-19052.50683394678
 10
10030.13424401632
 20
-19012.50683394678
 10
9380.13424401632
 20
-19012.50683394678
 10
9380.135440784688
 20
-19052.50683394678
  0
LWPOLYLINE
  5
292
330
1C
100
AcDbEntity
  8
122-扉
 62
   253
100
AcDbPolyline
 90
        4
 70
     1
 43
0.0
 10
10030.13424401632
 20
-19052.50680384671
 10
9415.134245900153
 20
-19052.50680384673
 10
9415.134245900153
 20
-19068.50683627172
 10
10030.13424401632
 20
-19068.50683627171
  0
HATCH
  5
293
330
1C
100
AcDbEntity
  8
180-補助
100
AcDbHatch
 10
0.0
 20
0.0
 30
0.0
210
0.0
220
0.0
230
1.0
  2
ANSI31
 70
     0
 71
     1
 91
        1
 92
        1
 93
        4
 72
     1
 10
10030.13424401644
 20
-19147.50683373199
 11
10060.13424401644
 21
-19147.50683373199
 72
     1
 10
10060.13424401644
 20
-19147.50683373199
 11
10060.13424401644
 21
-19057.50683373199
 72
     1
 10
10060.13424401644
 20
-19057.50683373199
 11
10030.13424401644
 21
-19057.50683373199
 72
     1
 10
10030.13424401644
 20
-19057.50683373199
 11
10030.13424401644
 21
-19147.50683373199
 97
        1
330
294
 75
     0
 76
     1
 52
0.0
 41
150.0
 77
     0
 78
     1
 53
45.0
 43
-444710.3991840373
 44
-19244.7470710185
 45
-13.25825214724776
 46
13.25825214724777
 79
     0
 98
        1
 10
-391261.8284414178
 20
-5534.454898935932
  0
LWPOLYLINE
  5
294
102
{ACAD_REACTORS
330
293
102
}
330
1C
100
AcDbEntity
  8
150-機器
  6
Continuous
100
AcDbPolyline
 90
        4
 70
     1
 43
0.0
 10
10030.13424401644
 20
-19147.50683373199
 10
10060.13424401644
 20
-19147.50683373199
 10
10060.13424401644
 20
-19057.50683373199
 10
10030.13424401644
 20
-19057.50683373199
  0
LINE
  5
298
330
1C
100
AcDbEntity
  8
180-補助
  6
CENTER
100
AcDbLine
 10
10209.08474239481
 20
-19102.50683373199
 30
0.0
 11
9993.34606977745
 21
-19102.50683373199
 31
0.0
  0
DIMENSION
  5
299
330
1C
100
AcDbEntity
  8
166-寸法B
100
AcDbDimension
  2
*D1096
 10
10583.75683522289
 20
-19102.50683373199
 30
0.0
 11
10538.75683522289
 21
-19412.50683309447
 31
0.0
 70
    32
 71
     5
 42
619.9999987249466
  3
KH1xx030
100
AcDbAlignedDimension
 13
10060.13424401644
 23
-19722.50683245694
 33
0.0
 14
10069.21540608613
 24
-19102.50683373199
 34
0.0
 50
90.0
100
AcDbRotatedDimension
1001
ACAD
1000
DSTYLE
1002
{
1070
     3
1000

1002
}
  0
MTEXT
  5
2A6
102
{ACAD_REACTORS
330
2A7
102
}
330
1C
100
AcDbEntity
  8
160-文字
100
AcDbMText
 10
10134.79308580521
 20
-18971.3354885791
 30
0.0
 40
60.0
 41
0.0
 71
     7
 72
     1
  1
取付下地
 73
     1
 44
1.0
  0
LEADER
  5
2A7
330
1C
100
AcDbEntity
  8
160-文字
100
AcDbLeader
  3
KH1xx030
 73
     0
 74
     0
 75
     1
 40
67.26
 41
304.02
 76
     3
 10
10044.13424401644
 20
-19097.50683394677
 30
0.0
 10
10119.19308580521
 20
-18986.3354885791
 30
0.0
 10
10119.79308580521
 20
-18986.3354885791
 30
0.0
340
2A6
1001
ACAD
1000
DSTYLE
1002
{
1070
   147
1040
0.5
1070
    77
1070
     1
1002
}
  0
HATCH
  5
2A8
330
1C
100
AcDbEntity
  8
180-補助
100
AcDbHatch
 10
0.0
 20
0.0
 30
0.0
210
0.0
220
0.0
230
1.0
  2
ANSI31
 70
     0
 71
     1
 91
        1
 92
        1
 93
        4
 72
     1
 10
10030.13424401644
 20
-19767.50683245694
 11
10060.13424401644
 21
-19767.50683245694
 72
     1
 10
10060.13424401644
 20
-19767.50683245694
 11
10060.13424401644
 21
-19677.50683245694
 72
     1
 10
10060.13424401644
 20
-19677.50683245694
 11
10030.13424401644
 21
-19677.50683245694
 72
     1
 10
10030.13424401644
 20
-19677.50683245694
 11
10030.13424401644
 21
-19767.50683245694
 97
        1
330
2A9
 75
     0
 76
     1
 52
0.0
 41
150.0
 77
     0
 78
     1
 53
45.0
 43
-444710.3991840373
 44
-19864.74706974344
 45
-13.25825214724776
 46
13.25825214724777
 79
     0
 98
        1
 10
-391261.8284414178
 20
-6154.454897660893
  0
LWPOLYLINE
  5
2A9
102
{ACAD_REACTORS
330
2A8
102
}
330
1C
100
AcDbEntity
  8
150-機器
  6
Continuous
100
AcDbPolyline
 90
        4
 70
     1
 43
0.0
 10
10030.13424401644
 20
-19767.50683245694
 10
10060.13424401644
 20
-19767.50683245694
 10
10060.13424401644
 20
-19677.50683245694
 10
10030.13424401644
 20
-19677.50683245694
  0
LINE
  5
2AA
330
1C
100
AcDbEntity
  8
180-補助
  6
CENTER
100
AcDbLine
 10
10209.08474239481
 20
-19722.50683245694
 30
0.0
 11
9993.34606977745
 21
-19722.50683245694
 31
0.0
  0
DIMENSION
  5
2AB
330
1C
100
AcDbEntity
  8
166-寸法B
100
AcDbDimension
  2
*D1097
 10
10583.75683522289
 20
-19872.50683394677
 30
0.0
 11
10600.62207208673
 21
-20048.75298558034
 31
0.0
 70
   160
 71
     5
 42
150.0000014898251
  3
KH1xx030
100
AcDbAlignedDimension
 13
10060.13424401644
 23
-19722.50683245694
 33
0.0
 14
10030.13424401632
 24
-19872.50683394677
 34
0.0
 50
90.0
100
AcDbRotatedDimension
1001
ACAD
1000
DSTYLE
1002
{
1070
     3
1000
(200)
1070
   279
1070
     1
1002
}
  0
MTEXT
  5
2B9
102
{ACAD_REACTORS
330
2BA
102
}
330
1C
100
AcDbEntity
  8
160-文字
100
AcDbMText
 10
10118.68849896204
 20
-19592.97979226241
 30
0.0
 40
60.0
 41
0.0
 71
     7
 72
     1
  1
取付下地
 73
     1
 44
1.0
  0
LEADER
  5
2BA
330
1C
100
AcDbEntity
  8
160-文字
100
AcDbLeader
  3
KH1xx030
 73
     0
 74
     0
 75
     1
 40
67.26
 41
304.02
 76
     3
 10
10045.13424401644
 20
-19708.16326652118
 30
0.0
 10
10103.08849896204
 20
-19607.97979226241
 30
0.0
 10
10103.68849896204
 20
-19607.97979226241
 30
0.0
340
2B9
1001
ACAD
1000
DSTYLE
1002
{
1070
   147
1040
0.5
1070
    77
1070
     1
1002
}
  0
LWPOLYLINE
  5
2BB
330
1C
100
AcDbEntity
  8
122-扉
 62
   253
100
AcDbPolyline
 90
        4
 70
     1
 43
0.0
 10
9415.134245900153
 20
-19224.50680384673
 10
9475.134245900153
 20
-19224.50680384673
 10
9475.134245900153
 20
-19240.50683627165
 10
9415.134245900153
 20
-19240.50683627165
  0
LINE
  5
2BC
330
1C
100
AcDbEntity
  8
122-扉
 62
   253
100
AcDbLine
 10
9390.13424656442
 20
-19240.50683394678
 30
0.0
 11
10030.13424401632
 21
-19240.50683394678
 31
0.0
  0
LINE
  5
2BD
330
1C
100
AcDbEntity
  8
122-扉
 62
   253
100
AcDbLine
 10
9390.13424656442
 20
-19259.50683394678
 30
0.0
 11
10014.1342413943
 21
-19259.50683394678
 31
0.0
  0
DIMENSION
  5
2BE
330
1C
100
AcDbEntity
  8
166-寸法B
100
AcDbDimension
  2
*D1100
 10
10030.13424143039
 20
-18854.68669497883
 30
0.0
 11
9705.134241430387
 21
-18809.68669497883
 31
0.0
 70
    32
 71
     5
 42
650.0
  3
KH1xx030
100
AcDbAlignedDimension
 13
9380.134241430387
 23
-19012.42040337458
 33
0.0
 14
10030.13424143039
 24
-19012.42040337458
 34
0.0
100
AcDbRotatedDimension
  0
DIMENSION
  5
2CB
330
1C
100
AcDbEntity
  8
166-寸法B
100
AcDbDimension
  2
*D1101
 10
9390.134271366902
 20
-20399.86491819636
 30
0.0
 11
9710.134267976384
 21
-20354.86490314632
 31
0.0
 70
    33
 71
     5
 42
639.9999974517857
  3
KH1xx030
100
AcDbAlignedDimension
 13
10030.13424401632
 23
-19872.50683394678
 33
0.0
 14
9390.134246564536
 24
-19872.50686404685
 34
0.0
  0
DIMENSION
  5
2D8
330
1C
100
AcDbEntity
  8
166-寸法B
100
AcDbDimension
  2
*D1102
 10
9390.13544074697
 20
-19344.02958456029
 30
0.0
 11
9291.650975947217
 21
-19350.39002951215
 31
0.0
 70
   160
 71
     5
 42
10.00000254809856
  3
KH1xx030
100
AcDbAlignedDimension
 13
9380.135438198871
 23
-19052.42040581408
 33
0.0
 14
9390.13544074697
 24
-19146.42038372884
 34
0.0
100
AcDbRotatedDimension
1001
ACAD
1000
DSTYLE
1002
{
1070
   279
1070
     1
1002
}
  0
DIMENSION
  5
2E8
330
1C
100
AcDbEntity
  8
166-寸法B
100
AcDbDimension
  2
*D1103
 10
10030.13543819875
 20
-19344.02958456029
 30
0.0
 11
9710.135439472862
 21
-19299.02958456029
 31
0.0
 70
    32
 71
     5
 42
639.999997451785
  3
KH1xx030
100
AcDbAlignedDimension
 13
9390.13544074697
 23
-19146.42038372884
 33
0.0
 14
10030.13543819875
 24
-19221.23722013683
 34
0.0
100
AcDbRotatedDimension
  0
DIMENSION
  5
2F5
330
1C
100
AcDbEntity
  8
166-寸法B
100
AcDbDimension
  2
*D1104
 10
9022.222070266092
 20
-19012.50683394677
 30
0.0
 11
8972.212070266094
 21
-19442.50683390764
 31
0.0
 70
    32
 71
     5
 42
859.9999999217325
  3
KH1xx030
100
AcDbAlignedDimension
 13
9380.134241430504
 23
-19872.50683386851
 33
0.0
 14
9380.134241430387
 24
-19012.50683394677
 34
0.0
 50
90.0
100
AcDbRotatedDimension
1001
ACAD
1000
DSTYLE
1002
{
1070
     3
1000
(910)
1002
}
  0
DIMENSION
  5
302
330
1C
100
AcDbEntity
  8
166-寸法B
100
AcDbDimension
  2
*D1105
 10
9157.222070266092
 20
-19012.50683394677
 30
0.0
 11
9176.642927312474
 21
-18919.91040909102
 31
0.0
 70
   160
 71
     5
 42
40.0
  3
KH1xx030
100
AcDbAlignedDimension
 13
9380.134241430387
 23
-19052.50683394677
 33
0.0
 14
9380.134241430387
 24
-19012.50683394677
 34
0.0
 50
90.0
100
AcDbRotatedDimension
1001
ACAD
1000
DSTYLE
1002
{
1070
   279
1070
     1
1002
}
  0
DIMENSION
  5
312
330
1C
100
AcDbEntity
  8
166-寸法B
100
AcDbDimension
  2
*D1106
 10
9157.222070266092
 20
-19240.50680137141
 30
0.0
 11
9112.222070266092
 21
-19146.50681765909
 31
0.0
 70
    32
 71
     5
 42
187.9999674246355
  3
KH1xx030
100
AcDbAlignedDimension
 13
9380.134241430387
 23
-19052.50683394677
 33
0.0
 14
9380.135438198871
 24
-19240.50680137141
 34
0.0
 50
90.0
100
AcDbRotatedDimension
1001
ACAD
1000
DSTYLE
1002
{
1070
    49
1040
0.5
1070
    90
1070
     1
1070
   345
1005
13
1070
   346
1005
13
1070
   347
1005
13
1002
}
1001
ACAD_DSTYLE_DIMARC_LENGTH_SYMBOL
1070
   379
1070
     1
1001
ACAD_DSTYLE_DIM_LINETYPE
1070
   380
1005
13
1001
ACAD_DSTYLE_DIM_EXT1_LINETYPE
1070
   381
1005
13
1001
ACAD_DSTYLE_DIM_EXT2_LINETYPE
1070
   382
1005
13
  0
DIMENSION
  5
31F
330
1C
100
AcDbEntity
  8
166-寸法B
100
AcDbDimension
  2
*D1107
 10
9157.222070266092
 20
-19872.50683386851
 30
0.0
 11
9107.212070266094
 21
-19556.50681761996
 31
0.0
 70
    32
 71
     5
 42
632.000032497097
  3
KH1xx030
100
AcDbAlignedDimension
 13
9380.135438198871
 23
-19240.50680137141
 33
0.0
 14
9380.134241430504
 24
-19872.50683386851
 34
0.0
 50
90.0
100
AcDbRotatedDimension
1001
ACAD
1000
DSTYLE
1002
{
1070
     3
1000
(682)
1070
    49
1040
0.5
1070
    90
1070
     1
1070
   345
1005
13
1070
   346
1005
13
1070
   347
1005
13
1002
}
1001
ACAD_DSTYLE_DIMARC_LENGTH_SYMBOL
1070
   379
1070
     1
1001
ACAD_DSTYLE_DIM_LINETYPE
1070
   380
1005
13
1001
ACAD_DSTYLE_DIM_EXT1_LINETYPE
1070
   381
1005
13
1001
ACAD_DSTYLE_DIM_EXT2_LINETYPE
1070
   382
1005
13
  0
LINE
  5
32C
330
1C
100
AcDbEntity
  8
122-扉
 62
   253
100
AcDbLine
 10
6526.33555720008
 20
-19071.50683245695
 30
0.0
 11
6526.33555720008
 21
-19407.50683499388
 31
0.0
  0
LINE
  5
32D
330
1C
100
AcDbEntity
  8
122-扉
 62
   253
100
AcDbLine
 10
6526.33555720008
 20
-19426.50682879488
 30
0.0
 11
6526.335557200196
 21
-19756.50683169668
 31
0.0
  0
LINE
  5
32E
330
1C
100
AcDbEntity
  8
122-扉
 62
   253
100
AcDbLine
 10
6526.335557200196
 20
-19756.50683169668
 30
0.0
 11
6526.33555720008
 21
-19772.50683245695
 31
0.0
  0
LINE
  5
32F
330
1C
100
AcDbEntity
  8
122-扉
 62
   253
100
AcDbLine
 10
6501.335557864462
 20
-19473.50683245695
 30
0.0
 11
6521.33555725433
 21
-19473.50683245695
 31
0.0
  0
LINE
  5
330
330
1C
100
AcDbEntity
  8
122-扉
 62
   253
100
AcDbLine
 10
6521.33555725433
 20
-19388.50683245695
 30
0.0
 11
6501.335557864579
 21
-19388.50683245695
 31
0.0
  0
LINE
  5
331
330
1C
100
AcDbEntity
  8
122-扉
 62
   253
100
AcDbLine
 10
6521.33555725433
 20
-19473.50683245695
 30
0.0
 11
6501.335557864462
 21
-19473.50683245695
 31
0.0
  0
LINE
  5
332
330
1C
100
AcDbEntity
  8
122-扉
 62
   253
100
AcDbLine
 10
6501.335557864229
 20
-19769.50683245695
 30
0.0
 11
6521.335557254213
 21
-19769.50683245695
 31
0.0
  0
LINE
  5
333
330
1C
100
AcDbEntity
  8
122-扉
 62
   253
100
AcDbLine
 10
6521.33555725433
 20
-19471.50683245695
 30
0.0
 11
6521.33555725433
 21
-19388.50683245695
 31
0.0
  0
LINE
  5
334
330
1C
100
AcDbEntity
  8
122-扉
 62
   253
100
AcDbLine
 10
6501.335557864579
 20
-19388.50683245695
 30
0.0
 11
6501.335557864462
 21
-19471.50683245695
 31
0.0
  0
LINE
  5
335
330
1C
100
AcDbEntity
  8
122-扉
 62
   253
100
AcDbLine
 10
6521.335557254213
 20
-19769.50683245695
 30
0.0
 11
6521.33555725433
 21
-19473.50683245695
 31
0.0
  0
LINE
  5
336
330
1C
100
AcDbEntity
  8
122-扉
 62
   253
100
AcDbLine
 10
6501.335557864462
 20
-19473.50683245695
 30
0.0
 11
6501.335557864229
 21
-19769.50683245695
 31
0.0
  0
LINE
  5
337
330
1C
100
AcDbEntity
  8
122-扉
 62
   253
100
AcDbLine
 10
7125.335555316247
 20
-19822.50683320172
 30
0.0
 11
7106.335555316247
 21
-19822.50683320172
 31
0.0
  0
LINE
  5
338
330
1C
100
AcDbEntity
  8
122-扉
 62
   253
100
AcDbLine
 10
7106.335555316247
 20
-19071.50683245674
 30
0.0
 11
7106.335555316247
 21
-19822.50683320172
 31
0.0
  0
LINE
  5
339
330
1C
100
AcDbEntity
  8
122-扉
 62
   253
100
AcDbLine
 10
7106.335555316247
 20
-19772.50683245695
 30
0.0
 11
6526.33555720008
 21
-19772.50683245695
 31
0.0
  0
LINE
  5
33A
330
1C
100
AcDbEntity
  8
122-扉
 62
   253
100
AcDbLine
 10
7106.335555316247
 20
-19753.50683245698
 30
0.0
 11
6526.33555720008
 21
-19753.50683245695
 31
0.0
  0
LINE
  5
33B
330
1C
100
AcDbEntity
  8
122-扉
 62
   253
100
AcDbLine
 10
6594.335559906038
 20
-19772.50683245695
 30
0.0
 11
6594.335559906038
 21
-19872.00683293379
 31
0.0
  0
LINE
  5
33C
330
1C
100
AcDbEntity
  8
122-扉
 62
   253
100
AcDbLine
 10
7125.335555316247
 20
-19872.50683394678
 30
0.0
 11
7125.335555316247
 21
-19822.50683320172
 31
0.0
  0
LINE
  5
33D
330
1C
100
AcDbEntity
  8
122-扉
100
AcDbLine
 10
6594.335559906038
 20
-19872.00683293379
 30
0.0
 11
6594.335559906038
 21
-19872.50683394678
 31
0.0
  0
LINE
  5
33E
330
1C
100
AcDbEntity
  8
122-扉
 62
   253
100
AcDbLine
 10
7125.335555316247
 20
-19872.50683394678
 30
0.0
 11
6594.335559906038
 21
-19872.50683394678
 31
0.0
  0
LINE
  5
33F
330
1C
100
AcDbEntity
  8
122-扉
 62
   253
100
AcDbLine
 10
7125.335555316247
 20
-19052.50680384673
 30
0.0
 11
7125.335555316247
 21
-19822.50683320172
 31
0.0
  0
LINE
  5
340
330
1C
100
AcDbEntity
  8
122-扉
100
AcDbLine
 10
7125.335555316364
 20
-19052.50683394678
 30
0.0
 11
7109.335552694225
 21
-19052.50680384673
 31
0.0
  0
LINE
  5
341
330
1C
100
AcDbEntity
  8
122-扉
 62
   253
100
AcDbLine
 10
7109.335552694225
 20
-19052.50680384673
 30
0.0
 11
6526.33555720008
 21
-19052.50680384673
 31
0.0
  0
LINE
  5
342
330
1C
100
AcDbEntity
  8
111-壁仕上
 48
2.0
100
AcDbLine
 10
6156.617282792758
 20
-19872.50683394678
 30
0.0
 11
7141.335555316131
 21
-19872.50683394678
 31
0.0
  0
LINE
  5
343
330
1C
100
AcDbEntity
  8
111-壁仕上
 48
2.0
100
AcDbLine
 10
7141.335555316247
 20
-19872.50683394678
 30
0.0
 11
7141.335555316364
 21
-17472.50683394678
 31
0.0
  0
LWPOLYLINE
  5
344
330
1C
100
AcDbEntity
  8
122-扉
 62
   253
100
AcDbPolyline
 90
        4
 70
     1
 43
0.0
 10
6575.335559906038
 20
-19872.50683394678
 10
6594.335559906038
 20
-19872.50683394678
 10
6594.335559906038
 20
-19772.50683394678
 10
6575.335559906038
 20
-19772.50683394678
  0
LWPOLYLINE
  5
345
330
1C
100
AcDbEntity
  8
126-甲板
100
AcDbPolyline
 90
        4
 70
     1
 43
0.0
 10
7141.335555316247
 20
-19052.50682830302
 10
7141.335555316247
 20
-19012.50683394678
 10
6491.335555316247
 20
-19012.50683394678
 10
6491.335555316364
 20
-19052.50683642209
  0
HATCH
  5
346
330
1C
100
AcDbEntity
  8
180-補助
100
AcDbHatch
 10
0.0
 20
0.0
 30
0.0
210
0.0
220
0.0
230
1.0
  2
ANSI31
 70
     0
 71
     1
 91
        1
 92
        1
 93
        4
 72
     1
 10
7141.335555316364
 20
-19147.50683373201
 11
7171.335555316364
 21
-19147.50683373201
 72
     1
 10
7171.335555316364
 20
-19147.50683373201
 11
7171.335555316364
 21
-19057.50683373201
 72
     1
 10
7171.335555316364
 20
-19057.50683373201
 11
7141.335555316364
 21
-19057.50683373201
 72
     1
 10
7141.335555316364
 20
-19057.50683373201
 11
7141.335555316364
 21
-19147.50683373201
 97
        1
330
347
 75
     0
 76
     1
 52
0.0
 41
150.0
 77
     0
 78
     1
 53
45.0
 43
-447599.1978727374
 44
-19244.7470710185
 45
-13.25825214724776
 46
13.25825214724777
 79
     0
 98
        1
 10
-394150.6271301179
 20
-5534.454898935946
  0
LWPOLYLINE
  5
347
102
{ACAD_REACTORS
330
346
102
}
330
1C
100
AcDbEntity
  8
150-機器
  6
Continuous
100
AcDbPolyline
 90
        4
 70
     1
 43
0.0
 10
7141.335555316364
 20
-19147.50683373201
 10
7171.335555316364
 20
-19147.50683373201
 10
7171.335555316364
 20
-19057.50683373201
 10
7141.335555316364
 20
-19057.50683373201
  0
LINE
  5
348
330
1C
100
AcDbEntity
  8
180-補助
  6
CENTER
100
AcDbLine
 10
7320.286053694734
 20
-19102.50683373201
 30
0.0
 11
7088.547381077376
 21
-19102.50683373201
 31
0.0
  0
DIMENSION
  5
349
330
1C
100
AcDbEntity
  8
166-寸法B
100
AcDbDimension
  2
*D1109
 10
7694.958146522818
 20
-19102.50683373201
 30
0.0
 11
7649.958146522818
 21
-19412.50683309448
 31
0.0
 70
    32
 71
     5
 42
619.9999987249466
  3
KH1xx030
100
AcDbAlignedDimension
 13
7171.335555316364
 23
-19722.50683245695
 33
0.0
 14
7180.416717386055
 24
-19102.50683373201
 34
0.0
 50
90.0
100
AcDbRotatedDimension
1001
ACAD
1000
DSTYLE
1002
{
1070
     3
1000

1002
}
  0
MTEXT
  5
356
102
{ACAD_REACTORS
330
357
102
}
330
1C
100
AcDbEntity
  8
160-文字
100
AcDbMText
 10
7245.994397105133
 20
-18971.33548857912
 30
0.0
 40
60.0
 41
0.0
 71
     7
 72
     1
  1
取付下地
 73
     1
 44
1.0
  0
LEADER
  5
357
330
1C
100
AcDbEntity
  8
160-文字
100
AcDbLeader
  3
KH1xx030
 73
     0
 74
     0
 75
     1
 40
67.26
 41
304.02
 76
     3
 10
7155.335555316364
 20
-19097.50683394678
 30
0.0
 10
7230.394397105132
 20
-18986.33548857912
 30
0.0
 10
7230.994397105133
 20
-18986.33548857912
 30
0.0
340
356
1001
ACAD
1000
DSTYLE
1002
{
1070
   147
1040
0.5
1070
    77
1070
     1
1002
}
  0
LWPOLYLINE
  5
358
330
1C
100
AcDbEntity
  8
122-扉
 62
   253
100
AcDbPolyline
 90
        4
 70
     1
 43
0.0
 10
7125.335555316247
 20
-19152.50680384673
 10
7141.335555316247
 20
-19152.50680384673
 10
7141.335555316247
 20
-19052.50680384673
 10
7125.335555316247
 20
-19052.50680384673
  0
HATCH
  5
359
330
1C
100
AcDbEntity
  8
180-補助
100
AcDbHatch
 10
0.0
 20
0.0
 30
0.0
210
0.0
220
0.0
230
1.0
  2
ANSI31
 70
     0
 71
     1
 91
        1
 92
        1
 93
        4
 72
     1
 10
7141.335555316364
 20
-19767.50683245695
 11
7171.335555316364
 21
-19767.50683245695
 72
     1
 10
7171.335555316364
 20
-19767.50683245695
 11
7171.335555316364
 21
-19677.50683245695
 72
     1
 10
7171.335555316364
 20
-19677.50683245695
 11
7141.335555316364
 21
-19677.50683245695
 72
     1
 10
7141.335555316364
 20
-19677.50683245695
 11
7141.335555316364
 21
-19767.50683245695
 97
        1
330
35A
 75
     0
 76
     1
 52
0.0
 41
150.0
 77
     0
 78
     1
 53
45.0
 43
-447599.1978727374
 44
-19864.74706974346
 45
-13.25825214724776
 46
13.25825214724777
 79
     0
 98
        1
 10
-394150.6271301179
 20
-6154.454897660908
  0
LWPOLYLINE
  5
35A
102
{ACAD_REACTORS
330
359
102
}
330
1C
100
AcDbEntity
  8
150-機器
  6
Continuous
100
AcDbPolyline
 90
        4
 70
     1
 43
0.0
 10
7141.335555316364
 20
-19767.50683245695
 10
7171.335555316364
 20
-19767.50683245695
 10
7171.335555316364
 20
-19677.50683245695
 10
7141.335555316364
 20
-19677.50683245695
  0
LINE
  5
35B
330
1C
100
AcDbEntity
  8
180-補助
  6
CENTER
100
AcDbLine
 10
7320.286053694734
 20
-19722.50683245695
 30
0.0
 11
7088.547381077376
 21
-19722.50683245695
 31
0.0
  0
LWPOLYLINE
  5
35C
330
1C
100
AcDbEntity
  8
122-扉
 62
   253
100
AcDbPolyline
 90
        4
 70
     1
 43
0.0
 10
7125.335555316247
 20
-19772.50680257167
 10
7141.335555316247
 20
-19772.50680257167
 10
7141.335555316247
 20
-19672.50680257167
 10
7125.335555316247
 20
-19672.50680257167
  0
DIMENSION
  5
35D
330
1C
100
AcDbEntity
  8
166-寸法B
100
AcDbDimension
  2
*D1110
 10
7694.958146522818
 20
-19872.50683394678
 30
0.0
 11
7708.123638857804
 21
-20048.75298558036
 31
0.0
 70
   160
 71
     5
 42
150.0000014898251
  3
KH1xx030
100
AcDbAlignedDimension
 13
7171.335555316364
 23
-19722.50683245695
 33
0.0
 14
7141.335555316247
 24
-19872.50683394678
 34
0.0
 50
90.0
100
AcDbRotatedDimension
1001
ACAD
1000
DSTYLE
1002
{
1070
     3
1000
(200)
1070
   279
1070
     1
1002
}
  0
MTEXT
  5
36B
102
{ACAD_REACTORS
330
36C
102
}
330
1C
100
AcDbEntity
  8
160-文字
100
AcDbMText
 10
7229.889810261964
 20
-19592.97979226242
 30
0.0
 40
60.0
 41
0.0
 71
     7
 72
     1
  1
取付下地
 73
     1
 44
1.0
  0
LEADER
  5
36C
330
1C
100
AcDbEntity
  8
160-文字
100
AcDbLeader
  3
KH1xx030
 73
     0
 74
     0
 75
     1
 40
67.26
 41
304.02
 76
     3
 10
7156.335555316364
 20
-19708.16326652119
 30
0.0
 10
7214.289810261964
 20
-19607.97979226242
 30
0.0
 10
7214.889810261964
 20
-19607.97979226242
 30
0.0
340
36B
1001
ACAD
1000
DSTYLE
1002
{
1070
   147
1040
0.5
1070
    77
1070
     1
1002
}
  0
DIMENSION
  5
36D
330
1C
100
AcDbEntity
  8
166-寸法B
100
AcDbDimension
  2
*D1111
 10
7141.335555316247
 20
-20399.86489065199
 30
0.0
 11
6858.335557611201
 21
-20354.86489065199
 31
0.0
 70
    32
 71
     5
 42
565.9999954100931
  3
KH1xx030
100
AcDbAlignedDimension
 13
6575.335559906154
 23
-19872.50683394678
 33
0.0
 14
7141.335555316247
 24
-19872.50683394678
 34
0.0
100
AcDbRotatedDimension
  0
DIMENSION
  5
37A
330
1C
100
AcDbEntity
  8
166-寸法B
100
AcDbDimension
  2
*D1112
 10
7141.335555316247
 20
-18854.68669497883
 30
0.0
 11
6816.335555316247
 21
-18809.68669497883
 31
0.0
 70
    32
 71
     5
 42
650.0
  3
KH1xx030
100
AcDbAlignedDimension
 13
6491.335555316247
 23
-19012.50683394678
 33
0.0
 14
7141.335555316247
 24
-19012.50683394678
 34
0.0
100
AcDbRotatedDimension
  0
DIMENSION
  5
387
330
1C
100
AcDbEntity
  8
166-寸法B
100
AcDbDimension
  2
*D1113
 10
6501.335557864579
 20
-19344.02958456029
 30
0.0
 11
6402.85109306471
 21
-19350.47646012016
 31
0.0
 70
   160
 71
     5
 42
10.00000254821498
  3
KH1xx030
100
AcDbAlignedDimension
 13
6491.335555316364
 23
-19052.50683642209
 33
0.0
 14
6501.335557864579
 24
-19441.91238275217
 34
0.0
100
AcDbRotatedDimension
1001
ACAD
1000
DSTYLE
1002
{
1070
   279
1070
     1
1002
}
  0
DIMENSION
  5
397
330
1C
100
AcDbEntity
  8
166-寸法B
100
AcDbDimension
  2
*D1114
 10
7141.335555316247
 20
-19344.02958456029
 30
0.0
 11
6821.335556590413
 21
-19299.02958456029
 31
0.0
 70
    32
 71
     5
 42
639.9999974516686
  3
KH1xx030
100
AcDbAlignedDimension
 13
6501.335557864579
 23
-19441.91238275217
 33
0.0
 14
7141.335555316247
 24
-19221.32365074484
 34
0.0
100
AcDbRotatedDimension
  0
DIMENSION
  5
3A4
330
1C
100
AcDbEntity
  8
166-寸法B
100
AcDbDimension
  2
*D1115
 10
6133.423384151953
 20
-19012.50683394678
 30
0.0
 11
6083.413384151954
 21
-19442.50683390765
 31
0.0
 70
    32
 71
     5
 42
859.9999999217325
  3
KH1xx030
100
AcDbAlignedDimension
 13
6491.335555316364
 23
-19872.50683386851
 33
0.0
 14
6491.335555316247
 24
-19012.50683394678
 34
0.0
 50
90.0
100
AcDbRotatedDimension
1001
ACAD
1000
DSTYLE
1002
{
1070
     3
1000
(910)
1002
}
  0
DIMENSION
  5
3B1
330
1C
100
AcDbEntity
  8
166-寸法B
100
AcDbDimension
  2
*D1116
 10
6268.423384151953
 20
-19772.5068338685
 30
0.0
 11
6223.423384151953
 21
-19412.50683390764
 31
0.0
 70
    32
 71
     5
 42
719.999999921718
  3
KH1xx030
100
AcDbAlignedDimension
 13
6491.335555316247
 23
-19052.50683394678
 33
0.0
 14
6491.335555316364
 24
-19772.5068338685
 34
0.0
 50
90.0
100
AcDbRotatedDimension
  0
DIMENSION
  5
3BE
330
1C
100
AcDbEntity
  8
166-寸法B
100
AcDbDimension
  2
*D1117
 10
6268.423384151953
 20
-19872.5068338685
 30
0.0
 11
6268.423384151953
 21
-20051.96046575868
 31
0.0
 70
   160
 71
     5
 42
100.0
  3
KH1xx030
100
AcDbAlignedDimension
 13
6491.335555316364
 23
-19772.5068338685
 33
0.0
 14
6491.335555316364
 24
-19872.5068338685
 34
0.0
 50
90.0
100
AcDbRotatedDimension
1001
ACAD
1000
DSTYLE
1002
{
1070
     3
1000
(150)
1070
   279
1070
     1
1002
}
  0
DIMENSION
  5
3CC
330
1C
100
AcDbEntity
  8
166-寸法B
100
AcDbDimension
  2
*D1118
 10
6268.423384151953
 20
-19012.50683394678
 30
0.0
 11
6287.844241198334
 21
-18919.91040909103
 31
0.0
 70
   160
 71
     5
 42
40.0
  3
KH1xx030
100
AcDbAlignedDimension
 13
6491.335555316247
 23
-19052.50683394678
 33
0.0
 14
6491.335555316247
 24
-19012.50683394678
 34
0.0
 50
90.0
100
AcDbRotatedDimension
1001
ACAD
1000
DSTYLE
1002
{
1070
   279
1070
     1
1002
}
  0
LINE
  5
3DC
330
1C
100
AcDbEntity
  8
122-扉
 62
   253
100
AcDbLine
 10
6501.335557864462
 20
-19471.50683245695
 30
0.0
 11
6521.33555725433
 21
-19471.50683245695
 31
0.0
  0
LWPOLYLINE
  5
3DD
330
1C
100
AcDbEntity
  8
122-扉
 62
   253
100
AcDbPolyline
 90
        4
 70
     1
 43
0.0
 10
6526.335557200196
 20
-19463.00683245695
 10
7106.335555316247
 20
-19463.00683245695
 10
7106.335555316247
 20
-19482.00683245695
 10
6526.335557200196
 20
-19482.00683245695
  0
LINE
  5
3DE
330
1C
100
AcDbEntity
  8
122-扉
 62
   253
100
AcDbLine
 10
6521.335557254213
 20
-19426.50682879488
 30
0.0
 11
7066.33559346322
 21
-19426.50682879488
 31
0.0
  0
LINE
  5
3DF
330
1C
100
AcDbEntity
  8
122-扉
 62
   253
100
AcDbLine
 10
7066.33559346322
 20
-19426.50682879488
 30
0.0
 11
7066.33559346322
 21
-19407.50683499388
 31
0.0
  0
LINE
  5
3E0
330
1C
100
AcDbEntity
  8
122-扉
 62
   253
100
AcDbLine
 10
7066.33559346322
 20
-19407.50683499388
 30
0.0
 11
6521.335564852991
 21
-19407.50683499388
 31
0.0
  0
LINE
  5
3E1
330
1C
100
AcDbEntity
  8
122-扉
 62
   253
100
AcDbLine
 10
7067.83555720008
 20
-19604.10683257405
 30
0.0
 11
7051.835554578058
 21
-19604.10683257405
 31
0.0
  0
LINE
  5
3E2
330
1C
100
AcDbEntity
  8
122-扉
 62
   253
100
AcDbLine
 10
7067.83555720008
 20
-19604.10683257405
 30
0.0
 11
7067.83555720008
 21
-19736.30683245688
 31
0.0
  0
LINE
  5
3E3
330
1C
100
AcDbEntity
  8
122-扉
 62
   253
100
AcDbLine
 10
7051.835554578174
 20
-19604.10683257405
 30
0.0
 11
7051.835554578058
 21
-19720.30680003189
 31
0.0
  0
LINE
  5
3E4
330
1C
100
AcDbEntity
  8
122-扉
 62
   253
100
AcDbLine
 10
7067.83555720008
 20
-19736.30683245688
 30
0.0
 11
6526.335557199964
 21
-19736.30683245688
 31
0.0
  0
LINE
  5
3E5
330
1C
100
AcDbEntity
  8
122-扉
 62
   253
100
AcDbLine
 10
7051.835554578058
 20
-19720.30680003189
 30
0.0
 11
6526.335557199964
 21
-19720.30680003189
 31
0.0
  0
LWPOLYLINE
  5
3E6
330
1C
100
AcDbEntity
  8
122-扉
  6
Continuous
 62
   253
100
AcDbPolyline
 90
        4
 70
     1
 43
0.0
 10
6526.335557199964
 20
-19607.50682503172
 10
7051.835554578058
 20
-19607.50682503175
 10
7051.835554578058
 20
-19595.50682503175
 10
6526.335557199964
 20
-19595.50682503172
  0
LWPOLYLINE
  5
3E7
330
1C
100
AcDbEntity
  8
122-扉
 62
   253
100
AcDbPolyline
 90
        4
 70
     1
 43
0.0
 10
6526.33555720008
 20
-19071.50683245695
 10
7125.33555720008
 20
-19071.50683245695
 10
7125.33555720008
 20
-19052.50683245695
 10
6526.33555720008
 20
-19052.50683245695
  0
LWPOLYLINE
  5
3E8
330
1C
100
AcDbEntity
  8
122-扉
 62
   253
100
AcDbPolyline
 90
        4
 70
     1
 43
0.0
 10
6526.33555720008
 20
-19077.50683245695
 10
7106.335555316247
 20
-19077.50683245695
 10
7106.335555316247
 20
-19071.50683245695
 10
6526.33555720008
 20
-19071.50683245695
  0
INSERT
  5
3E9
330
1C
100
AcDbEntity
  8
160-文字
100
AcDbBlockReference
  2
取付下地注釈
 10
7749.625484265103
 20
-17965.74279859776
 30
0.0
  0
MTEXT
  5
3EF
330
1C
100
AcDbEntity
  8
160-文字
100
AcDbMText
 10
6827.449947435474
 20
-20864.16405185683
 30
0.0
 40
68.0
 41
0.0
 71
     5
 72
     1
  1
{\fArial|b0|i0|c0|p32;B}面展開図
 73
     1
 44
1.0
  0
MTEXT
  5
3F0
330
1C
100
AcDbEntity
  8
160-文字
100
AcDbMText
 10
9692.899894631184
 20
-20864.16408195688
 30
0.0
 40
68.0
 41
0.0
 71
     5
 72
     1
  1
{\fArial|b0|i0|c0|p32;B}面展開図
 73
     1
 44
1.0
  0
LWPOLYLINE
  5
3F1
330
1C
100
AcDbEntity
  8
160-文字
100
AcDbPolyline
 90
        4
 70
     1
 43
0.0
 10
6542.435443981267
 20
-20798.9507595966
 10
7112.464450889565
 20
-20798.9507595966
 10
7112.464450889565
 20
-20929.37734411705
 10
6542.435443981267
 20
-20929.37734411705
  0
LWPOLYLINE
  5
3F2
330
1C
100
AcDbEntity
  8
160-文字
100
AcDbPolyline
 90
        4
 70
     1
 43
0.0
 10
9407.885391782103
 20
-20798.95078969665
 10
9977.914398690285
 20
-20798.95078969665
 10
9977.914398690285
 20
-20929.3773742171
 10
9407.885391782103
 20
-20929.3773742171
  0
LINE
  5
3F3
330
1C
100
AcDbEntity
  8
122-扉
 62
   253
100
AcDbLine
 10
9971.134254029319
 20
-19117.68705162972
 30
0.0
 11
9955.134251407297
 21
-19117.68705162972
 31
0.0
  0
LINE
  5
3F4
330
1C
100
AcDbEntity
  8
122-扉
 62
   253
100
AcDbLine
 10
9971.134254029203
 20
-19117.68705162972
 30
0.0
 11
9971.134254029319
 21
-19201.68704304672
 31
0.0
  0
LINE
  5
3F5
330
1C
100
AcDbEntity
  8
122-扉
 62
   253
100
AcDbLine
 10
9955.134251407297
 20
-19117.68705162972
 30
0.0
 11
9955.134251407297
 21
-19185.68701062172
 31
0.0
  0
LINE
  5
3F6
330
1C
100
AcDbEntity
  8
122-扉
 62
   253
100
AcDbLine
 10
9971.134254029203
 20
-19201.68704304672
 30
0.0
 11
9415.134245900153
 21
-19201.68704304672
 31
0.0
  0
LINE
  5
3F7
330
1C
100
AcDbEntity
  8
122-扉
 62
   253
100
AcDbLine
 10
9955.134251407297
 20
-19185.68701062172
 30
0.0
 11
9415.134245900153
 21
-19185.68701062172
 31
0.0
  0
ENDSEC
  0
SECTION
  2
OBJECTS
  0
DICTIONARY
  5
C
330
0
100
AcDbDictionary
281
     1
  3
ACAD_COLOR
350
3D
  3
ACAD_DETAILVIEWSTYLE
350
401
  3
ACAD_GROUP
350
3B
  3
ACAD_LAYOUT
350
25
  3
ACAD_MATERIAL
350
E
  3
ACAD_MLEADERSTYLE
350
3FF
  3
ACAD_MLINESTYLE
350
37
  3
ACAD_PLOTSETTINGS
350
3C
  3
ACAD_PLOTSTYLENAME
350
B
  3
ACAD_SCALELIST
350
44
  3
ACAD_SECTIONVIEWSTYLE
350
402
  3
ACAD_TABLESTYLE
350
3FE
  3
AcDbVariableDictionary
350
3FC
  0
DICTIONARY
  5
3
330
2
100
AcDbDictionary
280
     1
281
     1
  3
ACAD_LAYERFILTERS
360
4
  3
ACAD_LAYERSTATES
360
5
  3
ACLYDICTIONARY
360
6
  3
AMLAYER_GROUPCOLORS
360
9
  0
DICTIONARY
  5
21
330
20
100
AcDbDictionary
280
     1
281
     1
  3
ADSK_XREC_LAYER_RECONCILED
360
22
  0
DICTIONARY
  5
91
330
90
100
AcDbDictionary
280
     1
281
     1
  3
ADSK_XREC_LAYER_RECONCILED
360
92
  0
DICTIONARY
  5
7C
330
7B
100
AcDbDictionary
280
     1
281
     1
  3
ADSK_XREC_LAYER_RECONCILED
360
7D
  0
DICTIONARY
  5
8B
330
8A
100
AcDbDictionary
280
     1
281
     1
  3
ADSK_XREC_LAYER_RECONCILED
360
8C
  0
DICTIONARY
  5
C2
330
C1
100
AcDbDictionary
280
     1
281
     1
  3
ADSK_XREC_LAYER_RECONCILED
360
C3
  0
DICTIONARY
  5
10F
330
10E
100
AcDbDictionary
280
     1
281
     1
  3
ADSK_XREC_LAYER_RECONCILED
360
110
  0
DICTIONARY
  5
73
330
72
100
AcDbDictionary
280
     1
281
     1
  3
ADSK_XREC_LAYER_RECONCILED
360
74
  0
DICTIONARY
  5
1DB
330
1DA
100
AcDbDictionary
280
     1
281
     1
  3
ADSK_XREC_LAYER_RECONCILED
360
1DC
  0
DICTIONARY
  5
6E
330
6D
100
AcDbDictionary
280
     1
281
     1
  3
ADSK_XREC_LAYER_RECONCILED
360
6F
  0
DICTIONARY
  5
6A
330
69
100
AcDbDictionary
280
     1
281
     1
  3
ADSK_XREC_LAYER_RECONCILED
360
6B
  0
DICTIONARY
  5
296
330
295
100
AcDbDictionary
280
     1
281
     1
  3
ADSK_XREC_LAYER_RECONCILED
360
297
  0
DICTIONARY
  5
96
330
95
100
AcDbDictionary
280
     1
281
     1
  3
ADSK_XREC_LAYER_RECONCILED
360
97
  0
DICTIONARY
  5
18C
330
18B
100
AcDbDictionary
280
     1
281
     1
  3
ADSK_XREC_LAYER_RECONCILED
360
18D
  0
DICTIONARY
  5
122
330
121
100
AcDbDictionary
280
     1
281
     1
  3
ADSK_XREC_LAYER_RECONCILED
360
123
  0
DICTIONARY
  5
1D
330
1C
100
AcDbDictionary
280
     1
281
     1
  3
ACAD_SORTENTS
360
1E
  0
DICTIONARY
  5
7F
330
7E
100
AcDbDictionary
280
     1
281
     1
  3
ACAD_SORTENTS
360
80
  0
DICTIONARY
  5
3D
102
{ACAD_REACTORS
330
C
102
}
330
C
100
AcDbDictionary
281
     1
  0
DICTIONARY
  5
401
102
{ACAD_REACTORS
330
C
102
}
330
C
100
AcDbDictionary
281
     1
  0
DICTIONARY
  5
3B
102
{ACAD_REACTORS
330
C
102
}
330
C
100
AcDbDictionary
281
     1
  0
DICTIONARY
  5
25
102
{ACAD_REACTORS
330
C
102
}
330
C
100
AcDbDictionary
281
     1
  3
Model
350
24
  3
ﾚｲｱｳﾄ1
350
2A
  0
DICTIONARY
  5
E
102
{ACAD_REACTORS
330
C
102
}
330
C
100
AcDbDictionary
281
     1
  3
ByBlock
350
67
  3
ByLayer
350
33
  3
Global
350
D
  0
DICTIONARY
  5
3FF
102
{ACAD_REACTORS
330
C
102
}
330
C
100
AcDbDictionary
281
     1
  0
DICTIONARY
  5
37
102
{ACAD_REACTORS
330
C
102
}
330
C
100
AcDbDictionary
281
     1
  3
STANDARD
350
36
  0
DICTIONARY
  5
3C
102
{ACAD_REACTORS
330
C
102
}
330
C
100
AcDbDictionary
281
     1
  0
ACDBDICTIONARYWDFLT
  5
B
102
{ACAD_REACTORS
330
C
102
}
330
C
100
AcDbDictionary
281
     1
  3
Normal
350
A
100
AcDbDictionaryWithDefault
340
A
  0
DICTIONARY
  5
44
102
{ACAD_REACTORS
330
C
102
}
330
C
100
AcDbDictionary
281
     1
  3
*A1
350
66
  0
DICTIONARY
  5
402
102
{ACAD_REACTORS
330
C
102
}
330
C
100
AcDbDictionary
281
     1
  0
DICTIONARY
  5
3FE
102
{ACAD_REACTORS
330
C
102
}
330
C
100
AcDbDictionary
281
     1
  0
DICTIONARY
  5
3FC
102
{ACAD_REACTORS
330
C
102
}
330
C
100
AcDbDictionary
281
     1
  3
CANNOSCALE
350
3FD
  3
XCLIPFRAME
350
400
  0
DICTIONARY
  5
4
102
{ACAD_REACTORS
330
3
102
}
330
3
100
AcDbDictionary
281
     1
  0
DICTIONARY
  5
5
102
{ACAD_REACTORS
330
3
102
}
330
3
100
AcDbDictionary
281
     1
  0
DICTIONARY
  5
6
102
{ACAD_REACTORS
330
3
102
}
330
3
100
AcDbDictionary
281
     1
1001
ACAD
1000
<All
  0
DICTIONARY
  5
9
102
{ACAD_REACTORS
330
3
102
}
330
3
100
AcDbDictionary
280
     1
281
     1
  0
XRECORD
  5
22
102
{ACAD_REACTORS
330
21
102
}
330
21
100
AcDbXrecord
280
     1
290
     1
  0
XRECORD
  5
92
102
{ACAD_REACTORS
330
91
102
}
330
91
100
AcDbXrecord
280
     1
290
     1
  0
XRECORD
  5
7D
102
{ACAD_REACTORS
330
7C
102
}
330
7C
100
AcDbXrecord
280
     1
290
     1
  0
XRECORD
  5
8C
102
{ACAD_REACTORS
330
8B
102
}
330
8B
100
AcDbXrecord
280
     1
290
     1
  0
XRECORD
  5
C3
102
{ACAD_REACTORS
330
C2
102
}
330
C2
100
AcDbXrecord
280
     1
290
     1
  0
XRECORD
  5
110
102
{ACAD_REACTORS
330
10F
102
}
330
10F
100
AcDbXrecord
280
     1
290
     1
  0
XRECORD
  5
74
102
{ACAD_REACTORS
330
73
102
}
330
73
100
AcDbXrecord
280
     1
290
     1
  0
XRECORD
  5
1DC
102
{ACAD_REACTORS
330
1DB
102
}
330
1DB
100
AcDbXrecord
280
     1
290
     1
  0
XRECORD
  5
6F
102
{ACAD_REACTORS
330
6E
102
}
330
6E
100
AcDbXrecord
280
     1
290
     1
  0
XRECORD
  5
6B
102
{ACAD_REACTORS
330
6A
102
}
330
6A
100
AcDbXrecord
280
     1
290
     1
  0
XRECORD
  5
297
102
{ACAD_REACTORS
330
296
102
}
330
296
100
AcDbXrecord
280
     1
290
     1
  0
XRECORD
  5
97
102
{ACAD_REACTORS
330
96
102
}
330
96
100
AcDbXrecord
280
     1
290
     1
  0
XRECORD
  5
18D
102
{ACAD_REACTORS
330
18C
102
}
330
18C
100
AcDbXrecord
280
     1
290
     1
  0
XRECORD
  5
123
102
{ACAD_REACTORS
330
122
102
}
330
122
100
AcDbXrecord
280
     1
290
     1
  0
SORTENTSTABLE
  5
1E
102
{ACAD_REACTORS
330
1D
102
}
330
1D
100
AcDbSortentsTable
330
1C
  0
SORTENTSTABLE
  5
80
102
{ACAD_REACTORS
330
7F
102
}
330
7F
100
AcDbSortentsTable
330
7E
  0
LAYOUT
  5
24
102
{ACAD_REACTORS
330
25
330
25
102
}
330
25
100
AcDbPlotSettings
  1

  2
DWG To PDF.pc3
  4
ISO_full_bleed_A3_(420.00_x_297.00_MM)
  6

 40
0.793749988079071
 41
0.793749988079071
 42
0.79376220703125
 43
0.79376220703125
 44
420.0
 45
297.0
 46
1.306456024215237
 47
0.706243908187389
 48
55895.94909122886
 49
-11019.99999965545
140
68369.93636392264
141
-2200.0
142
1.0
143
30.0
 70
  3748
 72
     1
 73
     0
 74
     4
  7
KH1xx.ctb
 75
     0
 76
     1
 77
     2
 78
   300
147
0.0334934793442664
148
-55895.94909122886
149
11019.99999965545
100
AcDbLayout
  1
Model
 70
     1
 71
     0
 10
0.0
 20
0.0
 11
12.0
 21
9.0
 12
0.0
 22
0.0
 32
0.0
 14
-21498.43616260763
 24
-61811.18061254341
 34
0.0
 15
221266.2447341395
 25
29598.33105708579
 35
0.0
146
0.0
 13
0.0
 23
0.0
 33
0.0
 16
1.0
 26
0.0
 36
0.0
 17
0.0
 27
1.0
 37
0.0
 76
     0
330
1C
331
3F
1001
ACAD_PSEXT
1000
DWG To PDF.pc3
1000
DWG To PDF
1000
ファイル
1000

1070
     0
  0
LAYOUT
  5
2A
102
{ACAD_REACTORS
330
25
330
25
102
}
330
25
100
AcDbPlotSettings
  1

  2
FX DC 250/350/400 ART4-ADV
  4
A3
  6

 40
5.365749835968018
 41
5.365756511688232
 42
5.365753173828125
 43
5.365753173828125
 44
296.9259948730469
 45
420.1159973144531
 46
0.0
 47
0.0
 48
0.0
 49
0.0
140
0.0
141
0.0
142
1.0
143
1.0
 70
   688
 72
     1
 73
     1
 74
     5
  7
KH1xx.ctb
 75
    16
 76
     0
 77
     2
 78
   300
147
1.0
148
0.0
149
0.0
100
AcDbLayout
  1
ﾚｲｱｳﾄ1
 70
     0
 71
     1
 10
-5.365753173828125
 20
-5.365749835968018
 11
414.750244140625
 21
291.5602450370789
 12
0.0
 22
0.0
 32
0.0
 14
1.000000000000000E+20
 24
1.000000000000000E+20
 34
1.000000000000000E+20
 15
-1.000000000000000E+20
 25
-1.000000000000000E+20
 35
-1.000000000000000E+20
146
0.0
 13
0.0
 23
0.0
 33
0.0
 16
1.0
 26
0.0
 36
0.0
 17
0.0
 27
1.0
 37
0.0
 76
     0
330
27
  0
MATERIAL
  5
67
102
{ACAD_REACTORS
330
E
102
}
330
E
100
AcDbMaterial
  1
ByBlock
 72
     0
 73
     2
 43
0.0208333333333333
 43
0.0
 43
0.0
 43
0.0
 43
0.0
 43
0.0208333333333333
 43
0.0
 43
0.0
 43
0.0
 43
0.0
 43
1.0
 43
0.0
 43
0.0
 43
0.0
 43
0.0
 43
1.0
 77
     0
 78
     2
 47
0.0208333333333333
 47
0.0
 47
0.0
 47
0.0
 47
0.0
 47
0.0208333333333333
 47
0.0
 47
0.0
 47
0.0
 47
0.0
 47
1.0
 47
0.0
 47
0.0
 47
0.0
 47
0.0
 47
1.0
171
     0
172
     2
 49
0.0208333333333333
 49
0.0
 49
0.0
 49
0.0
 49
0.0
 49
0.0208333333333333
 49
0.0
 49
0.0
 49
0.0
 49
0.0
 49
1.0
 49
0.0
 49
0.0
 49
0.0
 49
0.0
 49
1.0
175
     0
176
     2
142
0.0208333333333333
142
0.0
142
0.0
142
0.0
142
0.0
142
0.0208333333333333
142
0.0
142
0.0
142
0.0
142
0.0
142
1.0
142
0.0
142
0.0
142
0.0
142
0.0
142
1.0
179
     0
270
     2
144
0.0208333333333333
144
0.0
144
0.0
144
0.0
144
0.0
144
0.0208333333333333
144
0.0
144
0.0
144
0.0
144
0.0
144
1.0
144
0.0
144
0.0
144
0.0
144
0.0
144
1.0
274
     2
147
0.0208333333333333
147
0.0
147
0.0
147
0.0
147
0.0
147
0.0208333333333333
147
0.0
147
0.0
147
0.0
147
0.0
147
1.0
147
0.0
147
0.0
147
0.0
147
0.0
147
1.0
  0
MATERIAL
  5
33
102
{ACAD_REACTORS
330
E
102
}
330
E
100
AcDbMaterial
  1
ByLayer
 72
     0
 73
     2
 43
0.0208333333333333
 43
0.0
 43
0.0
 43
0.0
 43
0.0
 43
0.0208333333333333
 43
0.0
 43
0.0
 43
0.0
 43
0.0
 43
1.0
 43
0.0
 43
0.0
 43
0.0
 43
0.0
 43
1.0
 77
     0
 78
     2
 47
0.0208333333333333
 47
0.0
 47
0.0
 47
0.0
 47
0.0
 47
0.0208333333333333
 47
0.0
 47
0.0
 47
0.0
 47
0.0
 47
1.0
 47
0.0
 47
0.0
 47
0.0
 47
0.0
 47
1.0
171
     0
172
     2
 49
0.0208333333333333
 49
0.0
 49
0.0
 49
0.0
 49
0.0
 49
0.0208333333333333
 49
0.0
 49
0.0
 49
0.0
 49
0.0
 49
1.0
 49
0.0
 49
0.0
 49
0.0
 49
0.0
 49
1.0
175
     0
176
     2
142
0.0208333333333333
142
0.0
142
0.0
142
0.0
142
0.0
142
0.0208333333333333
142
0.0
142
0.0
142
0.0
142
0.0
142
1.0
142
0.0
142
0.0
142
0.0
142
0.0
142
1.0
179
     0
270
     2
144
0.0208333333333333
144
0.0
144
0.0
144
0.0
144
0.0
144
0.0208333333333333
144
0.0
144
0.0
144
0.0
144
0.0
144
1.0
144
0.0
144
0.0
144
0.0
144
0.0
144
1.0
274
     2
147
0.0208333333333333
147
0.0
147
0.0
147
0.0
147
0.0
147
0.0208333333333333
147
0.0
147
0.0
147
0.0
147
0.0
147
1.0
147
0.0
147
0.0
147
0.0
147
0.0
147
1.0
  0
MATERIAL
  5
D
102
{ACAD_REACTORS
330
E
102
}
102
{ACAD_XDICTIONARY
360
F
102
}
330
E
100
AcDbMaterial
  1
Global
 72
     0
 73
     2
 43
0.0208333333333333
 43
0.0
 43
0.0
 43
0.0
 43
0.0
 43
0.0208333333333333
 43
0.0
 43
0.0
 43
0.0
 43
0.0
 43
1.0
 43
0.0
 43
0.0
 43
0.0
 43
0.0
 43
1.0
 77
     0
 78
     2
 47
0.0208333333333333
 47
0.0
 47
0.0
 47
0.0
 47
0.0
 47
0.0208333333333333
 47
0.0
 47
0.0
 47
0.0
 47
0.0
 47
1.0
 47
0.0
 47
0.0
 47
0.0
 47
0.0
 47
1.0
171
     0
172
     2
 49
0.0208333333333333
 49
0.0
 49
0.0
 49
0.0
 49
0.0
 49
0.0208333333333333
 49
0.0
 49
0.0
 49
0.0
 49
0.0
 49
1.0
 49
0.0
 49
0.0
 49
0.0
 49
0.0
 49
1.0
175
     0
176
     2
142
0.0208333333333333
142
0.0
142
0.0
142
0.0
142
0.0
142
0.0208333333333333
142
0.0
142
0.0
142
0.0
142
0.0
142
1.0
142
0.0
142
0.0
142
0.0
142
0.0
142
1.0
179
     0
270
     2
144
0.0208333333333333
144
0.0
144
0.0
144
0.0
144
0.0
144
0.0208333333333333
144
0.0
144
0.0
144
0.0
144
0.0
144
1.0
144
0.0
144
0.0
144
0.0
144
0.0
144
1.0
274
     2
147
0.0208333333333333
147
0.0
147
0.0
147
0.0
147
0.0
147
0.0208333333333333
147
0.0
147
0.0
147
0.0
147
0.0
147
1.0
147
0.0
147
0.0
147
0.0
147
0.0
147
1.0
  0
MLINESTYLE
  5
36
102
{ACAD_REACTORS
330
37
102
}
330
37
100
AcDbMlineStyle
  2
STANDARD
 70
     0
  3

 62
     0
 51
90.0
 52
90.0
 71
     2
 49
0.5
 62
   256
  6
BYLAYER
 49
-0.5
 62
   256
  6
BYLAYER
  0
ACDBPLACEHOLDER
  5
A
102
{ACAD_REACTORS
330
B
102
}
330
B
  0
SCALE
  5
66
102
{ACAD_REACTORS
330
44
102
}
330
44
100
AcDbScale
 70
     0
300
1/8" = 1'-0"
140
0.125
141
12.0
290
     0
  0
DICTIONARYVAR
  5
3FD
102
{ACAD_REACTORS
330
3FC
102
}
330
3FC
100
DictionaryVariables
280
     0
  1
1/8" = 1'-0"
  0
DICTIONARYVAR
  5
400
102
{ACAD_REACTORS
330
3FC
102
}
330
3FC
100
DictionaryVariables
280
     0
  1
0
  0
DICTIONARY
  5
F
330
D
100
AcDbDictionary
280
     1
281
     1
  3
FBXASSET
360
10
  0
XRECORD
  5
10
102
{ACAD_REACTORS
330
F
102
}
330
F
100
AcDbXrecord
280
     1
 70
     1
 90
1959938040
 71
     1
  1
4BF6C10E-3DD3-41AC-B3C0-57EF7624EC9A
311
504B03041400060808001988CC446B3AFE15D9000000200100004F00000043413139303946352D433432412D343545392D384135462D3633333543373330424143382F4173736574446174612F446566696E6974696F6E4974657261746F7250726F706572746965732E62696E454E3D4FC33010350C200606FE41D5DDF86C
311
B9358DDAA2D2284CB0C0C4525D9D6B89E424559C488C8CFC6B7A16453DE9DDBBCF77F72384F83D1987E282F1CDFE96F9991AEA2AFFE63FA94671952AA1DD62B83EF72E394C694E3B1C429FB65EAAE829046CA81DE2DD79745463CF7218EED3D20DE3BF1093C2FEEF58BAFFCA482F25C6F2903D628CD42FD46EFBA5AC9D805B
311
D9A974665648BB320FF2695D68699D06A7F302F259A13A8AEDD0798ACA28D89C943787665F95CB795FD5346AB0A6C5D877C43F95E3A5016D254CA536EFDA6500D9043EE62A4D1E01504B03041400060808001988CC4481012FD418010000300200004500000043413139303946352D433432412D343545392D384135462D36
311
33333543373330424143382F4173736574446174612F496E7374616E636550726F706572746965732E62696E6D513B4EC340149C00120DA00851708014A158C9F6FA235776FCA30461444563D98E4241824C245A97749C87963370008EE0861AC68EB1839CB79A7DEFCD9BD995765F01FCB4C11223A2E47ECC7C992FF3E221
311
8DD345FE984C48E85E64FAAA120A190452E8EACC179EF41561586164999A1EFAF6ECB037D616A9EA41A819B630749D16535385177981502DA9F8A64F436853D6DC8B8BFBB78FEFE9A7C3BC47AE24FEFA26B36754CE460D8C5D8C1BAAD9266E5FEFAC68DC4457EC9491EC04D53EBB9268AD5F6D3E22358CFA1DFB4977C84098
311
BDBB03EE1F31B4D6474FB7349573C0AEFEAD13227E49D6E9427845B2CCF2AC9E600D0D0A54E21A05567882E43A1F618E33DCE0167788395AE17987F4AA9547BC618ED32DFD2F504B03041400060808001988CC4428BB58AF800100009E0500003D00000043413139303946352D433432412D343545392D384135462D363333
311
3543373330424143382F536368656D61732F436F6D6D6F6E536368656D612E786D6CBD544D4FC23018BEFB2B96DE15493C78601010A34B880709DEDFB52FD0D8B54BD70DF6EFED3AC0B12E6442E2716BFB3CEFF3D18E26FB440405EA8C2B1992E1C323095052C5B8DC842437EBFB673219DF8DA659866649B798C078B48AE6
311
410122242F2A4994AC7F93815DF85C049C8564CA0A901499DD886B2EB9B1E02448F358701A9235880C49A0119892A20C89D1B9FD768815CAD268CB5E0355B40B1E47F3E37A2020464BED06AA57CE8FCC20C3C3446D46761A2632A8C1283D07031EFF2AE7CCB1BFEEE916E406DFAC8E36FFD99A9D60A6944090EEDC3B670C7D
311
C13DE86B6B2C5C240D6E503BB85ACD579D513F1B9F9A69DC9CC22AFA80C426D40AF0B21EA168559156B6276F0F726A6BFF04DCD513A87A62CAD41FB24FCB2858B3952E3D852084DA25B9303C15687973CC8E8AAE11DF2836C38C6A9E765E8C1BA1BFB1DC29CDFE518C8B5A7655A4ED7E77291ABEB80DBD82EC866ADE1B8D05
311
AF9E35CF09D7A061F38A986D9EC412B8F0F65E5D81534D9B231D1E5A8FE577A241F3A5FD01504B03041400060808001988CC442CCEBD668A040000E01200003E00000043413139303946352D433432412D343545392D384135462D3633333543373330424143382F536368656D61732F47656E65726963536368656D612E78
311
6D6CD5586D6FDB380CFE7EBF42F0F7A649B70E1B90744856B4970F450FCD7A5F05459613EDE4174872DADCAF3F522F8ED3B88D2F1D06AC4050DBA2493EE4438AF2F8EB73AEC8466823CB62928C06C384888297A92C5693A4B6D9D9E7E4EBD51FE3A931C22EF85AE4EC6AFC38BF261BA626C9AD288496DC3F4FCEAFC6336684
311
5F7A10452AF41DB320C0D44EC26EAB20918735565582695670811A6A49643A49A6E9069FA4604A64B29016DC4B48552F95E4932463CA888468C1D2B250DB4962750DF7CE273069CE8363F1FF4EDB00E0A21999574AE4A2B00C353B93F3BD4777B8A61ED8F604ABFEDD79CE56A2B7BDFBDBC50996E0ADDE16FED26223C5D309
311
56C29BDF4A55EA686E5E58B112DA45CE67F76F4FA27EFA3FB672FD7372FC388FAECDCA5209E693CAD167BADCD272F943701B3812F8A3D852008B1D2E32DB927B2F833C6EA95879925356D254582695095A3CE982924720BE5774A3CB9CDCDB350427D2DF20DA1B5532EBE2D5D6288D75D4F7E4FD9890A0EF8E3D93EBB8F8BA
311
4758158EF6FB90A6F9520281C93DE7AAC6D24607DA296BB96018123F821A7D6A5C5884050C475DA4865442732C8B95684A50165CBB3A32F25F783A4A480ED59AD7F924B968AEA50131F46303223E6A397B0E52976030DC1DCA81D7E7C1EDEEA42C19FF27635C505E2BD5198A599020DF50A2330FCB3AAF28CB012410842955
311
3EF1B228802E2265D8F7CC2401042B155BCC7070F1E5C55F13B4A9577362CCCE46C32174E010C3C378C44841A4BDA00FE3A12006CE11EE6AEC59894D3526DDE1CD59D503ECC324017F8061B7F162162FA62EDD81AE3308617770796DCBDAD2B2625C5AE8A63DE20B2C8AA5E95E76E5730823955956E33E705425A2187C185D
311
36489A1B44D3DCEC2172F6BA2105C3546287A7194B2331768EBBE64F6E70A9930ABE0ADEA89E9E2C38523B810287AD67A54A039C1606EAFE68F8304610BB9093DBDDABC0B2AE4E290DCDA15376D7E39F72B556F0B32EAB5D3D498B4C41ABADEC3A1434C422D87E8025A84BDCB2B1417ED750FAE4DA8976863974C577C7F902
311
D3F156AD354DEA3540DE6BEAE2BEA52F7A2EB4CA43802ECE5BF2CE2EDC9347179FFB023CE412E60BE16DA0BE29B374988A553F561DC04615DD35F7D2C8979F60E5955CE93DF29DED8AFA1EE6642D53418086C03C47C377910F75F7E8F5EF665F70B60FFB22AEDF897D119E8423C773E819A3C1E55E550599EE6EDCA34D0C86
311
FD72057DF2CD46F16A470682471C164E4346D5306BF12D7D12D82CFF673D41636C347443FEB51B50D72EA171A8E4A58623A4A16E0FA2B8B10A0D23268D87C33896EE8FB73305A74BF224EDBADFA0BD674AB354D63DB7BD5D83426761C077DE767728235446A552754EB93B755891C3C4CC6CADE37CF0E912A7BB38DBA010F9
311
DE1282EDF470CA69A9CDA482E334C4A6EA4107987980B17E72F31730EBF88BBD39E7C629F56797A3C0009C2C5AE7951D9A05A02773440F02EEB4DE396A3B6A570C72CCFBCD823B0B8ED3F1D5CEDDFED772FA70236C83FB7D86C385D570B87107535572A60A96035F8F7C6A7192F13007246BBE0521855E6AC46F3E27689CEE
311
7D186A6FD679D98CDCAD13333E04EBE7ED6F55FF01504B03041400060808001988CC446180134D5F0100006B0300004500000043413139303946352D433432412D343545392D384135462D3633333543373330424143382F536368656D61732F52656E6465724D6174657269616C536368656D612E786D6CA5934D6FC2300C
311
86EFFB1551EEE343DBA41D1A103009551ADAD40EAE28A4A68D9426284961FCFBE5A340113B2071746D3F765EBF4DC6BFB5407BD0862B49F0B037C0082453059725C18DDD3EBFE3F1E829991803366715D474942CD30FB4A782E00C64017A412D684E454CE3FE28995203B162A6EA5AC94B66997D225E109CD63B0135484BAD
311
1B3C07E9080CA35DB3119C11BCA5C200461A68A1A438126C75E3E230D40FF81FB3F03C91D1E3A3A0AF79FE28E25BC39EC3E17E4C2A2D94A0833A51AF55BCCA7D88572FCBAC529C4140B020FC3AAFA886621DCED7EAD7664CC86024E806DC297DA1BB393E4156543457A4537DB8817349A70F8ACBF09B3EEE2CB2F33E91B65D
311
60786E4E3B39B77E3FEEEF5650424525DA657FB8B46BE6BF064646F0A0F7327C0BC1BC1B4CBBC1C419FA3CCB23500007872A2580CAAE5461865565294E4EDB4617B62FF579DF9A5B2F54E834076A597573A020912FED777F9B3F504B03041400060808001988CC447055230851000000570000004700000043413139303946
311
352D433432412D343545392D384135462D3633333543373330424143382F4173736574446174612F41737365745461626C654F66436F6E74656E74732E62696E536160603071723373363470D535767131D635317474D675327636D035357775333733327175B6741402AACB4D2C492DCA4CCC492C28484D2C4ACC4B4E050A
311
82012F90744FCD03CA26072767A4E6260200504B03041400060808001988CC44F865834058000000680000004500000043413139303946352D433432412D343545392D384135462D3633333543373330424143382F4173736574446174612F53747265616D56657273696F6E5461626C652E696E66558CBD0A80300C06F73E
311
4B117FB66E451741D041DC5BF98480A492E4FDD18EAEC7DD4555D89EF28DF51A0B1BD8340C4DE7DD848B988C0ACF0649566493F2408C508DDEBB99D5129FF8F1AF8CF5B9503E20FAE5A16B5AF702504B03041400060808001988CC44229C9EF6340100009A0400003600000043413139303946352D433432412D343545392D
311
384135462D3633333543373330424143382F4173736574446174612F636E782E786D6CCD943F6FC32010C5BF8AC56EC051FF29C24455BB646AA5461DBA5DF03945C160C1B96ABF7D21F1D02A55A70C598F77C7E327DEA9D5E7E0AA0F8CC906DFB2864B56A137A1B37ED7B289FAFA8E552BAD6208F443C62A0F03B6AC949956
311
BB18A6712E75D8C3E44AD559BF9F8BF729216D60EBF0A97F089ED0536295719052CB9279C701384C143A4C7BDE01016F78C414A668304F223BE03CC94404C28EE9856CAE6A7953378B4D73BB9472792DDF94284AADB621B8596FF365318C9539DECAB454A21C6B35453B6BCA5B98FECB23DF5AAF44566A9528662673077D8D
311
B903C6D1590394D1896008A9CE22844189A3582B5118FC22F188BDF5B6B4ACB331A0109FB33D8C64F1E288FCE7F5FC64D63E11788397CBE3D4E1F929BC1C7ED0EB319087C45C5A4E4E1D72EBFB33A4441CD6480E4DD92AFA1B504B03041400060808001988CC44A8B09D6C070100004F030000340000004341313930394635
311
2D433432412D343545392D384135462D3633333543373330424143382F536368656D61732F636E782E786D6CCD933B4F04211485FFCA847E80D9F8CA86610B0B2B1BB5B243B8BB9205EE8487D17F2F8C14BB899D16DBC1E10B39E77011BB4FEF860F88C96298C9443919206834361C6652F27EBC23C34E8A88984F303204E5
311
61264D26521C2296A54B06F6AAB8A63A1B8E5DBC47EF313CEB77F08A0CDAA9946692D62D5525A38174A4466545271A2161891AEA0DD97AE837E8082A832172C3A7AB91DF8CD3E665BADD72BEBDE6AF8235528A3744D7791B32445C068D7511AA1D2E583B96A244DB999681C8536FB4B6215825A44839D60E3A99BF964AAA65
311
7156AB5CAB622BF8C348C15AD4B3C00F10205A7D9989CFCCFD5BE4270806E2637DA56895BBCCE4BF79FC5B016C9DFD3A02ED2BC86F504B03041400060808001988CC44410A3D5871000000A40000002C00000043413139303946352D433432412D343545392D384135462D3633333543373330424143382F636E782E786D6C
311
55CC4D0E82301086E1AB34B31774E7A22D31F1069E60020334B633A63FC6E34B0909B07DDE2F9FEE7EC1AB2FC5E4840DDC9A2B28E25E06C7938192C7CB1D54677514C9871928C640062A83D55394F2D968A0118BAFEA1DBF377CA444F98919176EAB9FEAAB9F2960DA5BBB1E2ED3FA6FFF504B03041400060808001988CC44
311
D92F79DE7E000000A300000007000000636E782E786D6C4D8CD10AC22018465F45FE7BCBE52C85E93069EF319A1B92D3B0193D7E1ABBE8EA83C3774ED77F568FDE36BD5C0C129A030164C33D4E2E2C12F236630EA8575D8A71FBBB010AE36A25540CAA5B52CCCF1D4D761EB3AFD4BBF0D8A1D18D206260D8B4278D5B761398
311
6B36E033A5CC5C28B96AC38B71AC4A995FAF6CCDAB2F504B03041400060808001988CC4416E99B5DA600000035010000130000005B436F6E74656E745F54797065735D2E786D6C9590410E82301045AFD2740F4517C6180A0BF5065E60AC53688469D30E066F6F91AD9AB89CF9FFFD3F99BA9DC7413C3026E749CB4D594981
311
64FCCD51A7E5C4B6D84BD136F5E5193089ECA5A465CF1C0E4A25D3E308A9F401292BD6C711388FB15301CC1D3A54DBAADA29E38991B8E0254336F5092D4C038BF39CD76B6FC6A538AEBEA54A4B08617006389FA516557DE4AE8E7E70DE30729138228C5F021CD93F02D4FB0DCD0B504B03041400060808001988CC443DEE33
311
6E64000000790000001B0000006175746F6465736B2D64657369676E2D7061636B6167652E786D6C35CBC10E83200C00D05F21DCA56CA76D41FC96062B120735B69A7DBE268BB7777961F8D5AF396893C2ADB70FE7ADA196782C2DF776D7A97B5933C430F15651E5469C55D70F80A4992A3ADC954792C525AE70A1E4D6AD98
311
16CC044FEFDF01FE3FDE907802504B03041400060808001988CC4428D1062BF8000000960100003700000043413139303946352D433432412D343545392D384135462D3633333543373330424143382F4173736574446174612F636F72652E786D6C8550CB6EC32010FC156BEF6070ECB88D30919B345FD0536F08888B1283
311
C5A3EAE71762576A4F3DED6A76667677D8F16BBE579FDA07E3EC001413A8B4954E193B0D90E2153D4175E4CC3B177FD1A0B262D6031418389BBC4BCB064967A3B605B54EE90D1421E80895BCE76680203FF42CB0483133C20D2F42DEC4A431C52B8FB3948CDAA44665377335DA03BF9CE8F39EEE4EE8DCF517D476B97BE929
311
41F4B569C6B6251D1D3B56173167D1CC3FDBA5D7226A05BC21B445648F68F346FB0321878EBCB3BA30390BD1E79FB7A5E53BE063B9FA2CA260F53AFDE39A16F5BF6B3236EE9ACD755504E0341FF91870569794727944986B49947F03504B03041400060808001988CC445F55755DF600000094010000350000004341313930
311
3946352D433432412D343545392D384135462D3633333543373330424143382F536368656D61732F636F72652E786D6C8550CB6EC32010FC156BEFD840ECB88D30519A363FD09E7A43405C94182C1E553FBF60BB527BEA6957B333B3BBC38E5FD3BDFAD43E1867072035864A5BE994B1E300295ED1035447CEBC73F1170D2A
311
2B263D408181B3D1BB346F9074366A5B50EB94DE4011828E50C97B6E0608F2434FA216296646B8D5B3903731EA9AD42B8FB3948CDAA44665377335DA03BF9CC9E39EECCEE8B9EB2FA8ED72F7D4138CC80BA5A7B6C51D3975AC2962CEA2997EB64BAF45D40A38C5A445788F087D23FD01E34387DF5953989C85E8F3CFDBD2F2
311
1DF0D7E5CEC09A75F6C733CDEA7FCF646CDCD1CD735504E0249FB80C386B4A46B92C01E65AF2E4DF504B03041400060808001988CC44A2943D1002010000D70100002D00000043413139303946352D433432412D343545392D384135462D3633333543373330424143382F636F72652E786D6C9591DD6E842010855FC5CC3D
311
0AFEECEA06D958D37D825EF58ECAAC25BB82116CFAF8856AD3F6AEBD821CBE33C399E1E7F7E99EBCE1E2B4352DB094428266B04A9BB185D55F490DC959F0C55AFF0383C4C8095B8832083E2E769D7769B0C6A389AAB10A77513A871E92E11E2E2DB8E1152799CAD507C2DDD2590E373962CAD28D13DCEBE9CB3A2C283D2A10
311
396525A107C2F227763C517AAAE833CF2229F8AA8D2FF2BD194E2FA8123BFB100944C5B3ED3550AB563BA355F8A3BE6A5C40F41D6B6873A9485FE61D29ABC786D45D752187A2A8FA63411FBABE0E45825970E7973099BD489CC15FED9BF157B27556FF4CB6391C08F61D2A8B63163CFBDC4138E34AC407504B030414000608
311
08001988CC44E6A1654807010000B201000008000000636F72652E786D6C8D50CB4EC33010FC156BEF4EEC3469A0725C9542BF80133713BBC16A62477E54F0F7D8AD91E0C6695733B33BB3CBF69FCB8CAECA796DCD00B422809419ADD4661A2086337E00B4E7CC591B7EC90019B1A801320C9C4DCEC6B540A33541998C1A2B
311
550185F72A001AE7D40CE0C70FB5884AC49014FE52AD62BC884955B4BAEB380B7AF9191D9D124149E00DA12D265B4C9B57DAEF08D975E48DD559C9598C5A162B2D93BB3E6BE5809F8EF4714B3747FCDCF527DC76A97BEA29C1F4A5690E6D4B3A7AE8589D8739F3C1A59BCB929433202FAED997D5778AB3776BE72248A124B2
311
66FE024E589D893FA1E32AFF115A9BB069CAC2FB84074E53A01B918CF30753B9BD37D5FC6DFE0D504B010214001400060808001988CC446B3AFE15D9000000200100004F000000000000000000000000000000000043413139303946352D433432412D343545392D384135462D3633333543373330424143382F4173736574
311
446174612F446566696E6974696F6E4974657261746F7250726F706572746965732E62696E504B010214001400060808001988CC4481012FD4180100003002000045000000000000000000000000004601000043413139303946352D433432412D343545392D384135462D3633333543373330424143382F41737365744461
311
74612F496E7374616E636550726F706572746965732E62696E504B010214001400060808001988CC4428BB58AF800100009E0500003D00000000000000000000000000C102000043413139303946352D433432412D343545392D384135462D3633333543373330424143382F536368656D61732F436F6D6D6F6E536368656D
311
612E786D6C504B010214001400060808001988CC442CCEBD668A040000E01200003E000000000000000000000000009C04000043413139303946352D433432412D343545392D384135462D3633333543373330424143382F536368656D61732F47656E65726963536368656D612E786D6C504B010214001400060808001988
311
CC446180134D5F0100006B03000045000000000000000000000000008209000043413139303946352D433432412D343545392D384135462D3633333543373330424143382F536368656D61732F52656E6465724D6174657269616C536368656D612E786D6C504B010214001400060808001988CC4470552308510000005700
311
00004700000000000000000000000000440B000043413139303946352D433432412D343545392D384135462D3633333543373330424143382F4173736574446174612F41737365745461626C654F66436F6E74656E74732E62696E504B010214001400060808001988CC44F865834058000000680000004500000000000000
311
000000000000FA0B000043413139303946352D433432412D343545392D384135462D3633333543373330424143382F4173736574446174612F53747265616D56657273696F6E5461626C652E696E66504B010214001400060808001988CC44229C9EF6340100009A0400003600000000000000000000000000B50C00004341
311
3139303946352D433432412D343545392D384135462D3633333543373330424143382F4173736574446174612F636E782E786D6C504B010214001400060808001988CC44A8B09D6C070100004F03000034000000000000000000000000003D0E000043413139303946352D433432412D343545392D384135462D3633333543
311
373330424143382F536368656D61732F636E782E786D6C504B010214001400060808001988CC44410A3D5871000000A40000002C00000000000000000000000000960F000043413139303946352D433432412D343545392D384135462D3633333543373330424143382F636E782E786D6C504B010214001400060808001988
311
CC44D92F79DE7E000000A3000000070000000000000000000000000051100000636E782E786D6C504B010214001400060808001988CC4416E99B5DA6000000350100001300000000000000000000000000F41000005B436F6E74656E745F54797065735D2E786D6C504B010214001400060808001988CC443DEE336E640000
311
00790000001B00000000000000000000000000CB1100006175746F6465736B2D64657369676E2D7061636B6167652E786D6C504B010214001400060808001988CC4428D1062BF80000009601000037000000000000000000000000006812000043413139303946352D433432412D343545392D384135462D36333335433733
311
30424143382F4173736574446174612F636F72652E786D6C504B010214001400060808001988CC445F55755DF6000000940100003500000000000000000000000000B513000043413139303946352D433432412D343545392D384135462D3633333543373330424143382F536368656D61732F636F72652E786D6C504B0102
311
14001400060808001988CC44A2943D1002010000D70100002D00000000000000000000000000FE14000043413139303946352D433432412D343545392D384135462D3633333543373330424143382F636F72652E786D6C504B010214001400060808001988CC44E6A1654807010000B2010000080000000000000000000000
311
00004B160000636F72652E786D6C504B050600000000110011005A060000781700000000
310
504B03041400060808001988CC44000000000000000000000000370000006662782F45313331384442352D343832422D343242452D384145312D4333374337433630453644372F617474726962757465732E62696E504B03041400060808001988CC44000000000000000000000000350000006662782F4531333138444235
310
2D343832422D343242452D384145312D4333374337433630453644372F76657274696365732E62696E504B03041400060808001988CC44F270F1330600000004000000360000006662782F45313331384442352D343832422D343242452D384145312D4333374337433630453644372F747269616E676C65732E62696E6366
310
60600000504B03041400060808001988CC4451464CB48900000043010000360000006662782F45313331384442352D343832422D343242452D384145312D4333374337433630453644372F6469726563746F72792E786D6C9D8F310EC2300C45AF127987122606C71DD918B841D4B851A43646695A717C52A85029031293A5
310
A76FBF6FACEF7DA7264E43906840EF0FA03836E242F406C6DCEE4EA06AC22492573150D1F66C60C640E8938CB705396EEDD86DE9B5042FE27813D640EA63BB001C722AF6E55CB61E4863F58284D5D3F53DD715CE1C3985E63FD7F1B7EBDD617E9F1E504B03041400060808001988CC44163FD6EF38070000201C0000340000
310
006662782F45313331384442352D343832422D343242452D384145312D4333374337433630453644372F6F626A656374732E786D6CDD59DB6EDB3810FD1542FBB2FBA09BAF71A1B848ECB8308AB4418D2EF64DA065DAE146379052E2ECD7EF90226549966D25DB02C52640E230D470E6CCCC99E1C8FBB88F42F44C18A7497C
310
6DB89663201207C986C6BB6B23CFB6E695813E4E91C79224ABEC33508C23726D886563EAED5892A76A6943B6380F9BAB8BDBBF100F484C0C148498F36B83078F24C216CEB36443F893B5C119B676DBBDE55AC5C6BAD81DC3E963E3A814331267A02AACC7204569E0D6FF0493ECA9678B0DB56DBD6EDBFA67B6D9D2F0BAA234
310
E6198E8323AD1A727ADDB4EABB83F95D6F3831878341DF1C8C7AAE79BBB89D9BEEB8EFCC46B3D9E4E66E62A0A9B74E92B074404AE20D78F1D598BA9E2DFE539AAF5068D33B48E298040ACDB60D1BA2E452C29B98D48075A569158714B65616FA1D8D3FB1AD132835956A686BE3F4EF6AF426EBBF0104DE254A192722CA79C6
310
C0D70AFB221F1CCF2E566B7EA11C4538238CE2108574CD300307C1D6C2413531225B84282430935ED4F2AABA42605FCEA5362DB779188AFC35A632D37CC8479271A919FD87B083F6D5D34027B036A77176A58CCD5E531031F16CB958FCAFDF53FF2C8044DB10EF205AC04CB1A9DF6BE035135CB09C1BD3CF8BF57E25F8A1FD
310
F09425296199883C99CC2AEFB4072BA105C1D7019402D7BAEF0EA87C03E8BF00F2A52EC803CF31BA1FEC07DA768663BE4D5804DE410E321DF8E120F1F1E89367970F4F11AA71E5294C216D7F10A635336A6757209D7ACF10F409EB2BE356010E21A6EF692CF21C020585092C01DF6FD77B63BA04328545780A87603D7C7BB6
310
F888E0572107F8A6E1A136FAEDE0289D30CD3C3BF8EA13C40CA341E9AA9A8DA7F01DFE107C6FE6ABCFAB9C6D7140EE5562CFC996C6348362DAAE500DF45ACA7F5F7E911979644F6D5700E7EC12411C2D7E5929BF20E9185045D4E1C23572E59E42BA87218E499273B5DE4654411226CC5FBFFA450EB79EF5A70E82E230C86F
310
1101AD6406D53D603415A01853655EC984D60127C1832A00778553FD350E9E04BC7E008CF51E3D206A316B0ACDA3D4C75192C782BE8FC3BB699AD577E497EB4E7ACEA47735196963B914AFB3475343A9BC3827C2E9894366356F29D6D0928B3C1A005BB6591040CF94677E92E28066EDB1D030426528807D56E50DDD6E730E
310
A4DE0A4B4363ABEF0E9153F9591E725E7B75884F23BC23FE168B0AD77A5E0DA052B8B6A015995D98704E63C2658772C45C0D541C0B88A0885B2DB5250829F72392E1F7C49F2C798DF063641BFAD04B65A29BBD1C7D5A41553D4F49149D5B12FBD2FE579FE3280D8B2EED12066EAF71422BAE426971C433C49B8F33DFD910D9
310
745F925EF282C6B793F4C9BBC59F8087E19F0E8F3E8242EB0D35F2B2675D6BE84EC4D71590CA68E8F6C7DA1197B0D24765A2070973E89A8257FF85D0DD633742EB740E27E1D6A76198477E510F3212410B86B39C75CAD7D1D03972BEE2854642544EDAD2101AE4CEA4297B0FDD7D8055B2F938459A9563C0281AC31DAD9321
310
4756B486B0F485BC8F8A6BD765EFBF5DEA7FE6CBEA3DE589BCBE246CD3AA69BD8DD01D986E18045DAA0A57C691943CF5AAC917C98BCB651C065A88E2B7E296A0228491672A0613F206D47A7FE02F380B804857F2B7790B19B1219B434F5113A7C61CC6140ED5D2749F5ABDE900D989F2516BBC96825023983660C1B3F7E243
310
F80D83ABA1F3E3B6EA6AEC627D290A9B058395831E67647DFDB46A488195CE4F3F088CC84B43825A9D8946EE8CA8EFCB43BFDA90A02CFABE3CF378F69847EB185351194558E04DFAE1A3BC4B5EDB7051B00783A133BE198CCC716FB2300737BD2BF376B670CDC1D875C6EE7CE1CC270B9B119EE42C20DCEED98EAF7BA734DE
310
E9C028A0EB72A380A9C2E5AB9F8EE7A683FFC7378A3059E353B1F8AB5E28CA764F34648D5CEC7AA16825EAF5DBBA7FF788A8DB8BD89B3AE76256A003FC7CD90232D2F5BE7B6BA145EB4EA25DE74A457C63E13D795BF9E935A646E8ADF5A1B6A38DF2EB5C0CB3A7962AA56FB792D706B78BD1CC75EECCFE7C0E3358F76666DE
310
F6678E391CDF2DC6A3DEE00EA6B025E2AA1676AD2BBF04876A652B63349806F324A43094271BB42309DC8060EAD0815F5944B8BCD94003A0CAB87E23D0E1E9E762A69AE175A89F0E1E310CA6435591F30086A270EBB836D43AFA0DC6A06212298753D613141E15ED06CA19BD362004320AF5C55AC3384B0E0FA5F4C6B812DC
310
86E39DB833154F957F1F1E13E840AC1CEC2AF774C14559568B4E180EA4F23D01B09D6E48DE6FBA5607E10C3EAEF3AC34E6B070B04681A05F0814C6C1D4EF49C1BB07E2396F976BC93D35483A4DE6CFC64121D5CC30DBC9F17A05EF9BF9832D26E3CBAF280DF39D70E7B97A5F93648A3E23CC8B21940781A1CC4CB1B887CF3E
310
D80F2C81574C115A500802F4FBFE6AF4873D4BA228898B25FB46BDA842AB4778EDB4B1F5C80F1A17C71DDAB2EF51637D985B7162E10D7F8205702DA362365A405C0B80929E2A01A03D227C018FD5F62FE74815814A0B5B6D5D053C72A68F2091C4BB1C9136D50D950124E4026855CC69CB0F7AC1B3190CC1A7FF02504B0304
310
1400060808001988CC44B8B961D63E01000046050000300000006662782F45313331384442352D343832422D343242452D384145312D4333374337433630453644372F636E782E786D6CCD944D6EC3201085AF82D81BE3A87F8A3091BAE809BAA8BAC378E2D260B060A89ADB1752276D55A5EA2252B243C31BE97D334F2356
310
EFA3256F10A2F1AEA50DE39480D3BE376E6869C2757547C94A8AE03D7E9351E2D4082D2D652AC5107C9AE6520F6B956CA95AE33673512106D325844889B62AC69646FD02A3622AA1EF216E58AF50B18605883E050DB91FCD0873BF0EA0107A2A17BCB9AAF84DD52C1E9BDB25E7CB6BFE2CEAA294A2F3DECE7AE310829F88F6
310
F9E1B2192EEAF22D450A66D614022ABF9CB1CE3851E77F296276EB865987DBA9E8A6C91AAD308FA9F61A01AB2C02358AFA532C455D787F503FDC3FED1D90DE04D0E8C3F64C03688E0DE0608CE524FC8F7F27FC1BDB77AF19F75CDB3E0A3BDB3A19EA3EAD31C7F5F7FE738A941BECE585FE60ECF499CFA7048DBE3CE4BDAF13
310
11D7BB9397975E2EA0FC00504B03041400060808001988CC44FD7993467E000000A30000000B0000006662782F636E782E786D6C4D8C410E83201405AF42FE9E56D40A0BC014E420A6A2215530549A1EBFD0B8E8EA259337C3FBCFB6A2B78D2F17BC0072A90059FF0893F38B8074CC9801EA258F211C7F37407EDCAC808241
310
F22586B49F68B2F398D64257E79F2734A4216C5037DCB25AE1B65606B3BB2158375453DD55A61B6836AE45C9F3EBE52D79F905504B03041400060808001988CC44A6D797065F0000008200000007000000636E782E786D6C4DCB3B0E80201045D1AD90E9FD7516806B51190811670C8A61F982B1B0BAC9C97B72CA7B1037C6
310
D3332918DA1E04D2CAC69353902EDB8C20262D23F3F59B81A079470595414B17391D1F19B4730A5583A7ED43BBE4025D9592775E5ADFFA01504B03041400060808001988CC444FEB6A7CA0000000F4000000130000005B436F6E74656E745F54797065735D2E786D6C7D8F4B0EC2300C44AF1279DFA6B0400835ED02B80117
310
30C16D239A8F121795DB93D02D6269CFBC19BBED573B8B17C564BC53B0AB1B10E4B47F18372A5878A88E20FAAEBDBD032591BD2E299898C349CAA427B2986A1FC86565F0D122E7318E32A07EE24872DF3407A9BD63725C71C980AEBDD080CBCCE2BAE6F5D69B7110E7CD57AA146008B3D1C8F92C5954F993BB1BF787F39A89
310
ABC491D09600F9FDA2FB00504B03041400060808001988CC443DEE336E64000000790000001B0000006175746F6465736B2D64657369676E2D7061636B6167652E786D6C35CBC10E83200C00D05F21DCA56CA76D41FC96062B120735B69A7DBE268BB7777961F8D5AF396893C2ADB70FE7ADA196782C2DF776D7A97B5933C4
310
30F15651E5469C55D70F80A4992A3ADC954792C525AE70A1E4D6AD9816CC044FEFDF01FE3FDE907802504B03041400060808001988CC446A695362F9000000960100003B0000006662782F45313331384442352D343832422D343242452D384145312D4333374337433630453644372F7265736F75726365732F636F72652E
310
786D6C8550CB6EC23010FC9568EF4EEC102020C72824FC414FBD59CE925A101BF951F5F36B432AB5A79E76353B33BB3BFCF4B5DC8B4F745E5BD3012B291468949DB4993B88E14A5A284E823B6BC32F1A14462ED8418641F0D9D9F85821654D40935163275C41E93D0628D43D351D78F5818B2C650C89E16FE543AA9B9CB164
310
E58B27788C7A5AA57A4A6EFAAAD18118DBB1DEB2DD4036F43292A6697B7268FB3DE92FE3B8391FE830F4675E65B1E0412F3FDB95431970025153D610BA23AC7E63FB23A5C72D7DE755660AEE834B3FAF4BF377201C7A1B9D42CFABD7F48F6B7C4CFFBB466DC2A65E5D5F0A0F82A5239F03C1AB9C522ACF0853CD898A6F504B
310
03041400060808001988CC445AE53A57F2000000B1010000310000006662782F45313331384442352D343832422D343242452D384145312D4333374337433630453644372F636F72652E786D6C8D50CB6E833010FC15B477830D0450641C15C21FF4D49B651C6A25D8C88FAA9F5F3B50A9BDE5B4D6EC8C6776E8E57B7D645F
310
D23A65740F24C790492DCCACF4D243F037D4417661D41AE3FFD020D37C953D2418185DAC09DB0109A3BDD409D5669607C89D931E32F1888F1E9CF8942BCF79F091E1EEF9C6C59D2F3227F9CE63D4ABF5572AACE45ECEC04A4C6A841B44CA77D29E313E9FF0072D1293D110D47C58A939BAAB9B9216D8442AD25D8713AABB72
310
4075394CA87B9B081AAB766CC7064FCDB5A5451233EABC8D371F9FA4EB5E95EFC27F99C336BF9059695F9587E1AE70C048CCF35C305AA402E378B61B672A9BFD00504B03041400060808001988CC442CD54AC253010000DD0200000C0000006662782F636F72652E786D6C8D52DB8E832014FC15C33B8AD65E8334B6F60FF6
310
69DF28529754C120987EFE8297B83E6C77638264CE39336726E0F3ABA9839EEB4E289981384420E092A952C82A03D63CE001046782B552E6471B08246D78063C0C08AEB4B2ED0431250D971E95AAE41348BB8E1B10B0DA5D32D0B12FDED0905AE33ABA67D852F6A4150FE370EC23D85A514EA3A2746CE221B806A43814C936
310
DE5DE106DD0A98A6871C1E0FF91EE6B7A2D85C8EE87ACD2F38F2C3041BD1CCEA4C736A78094882E214A21D8C938F787F42E8B4459F38F29D0477463BCF93A87707C8E3FEC2D188AFF86C5BFECD6785349B64E21B273A4062B7DE502038F2F9B8DF10DE3A4327ECF233F45ECF169E0EEA39334AA7AE522ABB947A5A5BEEA851
310
307C381AAB8E7920F88D2779C3F39EC3054565E556A3C65DEFD678F5F54E2DD7B037AF402ADDD07A596E5C713917A195A5799CA95AE9FF4CCF56E73023FF30C937504B03041400060808001988CC4494AA640F07010000B201000008000000636F72652E786D6C8D50C172832014FC15E6DD515093980C92319A3FE8A9372A
310
C43051700433EDDF17A29D696F3D3D6677DFDB65D9F9731CD053CD4E5B53014D0820653A2BB5E92B58FC0D9780CE9CCDD6FA5F3240468CAA82080367FD6C9769833A6BBC32113556AA0D14CE290FA81BC2A302D7DDD52812B1F8A0708F6412DD43F42AA1C9AAE3CCEBF167B59B95F04A02CF082D30D9639ABDD1C38990D38E
310
BCB3342A395B162D372B2D83BBBE6935036FCB36DBD17D8373726D715194353E96F501D7D7B6CD2F47D234F585A5719933E7E7F0E7ED48C8E99113CFE8CBD295E2ECC3DA611384501259337C01272C8DC49FD0CB24FF115A1B9F67DBC175C301A721D08B08C6B1C1305EF58619DBE6DF504B010214001400060808001988CC
310
440000000000000000000000003700000000000000000000000000000000006662782F45313331384442352D343832422D343242452D384145312D4333374337433630453644372F617474726962757465732E62696E504B010214001400060808001988CC4400000000000000000000000035000000000000000000000000
310
00550000006662782F45313331384442352D343832422D343242452D384145312D4333374337433630453644372F76657274696365732E62696E504B010214001400060808001988CC44F270F13306000000040000003600000000000000000000000000A80000006662782F45313331384442352D343832422D343242452D
310
384145312D4333374337433630453644372F747269616E676C65732E62696E504B010214001400060808001988CC4451464CB489000000430100003600000000000000000000000000020100006662782F45313331384442352D343832422D343242452D384145312D4333374337433630453644372F6469726563746F7279
310
2E786D6C504B010214001400060808001988CC44163FD6EF38070000201C00003400000000000000000000000000DF0100006662782F45313331384442352D343832422D343242452D384145312D4333374337433630453644372F6F626A656374732E786D6C504B010214001400060808001988CC44B8B961D63E01000046
310
0500003000000000000000000000000000690900006662782F45313331384442352D343832422D343242452D384145312D4333374337433630453644372F636E782E786D6C504B010214001400060808001988CC44FD7993467E000000A30000000B00000000000000000000000000F50A00006662782F636E782E786D6C50
310
4B010214001400060808001988CC44A6D797065F0000008200000007000000000000000000000000009C0B0000636E782E786D6C504B010214001400060808001988CC444FEB6A7CA0000000F40000001300000000000000000000000000200C00005B436F6E74656E745F54797065735D2E786D6C504B0102140014000608
310
08001988CC443DEE336E64000000790000001B00000000000000000000000000F10C00006175746F6465736B2D64657369676E2D7061636B6167652E786D6C504B010214001400060808001988CC446A695362F9000000960100003B000000000000000000000000008E0D00006662782F45313331384442352D343832422D
310
343242452D384145312D4333374337433630453644372F7265736F75726365732F636F72652E786D6C504B010214001400060808001988CC445AE53A57F2000000B10100003100000000000000000000000000E00E00006662782F45313331384442352D343832422D343242452D384145312D433337433743363045364437
310
2F636F72652E786D6C504B010214001400060808001988CC442CD54AC253010000DD0200000C00000000000000000000000000211000006662782F636F72652E786D6C504B010214001400060808001988CC4494AA640F07010000B201000008000000000000000000000000009E110000636F72652E786D6C504B05060000
310
00000E000E0080040000CB1200000000
  0
ENDSEC
  0
EOF
