  0
SECTION
  2
HEADER
  9
$ACADVER
  1
AC1015
  9
$ACADMAINTVER
 70
     6
  9
$DWGCODEPAGE
  3
ANSI_932
  9
$INSBASE
 10
0.0
 20
0.0
 30
0.0
  9
$EXTMIN
 10
4202.923275
 20
-14472.25481
 30
0.0
  9
$EXTMAX
 10
10007.626596
 20
-10864.523364
 30
0.0
  9
$LIMMIN
 10
0.0
 20
0.0
  9
$LIMMAX
 10
12.0
 20
9.0
  9
$ORTHOMODE
 70
     0
  9
$REGENMODE
 70
     1
  9
$FILLMODE
 70
     1
  9
$QTEXTMODE
 70
     0
  9
$MIRRTEXT
 70
     1
  9
$LTSCALE
 40
1.0
  9
$ATTMODE
 70
     1
  9
$TEXTSIZE
 40
0.2
  9
$TRACEWID
 40
0.05
  9
$TEXTSTYLE
  7
STANDARD
  9
$CLAYER
  8
0
  9
$CELTYPE
  6
CONTINUOUS
  9
$CECOLOR
 62
   256
  9
$CELTSCALE
 40
1.0
  9
$DISPSILH
 70
     0
  9
$DIMSCALE
 40
1.0
  9
$DIMASZ
 40
0.18
  9
$DIMEXO
 40
0.0625
  9
$DIMDLI
 40
0.38
  9
$DIMRND
 40
0.0
  9
$DIMDLE
 40
0.0
  9
$DIMEXE
 40
0.18
  9
$DIMTP
 40
0.0
  9
$DIMTM
 40
0.0
  9
$DIMTXT
 40
0.18
  9
$DIMCEN
 40
0.09
  9
$DIMTSZ
 40
0.0
  9
$DIMTOL
 70
     0
  9
$DIMLIM
 70
     0
  9
$DIMTIH
 70
     1
  9
$DIMTOH
 70
     1
  9
$DIMSE1
 70
     0
  9
$DIMSE2
 70
     0
  9
$DIMTAD
 70
     0
  9
$DIMZIN
 70
     0
  9
$DIMBLK
  1

  9
$DIMASO
 70
     1
  9
$DIMSHO
 70
     1
  9
$DIMPOST
  1

  9
$DIMAPOST
  1

  9
$DIMALT
 70
     0
  9
$DIMALTD
 70
     2
  9
$DIMALTF
 40
25.4
  9
$DIMLFAC
 40
1.0
  9
$DIMTOFL
 70
     0
  9
$DIMTVP
 40
0.0
  9
$DIMTIX
 70
     0
  9
$DIMSOXD
 70
     0
  9
$DIMSAH
 70
     0
  9
$DIMBLK1
  1

  9
$DIMBLK2
  1

  9
$DIMSTYLE
  2
STANDARD
  9
$DIMCLRD
 70
     0
  9
$DIMCLRE
 70
     0
  9
$DIMCLRT
 70
     0
  9
$DIMTFAC
 40
1.0
  9
$DIMGAP
 40
0.09
  9
$DIMJUST
 70
     0
  9
$DIMSD1
 70
     0
  9
$DIMSD2
 70
     0
  9
$DIMTOLJ
 70
     1
  9
$DIMTZIN
 70
     0
  9
$DIMALTZ
 70
     0
  9
$DIMALTTZ
 70
     0
  9
$DIMUPT
 70
     0
  9
$DIMDEC
 70
     4
  9
$DIMTDEC
 70
     4
  9
$DIMALTU
 70
     2
  9
$DIMALTTD
 70
     2
  9
$DIMTXSTY
  7
STANDARD
  9
$DIMAUNIT
 70
     0
  9
$DIMADEC
 70
     0
  9
$DIMALTRND
 40
0.0
  9
$DIMAZIN
 70
     0
  9
$DIMDSEP
 70
     0
  9
$DIMATFIT
 70
     3
  9
$DIMFRAC
 70
     0
  9
$DIMLDRBLK
  1

  9
$DIMLUNIT
 70
     2
  9
$DIMLWD
 70
     0
  9
$DIMLWE
 70
     0
  9
$DIMTMOVE
 70
     0
  9
$LUNITS
 70
     2
  9
$LUPREC
 70
     4
  9
$SKETCHINC
 40
0.1
  9
$FILLETRAD
 40
0.0
  9
$AUNITS
 70
     0
  9
$AUPREC
 70
     0
  9
$MENU
  1
acad
  9
$ELEVATION
 40
0.0
  9
$PELEVATION
 40
0.0
  9
$THICKNESS
 40
0.0
  9
$LIMCHECK
 70
     0
  9
$CHAMFERA
 40
0.0
  9
$CHAMFERB
 40
0.0
  9
$CHAMFERC
 40
0.0
  9
$CHAMFERD
 40
0.0
  9
$SKPOLY
 70
     0
  9
$TDCREATE
 40
2447893.375
  9
$TDUCREATE
 40
0.0
  9
$TDUPDATE
 40
2455310.433405972
  9
$TDUUPDATE
 40
2455310.058405972
  9
$TDINDWG
 40
0.0001157292
  9
$TDUSRTIMER
 40
0.0001157292
  9
$USRTIMER
 70
     1
  9
$ANGBASE
 50
0.0
  9
$ANGDIR
 70
     0
  9
$PDMODE
 70
     0
  9
$PDSIZE
 40
0.0
  9
$PLINEWID
 40
0.0
  9
$SPLFRAME
 70
     0
  9
$SPLINETYPE
 70
     6
  9
$SPLINESEGS
 70
    10
  9
$HANDSEED
  5
5F5F20CA
  9
$SURFTAB1
 70
     6
  9
$SURFTAB2
 70
     6
  9
$SURFTYPE
 70
     6
  9
$SURFU
 70
     6
  9
$SURFV
 70
     6
  9
$UCSBASE
  2

  9
$UCSNAME
  2

  9
$UCSORG
 10
0.0
 20
0.0
 30
0.0
  9
$UCSXDIR
 10
1.0
 20
0.0
 30
0.0
  9
$UCSYDIR
 10
0.0
 20
1.0
 30
0.0
  9
$UCSORTHOREF
  2

  9
$UCSORTHOVIEW
 70
     0
  9
$UCSORGTOP
 10
0.0
 20
0.0
 30
0.0
  9
$UCSORGBOTTOM
 10
0.0
 20
0.0
 30
0.0
  9
$UCSORGLEFT
 10
0.0
 20
0.0
 30
0.0
  9
$UCSORGRIGHT
 10
0.0
 20
0.0
 30
0.0
  9
$UCSORGFRONT
 10
0.0
 20
0.0
 30
0.0
  9
$UCSORGBACK
 10
0.0
 20
0.0
 30
0.0
  9
$PUCSBASE
  2

  9
$PUCSNAME
  2

  9
$PUCSORG
 10
0.0
 20
0.0
 30
0.0
  9
$PUCSXDIR
 10
1.0
 20
0.0
 30
0.0
  9
$PUCSYDIR
 10
0.0
 20
1.0
 30
0.0
  9
$PUCSORTHOREF
  2

  9
$PUCSORTHOVIEW
 70
     0
  9
$PUCSORGTOP
 10
0.0
 20
0.0
 30
0.0
  9
$PUCSORGBOTTOM
 10
0.0
 20
0.0
 30
0.0
  9
$PUCSORGLEFT
 10
0.0
 20
0.0
 30
0.0
  9
$PUCSORGRIGHT
 10
0.0
 20
0.0
 30
0.0
  9
$PUCSORGFRONT
 10
0.0
 20
0.0
 30
0.0
  9
$PUCSORGBACK
 10
0.0
 20
0.0
 30
0.0
  9
$USERI1
 70
     0
  9
$USERI2
 70
     0
  9
$USERI3
 70
     0
  9
$USERI4
 70
     0
  9
$USERI5
 70
     0
  9
$USERR1
 40
0.0
  9
$USERR2
 40
0.0
  9
$USERR3
 40
0.0
  9
$USERR4
 40
0.0
  9
$USERR5
 40
0.0
  9
$WORLDVIEW
 70
     1
  9
$SHADEDGE
 70
     3
  9
$SHADEDIF
 70
    70
  9
$TILEMODE
 70
     1
  9
$MAXACTVP
 70
    16
  9
$PINSBASE
 10
0.0
 20
0.0
 30
0.0
  9
$PLIMCHECK
 70
     0
  9
$PEXTMIN
 10
-1.000000E+20
 20
-1.000000E+20
 30
-1.000000E+20
  9
$PEXTMAX
 10
-1.000000E+20
 20
-1.000000E+20
 30
-1.000000E+20
  9
$PLIMMIN
 10
0.0
 20
0.0
  9
$PLIMMAX
 10
12.0
 20
9.0
  9
$UNITMODE
 70
     0
  9
$VISRETAIN
 70
     0
  9
$PLINEGEN
 70
     1
  9
$PSLTSCALE
 70
     0
  9
$TREEDEPTH
 70
  3020
  9
$CMLSTYLE
  2
STANDARD
  9
$CMLJUST
 70
     0
  9
$CMLSCALE
 40
1.0
  9
$PROXYGRAPHICS
 70
     0
  9
$MEASUREMENT
 70
     0
  9
$CELWEIGHT
370
     0
  9
$ENDCAPS
280
     0
  9
$JOINSTYLE
280
     0
  9
$LWDISPLAY
290
     0
  9
$INSUNITS
 70
     0
  9
$HYPERLINKBASE
  1

  9
$STYLESHEET
  1

  9
$XEDIT
290
     0
  9
$CEPSNTYPE
380
     0
  9
$PSTYLEMODE
290
     1
  9
$FINGERPRINTGUID
  2

  9
$VERSIONGUID
  2

  9
$EXTNAMES
290
     1
  9
$PSVPSCALE
 40
0.0
  9
$OLESTARTUP
290
     0
  0
ENDSEC
  0
SECTION
  2
CLASSES
  0
CLASS
  1
LWPOLYLINE
  2
AcDbPolyline
  3
AutoCAD 2000
 90
        0
280
     0
281
     1
  0
CLASS
  1
IMAGE
  2
AcDbRasterImage
  3
ISM
 90
      127
280
     0
281
     1
  0
CLASS
  1
OLE2FRAME
  2
AcDbOle2Frame
  3
AutoCAD 2000
 90
        0
280
     0
281
     1
  0
CLASS
  1
HATCH
  2
AcDbHatch
  3
AutoCAD 2000
 90
        0
280
     0
281
     1
  0
CLASS
  1
DICTIONARYVAR
  2
AcDbDictionaryVar
  3
ObjectDBX Classes
 90
        0
280
     0
281
     0
  0
CLASS
  1
RASTERVARIABLES
  2
AcDbRasterVariables
  3
ISM
 90
        0
280
     0
281
     0
  0
CLASS
  1
IMAGEDEF
  2
AcDbRasterImageDef
  3
ISM
 90
        0
280
     0
281
     0
  0
CLASS
  1
IMAGEDEF_REACTOR
  2
AcDbRasterImageDefReactor
  3
ISM
 90
        1
280
     0
281
     0
  0
CLASS
  1
IDBUFFER
  2
AcDbIdBuffer
  3
ObjectDBX Classes
 90
        0
280
     0
281
     0
  0
CLASS
  1
SPATIAL_FILTER
  2
AcDbSpatialFilter
  3
ObjectDBX Classes
 90
        0
280
     0
281
     0
  0
CLASS
  1
XRECORD
  2
AcDbXrecord
  3
AutoCAD 2000
 90
        0
280
     0
281
     0
  0
CLASS
  1
SORTENTSTABLE
  2
AcDbSortentsTable
  3
ObjectDBX Classes
 90
        0
280
     0
281
     0
  0
CLASS
  1
LAYER_INDEX
  2
AcDbLayerIndex
  3
ObjectDBX Classes
 90
        0
280
     0
281
     0
  0
CLASS
  1
SPATIAL_INDEX
  2
AcDbSpatialIndex
  3
AutoCAD 2000
 90
        0
280
     0
281
     0
  0
CLASS
  1
OBJECT_PTR
  2
CAseDLPNTableRecord
  3
ASE-LPNTableRecord
 90
        1
280
     0
281
     0
  0
CLASS
  1
LAYOUT
  2
AcDbLayout
  3
ObjectDBX Classes
 90
        0
280
     0
281
     0
  0
CLASS
  1
PLOTSETTINGS
  2
AcDbPlotSettings
  3
ObjectDBX Classes
 90
        0
280
     0
281
     0
  0
CLASS
  1
ACDBDICTIONARYWDFLT
  2
AcDbDictionaryWithDefault
  3
ObjectDBX Classes
 90
        0
280
     0
281
     0
  0
CLASS
  1
ACDBPLACEHOLDER
  2
AcDbPlaceHolder
  3
ObjectDBX Classes
 90
        0
280
     0
281
     0
  0
CLASS
  1
VBA_PROJECT
  2
AcDbVbaProject
  3
ObjectDBX Classes
 90
        0
280
     0
281
     0
  0
CLASS
  1
WIPEOUT
  2
AcDbWipeout
  3
WipeOut|AutoCAD Express Tool|expresstools@autodesk.com
 90
      127
280
     0
281
     1
  0
CLASS
  1
WIPEOUTVARIABLES
  2
AcDbWipeoutVariables
  3
WipeOut|AutoCAD Express Tool|expresstools@autodesk.com
 90
        0
280
     0
281
     0
  0
CLASS
  1
RTEXT
  2
RText
  3
RText|AutoCAD Express Tool|expresstools@autodesk.com
 90
        0
280
     0
281
     1
  0
CLASS
  1
ARCALIGNEDTEXT
  2
AcDbArcAlignedText
  3
ATEXT|AutoCAD Express Tool|expresstools@autodesk.com
 90
        0
280
     0
281
     1
  0
CLASS
  1
DIMASSOC
  2
AcDbDimAssoc
  3
"AcDbDimAssoc|Product Desc:     AcDim ARX App For Dimension|Company:          Autodesk, Inc.|WEB Address:      www.autodesk.com"
 90
        0
280
     0
281
     0
  0
CLASS
  1

  2
OdtLeader
  3

 90
        0
280
     0
281
     1
  0
CLASS
  1

  2
OdtRotatedDimension
  3

 90
        0
280
     0
281
     1
  0
ENDSEC
  0
SECTION
  2
TABLES
  0
TABLE
  2
VPORT
  5
7
330
0
100
AcDbSymbolTable
 70
     1
  0
VPORT
  5
334
330
7
100
AcDbSymbolTableRecord
100
AcDbViewportTableRecord
  2
*ACTIVE
 70
     0
 10
0.0
 20
0.0
 11
1.0
 21
1.0
 12
9230.877739
 22
-13946.809894
 13
0.0
 23
0.0
 14
0.0
 24
0.0
 15
0.0
 25
0.0
 16
0.0
 26
0.0
 36
1.0
 17
0.0
 27
0.0
 37
0.0
 40
2858.11771
 41
1.095062
 42
50.0
 43
0.0
 44
0.0
 50
0.0
 51
0.0
 71
     0
 72
   100
 73
     1
 74
     0
 75
     0
 76
     0
 77
     0
 78
     0
281
     0
 65
     0
110
0.0
120
0.0
130
0.0
111
1.0
121
0.0
131
0.0
112
0.0
122
1.0
132
0.0
 79
     0
146
0.0
  0
ENDTAB
  0
TABLE
  2
LTYPE
  5
4
330
0
100
AcDbSymbolTable
 70
     7
  0
LTYPE
  5
11
330
4
100
AcDbSymbolTableRecord
100
AcDbLinetypeTableRecord
  2
ByBlock
 70
     0
  3

 72
    65
 73
     0
 40
0.0
  0
LTYPE
  5
12
330
4
100
AcDbSymbolTableRecord
100
AcDbLinetypeTableRecord
  2
ByLayer
 70
     0
  3

 72
    65
 73
     0
 40
0.0
  0
LTYPE
  5
13
330
4
100
AcDbSymbolTableRecord
100
AcDbLinetypeTableRecord
  2
CONTINUOUS
 70
     0
  3
Solid line
 72
    65
 73
     0
 40
0.0
  0
LTYPE
  5
22
330
4
100
AcDbSymbolTableRecord
100
AcDbLinetypeTableRecord
  2
DOT
 70
     0
  3
. . . . . . . . . . . . . . . . . . . . . . . . . . . . . . . . 
 72
    65
 73
     2
 40
0.25
 49
0.0
 74
     0
 49
-0.25
 74
     0
  0
LTYPE
  5
23
330
4
100
AcDbSymbolTableRecord
100
AcDbLinetypeTableRecord
  2
HIDDEN
 70
     0
  3
__ __ __ __ __ __ __ __ __ __ __ __ __ __ __ __ __ __ __ __ __ 
 72
    65
 73
     2
 40
0.375
 49
0.25
 74
     0
 49
-0.125
 74
     0
  0
LTYPE
  5
24
330
4
100
AcDbSymbolTableRecord
100
AcDbLinetypeTableRecord
  2
DASHED
 70
     0
  3
__ __ __ __ __ __ __ __ __ __ __ __ __ __ __ __ __ __ __ __ __
 72
    65
 73
     2
 40
0.75
 49
0.5
 74
     0
 49
-0.25
 74
     0
  0
LTYPE
  5
25
330
4
100
AcDbSymbolTableRecord
100
AcDbLinetypeTableRecord
  2
DASHDOT
 70
     0
  3
__ . __ . __ . __ . __ . __ . __ . __ . __ . __ . __ . __ . _
 72
    65
 73
     4
 40
1.0
 49
0.5
 74
     0
 49
-0.25
 74
     0
 49
0.0
 74
     0
 49
-0.25
 74
     0
  0
LTYPE
  5
26
330
4
100
AcDbSymbolTableRecord
100
AcDbLinetypeTableRecord
  2
DIVIDE
 70
     0
  3
____ . . ____ . . ____ . . ____ . . ____ . . ____ . . ____ . .
 72
    65
 73
     6
 40
1.25
 49
0.5
 74
     0
 49
-0.25
 74
     0
 49
0.0
 74
     0
 49
-0.25
 74
     0
 49
0.0
 74
     0
 49
-0.25
 74
     0
  0
LTYPE
  5
27
330
4
100
AcDbSymbolTableRecord
100
AcDbLinetypeTableRecord
  2
CENTER
 70
     0
  3
____ _ ____ _ ____ _ ____ _ ____ _ ____ _ ____ _ ____ _ ____ _
 72
    65
 73
     4
 40
2.0
 49
1.25
 74
     0
 49
-0.25
 74
     0
 49
0.25
 74
     0
 49
-0.25
 74
     0
  0
ENDTAB
  0
TABLE
  2
LAYER
  5
2
330
0
100
AcDbSymbolTable
 70
    13
  0
LAYER
  5
14
330
2
100
AcDbSymbolTableRecord
100
AcDbLayerTableRecord
  2
0
 70
     0
 62
     7
  6
CONTINUOUS
370
    -3
390
335
  0
LAYER
  5
1E
330
2
100
AcDbSymbolTableRecord
100
AcDbLayerTableRecord
  2
CONSTRUCTION_CLASS
 70
     0
 62
     7
  6
CONTINUOUS
370
    -3
390
335
  0
LAYER
  5
1F
330
2
100
AcDbSymbolTableRecord
100
AcDbLayerTableRecord
  2
PATTERN_CLASS
 70
     0
 62
     7
  6
CONTINUOUS
370
    -3
390
335
  0
LAYER
  5
28
330
2
100
AcDbSymbolTableRecord
100
AcDbLayerTableRecord
  2
1
 70
     0
 62
     7
  6
CONTINUOUS
370
    -3
390
335
  0
LAYER
  5
AA
330
2
100
AcDbSymbolTableRecord
100
AcDbLayerTableRecord
  2
$$$$$$
 70
     0
 62
     7
  6
CONTINUOUS
370
    -3
390
335
  0
LAYER
  5
F3
330
2
100
AcDbSymbolTableRecord
100
AcDbLayerTableRecord
  2
$$$$
 70
     0
 62
     7
  6
CONTINUOUS
370
    -3
390
335
  0
LAYER
  5
F5
330
2
100
AcDbSymbolTableRecord
100
AcDbLayerTableRecord
  2
DEFPOINTS
 70
     0
 62
     7
  6
CONTINUOUS
290
     0
370
    -3
390
335
  0
LAYER
  5
113
330
2
100
AcDbSymbolTableRecord
100
AcDbLayerTableRecord
  2
$$15$9
 70
     0
 62
     7
  6
CONTINUOUS
370
    -3
390
335
  0
LAYER
  5
117
330
2
100
AcDbSymbolTableRecord
100
AcDbLayerTableRecord
  2
$$12$7
 70
     0
 62
     7
  6
CONTINUOUS
370
    -3
390
335
  0
LAYER
  5
11A
330
2
100
AcDbSymbolTableRecord
100
AcDbLayerTableRecord
  2
$$$$$$15$9
 70
     0
 62
     7
  6
CONTINUOUS
370
    -3
390
335
  0
LAYER
  5
172
330
2
100
AcDbSymbolTableRecord
100
AcDbLayerTableRecord
  2
$_$X$$$$$$$N$X
 70
     0
 62
     7
  6
CONTINUOUS
370
    -3
390
335
  0
LAYER
  5
1F3
330
2
100
AcDbSymbolTableRecord
100
AcDbLayerTableRecord
  2
$J$$$$$$15$9
 70
     0
 62
     7
  6
CONTINUOUS
370
    -3
390
335
  0
LAYER
  5
2F4
330
2
100
AcDbSymbolTableRecord
100
AcDbLayerTableRecord
  2
$$$S$$
 70
     0
 62
     7
  6
CONTINUOUS
370
    -3
390
335
  0
ENDTAB
  0
TABLE
  2
STYLE
  5
3
330
0
100
AcDbSymbolTable
 70
     4
  0
STYLE
  5
17
330
3
100
AcDbSymbolTableRecord
100
AcDbTextStyleTableRecord
  2
STANDARD
 70
     0
 40
0.0
 41
1.0
 50
0.0
 71
     0
 42
0.2
  3
TXT
  4

  0
STYLE
  5
2A
330
3
100
AcDbSymbolTableRecord
100
AcDbTextStyleTableRecord
  2
BIGFONT
 70
     0
 40
0.2
 41
1.0
 50
0.0
 71
     0
 42
0.2
  3
TXT
  4
BIGFONT
  0
STYLE
  5
90
330
3
100
AcDbSymbolTableRecord
100
AcDbTextStyleTableRecord
  2
MONOTXT
 70
     0
 40
0.2
 41
1.0
 50
0.0
 71
     0
 42
0.2
  3
MONOTXT
  4

  0
STYLE
  5
192
330
3
100
AcDbSymbolTableRecord
100
AcDbTextStyleTableRecord
  2
txt
 70
     0
 40
0.2
 41
1.0
 50
0.0
 71
     0
 42
0.2
  3
TXT
  4

  0
ENDTAB
  0
TABLE
  2
VIEW
  5
5
330
0
100
AcDbSymbolTable
 70
     0
  0
ENDTAB
  0
TABLE
  2
UCS
  5
6
330
0
100
AcDbSymbolTable
 70
     0
  0
ENDTAB
  0
TABLE
  2
APPID
  5
8
330
0
100
AcDbSymbolTable
 70
     6
  0
APPID
  5
16
330
8
100
AcDbSymbolTableRecord
100
AcDbRegAppTableRecord
  2
ACAD
 70
     0
  0
APPID
  5
5F5F20C1
330
8
100
AcDbSymbolTableRecord
100
AcDbRegAppTableRecord
  2
AVE_ENTITY_MATERIAL
 70
     0
  0
APPID
  5
5F5F20C2
330
8
100
AcDbSymbolTableRecord
100
AcDbRegAppTableRecord
  2
AVE_MATERIAL
 70
     0
  0
APPID
  5
5F5F20C3
330
8
100
AcDbSymbolTableRecord
100
AcDbRegAppTableRecord
  2
AVE_FINISH
 70
     0
  0
APPID
  5
5F5F20C4
330
8
100
AcDbSymbolTableRecord
100
AcDbRegAppTableRecord
  2
AVE_GLOBAL
 70
     0
  0
APPID
  5
5F5F20C5
330
8
100
AcDbSymbolTableRecord
100
AcDbRegAppTableRecord
  2
AVE_RENDER
 70
     0
  0
ENDTAB
  0
TABLE
  2
DIMSTYLE
  5
9
330
0
100
AcDbSymbolTable
 70
     2
100
AcDbDimStyleTable
  0
DIMSTYLE
105
18
330
9
100
AcDbSymbolTableRecord
100
AcDbDimStyleTableRecord
  2
STANDARD
 70
     0
 41
0.18
 44
0.18
140
0.18
141
0.09
278
     0
289
     0
340
17
  0
DIMSTYLE
105
F4
330
9
100
AcDbSymbolTableRecord
100
AcDbDimStyleTableRecord
  2
MSADIM
 70
     0
 41
15.0
 42
7.5
 43
0.0
 44
3.0
 73
     0
 74
     0
 77
     1
 78
     2
140
0.2
141
3.6
143
0.03937
147
7.5
271
     1
272
     1
273
     5
278
     0
284
     2
340
2A
  0
ENDTAB
  0
TABLE
  2
BLOCK_RECORD
  5
1
330
0
100
AcDbSymbolTable
 70
    13
  0
BLOCK_RECORD
  5
A
330
1
100
AcDbSymbolTableRecord
100
AcDbBlockTableRecord
  2
*MODEL_SPACE
340
338
  0
BLOCK_RECORD
  5
B
330
1
100
AcDbSymbolTableRecord
100
AcDbBlockTableRecord
  2
*PAPER_SPACE
340
339
  0
BLOCK_RECORD
  5
C0
330
1
100
AcDbSymbolTableRecord
100
AcDbBlockTableRecord
  2
*U0
340
0
102
{BLKREFS
331
C5
102
}
  0
BLOCK_RECORD
  5
C6
330
1
100
AcDbSymbolTableRecord
100
AcDbBlockTableRecord
  2
*U1
340
0
102
{BLKREFS
331
CB
102
}
  0
BLOCK_RECORD
  5
CC
330
1
100
AcDbSymbolTableRecord
100
AcDbBlockTableRecord
  2
*U2
340
0
102
{BLKREFS
331
D1
102
}
  0
BLOCK_RECORD
  5
DD
330
1
100
AcDbSymbolTableRecord
100
AcDbBlockTableRecord
  2
*U3
340
0
102
{BLKREFS
331
E2
102
}
  0
BLOCK_RECORD
  5
E3
330
1
100
AcDbSymbolTableRecord
100
AcDbBlockTableRecord
  2
*U4
340
0
102
{BLKREFS
331
E8
102
}
  0
BLOCK_RECORD
  5
EB
330
1
100
AcDbSymbolTableRecord
100
AcDbBlockTableRecord
  2
*U5
340
0
102
{BLKREFS
331
F0
102
}
  0
BLOCK_RECORD
  5
2D5
330
1
100
AcDbSymbolTableRecord
100
AcDbBlockTableRecord
  2
*D6
340
0
  0
BLOCK_RECORD
  5
2E3
330
1
100
AcDbSymbolTableRecord
100
AcDbBlockTableRecord
  2
*D7
340
0
  0
BLOCK_RECORD
  5
2F5
330
1
100
AcDbSymbolTableRecord
100
AcDbBlockTableRecord
  2
*D8
340
0
  0
BLOCK_RECORD
  5
303
330
1
100
AcDbSymbolTableRecord
100
AcDbBlockTableRecord
  2
*D9
340
0
  0
BLOCK_RECORD
  5
311
330
1
100
AcDbSymbolTableRecord
100
AcDbBlockTableRecord
  2
*D10
340
0
  0
BLOCK_RECORD
  5
31F
330
1
100
AcDbSymbolTableRecord
100
AcDbBlockTableRecord
  2
*U11
340
0
102
{BLKREFS
331
32C
102
}
  0
BLOCK_RECORD
  5
32D
330
1
100
AcDbSymbolTableRecord
100
AcDbBlockTableRecord
  2
*U12
340
0
102
{BLKREFS
331
333
102
}
  0
ENDTAB
  0
ENDSEC
  0
SECTION
  2
BLOCKS
  0
BLOCK
  5
D
330
A
100
AcDbEntity
  8
0
390
335
100
AcDbBlockBegin
  2
*MODEL_SPACE
 70
     0
 71
     0
 10
0.0
 20
0.0
 30
0.0
  3
*MODEL_SPACE
  1

  0
ENDBLK
  5
E
330
A
100
AcDbEntity
  8
0
390
335
100
AcDbBlockEnd
  0
BLOCK
  5
F
330
B
100
AcDbEntity
 67
     1
  8
0
390
335
100
AcDbBlockBegin
  2
*PAPER_SPACE
 70
     0
 71
     0
 10
0.0
 20
0.0
 30
0.0
  3
*PAPER_SPACE
  1

  0
ENDBLK
  5
10
330
B
100
AcDbEntity
 67
     1
  8
0
390
335
100
AcDbBlockEnd
  0
BLOCK
  5
C1
330
C0
100
AcDbEntity
  8
$$$$$$
  6
Continuous
 62
     3
100
AcDbBlockBegin
  2
*U0
 70
     1
 71
     0
 10
0.0
 20
0.0
 30
0.0
  3
*U0
  1

  0
CIRCLE
  5
C2
330
C0
100
AcDbEntity
  8
$$$$$$
  6
Continuous
 62
     3
100
AcDbCircle
 10
0.000001
 20
-0.252097
 30
0.0
 40
10.261974
  0
TEXT
  5
C3
330
C0
100
AcDbEntity
  8
$$$$$$
  6
Continuous
 62
     2
100
AcDbText
 10
-1.817335
 20
-6.05956
 30
0.0
 40
12.11918
  1
1
  7
BIGFONT
 72
     4
 11
0.18233
 21
0.00003
 31
0.0
100
AcDbText
  0
ENDBLK
  5
C4
330
C0
100
AcDbEntity
  8
$$$$$$
  6
Continuous
 62
     2
100
AcDbBlockEnd
  0
BLOCK
  5
C7
330
C6
100
AcDbEntity
  8
$$$$$$
  6
Continuous
 62
     3
100
AcDbBlockBegin
  2
*U1
 70
     1
 71
     0
 10
0.0
 20
0.0
 30
0.0
  3
*U1
  1

  0
CIRCLE
  5
C8
330
C6
100
AcDbEntity
  8
$$$$$$
  6
Continuous
 62
     3
100
AcDbCircle
 10
0.000001
 20
-0.117579
 30
0.0
 40
10.261974
  0
TEXT
  5
C9
330
C6
100
AcDbEntity
  8
$$$$$$
  6
Continuous
 62
     2
100
AcDbText
 10
-3.877419
 20
-6.059545
 30
0.0
 40
12.11913
  1
2
  7
BIGFONT
 72
     4
 11
0.18249
 21
0.00002
 31
0.0
100
AcDbText
  0
ENDBLK
  5
CA
330
C6
100
AcDbEntity
  8
$$$$$$
  6
Continuous
 62
     2
100
AcDbBlockEnd
  0
BLOCK
  5
CD
330
CC
100
AcDbEntity
  8
$$$$$$
  6
Continuous
 62
     3
100
AcDbBlockBegin
  2
*U2
 70
     1
 71
     0
 10
0.0
 20
0.0
 30
0.0
  3
*U2
  1

  0
CIRCLE
  5
CE
330
CC
100
AcDbEntity
  8
$$$$$$
  6
Continuous
 62
     3
100
AcDbCircle
 10
0.000001
 20
-0.117473
 30
0.0
 40
10.261974
  0
TEXT
  5
CF
330
CC
100
AcDbEntity
  8
$$$$$$
  6
Continuous
 62
     2
100
AcDbText
 10
-3.876499
 20
-6.059545
 30
0.0
 40
12.11913
  1
3
  7
BIGFONT
 72
     4
 11
0.18341
 21
0.00002
 31
0.0
100
AcDbText
  0
ENDBLK
  5
D0
330
CC
100
AcDbEntity
  8
$$$$$$
  6
Continuous
 62
     2
100
AcDbBlockEnd
  0
BLOCK
  5
DE
330
DD
100
AcDbEntity
  8
$$$$$$
  6
Continuous
 62
     3
100
AcDbBlockBegin
  2
*U3
 70
     1
 71
     0
 10
0.0
 20
0.0
 30
0.0
  3
*U3
  1

  0
CIRCLE
  5
DF
330
DD
100
AcDbEntity
  8
$$$$$$
  6
Continuous
 62
     3
100
AcDbCircle
 10
-0.000006
 20
-0.252094
 30
0.0
 40
10.261974
  0
TEXT
  5
E0
330
DD
100
AcDbEntity
  8
$$$$$$
  6
Continuous
 62
     2
100
AcDbText
 10
-1.817335
 20
-6.05956
 30
0.0
 40
12.11918
  1
1
  7
BIGFONT
 72
     4
 11
0.18233
 21
0.00003
 31
0.0
100
AcDbText
  0
ENDBLK
  5
E1
330
DD
100
AcDbEntity
  8
$$$$$$
  6
Continuous
 62
     2
100
AcDbBlockEnd
  0
BLOCK
  5
E4
330
E3
100
AcDbEntity
  8
$$$$$$
  6
Continuous
 62
     3
100
AcDbBlockBegin
  2
*U4
 70
     1
 71
     0
 10
0.0
 20
0.0
 30
0.0
  3
*U4
  1

  0
CIRCLE
  5
E5
330
E3
100
AcDbEntity
  8
$$$$$$
  6
Continuous
 62
     3
100
AcDbCircle
 10
-0.000006
 20
-0.117581
 30
0.0
 40
10.261974
  0
TEXT
  5
E6
330
E3
100
AcDbEntity
  8
$$$$$$
  6
Continuous
 62
     2
100
AcDbText
 10
-3.877419
 20
-6.059545
 30
0.0
 40
12.11913
  1
2
  7
BIGFONT
 72
     4
 11
0.18249
 21
0.00002
 31
0.0
100
AcDbText
  0
ENDBLK
  5
E7
330
E3
100
AcDbEntity
  8
$$$$$$
  6
Continuous
 62
     2
100
AcDbBlockEnd
  0
BLOCK
  5
EC
330
EB
100
AcDbEntity
  8
$$$$$$
  6
Continuous
 62
     3
100
AcDbBlockBegin
  2
*U5
 70
     1
 71
     0
 10
0.0
 20
0.0
 30
0.0
  3
*U5
  1

  0
CIRCLE
  5
ED
330
EB
100
AcDbEntity
  8
$$$$$$
  6
Continuous
 62
     3
100
AcDbCircle
 10
-0.000009
 20
-0.117578
 30
0.0
 40
10.261974
  0
TEXT
  5
EE
330
EB
100
AcDbEntity
  8
$$$$$$
  6
Continuous
 62
     2
100
AcDbText
 10
-3.876879
 20
-6.059565
 30
0.0
 40
12.11913
  1
4
  7
BIGFONT
 72
     4
 11
0.18303
 21
0.0
 31
0.0
100
AcDbText
  0
ENDBLK
  5
EF
330
EB
100
AcDbEntity
  8
$$$$$$
  6
Continuous
 62
     2
100
AcDbBlockEnd
  0
BLOCK
  5
2D6
330
2D5
100
AcDbEntity
  8
$$$$
  6
Continuous
 62
     2
100
AcDbBlockBegin
  2
*D6
 70
     1
 71
     0
 10
0.0
 20
0.0
 30
0.0
  3
*D6
  1

  0
LINE
  5
2D7
330
2D5
100
AcDbEntity
  8
$$$$
  6
Continuous
 62
     2
100
AcDbLine
 10
8217.73566
 20
-13784.80638
 30
0.0
 11
8217.73566
 21
-13593.36718
 31
0.0
  0
LINE
  5
2D8
330
2D5
100
AcDbEntity
  8
$$$$
  6
Continuous
 62
     2
100
AcDbLine
 10
8690.73566
 20
-13784.80638
 30
0.0
 11
8690.73566
 21
-13593.36718
 31
0.0
  0
LINE
  5
2D9
330
2D5
100
AcDbEntity
  8
$$$$
  6
Continuous
 62
     2
100
AcDbLine
 10
8217.73566
 20
-13596.36718
 30
0.0
 11
8690.73566
 21
-13596.36718
 31
0.0
  0
SOLID
  5
2DA
330
2D5
100
AcDbEntity
  8
$$$$
  6
Continuous
 62
     2
100
AcDbTrace
 10
8232.73566
 20
-13598.61718
 30
0.0
 11
8217.73566
 21
-13596.36718
 31
0.0
 12
8232.73566
 22
-13594.11718
 32
0.0
 13
8232.73566
 23
-13594.11718
 33
0.0
  0
SOLID
  5
2DB
330
2D5
100
AcDbEntity
  8
$$$$
  6
Continuous
 62
     2
100
AcDbTrace
 10
8675.73566
 20
-13594.11718
 30
0.0
 11
8690.73566
 21
-13596.36718
 31
0.0
 12
8675.73566
 22
-13598.61718
 32
0.0
 13
8675.73566
 23
-13598.61718
 33
0.0
  0
MTEXT
  5
2DC
330
2D5
100
AcDbEntity
  8
$$$$
  6
Continuous
 62
     2
100
AcDbMText
 10
8437.95411
 20
-13588.86718
 30
0.0
 40
15.0
 41
166.59447
 71
     4
 72
     1
  1
{\A0;(473)}
  7
BIGFONT
 73
     1
 44
1.0
  0
POINT
  5
2DD
330
2D5
100
AcDbEntity
  8
DEFPOINTS
  6
ByBlock
 62
     0
100
AcDbPoint
 10
8217.735662
 20
-13596.367184
 30
0.0
  0
POINT
  5
2DE
330
2D5
100
AcDbEntity
  8
DEFPOINTS
  6
ByBlock
 62
     0
100
AcDbPoint
 10
8690.735662
 20
-13792.306384
 30
0.0
  0
POINT
  5
2DF
330
2D5
100
AcDbEntity
  8
DEFPOINTS
  6
ByBlock
 62
     0
100
AcDbPoint
 10
8217.735662
 20
-13792.306384
 30
0.0
  0
POINT
  5
2E0
330
2D5
100
AcDbEntity
  8
DEFPOINTS
  6
ByBlock
 62
     0
100
AcDbPoint
 10
8460.9856
 20
-13588.86718
 30
0.0
  0
ENDBLK
  5
2E1
330
2D5
100
AcDbEntity
  8
$$$$
  6
Continuous
 62
     2
100
AcDbBlockEnd
  0
BLOCK
  5
2E4
330
2E3
100
AcDbEntity
  8
$$$$
  6
Continuous
 62
     2
100
AcDbBlockBegin
  2
*D7
 70
     1
 71
     0
 10
0.0
 20
0.0
 30
0.0
  3
*D7
  1

  0
LINE
  5
2E5
330
2E3
100
AcDbEntity
  8
$$$$
  6
Continuous
 62
     2
100
AcDbLine
 10
9061.67503
 20
-13711.63133
 30
0.0
 11
9061.67503
 21
-13593.36718
 31
0.0
  0
LINE
  5
2E6
330
2E3
100
AcDbEntity
  8
$$$$
  6
Continuous
 62
     2
100
AcDbLine
 10
9455.52502
 20
-13784.80638
 30
0.0
 11
9455.52502
 21
-13593.36718
 31
0.0
  0
LINE
  5
2E7
330
2E3
100
AcDbEntity
  8
$$$$
  6
Continuous
 62
     2
100
AcDbLine
 10
9061.67503
 20
-13596.36718
 30
0.0
 11
9455.52502
 21
-13596.36718
 31
0.0
  0
SOLID
  5
2E8
330
2E3
100
AcDbEntity
  8
$$$$
  6
Continuous
 62
     2
100
AcDbTrace
 10
9076.67503
 20
-13598.61718
 30
0.0
 11
9061.67503
 21
-13596.36718
 31
0.0
 12
9076.67503
 22
-13594.11718
 32
0.0
 13
9076.67503
 23
-13594.11718
 33
0.0
  0
SOLID
  5
2E9
330
2E3
100
AcDbEntity
  8
$$$$
  6
Continuous
 62
     2
100
AcDbTrace
 10
9440.52502
 20
-13594.11718
 30
0.0
 11
9455.52502
 21
-13596.36718
 31
0.0
 12
9440.52502
 22
-13598.61718
 32
0.0
 13
9440.52502
 23
-13598.61718
 33
0.0
  0
MTEXT
  5
2EA
330
2E3
100
AcDbEntity
  8
$$$$
  6
Continuous
 62
     2
100
AcDbMText
 10
9247.95303
 20
-13588.86718
 30
0.0
 40
15.0
 41
165.98031
 71
     4
 72
     1
  1
{\A0;(393)}
  7
BIGFONT
 73
     1
 44
1.0
  0
POINT
  5
2EB
330
2E3
100
AcDbEntity
  8
DEFPOINTS
  6
ByBlock
 62
     0
100
AcDbPoint
 10
9061.675032
 20
-13596.367184
 30
0.0
  0
POINT
  5
2EC
330
2E3
100
AcDbEntity
  8
DEFPOINTS
  6
ByBlock
 62
     0
100
AcDbPoint
 10
9455.525022
 20
-13792.306384
 30
0.0
  0
POINT
  5
2ED
330
2E3
100
AcDbEntity
  8
DEFPOINTS
  6
ByBlock
 62
     0
100
AcDbPoint
 10
9061.675032
 20
-13719.131334
 30
0.0
  0
POINT
  5
2EE
330
2E3
100
AcDbEntity
  8
DEFPOINTS
  6
ByBlock
 62
     0
100
AcDbPoint
 10
9270.7798
 20
-13588.86718
 30
0.0
  0
ENDBLK
  5
2EF
330
2E3
100
AcDbEntity
  8
$$$$
  6
Continuous
 62
     2
100
AcDbBlockEnd
  0
BLOCK
  5
2F6
330
2F5
100
AcDbEntity
  8
$$$S$$
  6
Continuous
 62
     2
100
AcDbBlockBegin
  2
*D8
 70
     1
 71
     0
 10
0.0
 20
0.0
 30
0.0
  3
*D8
  1

  0
LINE
  5
2F7
330
2F5
100
AcDbEntity
  8
$$$S$$
  6
Continuous
 62
     2
100
AcDbLine
 10
8638.33566
 20
-13678.80639
 30
0.0
 11
8805.49363
 21
-13678.80639
 31
0.0
  0
LINE
  5
2F8
330
2F5
100
AcDbEntity
  8
$$$S$$
  6
Continuous
 62
     2
100
AcDbLine
 10
8665.98567
 20
-14228.80639
 30
0.0
 11
8805.49363
 21
-14228.80639
 31
0.0
  0
LINE
  5
2F9
330
2F5
100
AcDbEntity
  8
$$$S$$
  6
Continuous
 62
     2
100
AcDbLine
 10
8802.49363
 20
-13678.80639
 30
0.0
 11
8802.49363
 21
-14228.80639
 31
0.0
  0
SOLID
  5
2FA
330
2F5
100
AcDbEntity
  8
$$$S$$
  6
Continuous
 62
     2
100
AcDbTrace
 10
8800.24363
 20
-13693.80639
 30
0.0
 11
8802.49363
 21
-13678.80639
 31
0.0
 12
8804.74363
 22
-13693.80639
 32
0.0
 13
8804.74363
 23
-13693.80639
 33
0.0
  0
SOLID
  5
2FB
330
2F5
100
AcDbEntity
  8
$$$S$$
  6
Continuous
 62
     2
100
AcDbTrace
 10
8804.74363
 20
-14213.80639
 30
0.0
 11
8802.49363
 21
-14228.80639
 31
0.0
 12
8800.24363
 22
-14213.80639
 32
0.0
 13
8800.24363
 23
-14213.80639
 33
0.0
  0
MTEXT
  5
2FC
330
2F5
100
AcDbEntity
  8
$$$S$$
  6
Continuous
 62
     2
100
AcDbMText
 10
8794.99363
 20
-13990.8
 30
0.0
 40
15.0
 41
221.87007
 71
     4
 72
     1
  1
{\A0;550 1/2 {0-3}
  7
BIGFONT
 11
0.0
 21
1.0
 31
0.0
 73
     1
 44
1.0
  0
POINT
  5
2FD
330
2F5
100
AcDbEntity
  8
DEFPOINTS
  6
ByBlock
 62
     0
100
AcDbPoint
 10
8802.493632
 20
-13678.806394
 30
0.0
  0
POINT
  5
2FE
330
2F5
100
AcDbEntity
  8
DEFPOINTS
  6
ByBlock
 62
     0
100
AcDbPoint
 10
8658.485666
 20
-14228.806393
 30
0.0
  0
POINT
  5
2FF
330
2F5
100
AcDbEntity
  8
DEFPOINTS
  6
ByBlock
 62
     0
100
AcDbPoint
 10
8630.835662
 20
-13678.806394
 30
0.0
  0
POINT
  5
300
330
2F5
100
AcDbEntity
  8
DEFPOINTS
  6
ByBlock
 62
     0
100
AcDbPoint
 10
8794.99363
 20
-13949.34331
 30
0.0
  0
ENDBLK
  5
301
330
2F5
100
AcDbEntity
  8
$$$S$$
  6
Continuous
 62
     2
100
AcDbBlockEnd
  0
BLOCK
  5
304
330
303
100
AcDbEntity
  8
$$$$
  6
Continuous
 62
     2
100
AcDbBlockBegin
  2
*D9
 70
     1
 71
     0
 10
0.0
 20
0.0
 30
0.0
  3
*D9
  1

  0
LINE
  5
305
330
303
100
AcDbEntity
  8
$$$$
  6
Continuous
 62
     2
100
AcDbLine
 10
8220.73565
 20
-13711.63135
 30
0.0
 11
8220.73565
 21
-13642.84319
 31
0.0
  0
LINE
  5
306
330
303
100
AcDbEntity
  8
$$$$
  6
Continuous
 62
     2
100
AcDbLine
 10
8687.73566
 20
-13711.63135
 30
0.0
 11
8687.73566
 21
-13642.84319
 31
0.0
  0
LINE
  5
307
330
303
100
AcDbEntity
  8
$$$$
  6
Continuous
 62
     2
100
AcDbLine
 10
8220.73565
 20
-13645.84319
 30
0.0
 11
8687.73566
 21
-13645.84319
 31
0.0
  0
SOLID
  5
308
330
303
100
AcDbEntity
  8
$$$$
  6
Continuous
 62
     2
100
AcDbTrace
 10
8235.73565
 20
-13648.09319
 30
0.0
 11
8220.73565
 21
-13645.84319
 31
0.0
 12
8235.73565
 22
-13643.59319
 32
0.0
 13
8235.73565
 23
-13643.59319
 33
0.0
  0
SOLID
  5
309
330
303
100
AcDbEntity
  8
$$$$
  6
Continuous
 62
     2
100
AcDbTrace
 10
8672.73566
 20
-13643.59319
 30
0.0
 11
8687.73566
 21
-13645.84319
 31
0.0
 12
8672.73566
 22
-13648.09319
 32
0.0
 13
8672.73566
 23
-13648.09319
 33
0.0
  0
MTEXT
  5
30A
330
303
100
AcDbEntity
  8
$$$$
  6
Continuous
 62
     2
100
AcDbMText
 10
8440.9541
 20
-13638.34319
 30
0.0
 40
15.0
 41
186.555105
 71
     4
 72
     1
  1
{\A0;467 1/2 }2}
  7
BIGFONT
 73
     1
 44
1.0
  0
POINT
  5
30B
330
303
100
AcDbEntity
  8
DEFPOINTS
  6
ByBlock
 62
     0
100
AcDbPoint
 10
8220.73565
 20
-13645.84319
 30
0.0
  0
POINT
  5
30C
330
303
100
AcDbEntity
  8
DEFPOINTS
  6
ByBlock
 62
     0
100
AcDbPoint
 10
8687.73566
 20
-13719.13135
 30
0.0
  0
POINT
  5
30D
330
303
100
AcDbEntity
  8
DEFPOINTS
  6
ByBlock
 62
     0
100
AcDbPoint
 10
8220.73565
 20
-13719.13135
 30
0.0
  0
POINT
  5
30E
330
303
100
AcDbEntity
  8
DEFPOINTS
  6
ByBlock
 62
     0
100
AcDbPoint
 10
8470.639135
 20
-13638.34319
 30
0.0
  0
ENDBLK
  5
30F
330
303
100
AcDbEntity
  8
$$$$
  6
Continuous
 62
     2
100
AcDbBlockEnd
  0
BLOCK
  5
312
330
311
100
AcDbEntity
  8
$$$$
  6
Continuous
 62
     2
100
AcDbBlockBegin
  2
*D10
 70
     1
 71
     0
 10
0.0
 20
0.0
 30
0.0
  3
*D10
  1

  0
LINE
  5
313
330
311
100
AcDbEntity
  8
$$$$
  6
Continuous
 62
     2
100
AcDbLine
 10
9061.67503
 20
-13713.77805
 30
0.0
 11
9061.67503
 21
-13645.30871
 31
0.0
  0
LINE
  5
314
330
311
100
AcDbEntity
  8
$$$$
  6
Continuous
 62
     2
100
AcDbLine
 10
9452.47503
 20
-13713.24915
 30
0.0
 11
9452.47503
 21
-13645.30871
 31
0.0
  0
LINE
  5
315
330
311
100
AcDbEntity
  8
$$$$
  6
Continuous
 62
     2
100
AcDbLine
 10
9061.67503
 20
-13648.30871
 30
0.0
 11
9452.47503
 21
-13648.30871
 31
0.0
  0
SOLID
  5
316
330
311
100
AcDbEntity
  8
$$$$
  6
Continuous
 62
     2
100
AcDbTrace
 10
9076.67503
 20
-13650.55871
 30
0.0
 11
9061.67503
 21
-13648.30871
 31
0.0
 12
9076.67503
 22
-13646.05871
 32
0.0
 13
9076.67503
 23
-13646.05871
 33
0.0
  0
SOLID
  5
317
330
311
100
AcDbEntity
  8
$$$$
  6
Continuous
 62
     2
100
AcDbTrace
 10
9437.47503
 20
-13646.05871
 30
0.0
 11
9452.47503
 21
-13648.30871
 31
0.0
 12
9437.47503
 22
-13650.55871
 32
0.0
 13
9437.47503
 23
-13650.55871
 33
0.0
  0
MTEXT
  5
318
330
311
100
AcDbEntity
  8
$$$$
  6
Continuous
 62
     2
100
AcDbMText
 10
9235.07735
 20
-13640.80871
 30
0.0
 40
15.0
 41
179.799195
 71
     4
 72
     1
  1
{\A0;391 1/2 }2}
  7
BIGFONT
 73
     1
 44
1.0
  0
POINT
  5
319
330
311
100
AcDbEntity
  8
DEFPOINTS
  6
ByBlock
 62
     0
100
AcDbPoint
 10
9061.675035
 20
-13648.30871
 30
0.0
  0
POINT
  5
31A
330
311
100
AcDbEntity
  8
DEFPOINTS
  6
ByBlock
 62
     0
100
AcDbPoint
 10
9452.475035
 20
-13720.74915
 30
0.0
  0
POINT
  5
31B
330
311
100
AcDbEntity
  8
DEFPOINTS
  6
ByBlock
 62
     0
100
AcDbPoint
 10
9061.675035
 20
-13721.27805
 30
0.0
  0
POINT
  5
31C
330
311
100
AcDbEntity
  8
DEFPOINTS
  6
ByBlock
 62
     0
100
AcDbPoint
 10
9262.510415
 20
-13640.80871
 30
0.0
  0
ENDBLK
  5
31D
330
311
100
AcDbEntity
  8
$$$$
  6
Continuous
 62
     2
100
AcDbBlockEnd
  0
BLOCK
  5
320
330
31F
100
AcDbEntity
  8
1
  6
Continuous
 62
     7
100
AcDbBlockBegin
  2
*U11
 70
     1
 71
     0
 10
0.0
 20
0.0
 30
0.0
  3
*U11
  1

  0
ELLIPSE
  5
321
330
31F
100
AcDbEntity
  8
1
  6
Continuous
 62
     7
100
AcDbEllipse
 10
8.630661
 20
7.116228
 30
0.0
 11
-6.643012500000001
 21
11.50603516531514
 31
0.0
210
0.0
220
0.0
230
1.0
 40
0.57735
 41
3.141592653589793
 42
3.618413260020244
  0
ELLIPSE
  5
322
330
31F
100
AcDbEntity
  8
1
  6
Continuous
 62
     7
100
AcDbEllipse
 10
-8.070918
 20
-2.526433
 30
0.0
 11
-6.643012500000001
 21
11.50603516531514
 31
0.0
210
0.0
220
0.0
230
1.0
 40
0.57735
 41
0.0
 42
6.283175307179587
  0
LINE
  5
323
330
31F
100
AcDbEntity
  8
1
  6
Continuous
 62
     7
100
AcDbLine
 10
-12.974176
 20
9.984075
 30
0.0
 11
-14.713957
 21
8.979586
 31
0.0
  0
LINE
  5
324
330
31F
100
AcDbEntity
  8
1
  6
Continuous
 62
     7
100
AcDbLine
 10
-10.132935
 20
14.654851
 30
0.0
 11
-14.286376
 21
12.256871
 31
0.0
  0
ELLIPSE
  5
325
330
31F
100
AcDbEntity
  8
1
  6
Continuous
 62
     7
100
AcDbEllipse
 10
-6.331171
 20
-1.521989
 30
0.0
 11
7.955212500000004
 21
-13.77883223500703
 31
0.0
210
0.0
220
0.0
230
1.0
 40
0.57735
 41
0.7853981633974483
 42
3.926990816987241
  0
LINE
  5
326
330
31F
100
AcDbEntity
  8
1
  6
Continuous
 62
     7
100
AcDbLine
 10
4.91918
 20
-8.017406
 30
0.0
 11
3.063466
 21
-6.945995
 31
0.0
  0
LINE
  5
327
330
31F
100
AcDbEntity
  8
1
  6
Continuous
 62
     7
100
AcDbLine
 10
-17.303059
 20
4.812629
 30
0.0
 11
-17.581508
 21
4.973439
 31
0.0
  0
LINE
  5
328
330
31F
100
AcDbEntity
  8
1
  6
Continuous
 62
     7
100
AcDbLine
 10
-1.427932
 20
-14.032465
 30
0.0
 11
15.273684
 21
-4.389829
 31
0.0
  0
LINE
  5
329
330
31F
100
AcDbEntity
  8
1
  6
Continuous
 62
     7
100
AcDbLine
 10
17.027833
 20
-1.026464
 30
0.0
 11
4.91918
 21
-8.017406
 31
0.0
  0
ELLIPSE
  5
32A
330
31F
100
AcDbEntity
  8
1
  6
Continuous
 62
     7
100
AcDbEllipse
 10
-6.331171
 20
-1.521989
 30
0.0
 11
-6.643012500000006
 21
11.50603516531515
 31
0.0
210
0.0
220
0.0
230
1.0
 40
0.57735
 41
3.926990816987241
 42
6.283185307179586
  0
ENDBLK
  5
32B
330
31F
100
AcDbEntity
  8
1
  6
Continuous
 62
     7
100
AcDbBlockEnd
  0
BLOCK
  5
32E
330
32D
100
AcDbEntity
  8
1
  6
Continuous
 62
     7
100
AcDbBlockBegin
  2
*U12
 70
     1
 71
     0
 10
0.0
 20
0.0
 30
0.0
  3
*U12
  1

  0
LINE
  5
32F
330
32D
100
AcDbEntity
  8
1
  6
Continuous
 62
     7
100
AcDbLine
 10
2.011412
 20
-2.626744
 30
0.0
 11
1.640257
 21
-2.841027
 31
0.0
  0
ELLIPSE
  5
330
330
32D
100
AcDbEntity
  8
1
  6
Continuous
 62
     7
100
AcDbEllipse
 10
0.371156
 20
0.214278
 30
0.0
 11
-1.640250000000001
 21
2.840996337114852
 31
0.0
210
0.0
220
0.0
230
0.9999999999999999
 40
0.57735
 41
0.1133798364612151
 42
3.028212817128578
  0
ELLIPSE
  5
331
330
32D
100
AcDbEntity
  8
1
  6
Continuous
 62
     7
100
AcDbEllipse
 10
0.00001
 20
-0.000003
 30
0.0
 11
-1.640250000000001
 21
2.840996337114852
 31
0.0
210
0.0
220
0.0
230
0.9999999999999999
 40
0.57735
 41
0.0
 42
6.283175307179587
  0
ENDBLK
  5
332
330
32D
100
AcDbEntity
  8
1
  6
Continuous
 62
     7
100
AcDbBlockEnd
  0
ENDSEC
  0
SECTION
  2
ENTITIES
  0
LINE
  5
29
330
A
100
AcDbEntity
  8
1
  6
Continuous
 62
     3
100
AcDbLine
 10
8039.32491
 20
-14345.60343
 30
0.0
 11
8921.32197
 21
-14345.60343
 31
0.0
  0
TEXT
  5
2B
330
A
100
AcDbEntity
  8
1
  6
Continuous
 62
     3
100
AcDbText
 10
9502.86976
 20
-14301.38341
 30
0.0
 40
24.0
  1
設　計
 41
0.75
  7
BIGFONT
100
AcDbText
  0
TEXT
  5
2C
330
A
100
AcDbEntity
  8
1
  6
Continuous
 62
     3
100
AcDbText
 10
8947.68484
 20
-14410.40342
 30
0.0
 40
24.0
  1
作 成 年 月 日
 41
0.75
  7
BIGFONT
100
AcDbText
  0
TEXT
  5
2D
330
A
100
AcDbEntity
  8
1
  6
Continuous
 62
     3
100
AcDbText
 10
9933.72736
 20
-14302.51021
 30
0.0
 40
24.0
  1
尺　度
 41
0.75
  7
BIGFONT
100
AcDbText
  0
TEXT
  5
2E
330
A
100
AcDbEntity
  8
1
  6
Continuous
 62
     3
100
AcDbText
 10
9677.8783
 20
-14302.82617
 30
0.0
 40
24.0
  1
材　質
 41
0.75
  7
BIGFONT
100
AcDbText
  0
TEXT
  5
2F
330
A
100
AcDbEntity
  8
1
  6
Continuous
 62
     3
100
AcDbText
 10
9777.11416
 20
-14302.79527
 30
0.0
 40
24.0
  1
仕　上
 41
0.75
  7
BIGFONT
100
AcDbText
  0
TEXT
  5
30
330
A
100
AcDbEntity
  8
1
  6
Continuous
 62
     3
100
AcDbText
 10
9856.53238
 20
-14303.54599
 30
0.0
 40
24.0
  1
数 / 台
 41
0.5
  7
BIGFONT
100
AcDbText
  0
TEXT
  5
31
330
A
100
AcDbEntity
  8
1
  6
Continuous
 62
     3
100
AcDbText
 10
8075.02174
 20
-14372.02063
 30
0.0
 40
24.0
  1
版
 41
0.75
  7
BIGFONT
100
AcDbText
  0
TEXT
  5
32
330
A
100
AcDbEntity
  8
1
  6
Continuous
 62
     3
100
AcDbText
 10
8137.86268
 20
-14372.02063
 30
0.0
 40
24.0
  1
変更年月日
 41
0.75
  7
BIGFONT
100
AcDbText
  0
TEXT
  5
33
330
A
100
AcDbEntity
  8
1
  6
Continuous
 62
     3
100
AcDbText
 10
8252.43472
 20
-14371.67749
 30
0.0
 40
24.0
  1
設　計
 41
0.75
  7
BIGFONT
100
AcDbText
  0
TEXT
  5
34
330
A
100
AcDbEntity
  8
1
  6
Continuous
 62
     3
100
AcDbText
 10
8535.71302
 20
-14370.77377
 30
0.0
 40
24.0
  1
変　更　内　容
 41
0.75
  7
BIGFONT
100
AcDbText
  0
LINE
  5
35
330
A
100
AcDbEntity
  8
1
  6
Continuous
 62
     3
100
AcDbLine
 10
8135.32491
 20
-14273.60343
 30
0.0
 11
8135.32491
 21
-14380.40343
 31
0.0
  0
LINE
  5
36
330
A
100
AcDbEntity
  8
1
  6
Continuous
 62
     3
100
AcDbLine
 10
8231.32491
 20
-14273.60343
 30
0.0
 11
8231.32491
 21
-14380.40343
 31
0.0
  0
LINE
  5
37
330
A
100
AcDbEntity
  8
1
  6
Continuous
 62
     3
100
AcDbLine
 10
8327.32491
 20
-14273.60343
 30
0.0
 11
8327.32491
 21
-14380.40343
 31
0.0
  0
TEXT
  5
38
330
A
100
AcDbEntity
  8
1
  6
Continuous
 62
     3
100
AcDbText
 10
9583.9906
 20
-14303.14051
 30
0.0
 40
24.0
  1
公　差
 41
0.75
  7
BIGFONT
100
AcDbText
  0
TEXT
  5
39
330
A
100
AcDbEntity
  8
1
  6
Continuous
 62
     3
100
AcDbText
 10
9428.58088
 20
-14302.79527
 30
0.0
 40
24.0
  1
製　図
 41
0.75
  7
BIGFONT
100
AcDbText
  0
TEXT
  5
3A
330
A
100
AcDbEntity
  8
1
  6
Continuous
 62
     3
100
AcDbText
 10
9357.91492
 20
-14302.79527
 30
0.0
 40
24.0
  1
検　図
 41
0.75
  7
BIGFONT
100
AcDbText
  0
TEXT
  5
3B
330
A
100
AcDbEntity
  8
1
  6
Continuous
 62
     3
100
AcDbText
 10
9284.91136
 20
-14302.82617
 30
0.0
 40
24.0
  1
課　長
 41
0.75
  7
BIGFONT
100
AcDbText
  0
TEXT
  5
3C
330
A
100
AcDbEntity
  8
1
  6
Continuous
 62
     3
100
AcDbText
 10
9036.69856
 20
-14302.87015
 30
0.0
 40
24.0
  1
図　名
 41
0.75
  7
BIGFONT
100
AcDbText
  0
TEXT
  5
3D
330
A
100
AcDbEntity
  8
1
  6
Continuous
 62
     3
100
AcDbText
 10
9668.12416
 20
-14406.05545
 30
0.0
 40
24.0
  1
商
 41
0.75
  7
BIGFONT
100
AcDbText
  0
TEXT
  5
3E
330
A
100
AcDbEntity
  8
1
  6
Continuous
 62
     3
100
AcDbText
 10
9667.77916
 20
-14430.71269
 30
0.0
 40
24.0
  1
品
 41
0.75
  7
BIGFONT
100
AcDbText
  0
TEXT
  5
3F
330
A
100
AcDbEntity
  8
1
  6
Continuous
 62
     3
100
AcDbText
 10
9666.7441
 20
-14451.91753
 30
0.0
 40
24.0
  1
名
 41
0.75
  7
BIGFONT
100
AcDbText
  0
LINE
  5
40
330
A
100
AcDbEntity
  8
1
  6
Continuous
 62
     3
100
AcDbLine
 10
8039.32491
 20
-14309.60343
 30
0.0
 11
9997.12197
 21
-14309.60343
 31
0.0
  0
LINE
  5
41
330
A
100
AcDbEntity
  8
1
  6
Continuous
 62
     3
100
AcDbLine
 10
8039.32491
 20
-14380.40343
 30
0.0
 11
9997.12197
 21
-14380.40343
 31
0.0
  0
TEXT
  5
42
330
A
100
AcDbEntity
  8
1
  6
Continuous
 62
     3
100
AcDbText
 10
9391.1899
 20
-14406.40939
 30
0.0
 40
24.0
  1
部
 41
0.75
  7
BIGFONT
100
AcDbText
  0
TEXT
  5
43
330
A
100
AcDbEntity
  8
1
  6
Continuous
 62
     3
100
AcDbText
 10
9391.1899
 20
-14430.37615
 30
0.0
 40
24.0
  1
品
 41
0.75
  7
BIGFONT
100
AcDbText
  0
TEXT
  5
44
330
A
100
AcDbEntity
  8
1
  6
Continuous
 62
     3
100
AcDbText
 10
9389.80978
 20
-14452.27153
 30
0.0
 40
24.0
  1
名
 41
0.75
  7
BIGFONT
100
AcDbText
  0
LINE
  5
45
330
A
100
AcDbEntity
  8
1
  6
Continuous
 62
     3
100
AcDbLine
 10
9902.23185
 20
-14330.34489
 30
0.0
 11
9874.35699
 21
-14357.75523
 31
0.0
  0
LINE
  5
46
330
A
100
AcDbEntity
  8
1
  6
Continuous
 62
     3
100
AcDbLine
 10
9923.32197
 20
-14380.40343
 30
0.0
 11
9923.32197
 21
-14273.60343
 31
0.0
  0
LINE
  5
47
330
A
100
AcDbEntity
  8
1
  6
Continuous
 62
     3
100
AcDbLine
 10
9851.32197
 20
-14380.40343
 30
0.0
 11
9851.32197
 21
-14273.60343
 31
0.0
  0
LINE
  5
48
330
A
100
AcDbEntity
  8
1
  6
Continuous
 62
     3
100
AcDbLine
 10
9755.32197
 20
-14380.40343
 30
0.0
 11
9755.32197
 21
-14273.60343
 31
0.0
  0
LINE
  5
49
330
A
100
AcDbEntity
  8
1
  6
Continuous
 62
     3
100
AcDbLine
 10
9659.32197
 20
-14454.20343
 30
0.0
 11
9659.32197
 21
-14273.60343
 31
0.0
  0
LINE
  5
4A
330
A
100
AcDbEntity
  8
1
  6
Continuous
 62
     3
100
AcDbLine
 10
9563.32197
 20
-14380.40343
 30
0.0
 11
9563.32197
 21
-14273.60343
 31
0.0
  0
LINE
  5
4B
330
A
100
AcDbEntity
  8
1
  6
Continuous
 62
     3
100
AcDbLine
 10
9491.32197
 20
-14380.40343
 30
0.0
 11
9491.32197
 21
-14273.60343
 31
0.0
  0
LINE
  5
4C
330
A
100
AcDbEntity
  8
1
  6
Continuous
 62
     3
100
AcDbLine
 10
9419.32197
 20
-14454.20343
 30
0.0
 11
9419.32197
 21
-14273.60343
 31
0.0
  0
LINE
  5
4D
330
A
100
AcDbEntity
  8
1
  6
Continuous
 62
     3
100
AcDbLine
 10
9347.32197
 20
-14380.40343
 30
0.0
 11
9347.32197
 21
-14273.60343
 31
0.0
  0
LINE
  5
4E
330
A
100
AcDbEntity
  8
1
  6
Continuous
 62
     3
100
AcDbLine
 10
9203.32197
 20
-14454.20343
 30
0.0
 11
9203.32197
 21
-14273.60343
 31
0.0
  0
LINE
  5
4F
330
A
100
AcDbEntity
  8
1
  6
Continuous
 62
     3
100
AcDbLine
 10
8921.32197
 20
-14454.20343
 30
0.0
 11
8921.32197
 21
-14273.60343
 31
0.0
  0
LINE
  5
50
330
A
100
AcDbEntity
  8
1
  6
Continuous
 62
     3
100
AcDbLine
 10
9275.32197
 20
-14380.40343
 30
0.0
 11
9275.32197
 21
-14273.60343
 31
0.0
  0
LINE
  5
51
330
A
100
AcDbEntity
  8
1
  6
Continuous
 62
     3
100
AcDbLine
 10
9383.32197
 20
-14452.40343
 30
0.0
 11
9383.32197
 21
-14380.40343
 31
0.0
  0
LINE
  5
52
330
A
100
AcDbEntity
  8
1
  6
Continuous
 62
     3
100
AcDbLine
 10
9695.32197
 20
-14454.20343
 30
0.0
 11
9695.32197
 21
-14381.60343
 31
0.0
  0
TEXT
  5
53
330
A
100
AcDbEntity
  8
1
  6
Continuous
 62
     3
100
AcDbText
 10
8229.80008
 20
-14428.08889
 30
0.0
 40
24.0
  1
オ ー ク ス 株 式 会 社
 41
0.75
  7
BIGFONT
100
AcDbText
  0
LINE
  5
54
330
A
100
AcDbEntity
  8
1
  6
Continuous
 62
     3
100
AcDbLine
 10
8039.32491
 20
-14273.60343
 30
0.0
 11
8039.32491
 21
-14454.20343
 31
0.0
  0
LINE
  5
55
330
A
100
AcDbEntity
  8
1
  6
Continuous
 62
     3
100
AcDbLine
 10
8039.32491
 20
-14273.60343
 30
0.0
 11
9997.12197
 21
-14273.60343
 31
0.0
  0
LINE
  5
56
330
A
100
AcDbEntity
  8
1
  6
Continuous
 62
     3
100
AcDbLine
 10
7749.52491
 20
-12973.40583
 30
0.0
 11
7749.52491
 21
-14454.20343
 31
0.0
  0
LINE
  5
57
330
A
100
AcDbEntity
  8
1
  6
Continuous
 62
     3
100
AcDbLine
 10
9997.12197
 20
-12973.40583
 30
0.0
 11
7749.52491
 21
-12973.40583
 31
0.0
  0
LINE
  5
58
330
A
100
AcDbEntity
  8
1
  6
Continuous
 62
     3
100
AcDbLine
 10
9997.12197
 20
-14454.20343
 30
0.0
 11
9997.12197
 21
-12973.40583
 31
0.0
  0
LINE
  5
59
330
A
100
AcDbEntity
  8
1
  6
Continuous
 62
     3
100
AcDbLine
 10
7749.52491
 20
-14454.20343
 30
0.0
 11
9997.12197
 21
-14454.20343
 31
0.0
  0
LINE
  5
5A
330
A
100
AcDbEntity
  8
1
  6
Continuous
 62
     3
100
AcDbLine
 10
8101.40361
 20
-14444.20935
 30
0.0
 11
8218.53777
 21
-14444.20935
 31
0.0
  0
LINE
  5
5B
330
A
100
AcDbEntity
  8
1
  6
Continuous
 62
     3
100
AcDbLine
 10
8218.53777
 20
-14388.93951
 30
0.0
 11
8101.40361
 21
-14388.93951
 31
0.0
  0
LINE
  5
5C
330
A
100
AcDbEntity
  8
1
  6
Continuous
 62
     3
100
AcDbLine
 10
8101.40361
 20
-14388.93951
 30
0.0
 11
8101.40361
 21
-14444.20935
 31
0.0
  0
LINE
  5
5D
330
A
100
AcDbEntity
  8
1
  6
Continuous
 62
     3
100
AcDbLine
 10
8155.84833
 20
-14411.12061
 30
0.0
 11
8155.84833
 21
-14436.58605
 31
0.0
  0
LINE
  5
5E
330
A
100
AcDbEntity
  8
1
  6
Continuous
 62
     3
100
AcDbLine
 10
8142.97197
 20
-14426.71293
 30
0.0
 11
8142.97197
 21
-14402.82621
 31
0.0
  0
LINE
  5
5F
330
A
100
AcDbEntity
  8
1
  6
Continuous
 62
     3
100
AcDbLine
 10
8167.69491
 20
-14426.71293
 30
0.0
 11
8167.69491
 21
-14402.82621
 31
0.0
  0
LINE
  5
60
330
A
100
AcDbEntity
  8
1
  6
Continuous
 62
     3
100
AcDbLine
 10
8147.11917
 20
-14429.95053
 30
0.0
 11
8147.11917
 21
-14406.97341
 31
0.0
  0
ARC
  5
61
330
A
100
AcDbEntity
  8
1
  6
Continuous
 62
     3
100
AcDbCircle
 10
8155.333437
 20
-14426.712933
 30
0.0
 40
12.361478
100
AcDbArc
 50
180.000006
 51
0.000011
  0
LINE
  5
62
330
A
100
AcDbEntity
  8
1
  6
Continuous
 62
     3
100
AcDbLine
 10
8216.37777
 20
-14402.82621
 30
0.0
 11
8199.75207
 21
-14402.82621
 31
0.0
  0
ARC
  5
63
330
A
100
AcDbEntity
  8
1
  6
Continuous
 62
     3
100
AcDbCircle
 10
8142.971959
 20
-14406.973455
 30
0.0
 40
4.1472
100
AcDbArc
 50
0.0
 51
90.000003
  0
LINE
  5
64
330
A
100
AcDbEntity
  8
1
  6
Continuous
 62
     3
100
AcDbLine
 10
8153.75469
 20
-14436.58605
 30
0.0
 11
8155.84833
 21
-14436.58605
 31
0.0
  0
ARC
  5
65
330
A
100
AcDbEntity
  8
1
  6
Continuous
 62
     3
100
AcDbCircle
 10
8153.754679
 20
-14429.950571
 30
0.0
 40
6.63552
100
AcDbArc
 50
180.000006
 51
270.000008
  0
ARC
  5
66
330
A
100
AcDbEntity
  8
1
  6
Continuous
 62
     3
100
AcDbCircle
 10
8164.142755
 20
-14411.120655
 30
0.0
 40
8.2944
100
AcDbArc
 50
90.000003
 51
180.000006
  0
LINE
  5
67
330
A
100
AcDbEntity
  8
1
  6
Continuous
 62
     3
100
AcDbLine
 10
8167.69491
 20
-14402.82621
 30
0.0
 11
8181.73665
 21
-14420.28849
 31
0.0
  0
LINE
  5
68
330
A
100
AcDbEntity
  8
1
  6
Continuous
 62
     3
100
AcDbLine
 10
8173.01661
 20
-14402.82621
 30
0.0
 11
8184.39747
 21
-14416.97949
 31
0.0
  0
LINE
  5
69
330
A
100
AcDbEntity
  8
1
  6
Continuous
 62
     3
100
AcDbLine
 10
8200.21767
 20
-14410.67853
 30
0.0
 11
8195.29383
 21
-14416.80189
 31
0.0
  0
LINE
  5
6A
330
A
100
AcDbEntity
  8
1
  6
Continuous
 62
     3
100
AcDbLine
 10
8164.14273
 20
-14402.82621
 30
0.0
 11
8173.01661
 21
-14402.82621
 31
0.0
  0
LINE
  5
6B
330
A
100
AcDbEntity
  8
1
  6
Continuous
 62
     3
100
AcDbLine
 10
8126.97819
 20
-14430.77997
 30
0.0
 11
8126.97819
 21
-14425.26579
 31
0.0
  0
LINE
  5
6C
330
A
100
AcDbEntity
  8
1
  6
Continuous
 62
     3
100
AcDbLine
 10
8114.10183
 20
-14406.89331
 30
0.0
 11
8114.10183
 21
-14415.35475
 31
0.0
  0
LINE
  5
6D
330
A
100
AcDbEntity
  8
1
  6
Continuous
 62
     3
100
AcDbLine
 10
8138.82477
 20
-14406.89331
 30
0.0
 11
8138.82477
 21
-14434.92717
 31
0.0
  0
LINE
  5
6E
330
A
100
AcDbEntity
  8
1
  6
Continuous
 62
     3
100
AcDbLine
 10
8118.24903
 20
-14403.65565
 30
0.0
 11
8118.24903
 21
-14414.79447
 31
0.0
  0
ARC
  5
6F
330
A
100
AcDbEntity
  8
1
  6
Continuous
 62
     3
100
AcDbCircle
 10
8126.463281
 20
-14406.893333
 30
0.0
 40
12.361478
100
AcDbArc
 50
0.0
 51
180.000006
  0
ARC
  5
70
330
A
100
AcDbEntity
  8
1
  6
Continuous
 62
     3
100
AcDbCircle
 10
8114.101803
 20
-14434.927211
 30
0.0
 40
4.1472
100
AcDbArc
 50
270.000008
 51
0.000011
  0
LINE
  5
71
330
A
100
AcDbEntity
  8
1
  6
Continuous
 62
     3
100
AcDbLine
 10
8124.88455
 20
-14397.02013
 30
0.0
 11
8126.97819
 21
-14397.02013
 31
0.0
  0
ARC
  5
72
330
A
100
AcDbEntity
  8
1
  6
Continuous
 62
     3
100
AcDbCircle
 10
8124.884523
 20
-14403.655695
 30
0.0
 40
6.63552
100
AcDbArc
 50
90.000003
 51
180.000006
  0
ARC
  5
73
330
A
100
AcDbEntity
  8
1
  6
Continuous
 62
     3
100
AcDbCircle
 10
8135.272599
 20
-14430.780011
 30
0.0
 40
8.2944
100
AcDbArc
 50
180.000006
 51
270.000008
  0
LINE
  5
74
330
A
100
AcDbEntity
  8
1
  6
Continuous
 62
     3
100
AcDbLine
 10
8135.27259
 20
-14439.07437
 30
0.0
 11
8144.63085
 21
-14439.07437
 31
0.0
  0
LINE
  5
75
330
A
100
AcDbEntity
  8
1
  6
Continuous
 62
     3
100
AcDbLine
 10
8166.63057
 20
-14439.07437
 30
0.0
 11
8175.39723
 21
-14439.07437
 31
0.0
  0
LINE
  5
76
330
A
100
AcDbEntity
  8
1
  6
Continuous
 62
     3
100
AcDbLine
 10
8196.84267
 20
-14439.07437
 30
0.0
 11
8202.16437
 21
-14439.07437
 31
0.0
  0
ARC
  5
77
330
A
100
AcDbEntity
  8
1
  6
Continuous
 62
     3
100
AcDbCircle
 10
8118.683799
 20
-14425.265786
 30
0.0
 40
8.2944
100
AcDbArc
 50
0.0
 51
93.004847
  0
ARC
  5
78
330
A
100
AcDbEntity
  8
1
  6
Continuous
 62
     3
100
AcDbCircle
 10
8120.114188
 20
-14444.229744
 30
0.0
 40
29.494307
100
AcDbArc
 50
76.542547
 51
93.625739
  0
LINE
  5
79
330
A
100
AcDbEntity
  8
1
  6
Continuous
 62
     3
100
AcDbLine
 10
8126.97819
 20
-14415.54525
 30
0.0
 11
8126.97819
 21
-14397.02013
 31
0.0
  0
LINE
  5
7A
330
A
100
AcDbEntity
  8
1
  6
Continuous
 62
     3
100
AcDbLine
 10
8118.24903
 20
-14416.98279
 30
0.0
 11
8118.24903
 21
-14434.92717
 31
0.0
  0
LINE
  5
7B
330
A
100
AcDbEntity
  8
1
  6
Continuous
 62
     3
100
AcDbLine
 10
8114.10183
 20
-14417.38125
 30
0.0
 11
8114.10183
 21
-14439.07437
 31
0.0
  0
ARC
  5
7C
330
A
100
AcDbEntity
  8
1
  6
Continuous
 62
     3
100
AcDbCircle
 10
8120.114188
 20
-14444.229744
 30
0.0
 40
29.494307
100
AcDbArc
 50
101.762131
 51
129.37395
  0
ARC
  5
7D
330
A
100
AcDbEntity
  8
1
  6
Continuous
 62
     3
100
AcDbCircle
 10
8120.114188
 20
-14458.175449
 30
0.0
 40
41.234865
100
AcDbArc
 50
98.384092
 51
116.984931
  0
LINE
  5
7E
330
A
100
AcDbEntity
  8
1
  6
Continuous
 62
     3
100
AcDbLine
 10
8193.28821
 20
-14405.92293
 30
0.0
 11
8184.39747
 21
-14416.97949
 31
0.0
  0
LINE
  5
7F
330
A
100
AcDbEntity
  8
1
  6
Continuous
 62
     3
100
AcDbLine
 10
8216.37777
 20
-14404.48509
 30
0.0
 11
8213.14533
 21
-14404.48509
 31
0.0
  0
ARC
  5
80
330
A
100
AcDbEntity
  8
1
  6
Continuous
 62
     3
100
AcDbCircle
 10
8213.145356
 20
-14421.073935
 30
0.0
 40
16.5888
100
AcDbArc
 50
90.000003
 51
141.196653
  0
ARC
  5
81
330
A
100
AcDbEntity
  8
1
  6
Continuous
 62
     3
100
AcDbCircle
 10
8199.752046
 20
-14411.120655
 30
0.0
 40
8.2944
100
AcDbArc
 50
90.000003
 51
141.196653
  0
LINE
  5
82
330
A
100
AcDbEntity
  8
1
  6
Continuous
 62
     3
100
AcDbLine
 10
8192.06193
 20
-14418.35025
 30
0.0
 11
8185.49973
 21
-14418.35025
 31
0.0
  0
ARC
  5
83
330
A
100
AcDbEntity
  8
1
  6
Continuous
 62
     3
100
AcDbCircle
 10
8192.06191
 20
-14414.203039
 30
0.0
 40
4.1472
100
AcDbArc
 50
270.000008
 51
321.196658
  0
LINE
  5
84
330
A
100
AcDbEntity
  8
1
  6
Continuous
 62
     3
100
AcDbLine
 10
8187.11337
 20
-14426.97507
 30
0.0
 11
8178.62919
 21
-14437.52601
 31
0.0
  0
ARC
  5
85
330
A
100
AcDbEntity
  8
1
  6
Continuous
 62
     3
100
AcDbCircle
 10
8175.397252
 20
-14434.927211
 30
0.0
 40
4.1472
100
AcDbArc
 50
270.000008
 51
321.196658
  0
LINE
  5
86
330
A
100
AcDbEntity
  8
1
  6
Continuous
 62
     3
100
AcDbLine
 10
8187.11337
 20
-14426.97507
 30
0.0
 11
8196.84267
 21
-14439.07437
 31
0.0
  0
LINE
  5
87
330
A
100
AcDbEntity
  8
1
  6
Continuous
 62
     3
100
AcDbLine
 10
8181.73665
 20
-14420.28849
 30
0.0
 11
8166.63057
 21
-14439.07437
 31
0.0
  0
LINE
  5
88
330
A
100
AcDbEntity
  8
1
  6
Continuous
 62
     3
100
AcDbLine
 10
8185.49973
 20
-14418.35025
 30
0.0
 11
8202.16437
 21
-14439.07437
 31
0.0
  0
LINE
  5
89
330
A
100
AcDbEntity
  8
1
  6
Continuous
 62
     3
100
AcDbLine
 10
8218.53777
 20
-14444.20935
 30
0.0
 11
8218.53777
 21
-14388.93951
 31
0.0
  0
LINE
  5
8A
330
A
100
AcDbEntity
  8
1
  6
Continuous
 62
     3
100
AcDbLine
 10
8144.63085
 20
-14437.41549
 30
0.0
 11
8144.63085
 21
-14439.07437
 31
0.0
  0
LINE
  5
8B
330
A
100
AcDbEntity
  8
1
  6
Continuous
 62
     3
100
AcDbLine
 10
8141.31309
 20
-14437.41549
 30
0.0
 11
8144.63085
 21
-14437.41549
 31
0.0
  0
ARC
  5
8C
330
A
100
AcDbEntity
  8
1
  6
Continuous
 62
     3
100
AcDbCircle
 10
8141.313079
 20
-14434.927211
 30
0.0
 40
2.48832
100
AcDbArc
 50
180.000006
 51
270.000008
  0
LINE
  5
8D
330
A
100
AcDbEntity
  8
1
  6
Continuous
 62
     3
100
AcDbLine
 10
8216.37777
 20
-14404.48509
 30
0.0
 11
8216.37777
 21
-14402.82621
 31
0.0
  0
LINE
  5
8E
330
A
100
AcDbEntity
  8
1
  6
Continuous
 62
     3
100
AcDbLine
 10
8921.32197
 20
-14416.40343
 30
0.0
 11
9383.32197
 21
-14416.40343
 31
0.0
  0
TEXT
  5
8F
330
A
100
AcDbEntity
  8
1
  6
Continuous
 62
     3
100
AcDbText
 10
9140.39122
 20
-14410.40342
 30
0.0
 40
24.0
  1
図　番
 41
0.75
  7
BIGFONT
100
AcDbText
  0
TEXT
  5
91
330
A
100
AcDbEntity
  8
1
  6
Continuous
 62
     3
100
AcDbText
 10
9141.34546
 20
-14443.40342
 30
0.0
 40
18.0
  1
CAD No
 41
0.5
  7
MONOTXT
100
AcDbText
  0
LINE
  5
92
330
A
100
AcDbEntity
  8
1
  6
Continuous
 62
     3
100
AcDbLine
 10
9997.12197
 20
-12975.20583
 30
0.0
 11
7749.52491
 21
-12975.20583
 31
0.0
  0
LINE
  5
93
330
A
100
AcDbEntity
  8
1
  6
Continuous
 62
     3
100
AcDbLine
 10
7751.32491
 20
-12973.40583
 30
0.0
 11
7751.32491
 21
-14454.20343
 31
0.0
  0
LINE
  5
94
330
A
100
AcDbEntity
  8
1
  6
Continuous
 62
     3
100
AcDbLine
 10
9995.32197
 20
-14454.20343
 30
0.0
 11
9995.32197
 21
-12973.40583
 31
0.0
  0
LINE
  5
95
330
A
100
AcDbEntity
  8
1
  6
Continuous
 62
     3
100
AcDbLine
 10
7749.52491
 20
-14452.40343
 30
0.0
 11
9997.12197
 21
-14452.40343
 31
0.0
  0
LINE
  5
96
330
A
100
AcDbEntity
  8
1
  6
Continuous
 62
     3
100
AcDbLine
 10
8039.32491
 20
-14378.60343
 30
0.0
 11
9997.12197
 21
-14378.60343
 31
0.0
  0
LINE
  5
97
330
A
100
AcDbEntity
  8
1
  6
Continuous
 62
     3
100
AcDbLine
 10
8039.32491
 20
-14275.40343
 30
0.0
 11
9997.12197
 21
-14275.40343
 31
0.0
  0
LINE
  5
98
330
A
100
AcDbEntity
  8
1
  6
Continuous
 62
     3
100
AcDbLine
 10
8041.12491
 20
-14273.60343
 30
0.0
 11
8041.12491
 21
-14454.20343
 31
0.0
  0
LINE
  5
99
330
A
100
AcDbEntity
  8
1
  6
Continuous
 62
     3
100
AcDbLine
 10
8923.12197
 20
-14454.20343
 30
0.0
 11
8923.12197
 21
-14273.60343
 31
0.0
  0
LINE
  5
9A
330
A
100
AcDbEntity
  8
1
  6
Continuous
 62
     3
100
AcDbLine
 10
9997.12197
 20
-12974.30583
 30
0.0
 11
7749.52491
 21
-12974.30583
 31
0.0
  0
LINE
  5
9B
330
A
100
AcDbEntity
  8
1
  6
Continuous
 62
     3
100
AcDbLine
 10
7750.42491
 20
-12973.40583
 30
0.0
 11
7750.42491
 21
-14454.20343
 31
0.0
  0
LINE
  5
9C
330
A
100
AcDbEntity
  8
1
  6
Continuous
 62
     3
100
AcDbLine
 10
9996.22197
 20
-14454.20343
 30
0.0
 11
9996.22197
 21
-12973.40583
 31
0.0
  0
LINE
  5
9D
330
A
100
AcDbEntity
  8
1
  6
Continuous
 62
     3
100
AcDbLine
 10
7749.52491
 20
-14453.30343
 30
0.0
 11
9997.12197
 21
-14453.30343
 31
0.0
  0
LINE
  5
9E
330
A
100
AcDbEntity
  8
1
  6
Continuous
 62
     3
100
AcDbLine
 10
8039.32491
 20
-14274.50343
 30
0.0
 11
9997.12197
 21
-14274.50343
 31
0.0
  0
LINE
  5
9F
330
A
100
AcDbEntity
  8
1
  6
Continuous
 62
     3
100
AcDbLine
 10
8040.22491
 20
-14273.60343
 30
0.0
 11
8040.22491
 21
-14454.20343
 31
0.0
  0
LINE
  5
A0
330
A
100
AcDbEntity
  8
1
  6
Continuous
 62
     3
100
AcDbLine
 10
8922.22197
 20
-14454.20343
 30
0.0
 11
8922.22197
 21
-14273.60343
 31
0.0
  0
LINE
  5
A1
330
A
100
AcDbEntity
  8
1
  6
Continuous
 62
     3
100
AcDbLine
 10
8039.32491
 20
-14379.50343
 30
0.0
 11
9997.12197
 21
-14379.50343
 31
0.0
  0
TEXT
  5
A2
330
A
100
AcDbEntity
  8
1
  6
Continuous
 62
     3
100
AcDbText
 10
8830.966879
 20
-14445.70549
 30
0.0
 40
18.0
  1
Ａ－３図面枠
 41
0.666667
  7
BIGFONT
 72
     4
 11
8872.9669
 21
-14436.70549
 31
0.0
100
AcDbText
  0
TEXT
  5
A3
330
A
100
AcDbEntity
  8
1
  6
Continuous
 62
     2
100
AcDbText
 10
9931.98787
 20
-14350.3312
 30
0.0
 40
20.0
  1
FREE
 41
0.75
  7
BIGFONT
 72
     4
 11
9959.51287
 21
-14340.3312
 31
0.0
100
AcDbText
  0
TEXT
  5
A4
330
A
100
AcDbEntity
  8
1
  6
DASHDOT
 62
     2
100
AcDbText
 10
9902.14437
 20
-14368.95632
 30
0.0
 40
20.0
  1
1
 41
0.75
  7
BIGFONT
 72
     4
 11
9904.61937
 21
-14358.95632
 31
0.0
100
AcDbText
  0
TEXT
  5
A5
330
A
100
AcDbEntity
  8
1
  6
DASHDOT
 62
     2
100
AcDbText
 10
9869.92617
 20
-14338.27894
 30
0.0
 40
20.0
  1
1
 41
0.75
  7
BIGFONT
 72
     4
 11
9872.40117
 21
-14328.27894
 31
0.0
100
AcDbText
  0
TEXT
  5
A6
330
A
100
AcDbEntity
  8
1
  6
DASHDOT
 62
     2
100
AcDbText
 10
9788.97915
 20
-14355.60342
 30
0.0
 40
20.0
  1
図中
 41
0.75
  7
BIGFONT
 72
     4
 11
9804.72915
 21
-14345.60342
 31
0.0
100
AcDbText
  0
TEXT
  5
A7
330
A
100
AcDbEntity
  8
1
  6
DASHDOT
 62
     2
100
AcDbText
 10
9693.69192
 20
-14355.60342
 30
0.0
 40
20.0
  1
図中
 41
0.75
  7
BIGFONT
 72
     4
 11
9709.44192
 21
-14345.60342
 31
0.0
100
AcDbText
  0
TEXT
  5
A8
330
A
100
AcDbEntity
  8
1
  6
DASHDOT
 62
     2
100
AcDbText
 10
9597.48847
 20
-14355.60342
 30
0.0
 40
20.0
  1
図中
 41
0.75
  7
BIGFONT
 72
     4
 11
9613.23847
 21
-14345.60342
 31
0.0
100
AcDbText
  0
TEXT
  5
A9
330
A
100
AcDbEntity
  8
1
  6
Continuous
 62
     2
100
AcDbText
 10
8986.03644
 20
-14355.936753
 30
0.0
 40
20.0
  1
外観図及び組立図
 41
0.75
  7
BIGFONT
 72
     4
 11
9056.03644
 21
-14345.60342
 31
0.0
100
AcDbText
  0
TEXT
  5
AB
330
A
100
AcDbEntity
  8
$$$$$$
  6
Continuous
 62
     2
100
AcDbText
 10
9264.05694
 20
-13001.49328
 30
0.0
 40
18.32914
  1
図　番
 41
0.75
  7
BIGFONT
100
AcDbText
  0
TEXT
  5
AC
330
A
100
AcDbEntity
  8
$$$$$$
  6
Continuous
 62
     2
100
AcDbText
 10
9180.01371
 20
-13001.49328
 30
0.0
 40
18.32914
  1
番号
 41
0.75
  7
BIGFONT
100
AcDbText
  0
TEXT
  5
AD
330
A
100
AcDbEntity
  8
$$$$$$
  6
Continuous
 62
     2
100
AcDbText
 10
9395.3299
 20
-13001.49328
 30
0.0
 40
18.32914
  1
部品名／図名
 41
0.75
  7
BIGFONT
100
AcDbText
  0
LINE
  5
AE
330
A
100
AcDbEntity
  8
1
  6
Continuous
 62
     3
100
AcDbLine
 10
9216.333283
 20
-12975.205838
 30
0.0
 11
9216.333283
 21
-13147.04156
 31
0.0
  0
LINE
  5
AF
330
A
100
AcDbEntity
  8
1
  6
Continuous
 62
     3
100
AcDbLine
 10
9353.801861
 20
-12975.205838
 30
0.0
 11
9353.801861
 21
-13147.04156
 31
0.0
  0
LINE
  5
B0
330
A
100
AcDbEntity
  8
1
  6
Continuous
 62
     3
100
AcDbLine
 10
9170.510424
 20
-13009.572982
 30
0.0
 11
9995.321976
 21
-13009.572982
 31
0.0
  0
LINE
  5
B1
330
A
100
AcDbEntity
  8
1
  6
Continuous
 62
     3
100
AcDbLine
 10
9170.510424
 20
-13043.940127
 30
0.0
 11
9995.321976
 21
-13043.940127
 31
0.0
  0
LINE
  5
B2
330
A
100
AcDbEntity
  8
1
  6
Continuous
 62
     3
100
AcDbLine
 10
9170.510424
 20
-13078.307271
 30
0.0
 11
9995.321976
 21
-13078.307271
 31
0.0
  0
LINE
  5
B3
330
A
100
AcDbEntity
  8
1
  6
Continuous
 62
     3
100
AcDbLine
 10
9170.510424
 20
-13112.674416
 30
0.0
 11
9995.321976
 21
-13112.674416
 31
0.0
  0
LINE
  5
B4
330
A
100
AcDbEntity
  8
1
  6
Continuous
 62
     3
100
AcDbLine
 10
9170.510424
 20
-13147.04156
 30
0.0
 11
9995.321976
 21
-13147.04156
 31
0.0
  0
LINE
  5
B5
330
A
100
AcDbEntity
  8
1
  6
Continuous
 62
     3
100
AcDbLine
 10
9216.333283
 20
-13009.572982
 30
0.0
 11
9674.561876
 21
-13009.572982
 31
0.0
  0
LINE
  5
B6
330
A
100
AcDbEntity
  8
1
  6
Continuous
 62
     3
100
AcDbLine
 10
9216.333283
 20
-13043.940127
 30
0.0
 11
9674.561876
 21
-13043.940127
 31
0.0
  0
LINE
  5
B7
330
A
100
AcDbEntity
  8
1
  6
Continuous
 62
     3
100
AcDbLine
 10
9216.333283
 20
-13078.307271
 30
0.0
 11
9674.561876
 21
-13078.307271
 31
0.0
  0
LINE
  5
B8
330
A
100
AcDbEntity
  8
1
  6
Continuous
 62
     3
100
AcDbLine
 10
9216.333283
 20
-13112.674416
 30
0.0
 11
9674.561876
 21
-13112.674416
 31
0.0
  0
LINE
  5
B9
330
A
100
AcDbEntity
  8
1
  6
Continuous
 62
     3
100
AcDbLine
 10
9216.333283
 20
-13147.04156
 30
0.0
 11
9674.561876
 21
-13147.04156
 31
0.0
  0
TEXT
  5
BA
330
A
100
AcDbEntity
  8
$$$$$$
  6
Continuous
 62
     2
100
AcDbText
 10
9895.39084
 20
-13001.49328
 30
0.0
 40
18.32914
  1
摘要／備考
 41
0.75
  7
BIGFONT
100
AcDbText
  0
TEXT
  5
BB
330
A
100
AcDbEntity
  8
$$$$$$
  6
Continuous
 62
     2
100
AcDbText
 10
9822.1244
 20
-13001.49328
 30
0.0
 40
18.32914
  1
個数
 41
0.75
  7
BIGFONT
100
AcDbText
  0
TEXT
  5
BC
330
A
100
AcDbEntity
  8
$$$$$$
  6
Continuous
 62
     2
100
AcDbText
 10
9832.13797
 20
-13035.86053
 30
0.0
 40
18.32923
  1
1
 41
0.749995
  7
BIGFONT
100
AcDbText
  0
TEXT
  5
BD
330
A
100
AcDbEntity
  8
$$$$$$
  6
Continuous
 62
     2
100
AcDbText
 10
9832.13797
 20
-13070.22759
 30
0.0
 40
18.32923
  1
1
 41
0.749995
  7
BIGFONT
100
AcDbText
  0
TEXT
  5
BE
330
A
100
AcDbEntity
  8
$$$$$$
  6
Continuous
 62
     2
100
AcDbText
 10
9863.7431
 20
-13035.86053
 30
0.0
 40
18.32923
  1
シルバーメタリック
 41
0.749995
  7
BIGFONT
100
AcDbText
  0
TEXT
  5
BF
330
A
100
AcDbEntity
  8
$$$$$$
  6
Continuous
 62
     2
100
AcDbText
 10
9863.7431
 20
-13070.22763
 30
0.0
 40
18.32923
  1
シルバーメタリック
 41
0.749995
  7
BIGFONT
100
AcDbText
  0
INSERT
  5
C5
330
A
100
AcDbEntity
  8
$$$$$$
  6
Continuous
 62
     3
100
AcDbBlockReference
  2
*U0
 10
9193.49347
 20
-13025.9839
 30
0.0
  0
INSERT
  5
CB
330
A
100
AcDbEntity
  8
$$$$$$
  6
Continuous
 62
     3
100
AcDbBlockReference
  2
*U1
 10
9193.49347
 20
-13060.94574
 30
0.0
  0
INSERT
  5
D1
330
A
100
AcDbEntity
  8
$$$$$$
  6
Continuous
 62
     3
100
AcDbBlockReference
  2
*U2
 10
9193.49347
 20
-13095.31299
 30
0.0
  0
TEXT
  5
D2
330
A
100
AcDbEntity
  8
$$$$$$
  6
Continuous
 62
     2
100
AcDbText
 10
9501.881867
 20
-13291.141025
 30
0.0
 40
20.12011
  1
品質管理ポイント
 41
0.857143
  7
BIGFONT
 72
     4
 11
9581.2126
 21
-13281.08097
 31
0.0
100
AcDbText
  0
LINE
  5
D3
330
A
100
AcDbEntity
  8
$$$$$$
  6
Continuous
 62
     2
100
AcDbLine
 10
9506.06907
 20
-13334.98605
 30
0.0
 11
9941.90295
 21
-13334.98605
 31
0.0
  0
LINE
  5
D4
330
A
100
AcDbEntity
  8
$$$$$$
  6
Continuous
 62
     2
100
AcDbLine
 10
9506.06907
 20
-13300.49515
 30
0.0
 11
9941.90295
 21
-13300.49515
 31
0.0
  0
LINE
  5
D5
330
A
100
AcDbEntity
  8
$$$$$$
  6
Continuous
 62
     2
100
AcDbLine
 10
9506.06907
 20
-13369.47888
 30
0.0
 11
9941.90295
 21
-13369.47888
 31
0.0
  0
TEXT
  5
D6
330
A
100
AcDbEntity
  8
$$$$$$
  6
Continuous
 62
     2
100
AcDbText
 10
9829.81075
 20
-13139.08352
 30
0.0
 40
18.32923
  1
2
 41
0.749995
  7
BIGFONT
100
AcDbText
  0
TEXT
  5
D7
330
A
100
AcDbEntity
  8
$$$$$$
  6
Continuous
 62
     2
100
AcDbText
 10
9472.5622
 20
-13363.108445
 30
0.0
 40
20.12012
  1
２、ダストボックスは変形、ワレ、成形不良なきこと。
 41
0.857133
  7
BIGFONT
 72
     4
 11
9722.9111
 21
-13352.71305
 31
0.0
100
AcDbText
  0
TEXT
  5
D8
330
A
100
AcDbEntity
  8
$$$$$$
  6
Continuous
 62
     2
100
AcDbText
 10
9360.57508
 20
-13139.08352
 30
0.0
 40
18.32923
  1
ダストボックス
 41
0.749995
  7
BIGFONT
100
AcDbText
  0
TEXT
  5
D9
330
A
100
AcDbEntity
  8
$$$$$$
  6
Continuous
 62
     2
100
AcDbText
 10
9544.45947
 20
-13070.22763
 30
0.0
 40
18.32923
  1
SPCC t0.8
 41
0.749995
  7
BIGFONT
100
AcDbText
  0
TEXT
  5
DA
330
A
100
AcDbEntity
  8
$$$$$$
  6
Continuous
 62
     2
100
AcDbText
 10
9360.57508
 20
-13035.86053
 30
0.0
 40
18.32923
  1
ワゴン本体
 41
0.749995
  7
BIGFONT
100
AcDbText
  0
TEXT
  5
DB
330
A
100
AcDbEntity
  8
$$$$$$
  6
Continuous
 62
     2
100
AcDbText
 10
9360.57508
 20
-13070.22759
 30
0.0
 40
18.32923
  1
パネル
 41
0.749995
  7
BIGFONT
100
AcDbText
  0
TEXT
  5
DC
330
A
100
AcDbEntity
  8
$$$$$$
  6
Continuous
 62
     2
100
AcDbText
 10
9544.45947
 20
-13035.86053
 30
0.0
 40
18.32923
  1
STKM,SPCC
 41
0.749995
  7
BIGFONT
100
AcDbText
  0
INSERT
  5
E2
330
A
100
AcDbEntity
  8
$$$$$$
  6
Continuous
 62
     3
100
AcDbBlockReference
  2
*U3
 10
8909.34508
 20
-13620.22155
 30
0.0
  0
INSERT
  5
E8
330
A
100
AcDbEntity
  8
$$$$$$
  6
Continuous
 62
     3
100
AcDbBlockReference
  2
*U4
 10
8909.34508
 20
-13685.2214
 30
0.0
  0
CIRCLE
  5
E9
330
A
100
AcDbEntity
  8
$$$$$$
  6
Continuous
 62
     3
100
AcDbCircle
 10
8909.345074
 20
-13998.795688
 30
0.0
 40
10.261974
  0
TEXT
  5
EA
330
A
100
AcDbEntity
  8
$$$$$$
  6
Continuous
 62
     2
100
AcDbText
 10
8905.468201
 20
-14004.855995
 30
0.0
 40
12.11913
  1
4
  7
BIGFONT
 72
     4
 11
8909.52811
 21
-13998.79643
 31
0.0
100
AcDbText
  0
INSERT
  5
F0
330
A
100
AcDbEntity
  8
$$$$$$
  6
Continuous
 62
     3
100
AcDbBlockReference
  2
*U5
 10
9193.49348
 20
-13129.68003
 30
0.0
  0
CIRCLE
  5
F1
330
A
100
AcDbEntity
  8
$$$$$$
  6
Continuous
 62
     3
100
AcDbCircle
 10
8909.345074
 20
-13903.478663
 30
0.0
 40
10.261974
  0
TEXT
  5
F2
330
A
100
AcDbEntity
  8
$$$$$$
  6
Continuous
 62
     2
100
AcDbText
 10
8905.468201
 20
-13909.420645
 30
0.0
 40
12.11913
  1
3
  7
BIGFONT
 72
     4
 11
8909.52811
 21
-13903.36108
 31
0.0
100
AcDbText
  0
LEADER
  5
F6
330
A
100
AcDbEntity
  8
$$$$
  6
Continuous
 62
     2
100
AcDbLeader
  3
MSADIM
 73
     0
 74
     0
 75
     1
 76
     3
 10
9062.475034
 20
-13700.705388
 30
0.0
 10
8904.607047
 20
-13620.473649
 30
0.0
 10
8919.607047
 20
-13620.473649
 30
0.0
 77
     2
340
33D
  0
LEADER
  5
F7
330
A
100
AcDbEntity
  8
$$$$
  6
Continuous
 62
     2
100
AcDbLeader
  3
MSADIM
 73
     0
 74
     0
 75
     1
 76
     3
 10
9061.675034
 20
-13764.795009
 30
0.0
 10
8904.607047
 20
-13685.338985
 30
0.0
 10
8919.607047
 20
-13685.338985
 30
0.0
 77
     2
340
33E
  0
LEADER
  5
F8
330
A
100
AcDbEntity
  8
$$$$
  6
Continuous
 62
     2
100
AcDbLeader
  3
MSADIM
 73
     0
 74
     0
 75
     1
 76
     3
 10
9068.83404
 20
-13798.21738
 30
0.0
 10
8904.607047
 20
-13903.478664
 30
0.0
 10
8919.607047
 20
-13903.478664
 30
0.0
 77
     2
340
33F
  0
LEADER
  5
F9
330
A
100
AcDbEntity
  8
$$$$
  6
Continuous
 62
     2
100
AcDbLeader
  3
MSADIM
 73
     0
 74
     0
 75
     1
 76
     3
 10
9126.65471
 20
-13883.39493
 30
0.0
 10
8904.607047
 20
-13998.795692
 30
0.0
 10
8919.607047
 20
-13998.795692
 30
0.0
 77
     2
340
340
  0
LEADER
  5
FA
330
A
100
AcDbEntity
  8
$$$$
  6
Continuous
 62
     2
100
AcDbLeader
  3
MSADIM
 73
     0
 74
     0
 75
     1
 76
     3
 10
8666.20726
 20
-13693.08597
 30
0.0
 10
8914.083096
 20
-13620.473649
 30
0.0
 10
8899.083096
 20
-13620.473649
 30
0.0
 77
     2
340
341
211
-1.0
221
0.0
231
0.0
  0
LEADER
  5
FB
330
A
100
AcDbEntity
  8
$$$$
  6
Continuous
 62
     2
100
AcDbLeader
  3
MSADIM
 73
     0
 74
     0
 75
     1
 76
     3
 10
8671.92893
 20
-13833.02183
 30
0.0
 10
8914.083097
 20
-13685.338985
 30
0.0
 10
8899.083097
 20
-13685.338985
 30
0.0
 77
     2
340
342
211
-1.0
221
0.0
231
0.0
  0
TEXT
  5
FC
330
A
100
AcDbEntity
  8
$$$$$$
  6
Continuous
 62
     2
100
AcDbText
 10
9682.89237
 20
-13139.08352
 30
0.0
 40
18.32923
  1
ブルー
 41
0.749995
  7
BIGFONT
100
AcDbText
  0
LINE
  5
FD
330
A
100
AcDbEntity
  8
1
  6
Continuous
 62
     3
100
AcDbLine
 10
9131.321974
 20
-14452.40343
 30
0.0
 11
9131.321974
 21
-14380.40343
 31
0.0
  0
TEXT
  5
FE
330
A
100
AcDbEntity
  8
$$$$$$
  6
Continuous
 62
     2
100
AcDbText
 10
9484.634129
 20
-13327.31919
 30
0.0
 40
20.12012
  1
１、パネルの取付のガタツキなきこと。
 41
0.857133
  7
BIGFONT
 72
     4
 11
9662.55143
 21
-13317.25913
 31
0.0
100
AcDbText
  0
TEXT
  5
FF
330
A
100
AcDbEntity
  8
1
  6
Continuous
 62
     2
100
AcDbText
 10
9449.43902
 20
-14408.736763
 30
0.0
 40
20.0
  1
ダストボックスワゴン
 41
0.75
  7
BIGFONT
 72
     4
 11
9537.68902
 21
-14398.40343
 31
0.0
100
AcDbText
  0
TEXT
  5
100
330
A
100
AcDbEntity
  8
$$$$$$
  6
Continuous
 62
     2
100
AcDbText
 10
9863.7431
 20
-13137.8775
 30
0.0
 40
18.32923
  1
サンコー
 41
0.749995
  7
BIGFONT
100
AcDbText
  0
TEXT
  5
101
330
A
100
AcDbEntity
  8
$$$$$$
  6
Continuous
 62
     2
100
AcDbText
 10
9680.81263
 20
-13035.37071
 30
0.0
 40
16.49631
  1
アクリル塗装
 41
0.749995
  7
BIGFONT
100
AcDbText
  0
TEXT
  5
102
330
A
100
AcDbEntity
  8
$$$$$$
  6
Continuous
 62
     2
100
AcDbText
 10
9680.81263
 20
-13069.00578
 30
0.0
 40
16.49631
  1
アクリル塗装
 41
0.749995
  7
BIGFONT
100
AcDbText
  0
TEXT
  5
103
330
A
100
AcDbEntity
  8
1
  6
Continuous
 62
     2
100
AcDbText
 10
9223.49714
 20
-14408.40342
 30
0.0
 40
20.0
  1
J54-GAIKAN
 41
0.75
  7
BIGFONT
 72
     4
 11
9293.54714
 21
-14398.40342
 31
0.0
100
AcDbText
  0
TEXT
  5
104
330
A
100
AcDbEntity
  8
1
  6
Continuous
 62
     2
100
AcDbText
 10
8989.87344
 20
-14444.40342
 30
0.0
 40
20.0
  1
05.8.10
 41
0.75
  7
BIGFONT
 72
     4
 11
9024.82344
 21
-14434.40342
 31
0.0
100
AcDbText
  0
TEXT
  5
105
330
A
100
AcDbEntity
  8
1
  6
Continuous
 62
     2
100
AcDbText
 10
9800.80183
 20
-14444.40343
 30
0.0
 40
20.0
  1
２連タイプ
 41
0.75
  7
BIGFONT
 72
     4
 11
9844.30183
 21
-14434.40343
 31
0.0
100
AcDbText
  0
TEXT
  5
106
330
A
100
AcDbEntity
  8
1
  6
Continuous
 62
     2
100
AcDbText
 10
9685.80183
 20
-14408.736763
 30
0.0
 40
20.0
  1
パネル付ダストボックスワゴン　Ｊ５４
 41
0.75
  7
BIGFONT
 72
     4
 11
9844.30183
 21
-14398.40343
 31
0.0
100
AcDbText
  0
TEXT
  5
107
330
A
100
AcDbEntity
  8
1
  6
Continuous
 62
     2
100
AcDbText
 10
9494.18903
 20
-14444.40343
 30
0.0
 40
20.0
  1
２連タイプ
 41
0.75
  7
BIGFONT
 72
     4
 11
9537.68903
 21
-14434.40343
 31
0.0
100
AcDbText
  0
TEXT
  5
108
330
A
100
AcDbEntity
  8
$$$$$$
  6
Continuous
 62
     2
100
AcDbText
 10
9226.63688
 20
-13035.86071
 30
0.0
 40
18.32923
  1
J54-K01
 41
0.749995
  7
BIGFONT
100
AcDbText
  0
TEXT
  5
109
330
A
100
AcDbEntity
  8
$$$$$$
  6
Continuous
 62
     2
100
AcDbText
 10
9226.63688
 20
-13070.22778
 30
0.0
 40
18.32923
  1
J54-K02
 41
0.749995
  7
BIGFONT
100
AcDbText
  0
TEXT
  5
10A
330
A
100
AcDbEntity
  8
$$$$$$
  6
Continuous
 62
     2
100
AcDbText
 10
9829.81075
 20
-13104.71633
 30
0.0
 40
18.32923
  1
4
 41
0.749995
  7
BIGFONT
100
AcDbText
  0
LINE
  5
10B
330
A
100
AcDbEntity
  8
1
  6
Continuous
 62
     3
100
AcDbLine
 10
9170.510424
 20
-12975.205838
 30
0.0
 11
9170.510424
 21
-13147.04156
 31
0.0
  0
LINE
  5
10C
330
A
100
AcDbEntity
  8
1
  6
Continuous
 62
     3
100
AcDbLine
 10
9537.093298
 20
-12975.205838
 30
0.0
 11
9537.093298
 21
-13147.04156
 31
0.0
  0
LINE
  5
10D
330
A
100
AcDbEntity
  8
1
  6
Continuous
 62
     3
100
AcDbLine
 10
9812.030498
 20
-12975.205838
 30
0.0
 11
9812.030498
 21
-13147.04156
 31
0.0
  0
LINE
  5
10E
330
A
100
AcDbEntity
  8
1
  6
Continuous
 62
     3
100
AcDbLine
 10
9857.853398
 20
-12975.205838
 30
0.0
 11
9857.853398
 21
-13147.04156
 31
0.0
  0
TEXT
  5
10F
330
A
100
AcDbEntity
  8
$$$$$$
  6
Continuous
 62
     2
100
AcDbText
 10
9543.15525
 20
-13134.04673
 30
0.0
 40
12.02581
  1
PP/スリムプッシュ26.5L
 41
0.749994
  7
BIGFONT
100
AcDbText
  0
TEXT
  5
110
330
A
100
AcDbEntity
  8
$$$$$$
  6
Continuous
 62
     2
100
AcDbText
 10
9360.57508
 20
-13104.71633
 30
0.0
 40
18.32923
  1
パネル取付ねじ
 41
0.749995
  7
BIGFONT
100
AcDbText
  0
TEXT
  5
111
330
A
100
AcDbEntity
  8
$$$$$$
  6
Continuous
 62
     2
100
AcDbText
 10
9570.71995
 20
-13001.49328
 30
0.0
 40
18.32914
  1
材質／規格／処理
 41
0.75
  7
BIGFONT
100
AcDbText
  0
TEXT
  5
112
330
A
100
AcDbEntity
  8
$$$$$$
  6
Continuous
 62
     2
100
AcDbText
 10
9544.45947
 20
-13104.71633
 30
0.0
 40
18.32923
  1
トラス3.5×10タ ッピング/黒めっき
 41
0.749995
  7
BIGFONT
100
AcDbText
  0
LINE
  5
114
330
A
100
AcDbEntity
  8
$$15$9
  6
Continuous
 62
     3
100
AcDbLine
 10
9062.475037
 20
-14186.306379
 30
0.0
 11
9078.375037
 21
-14186.306379
 31
0.0
  0
ARC
  5
115
330
A
100
AcDbEntity
  8
$$15$9
  6
Continuous
 62
     3
100
AcDbCircle
 10
9070.425037
 20
-13686.756387
 30
0.0
 40
7.95
100
AcDbArc
 50
90.0
 51
180.0
  0
ARC
  5
116
330
A
100
AcDbEntity
  8
$$15$9
  6
Continuous
 62
     3
100
AcDbCircle
 10
9070.425037
 20
-13686.756387
 30
0.0
 40
7.95
100
AcDbArc
 50
0.0
 51
90.0
  0
LINE
  5
118
330
A
100
AcDbEntity
  8
$$12$7
  6
Continuous
 62
     3
100
AcDbLine
 10
9080.675033
 20
-13760.306386
 30
0.0
 11
9436.575027
 21
-13760.306382
 31
0.0
  0
LINE
  5
119
330
A
100
AcDbEntity
  8
$$12$7
  6
Continuous
 62
     3
100
AcDbLine
 10
9080.675033
 20
-13770.306386
 30
0.0
 11
9436.575027
 21
-13770.306382
 31
0.0
  0
LINE
  5
11B
330
A
100
AcDbEntity
  8
$$$$$$15$9
  6
Continuous
 62
     6
100
AcDbLine
 10
9062.47503
 20
-14186.30636
 30
0.0
 11
9078.37503
 21
-14186.30636
 31
0.0
  0
LINE
  5
11C
330
A
100
AcDbEntity
  8
$$$$$$15$9
  6
Continuous
 62
     6
100
AcDbLine
 10
9064.47503
 20
-14191.30636
 30
0.0
 11
9076.37503
 21
-14191.30636
 31
0.0
  0
ARC
  5
11D
330
A
100
AcDbEntity
  8
$$$$$$15$9
  6
Continuous
 62
     6
100
AcDbCircle
 10
9064.475034
 20
-14189.306386
 30
0.0
 40
2.0
100
AcDbArc
 50
180.0
 51
270.0
  0
ARC
  5
11E
330
A
100
AcDbEntity
  8
$$$$$$15$9
  6
Continuous
 62
     6
100
AcDbCircle
 10
9076.375034
 20
-14189.306386
 30
0.0
 40
2.0
100
AcDbArc
 50
270.0
 51
0.0
  0
LINE
  5
11F
330
A
100
AcDbEntity
  8
$$$$$$15$9
  6
Continuous
 62
     6
100
AcDbLine
 10
9062.475034
 20
-14186.306386
 30
0.0
 11
9062.475034
 21
-14189.306386
 31
0.0
  0
LINE
  5
120
330
A
100
AcDbEntity
  8
$$$$$$15$9
  6
Continuous
 62
     6
100
AcDbLine
 10
9078.375034
 20
-14186.306386
 30
0.0
 11
9078.375034
 21
-14189.306386
 31
0.0
  0
LINE
  5
121
330
A
100
AcDbEntity
  8
$$$$$$15$9
  6
Continuous
 62
     6
100
AcDbLine
 10
9452.47502
 20
-14186.30636
 30
0.0
 11
9436.57502
 21
-14186.30636
 31
0.0
  0
LINE
  5
122
330
A
100
AcDbEntity
  8
$$$$$$15$9
  6
Continuous
 62
     6
100
AcDbLine
 10
9450.47502
 20
-14191.30636
 30
0.0
 11
9438.57502
 21
-14191.30636
 31
0.0
  0
ARC
  5
123
330
A
100
AcDbEntity
  8
$$$$$$15$9
  6
Continuous
 62
     6
100
AcDbCircle
 10
9450.475025
 20
-14189.30638
 30
0.0
 40
2.0
100
AcDbArc
 50
270.0
 51
0.0
  0
ARC
  5
124
330
A
100
AcDbEntity
  8
$$$$$$15$9
  6
Continuous
 62
     6
100
AcDbCircle
 10
9438.575025
 20
-14189.30638
 30
0.0
 40
2.0
100
AcDbArc
 50
180.0
 51
270.0
  0
LINE
  5
125
330
A
100
AcDbEntity
  8
$$$$$$15$9
  6
Continuous
 62
     6
100
AcDbLine
 10
9452.475025
 20
-14186.30638
 30
0.0
 11
9452.475025
 21
-14189.30638
 31
0.0
  0
LINE
  5
126
330
A
100
AcDbEntity
  8
$$$$$$15$9
  6
Continuous
 62
     6
100
AcDbLine
 10
9436.575025
 20
-14186.30638
 30
0.0
 11
9436.575025
 21
-14189.30638
 31
0.0
  0
LINE
  5
127
330
A
100
AcDbEntity
  8
$$$$$$15$9
  6
Continuous
 62
     6
100
AcDbLine
 10
9436.57502
 20
-13718.60243
 30
0.0
 11
9452.47502
 21
-13718.60243
 31
0.0
  0
LINE
  5
128
330
A
100
AcDbEntity
  8
$$$$$$15$9
  6
Continuous
 62
     6
100
AcDbLine
 10
9438.57502
 20
-13713.60243
 30
0.0
 11
9450.47502
 21
-13713.60243
 31
0.0
  0
ARC
  5
129
330
A
100
AcDbEntity
  8
$$$$$$15$9
  6
Continuous
 62
     6
100
AcDbCircle
 10
9438.575033
 20
-13715.602435
 30
0.0
 40
2.0
100
AcDbArc
 50
90.0
 51
180.0
  0
ARC
  5
12A
330
A
100
AcDbEntity
  8
$$$$$$15$9
  6
Continuous
 62
     6
100
AcDbCircle
 10
9450.475033
 20
-13715.602435
 30
0.0
 40
2.0
100
AcDbArc
 50
0.0
 51
90.0
  0
LINE
  5
12B
330
A
100
AcDbEntity
  8
$$$$$$15$9
  6
Continuous
 62
     6
100
AcDbLine
 10
9436.575033
 20
-13718.602435
 30
0.0
 11
9436.575033
 21
-13715.602435
 31
0.0
  0
LINE
  5
12C
330
A
100
AcDbEntity
  8
$$$$$$15$9
  6
Continuous
 62
     6
100
AcDbLine
 10
9452.475033
 20
-13718.602435
 30
0.0
 11
9452.475033
 21
-13715.602435
 31
0.0
  0
LINE
  5
12D
330
A
100
AcDbEntity
  8
$$15$9
  6
Continuous
 62
     3
100
AcDbLine
 10
9436.575028
 20
-13718.602444
 30
0.0
 11
9452.475028
 21
-13718.602444
 31
0.0
  0
LINE
  5
12E
330
A
100
AcDbEntity
  8
$$15$9
  6
Continuous
 62
     3
100
AcDbLine
 10
9436.575027
 20
-14186.306373
 30
0.0
 11
9452.475027
 21
-14186.306373
 31
0.0
  0
LINE
  5
12F
330
A
100
AcDbEntity
  8
$$12$7
  6
Continuous
 62
     3
100
AcDbLine
 10
9436.575028
 20
-13718.602444
 30
0.0
 11
9447.975025
 21
-13718.602444
 31
0.0
  0
LINE
  5
130
330
A
100
AcDbEntity
  8
1
  6
Continuous
 62
     7
100
AcDbLine
 10
8628.08566
 20
-14215.30637
 30
0.0
 11
8655.38566
 21
-14215.30637
 31
0.0
  0
ARC
  5
131
330
A
100
AcDbEntity
  8
1
  6
Continuous
 62
     7
100
AcDbCircle
 10
8628.08568
 20
-14212.306379
 30
0.0
 40
3.0
100
AcDbArc
 50
180.0
 51
270.0
  0
ARC
  5
132
330
A
100
AcDbEntity
  8
1
  6
Continuous
 62
     7
100
AcDbCircle
 10
8655.38568
 20
-14212.306379
 30
0.0
 40
3.0
100
AcDbArc
 50
270.0
 51
360.0
  0
LINE
  5
133
330
A
100
AcDbEntity
  8
1
  6
Continuous
 62
     7
100
AcDbLine
 10
8624.98566
 20
-14228.80637
 30
0.0
 11
8634.98566
 21
-14228.80637
 31
0.0
  0
LINE
  5
134
330
A
100
AcDbEntity
  8
1
  6
Continuous
 62
     7
100
AcDbLine
 10
8648.48566
 20
-14228.80637
 30
0.0
 11
8658.48566
 21
-14228.80637
 31
0.0
  0
LINE
  5
135
330
A
100
AcDbEntity
  8
1
  6
Continuous
 62
     7
100
AcDbLine
 10
8634.98566
 20
-14215.30637
 30
0.0
 11
8634.98566
 21
-14228.80637
 31
0.0
  0
LINE
  5
136
330
A
100
AcDbEntity
  8
1
  6
Continuous
 62
     7
100
AcDbLine
 10
8648.48566
 20
-14215.30637
 30
0.0
 11
8648.48566
 21
-14228.80637
 31
0.0
  0
ARC
  5
137
330
A
100
AcDbEntity
  8
1
  6
Continuous
 62
     7
100
AcDbCircle
 10
8686.447218
 20
-14208.556379
 30
0.0
 40
64.711538
100
AcDbArc
 50
161.764275
 51
198.235725
  0
ARC
  5
138
330
A
100
AcDbEntity
  8
1
  6
Continuous
 62
     7
100
AcDbCircle
 10
8597.024141
 20
-14208.556379
 30
0.0
 40
64.711538
100
AcDbArc
 50
341.764275
 51
18.235725
  0
LINE
  5
139
330
A
100
AcDbEntity
  8
1
  6
Continuous
 62
     7
100
AcDbLine
 10
9100.97503
 20
-14177.30637
 30
0.0
 11
9113.97503
 21
-14177.30637
 31
0.0
  0
ARC
  5
13A
330
A
100
AcDbEntity
  8
1
  6
Continuous
 62
     7
100
AcDbCircle
 10
9110.725034
 20
-14169.658383
 30
0.0
 40
7.647994
100
AcDbArc
 50
244.852622
 51
295.147375
  0
ARC
  5
13B
330
A
100
AcDbEntity
  8
1
  6
Continuous
 62
     7
100
AcDbCircle
 10
9104.225034
 20
-14169.658383
 30
0.0
 40
7.647994
100
AcDbArc
 50
244.852622
 51
295.147375
  0
CIRCLE
  5
13C
330
A
100
AcDbEntity
  8
1
  6
Continuous
 62
     7
100
AcDbCircle
 10
9093.475032
 20
-14208.55638
 30
0.0
 40
20.25
  0
ARC
  5
13D
330
A
100
AcDbEntity
  8
1
  6
Continuous
 62
     7
100
AcDbCircle
 10
9093.475032
 20
-14208.55638
 30
0.0
 40
22.250004
100
AcDbArc
 50
0.0
 51
180.0
  0
ARC
  5
13E
330
A
100
AcDbEntity
  8
1
  6
Continuous
 62
     7
100
AcDbCircle
 10
9093.475032
 20
-14208.55638
 30
0.0
 40
24.25
100
AcDbArc
 50
0.0
 51
180.0
  0
LINE
  5
13F
330
A
100
AcDbEntity
  8
1
  6
Continuous
 62
     7
100
AcDbLine
 10
9069.22503
 20
-14208.55637
 30
0.0
 11
9069.22503
 21
-14214.30637
 31
0.0
  0
LINE
  5
140
330
A
100
AcDbEntity
  8
1
  6
Continuous
 62
     7
100
AcDbLine
 10
9071.22503
 20
-14208.55637
 30
0.0
 11
9071.22503
 21
-14214.30637
 31
0.0
  0
LINE
  5
141
330
A
100
AcDbEntity
  8
1
  6
Continuous
 62
     7
100
AcDbLine
 10
9115.72503
 20
-14208.55637
 30
0.0
 11
9115.72503
 21
-14214.30637
 31
0.0
  0
LINE
  5
142
330
A
100
AcDbEntity
  8
1
  6
Continuous
 62
     7
100
AcDbLine
 10
9117.72503
 20
-14208.55637
 30
0.0
 11
9117.72503
 21
-14214.30637
 31
0.0
  0
ARC
  5
143
330
A
100
AcDbEntity
  8
1
  6
Continuous
 62
     7
100
AcDbCircle
 10
9070.225032
 20
-14214.30638
 30
0.0
 40
1.0
100
AcDbArc
 50
180.0
 51
360.0
  0
ARC
  5
144
330
A
100
AcDbEntity
  8
1
  6
Continuous
 62
     7
100
AcDbCircle
 10
9116.725032
 20
-14214.30638
 30
0.0
 40
1.0
100
AcDbArc
 50
180.0
 51
360.0
  0
LINE
  5
145
330
A
100
AcDbEntity
  8
1
  6
Continuous
 62
     7
100
AcDbLine
 10
9113.72503
 20
-14195.21471
 30
0.0
 11
9113.72503
 21
-14182.30637
 31
0.0
  0
LINE
  5
146
330
A
100
AcDbEntity
  8
1
  6
Continuous
 62
     7
100
AcDbLine
 10
9101.22503
 20
-14185.57812
 30
0.0
 11
9101.22503
 21
-14182.30637
 31
0.0
  0
LINE
  5
147
330
A
100
AcDbEntity
  8
1
  6
Continuous
 62
     7
100
AcDbLine
 10
9107.47503
 20
-14177.30637
 30
0.0
 11
9107.47503
 21
-14181.30637
 31
0.0
  0
LINE
  5
148
330
A
100
AcDbEntity
  8
1
  6
Continuous
 62
     7
100
AcDbLine
 10
9113.97503
 20
-14181.30637
 30
0.0
 11
9113.97503
 21
-14177.30637
 31
0.0
  0
LINE
  5
149
330
A
100
AcDbEntity
  8
1
  6
Continuous
 62
     7
100
AcDbLine
 10
9100.97503
 20
-14181.30637
 30
0.0
 11
9113.97503
 21
-14181.30637
 31
0.0
  0
LINE
  5
14A
330
A
100
AcDbEntity
  8
1
  6
Continuous
 62
     7
100
AcDbLine
 10
9100.97503
 20
-14177.30637
 30
0.0
 11
9100.97503
 21
-14181.30637
 31
0.0
  0
LINE
  5
14B
330
A
100
AcDbEntity
  8
1
  6
Continuous
 62
     7
100
AcDbLine
 10
9101.22503
 20
-14182.30637
 30
0.0
 11
9113.72503
 21
-14182.30637
 31
0.0
  0
LINE
  5
14C
330
A
100
AcDbEntity
  8
1
  6
Continuous
 62
     7
100
AcDbLine
 10
9111.47503
 20
-14181.30637
 30
0.0
 11
9111.47503
 21
-14182.30637
 31
0.0
  0
LINE
  5
14D
330
A
100
AcDbEntity
  8
1
  6
Continuous
 62
     7
100
AcDbLine
 10
9103.47503
 20
-14181.30637
 30
0.0
 11
9103.47503
 21
-14182.30637
 31
0.0
  0
LINE
  5
14E
330
A
100
AcDbEntity
  8
1
  6
Continuous
 62
     7
100
AcDbLine
 10
9413.97502
 20
-14177.30637
 30
0.0
 11
9400.97502
 21
-14177.30637
 31
0.0
  0
ARC
  5
14F
330
A
100
AcDbEntity
  8
1
  6
Continuous
 62
     7
100
AcDbCircle
 10
9404.22503
 20
-14169.658377
 30
0.0
 40
7.647994
100
AcDbArc
 50
244.852625
 51
295.147378
  0
ARC
  5
150
330
A
100
AcDbEntity
  8
1
  6
Continuous
 62
     7
100
AcDbCircle
 10
9410.72503
 20
-14169.658377
 30
0.0
 40
7.647994
100
AcDbArc
 50
244.852625
 51
295.147378
  0
CIRCLE
  5
151
330
A
100
AcDbEntity
  8
1
  6
Continuous
 62
     7
100
AcDbCircle
 10
9421.475032
 20
-14208.556373
 30
0.0
 40
20.25
  0
ARC
  5
152
330
A
100
AcDbEntity
  8
1
  6
Continuous
 62
     7
100
AcDbCircle
 10
9421.475032
 20
-14208.556373
 30
0.0
 40
22.250004
100
AcDbArc
 50
0.0
 51
180.0
  0
ARC
  5
153
330
A
100
AcDbEntity
  8
1
  6
Continuous
 62
     7
100
AcDbCircle
 10
9421.475032
 20
-14208.556373
 30
0.0
 40
24.25
100
AcDbArc
 50
0.0
 51
180.0
  0
LINE
  5
154
330
A
100
AcDbEntity
  8
1
  6
Continuous
 62
     7
100
AcDbLine
 10
9445.72502
 20
-14208.55637
 30
0.0
 11
9445.72502
 21
-14214.30637
 31
0.0
  0
LINE
  5
155
330
A
100
AcDbEntity
  8
1
  6
Continuous
 62
     7
100
AcDbLine
 10
9443.72502
 20
-14208.55637
 30
0.0
 11
9443.72502
 21
-14214.30637
 31
0.0
  0
LINE
  5
156
330
A
100
AcDbEntity
  8
1
  6
Continuous
 62
     7
100
AcDbLine
 10
9399.22502
 20
-14208.55637
 30
0.0
 11
9399.22502
 21
-14214.30637
 31
0.0
  0
LINE
  5
157
330
A
100
AcDbEntity
  8
1
  6
Continuous
 62
     7
100
AcDbLine
 10
9397.22502
 20
-14208.55637
 30
0.0
 11
9397.22502
 21
-14214.30637
 31
0.0
  0
ARC
  5
158
330
A
100
AcDbEntity
  8
1
  6
Continuous
 62
     7
100
AcDbCircle
 10
9444.725032
 20
-14214.306373
 30
0.0
 40
1.0
100
AcDbArc
 50
180.0
 51
360.0
  0
ARC
  5
159
330
A
100
AcDbEntity
  8
1
  6
Continuous
 62
     7
100
AcDbCircle
 10
9398.225032
 20
-14214.306373
 30
0.0
 40
1.0
100
AcDbArc
 50
180.0
 51
360.0
  0
LINE
  5
15A
330
A
100
AcDbEntity
  8
1
  6
Continuous
 62
     7
100
AcDbLine
 10
9401.22502
 20
-14195.21471
 30
0.0
 11
9401.22502
 21
-14182.30637
 31
0.0
  0
LINE
  5
15B
330
A
100
AcDbEntity
  8
1
  6
Continuous
 62
     7
100
AcDbLine
 10
9413.72502
 20
-14185.57812
 30
0.0
 11
9413.72502
 21
-14182.30637
 31
0.0
  0
LINE
  5
15C
330
A
100
AcDbEntity
  8
1
  6
Continuous
 62
     7
100
AcDbLine
 10
9407.47502
 20
-14177.30637
 30
0.0
 11
9407.47502
 21
-14181.30637
 31
0.0
  0
LINE
  5
15D
330
A
100
AcDbEntity
  8
1
  6
Continuous
 62
     7
100
AcDbLine
 10
9400.97502
 20
-14181.30637
 30
0.0
 11
9400.97502
 21
-14177.30637
 31
0.0
  0
LINE
  5
15E
330
A
100
AcDbEntity
  8
1
  6
Continuous
 62
     7
100
AcDbLine
 10
9413.97502
 20
-14181.30637
 30
0.0
 11
9400.97502
 21
-14181.30637
 31
0.0
  0
LINE
  5
15F
330
A
100
AcDbEntity
  8
1
  6
Continuous
 62
     7
100
AcDbLine
 10
9413.97502
 20
-14177.30637
 30
0.0
 11
9413.97502
 21
-14181.30637
 31
0.0
  0
LINE
  5
160
330
A
100
AcDbEntity
  8
1
  6
Continuous
 62
     7
100
AcDbLine
 10
9413.72502
 20
-14182.30637
 30
0.0
 11
9401.22502
 21
-14182.30637
 31
0.0
  0
LINE
  5
161
330
A
100
AcDbEntity
  8
1
  6
Continuous
 62
     7
100
AcDbLine
 10
9403.47502
 20
-14181.30637
 30
0.0
 11
9403.47502
 21
-14182.30637
 31
0.0
  0
LINE
  5
162
330
A
100
AcDbEntity
  8
1
  6
Continuous
 62
     7
100
AcDbLine
 10
9411.47502
 20
-14181.30637
 30
0.0
 11
9411.47502
 21
-14182.30637
 31
0.0
  0
LINE
  5
163
330
A
100
AcDbEntity
  8
$$15$9
  6
Continuous
 62
     3
100
AcDbLine
 10
8454.235669
 20
-13678.806385
 30
0.0
 11
8632.336861
 21
-13678.806387
 31
0.0
  0
LINE
  5
164
330
A
100
AcDbEntity
  8
$$15$9
  6
Continuous
 62
     3
100
AcDbLine
 10
8454.235669
 20
-13694.706385
 30
0.0
 11
8632.336676
 21
-13694.706387
 31
0.0
  0
LINE
  5
165
330
A
100
AcDbEntity
  8
1
  6
Continuous
 62
     7
100
AcDbLine
 10
9400.975027
 20
-14177.306373
 30
0.0
 11
9400.975027
 21
-14173.306384
 31
0.0
  0
LINE
  5
166
330
A
100
AcDbEntity
  8
1
  6
Continuous
 62
     7
100
AcDbLine
 10
9413.975027
 20
-14173.306384
 30
0.0
 11
9413.975027
 21
-14177.306373
 31
0.0
  0
LINE
  5
167
330
A
100
AcDbEntity
  8
1
  6
Continuous
 62
     7
100
AcDbLine
 10
9407.475027
 20
-14176.581473
 30
0.0
 11
9407.475027
 21
-14173.306384
 31
0.0
  0
LINE
  5
168
330
A
100
AcDbEntity
  8
$$$$
  6
Continuous
 62
     3
100
AcDbLine
 10
9080.675031
 20
-14158.306388
 30
0.0
 11
9436.575027
 21
-14158.306384
 31
0.0
  0
LINE
  5
169
330
A
100
AcDbEntity
  8
$$$$
  6
Continuous
 62
     3
100
AcDbLine
 10
9080.568332
 20
-14173.306388
 30
0.0
 11
9436.575027
 21
-14173.306384
 31
0.0
  0
LINE
  5
16A
330
A
100
AcDbEntity
  8
1
  6
Continuous
 62
     7
100
AcDbLine
 10
9100.975037
 20
-14173.306388
 30
0.0
 11
9100.975037
 21
-14177.30638
 31
0.0
  0
LINE
  5
16B
330
A
100
AcDbEntity
  8
1
  6
Continuous
 62
     7
100
AcDbLine
 10
9113.975037
 20
-14177.30638
 30
0.0
 11
9113.975037
 21
-14173.306388
 31
0.0
  0
LINE
  5
16C
330
A
100
AcDbEntity
  8
1
  6
Continuous
 62
     7
100
AcDbLine
 10
9107.475037
 20
-14176.58148
 30
0.0
 11
9107.475037
 21
-14173.306388
 31
0.0
  0
LINE
  5
16D
330
A
100
AcDbEntity
  8
$$15$9
  6
Continuous
 62
     3
100
AcDbLine
 10
9062.475037
 20
-14186.127443
 30
0.0
 11
9062.475037
 21
-14186.306379
 31
0.0
  0
LINE
  5
16E
330
A
100
AcDbEntity
  8
$$15$9
  6
Continuous
 62
     3
100
AcDbLine
 10
9078.375037
 20
-14185.335765
 30
0.0
 11
9078.375037
 21
-14186.306379
 31
0.0
  0
LINE
  5
16F
330
A
100
AcDbEntity
  8
1
  6
Continuous
 62
     7
100
AcDbLine
 10
8624.985669
 20
-14187.281359
 30
0.0
 11
8624.985669
 21
-14228.806388
 31
0.0
  0
LINE
  5
170
330
A
100
AcDbEntity
  8
1
  6
Continuous
 62
     7
100
AcDbLine
 10
8658.485669
 20
-14187.281359
 30
0.0
 11
8658.485669
 21
-14228.806388
 31
0.0
  0
LINE
  5
171
330
A
100
AcDbEntity
  8
$$15$9
  6
Continuous
 62
     3
100
AcDbLine
 10
8454.235668
 20
-13694.706385
 30
0.0
 11
8276.135662
 21
-13694.706382
 31
0.0
  0
ELLIPSE
  5
173
330
A
100
AcDbEntity
  8
$_$X$$$$$$$N$X
  6
Continuous
 62
     4
100
AcDbEllipse
 10
4154.035719
 20
-13273.392061
 30
0.0
 11
2.650999999999999E-13
 21
4329.608603600827
 31
0.0
210
0.0
220
0.0
230
1.0
 40
0.993034
 41
4.679224864196079
 42
4.745553096573301
  0
ELLIPSE
  5
174
330
A
100
AcDbEntity
  8
$_$X$$$$$$$N$X
  6
Continuous
 62
     4
100
AcDbEllipse
 10
8337.485695
 20
-14646.391998
 30
0.0
 11
-1567.367945427857
 21
1.919000000000000E-13
 31
0.0
210
0.0
220
0.0
230
1.0
 40
0.993385
 41
4.66414492857064
 42
4.760633032198741
  0
ELLIPSE
  5
175
330
A
100
AcDbEntity
  8
$_$X$$$$$$$N$X
  6
Continuous
 62
     4
100
AcDbEllipse
 10
12520.935656
 20
-13273.392098
 30
0.0
 11
2.650999999999999E-13
 21
4329.608603600827
 31
0.0
210
0.0
220
0.0
230
1.0
 40
0.993034
 41
1.537632210606286
 42
1.603960442983507
  0
ARC
  5
176
330
A
100
AcDbEntity
  8
$_$X$$$$$$$N$X
  6
Continuous
 62
     4
100
AcDbCircle
 10
8263.827851
 20
-13131.157057
 30
0.0
 40
40.0
100
AcDbArc
 50
92.764181
 51
178.099839
  0
ARC
  5
177
330
A
100
AcDbEntity
  8
$_$X$$$$$$$N$X
  6
Continuous
 62
     4
100
AcDbCircle
 10
8411.143533
 20
-13131.157054
 30
0.0
 40
40.0
100
AcDbArc
 50
1.900161
 51
87.235819
  0
ELLIPSE
  5
178
330
A
100
AcDbEntity
  8
$_$X$$$$$$$N$X
  6
Continuous
 62
     4
100
AcDbEllipse
 10
8337.485693
 20
-14646.391992
 30
0.0
 11
-1541.367945756881
 21
1.888000000000000E-13
 31
0.0
210
0.0
220
0.0
230
1.0
 40
0.993274
 41
4.66414492857064
 42
4.760633032198741
  0
ELLIPSE
  5
179
330
A
100
AcDbEntity
  8
$_$X$$$$$$$N$X
  6
Continuous
 62
     4
100
AcDbEllipse
 10
12520.939834
 20
-13273.392059
 30
0.0
 11
-7.905000000000001E-13
 21
-4303.608732741146
 31
0.0
210
0.0
220
0.0
230
1.0
 40
0.992993
 41
4.679224864196079
 42
4.71238898038469
  0
ELLIPSE
  5
17A
330
A
100
AcDbEntity
  8
$_$X$$$$$$$N$X
  6
Continuous
 62
     4
100
AcDbEllipse
 10
4154.039914
 20
-13273.392069
 30
0.0
 11
-7.905000000000000E-13
 21
-4303.608732769181
 31
0.0
210
0.0
220
0.0
230
1.0
 40
0.992991
 41
1.570796326794897
 42
1.603960442983507
  0
ARC
  5
17B
330
A
100
AcDbEntity
  8
$_$X$$$$$$$N$X
  6
Continuous
 62
     4
100
AcDbCircle
 10
8263.827848
 20
-13131.157061
 30
0.0
 40
14.000013
100
AcDbArc
 50
92.764181
 51
178.099839
  0
ARC
  5
17C
330
A
100
AcDbEntity
  8
$_$X$$$$$$$N$X
  6
Continuous
 62
     4
100
AcDbCircle
 10
8411.143532
 20
-13131.157052
 30
0.0
 40
14.000003
100
AcDbArc
 50
1.900164
 51
87.235822
  0
ELLIPSE
  5
17D
330
A
100
AcDbEntity
  8
$_$X$$$$$$$N$X
  6
Continuous
 62
     4
100
AcDbEllipse
 10
8337.485698
 20
-14646.391994
 30
0.0
 11
-1543.367948677208
 21
1.890000000000000E-13
 31
0.0
210
0.0
220
0.0
230
1.0
 40
0.993282
 41
4.66414492857064
 42
4.760633032198741
  0
ELLIPSE
  5
17E
330
A
100
AcDbEntity
  8
$_$X$$$$$$$N$X
  6
Continuous
 62
     4
100
AcDbEllipse
 10
12520.93983
 20
-13273.392057
 30
0.0
 11
-7.909000000000000E-13
 21
-4305.60872782932
 31
0.0
210
0.0
220
0.0
230
1.0
 40
0.992996
 41
4.679224864196079
 42
4.71238898038469
  0
ELLIPSE
  5
17F
330
A
100
AcDbEntity
  8
$_$X$$$$$$$N$X
  6
Continuous
 62
     4
100
AcDbEllipse
 10
4154.039916
 20
-13273.392072
 30
0.0
 11
-7.909000000000000E-13
 21
-4305.608728889071
 31
0.0
210
0.0
220
0.0
230
1.0
 40
0.992995
 41
1.570796326794897
 42
1.603960442983507
  0
ARC
  5
180
330
A
100
AcDbEntity
  8
$_$X$$$$$$$N$X
  6
Continuous
 62
     4
100
AcDbCircle
 10
8263.827843
 20
-13131.157058
 30
0.0
 40
16.000008
100
AcDbArc
 50
92.764181
 51
178.099839
  0
ARC
  5
181
330
A
100
AcDbEntity
  8
$_$X$$$$$$$N$X
  6
Continuous
 62
     4
100
AcDbCircle
 10
8411.143529
 20
-13131.15706
 30
0.0
 40
16.000004
100
AcDbArc
 50
1.900164
 51
87.235822
  0
ELLIPSE
  5
182
330
A
100
AcDbEntity
  8
$_$X$$$$$$$N$X
  6
Continuous
 62
     4
100
AcDbEllipse
 10
8337.485695
 20
-11900.392116
 30
0.0
 11
-1541.367945756881
 21
1.888000000000000E-13
 31
0.0
210
0.0
220
0.0
230
1.0
 40
0.993274
 41
1.522552274980846
 42
1.619040378608947
  0
ELLIPSE
  5
183
330
A
100
AcDbEntity
  8
$_$X$$$$$$$N$X
  6
Continuous
 62
     4
100
AcDbEllipse
 10
12520.94117
 20
-13273.392051
 30
0.0
 11
2.635000000000000E-13
 21
4303.608466686825
 31
0.0
210
0.0
220
0.0
230
1.0
 40
0.992994
 41
1.570796326794897
 42
1.603960442983507
  0
ELLIPSE
  5
184
330
A
100
AcDbEntity
  8
$_$X$$$$$$$N$X
  6
Continuous
 62
     4
100
AcDbEllipse
 10
4154.04124
 20
-13273.392065
 30
0.0
 11
2.635000000000000E-13
 21
4303.60846671486
 31
0.0
210
0.0
220
0.0
230
1.0
 40
0.992991
 41
4.679224864196079
 42
4.71238898038469
  0
ARC
  5
185
330
A
100
AcDbEntity
  8
$_$X$$$$$$$N$X
  6
Continuous
 62
     4
100
AcDbCircle
 10
8263.827861
 20
-13415.62705
 30
0.0
 40
14.000013
100
AcDbArc
 50
181.900161
 51
267.235819
  0
ARC
  5
186
330
A
100
AcDbEntity
  8
$_$X$$$$$$$N$X
  6
Continuous
 62
     4
100
AcDbCircle
 10
8411.143533
 20
-13415.627062
 30
0.0
 40
14.000003
100
AcDbArc
 50
272.764178
 51
358.099836
  0
ELLIPSE
  5
187
330
A
100
AcDbEntity
  8
$_$X$$$$$$$N$X
  6
Continuous
 62
     4
100
AcDbEllipse
 10
12520.941168
 20
-13273.392052
 30
0.0
 11
2.636000000000000E-13
 21
4305.608461774998
 31
0.0
210
0.0
220
0.0
230
1.0
 40
0.992997
 41
1.570796326794897
 42
1.603960442983507
  0
ELLIPSE
  5
188
330
A
100
AcDbEntity
  8
$_$X$$$$$$$N$X
  6
Continuous
 62
     4
100
AcDbEllipse
 10
4154.017234
 20
-13274.122749
 30
0.0
 11
2.636000000000000E-13
 21
4305.60846283475
 31
0.0
210
0.0
220
0.0
230
1.0
 40
0.992994
 41
4.679224864196079
 42
4.71238898038469
  0
ARC
  5
189
330
A
100
AcDbEntity
  8
$_$X$$$$$$$N$X
  6
Continuous
 62
     4
100
AcDbCircle
 10
8263.82786
 20
-13415.627044
 30
0.0
 40
16.000008
100
AcDbArc
 50
181.900161
 51
267.235819
  0
ARC
  5
18A
330
A
100
AcDbEntity
  8
$_$X$$$$$$$N$X
  6
Continuous
 62
     4
100
AcDbCircle
 10
8411.143533
 20
-13415.627062
 30
0.0
 40
16.000004
100
AcDbArc
 50
272.764178
 51
358.099836
  0
LINE
  5
18B
330
A
100
AcDbEntity
  8
$_$X$$$$$$$N$X
  6
Continuous
 62
     4
100
AcDbLine
 10
8298.98569
 20
-13432.90857
 30
0.0
 11
8298.98569
 21
-13451.39209
 31
0.0
  0
LINE
  5
18C
330
A
100
AcDbEntity
  8
$_$X$$$$$$$N$X
  6
Continuous
 62
     4
100
AcDbLine
 10
8375.98569
 20
-13432.90857
 30
0.0
 11
8375.98569
 21
-13451.39209
 31
0.0
  0
LINE
  5
18D
330
A
100
AcDbEntity
  8
$_$X$$$$$$$N$X
  6
Continuous
 62
     2
100
AcDbLine
 10
8375.90177
 20
-13452.39209
 30
0.0
 11
8299.06961
 21
-13452.39209
 31
0.0
  0
LINE
  5
18E
330
A
100
AcDbEntity
  8
$_$X$$$$$$$N$X
  6
Continuous
 62
     2
100
AcDbLine
 10
8375.98569
 20
-13442.39209
 30
0.0
 11
8298.98569
 21
-13442.39209
 31
0.0
  0
ELLIPSE
  5
18F
330
A
100
AcDbEntity
  8
$_$X$$$$$$$N$X
  6
Continuous
 62
     4
100
AcDbEllipse
 10
8338.091447
 20
-11900.388307
 30
0.0
 11
-1555.928807693262
 21
1.905000000000000E-13
 31
0.0
210
0.0
220
0.0
230
1.0
 40
0.985266
 41
1.522552274980846
 42
1.544374465988108
  0
ARC
  5
190
330
A
100
AcDbEntity
  8
$_$X$$$$$$$N$X
  6
Continuous
 62
     4
100
AcDbCircle
 10
8337.485695
 20
-11900.392116
 30
0.0
 40
1533.000003
100
AcDbArc
 50
268.560914
 51
271.439086
  0
ELLIPSE
  5
191
330
A
100
AcDbEntity
  8
$_$X$$$$$$$N$X
  6
Continuous
 62
     4
100
AcDbEllipse
 10
8336.879945
 20
-11900.394656
 30
0.0
 11
-1555.928762178994
 21
1.905000000000000E-13
 31
0.0
210
0.0
220
0.0
230
1.0
 40
0.985262
 41
1.597218187601685
 42
1.619040378608947
  0
TEXT
  5
193
330
A
100
AcDbEntity
  8
$_$X$$$$$$$N$X
  6
Continuous
 62
     4
100
AcDbText
 10
8326.475718
 20
-13450.82441
 30
0.0
 40
7.0
  1
PUSH
 41
0.857143
  7
txt
 72
     4
 11
8337.48572
 21
-13447.32441
 31
0.0
100
AcDbText
  0
LINE
  5
194
330
A
100
AcDbEntity
  8
$_$X$$$$$$$N$X
  6
Continuous
 62
     2
100
AcDbLine
 10
8375.98569
 20
-13444.39209
 30
0.0
 11
8351.48569
 21
-13444.39209
 31
0.0
  0
LINE
  5
195
330
A
100
AcDbEntity
  8
$_$X$$$$$$$N$X
  6
Continuous
 62
     2
100
AcDbLine
 10
8323.48569
 20
-13444.39209
 30
0.0
 11
8298.98569
 21
-13444.39209
 31
0.0
  0
LINE
  5
196
330
A
100
AcDbEntity
  8
$_$X$$$$$$$N$X
  6
Continuous
 62
     2
100
AcDbLine
 10
8375.98569
 20
-13446.39209
 30
0.0
 11
8351.48569
 21
-13446.39209
 31
0.0
  0
LINE
  5
197
330
A
100
AcDbEntity
  8
$_$X$$$$$$$N$X
  6
Continuous
 62
     2
100
AcDbLine
 10
8323.48569
 20
-13446.39209
 30
0.0
 11
8298.98569
 21
-13446.39209
 31
0.0
  0
LINE
  5
198
330
A
100
AcDbEntity
  8
$_$X$$$$$$$N$X
  6
Continuous
 62
     2
100
AcDbLine
 10
8375.98569
 20
-13448.39209
 30
0.0
 11
8351.48569
 21
-13448.39209
 31
0.0
  0
LINE
  5
199
330
A
100
AcDbEntity
  8
$_$X$$$$$$$N$X
  6
Continuous
 62
     2
100
AcDbLine
 10
8323.48569
 20
-13448.39209
 30
0.0
 11
8298.98569
 21
-13448.39209
 31
0.0
  0
LINE
  5
19A
330
A
100
AcDbEntity
  8
$_$X$$$$$$$N$X
  6
Continuous
 62
     2
100
AcDbLine
 10
8375.98569
 20
-13450.39209
 30
0.0
 11
8351.48569
 21
-13450.39209
 31
0.0
  0
LINE
  5
19B
330
A
100
AcDbEntity
  8
$_$X$$$$$$$N$X
  6
Continuous
 62
     2
100
AcDbLine
 10
8323.48569
 20
-13450.39209
 30
0.0
 11
8298.98569
 21
-13450.39209
 31
0.0
  0
LINE
  5
19C
330
A
100
AcDbEntity
  8
$_$X$$$$$$$N$X
  6
Continuous
 62
     2
100
AcDbLine
 10
8323.48569
 20
-13444.39209
 30
0.0
 11
8323.48569
 21
-13446.39209
 31
0.0
  0
LINE
  5
19D
330
A
100
AcDbEntity
  8
$_$X$$$$$$$N$X
  6
Continuous
 62
     2
100
AcDbLine
 10
8323.48569
 20
-13448.39209
 30
0.0
 11
8323.48569
 21
-13450.39209
 31
0.0
  0
LINE
  5
19E
330
A
100
AcDbEntity
  8
$_$X$$$$$$$N$X
  6
Continuous
 62
     2
100
AcDbLine
 10
8351.48569
 20
-13444.39209
 30
0.0
 11
8351.48569
 21
-13446.39209
 31
0.0
  0
LINE
  5
19F
330
A
100
AcDbEntity
  8
$_$X$$$$$$$N$X
  6
Continuous
 62
     2
100
AcDbLine
 10
8351.48569
 20
-13448.39209
 30
0.0
 11
8351.48569
 21
-13450.39209
 31
0.0
  0
ELLIPSE
  5
1A0
330
A
100
AcDbEntity
  8
$_$X$$$$$$$N$X
  6
Continuous
 62
     4
100
AcDbEllipse
 10
12754.435638
 20
-13273.392033
 30
0.0
 11
2.650999999999999E-13
 21
4329.608603600827
 31
0.0
210
0.0
220
0.0
230
1.0
 40
0.993034
 41
1.537632210606286
 42
1.603960442983507
  0
ELLIPSE
  5
1A1
330
A
100
AcDbEntity
  8
$_$X$$$$$$$N$X
  6
Continuous
 62
     4
100
AcDbEllipse
 10
8570.985658
 20
-14646.391984
 30
0.0
 11
1567.367945427857
 21
0.0
 31
0.0
210
0.0
220
0.0
230
1.0
 40
0.993385
 41
1.522552274980846
 42
1.619040378608947
  0
ELLIPSE
  5
1A2
330
A
100
AcDbEntity
  8
$_$X$$$$$$$N$X
  6
Continuous
 62
     4
100
AcDbEllipse
 10
4387.535679
 20
-13273.392021
 30
0.0
 11
2.650999999999999E-13
 21
4329.608603600827
 31
0.0
210
0.0
220
0.0
230
1.0
 40
0.993034
 41
4.679224864196079
 42
4.745553096573301
  0
ARC
  5
1A3
330
A
100
AcDbEntity
  8
$_$X$$$$$$$N$X
  6
Continuous
 62
     4
100
AcDbCircle
 10
8644.643497
 20
-13131.157039
 30
0.0
 40
40.0
100
AcDbArc
 50
1.900161
 51
87.235819
  0
ARC
  5
1A4
330
A
100
AcDbEntity
  8
$_$X$$$$$$$N$X
  6
Continuous
 62
     4
100
AcDbCircle
 10
8497.327822
 20
-13131.157037
 30
0.0
 40
40.0
100
AcDbArc
 50
92.764181
 51
178.099839
  0
ELLIPSE
  5
1A5
330
A
100
AcDbEntity
  8
$_$X$$$$$$$N$X
  6
Continuous
 62
     4
100
AcDbEllipse
 10
8570.985659
 20
-14646.391981
 30
0.0
 11
1541.367945756881
 21
0.0
 31
0.0
210
0.0
220
0.0
230
1.0
 40
0.993274
 41
1.522552274980846
 42
1.619040378608947
  0
ELLIPSE
  5
1A6
330
A
100
AcDbEntity
  8
$_$X$$$$$$$N$X
  6
Continuous
 62
     4
100
AcDbEllipse
 10
4387.531492
 20
-13273.392025
 30
0.0
 11
-7.905000000000001E-13
 21
-4303.608732741146
 31
0.0
210
0.0
220
0.0
230
1.0
 40
0.992993
 41
1.570796326794897
 42
1.603960442983507
  0
ELLIPSE
  5
1A7
330
A
100
AcDbEntity
  8
$_$X$$$$$$$N$X
  6
Continuous
 62
     4
100
AcDbEllipse
 10
12754.431439
 20
-13273.392038
 30
0.0
 11
-7.905000000000000E-13
 21
-4303.608732769181
 31
0.0
210
0.0
220
0.0
230
1.0
 40
0.992991
 41
4.679224864196079
 42
4.71238898038469
  0
ARC
  5
1A8
330
A
100
AcDbEntity
  8
$_$X$$$$$$$N$X
  6
Continuous
 62
     4
100
AcDbCircle
 10
8644.643494
 20
-13131.157038
 30
0.0
 40
14.000013
100
AcDbArc
 50
1.900161
 51
87.235819
  0
ARC
  5
1A9
330
A
100
AcDbEntity
  8
$_$X$$$$$$$N$X
  6
Continuous
 62
     4
100
AcDbCircle
 10
8497.327815
 20
-13131.157038
 30
0.0
 40
14.000003
100
AcDbArc
 50
92.764178
 51
178.099836
  0
ELLIPSE
  5
1AA
330
A
100
AcDbEntity
  8
$_$X$$$$$$$N$X
  6
Continuous
 62
     4
100
AcDbEllipse
 10
8570.985656
 20
-14646.391985
 30
0.0
 11
1543.367948677208
 21
0.0
 31
0.0
210
0.0
220
0.0
230
1.0
 40
0.993282
 41
1.522552274980846
 42
1.619040378608947
  0
ELLIPSE
  5
1AB
330
A
100
AcDbEntity
  8
$_$X$$$$$$$N$X
  6
Continuous
 62
     4
100
AcDbEllipse
 10
4387.531487
 20
-13273.392026
 30
0.0
 11
-7.909000000000000E-13
 21
-4305.60872782932
 31
0.0
210
0.0
220
0.0
230
1.0
 40
0.992996
 41
1.570796326794897
 42
1.603960442983507
  0
ELLIPSE
  5
1AC
330
A
100
AcDbEntity
  8
$_$X$$$$$$$N$X
  6
Continuous
 62
     4
100
AcDbEllipse
 10
12754.431441
 20
-13273.392035
 30
0.0
 11
-7.909000000000000E-13
 21
-4305.608728889071
 31
0.0
210
0.0
220
0.0
230
1.0
 40
0.992995
 41
4.679224864196079
 42
4.71238898038469
  0
ARC
  5
1AD
330
A
100
AcDbEntity
  8
$_$X$$$$$$$N$X
  6
Continuous
 62
     4
100
AcDbCircle
 10
8644.643495
 20
-13131.157034
 30
0.0
 40
16.000008
100
AcDbArc
 50
1.900161
 51
87.235819
  0
ARC
  5
1AE
330
A
100
AcDbEntity
  8
$_$X$$$$$$$N$X
  6
Continuous
 62
     4
100
AcDbCircle
 10
8497.327816
 20
-13131.15704
 30
0.0
 40
16.000004
100
AcDbArc
 50
92.764178
 51
178.099836
  0
ELLIPSE
  5
1AF
330
A
100
AcDbEntity
  8
$_$X$$$$$$$N$X
  6
Continuous
 62
     4
100
AcDbEllipse
 10
8570.985638
 20
-11900.392091
 30
0.0
 11
1541.367945756881
 21
0.0
 31
0.0
210
0.0
220
0.0
230
1.0
 40
0.993274
 41
4.66414492857064
 42
4.760633032198741
  0
ELLIPSE
  5
1B0
330
A
100
AcDbEntity
  8
$_$X$$$$$$$N$X
  6
Continuous
 62
     4
100
AcDbEllipse
 10
12754.430111
 20
-13273.392034
 30
0.0
 11
2.635000000000000E-13
 21
4303.60846671486
 31
0.0
210
0.0
220
0.0
230
1.0
 40
0.992991
 41
1.570796326794897
 42
1.603960442983507
  0
ARC
  5
1B1
330
A
100
AcDbEntity
  8
$_$X$$$$$$$N$X
  6
Continuous
 62
     4
100
AcDbCircle
 10
8644.643476
 20
-13415.627021
 30
0.0
 40
14.000013
100
AcDbArc
 50
272.764181
 51
358.099839
  0
ARC
  5
1B2
330
A
100
AcDbEntity
  8
$_$X$$$$$$$N$X
  6
Continuous
 62
     4
100
AcDbCircle
 10
8497.32782
 20
-13415.627037
 30
0.0
 40
14.000003
100
AcDbArc
 50
181.900164
 51
267.235822
  0
ELLIPSE
  5
1B3
330
A
100
AcDbEntity
  8
$_$X$$$$$$$N$X
  6
Continuous
 62
     4
100
AcDbEllipse
 10
4387.530161
 20
-13273.392024
 30
0.0
 11
2.635000000000000E-13
 21
4303.608464632545
 31
0.0
210
0.0
220
0.0
230
1.0
 40
0.992994
 41
4.679224864196079
 42
4.71238898038469
  0
ELLIPSE
  5
1B4
330
A
100
AcDbEntity
  8
$_$X$$$$$$$N$X
  6
Continuous
 62
     4
100
AcDbEllipse
 10
4387.530154
 20
-13273.392024
 30
0.0
 11
2.636000000000000E-13
 21
4305.608461774998
 31
0.0
210
0.0
220
0.0
230
1.0
 40
0.992997
 41
4.679224864196079
 42
4.71238898038469
  0
ELLIPSE
  5
1B5
330
A
100
AcDbEntity
  8
$_$X$$$$$$$N$X
  6
Continuous
 62
     4
100
AcDbEllipse
 10
12754.429998
 20
-13272.373056
 30
0.0
 11
2.636000000000000E-13
 21
4305.60846283475
 31
0.0
210
0.0
220
0.0
230
1.0
 40
0.992994
 41
1.570796326794897
 42
1.603960442983507
  0
ARC
  5
1B6
330
A
100
AcDbEntity
  8
$_$X$$$$$$$N$X
  6
Continuous
 62
     4
100
AcDbCircle
 10
8644.643476
 20
-13415.627021
 30
0.0
 40
16.000008
100
AcDbArc
 50
272.764181
 51
358.099839
  0
ARC
  5
1B7
330
A
100
AcDbEntity
  8
$_$X$$$$$$$N$X
  6
Continuous
 62
     4
100
AcDbCircle
 10
8497.32782
 20
-13415.627037
 30
0.0
 40
16.000004
100
AcDbArc
 50
181.900164
 51
267.235822
  0
LINE
  5
1B8
330
A
100
AcDbEntity
  8
$_$X$$$$$$$N$X
  6
Continuous
 62
     4
100
AcDbLine
 10
8609.48563
 20
-13432.90857
 30
0.0
 11
8609.48563
 21
-13451.39209
 31
0.0
  0
LINE
  5
1B9
330
A
100
AcDbEntity
  8
$_$X$$$$$$$N$X
  6
Continuous
 62
     4
100
AcDbLine
 10
8532.48563
 20
-13432.90857
 30
0.0
 11
8532.48563
 21
-13451.39209
 31
0.0
  0
LINE
  5
1BA
330
A
100
AcDbEntity
  8
$_$X$$$$$$$N$X
  6
Continuous
 62
     2
100
AcDbLine
 10
8532.56955
 20
-13452.39209
 30
0.0
 11
8609.40171
 21
-13452.39209
 31
0.0
  0
LINE
  5
1BB
330
A
100
AcDbEntity
  8
$_$X$$$$$$$N$X
  6
Continuous
 62
     2
100
AcDbLine
 10
8532.48563
 20
-13442.39209
 30
0.0
 11
8609.48563
 21
-13442.39209
 31
0.0
  0
ELLIPSE
  5
1BC
330
A
100
AcDbEntity
  8
$_$X$$$$$$$N$X
  6
Continuous
 62
     4
100
AcDbEllipse
 10
8570.379886
 20
-11900.388282
 30
0.0
 11
1555.928807693262
 21
0.0
 31
0.0
210
0.0
220
0.0
230
1.0
 40
0.985266
 41
4.738810841191479
 42
4.760633032198741
  0
ARC
  5
1BD
330
A
100
AcDbEntity
  8
$_$X$$$$$$$N$X
  6
Continuous
 62
     4
100
AcDbCircle
 10
8570.985647
 20
-11900.392121
 30
0.0
 40
1533.000003
100
AcDbArc
 50
268.560914
 51
271.439086
  0
ELLIPSE
  5
1BE
330
A
100
AcDbEntity
  8
$_$X$$$$$$$N$X
  6
Continuous
 62
     4
100
AcDbEllipse
 10
8571.591387
 20
-11900.394631
 30
0.0
 11
1555.928762178994
 21
0.0
 31
0.0
210
0.0
220
0.0
230
1.0
 40
0.985262
 41
4.664144928570639
 42
4.685967119577901
  0
TEXT
  5
1BF
330
A
100
AcDbEntity
  8
$_$X$$$$$$$N$X
  6
Continuous
 62
     4
100
AcDbText
 10
8559.975638
 20
-13450.82443
 30
0.0
 40
7.0
  1
PUSH
 41
0.857143
  7
txt
 72
     4
 11
8570.98564
 21
-13447.32443
 31
0.0
100
AcDbText
  0
LINE
  5
1C0
330
A
100
AcDbEntity
  8
$_$X$$$$$$$N$X
  6
Continuous
 62
     2
100
AcDbLine
 10
8532.48563
 20
-13444.39209
 30
0.0
 11
8556.98563
 21
-13444.39209
 31
0.0
  0
LINE
  5
1C1
330
A
100
AcDbEntity
  8
$_$X$$$$$$$N$X
  6
Continuous
 62
     2
100
AcDbLine
 10
8584.98563
 20
-13444.39209
 30
0.0
 11
8609.48563
 21
-13444.39209
 31
0.0
  0
LINE
  5
1C2
330
A
100
AcDbEntity
  8
$_$X$$$$$$$N$X
  6
Continuous
 62
     2
100
AcDbLine
 10
8532.48563
 20
-13446.39209
 30
0.0
 11
8556.98563
 21
-13446.39209
 31
0.0
  0
LINE
  5
1C3
330
A
100
AcDbEntity
  8
$_$X$$$$$$$N$X
  6
Continuous
 62
     2
100
AcDbLine
 10
8584.98563
 20
-13446.39209
 30
0.0
 11
8609.48563
 21
-13446.39209
 31
0.0
  0
LINE
  5
1C4
330
A
100
AcDbEntity
  8
$_$X$$$$$$$N$X
  6
Continuous
 62
     2
100
AcDbLine
 10
8532.48563
 20
-13448.39209
 30
0.0
 11
8556.98563
 21
-13448.39209
 31
0.0
  0
LINE
  5
1C5
330
A
100
AcDbEntity
  8
$_$X$$$$$$$N$X
  6
Continuous
 62
     2
100
AcDbLine
 10
8584.98563
 20
-13448.39209
 30
0.0
 11
8609.48563
 21
-13448.39209
 31
0.0
  0
LINE
  5
1C6
330
A
100
AcDbEntity
  8
$_$X$$$$$$$N$X
  6
Continuous
 62
     2
100
AcDbLine
 10
8532.48563
 20
-13450.39209
 30
0.0
 11
8556.98563
 21
-13450.39209
 31
0.0
  0
LINE
  5
1C7
330
A
100
AcDbEntity
  8
$_$X$$$$$$$N$X
  6
Continuous
 62
     2
100
AcDbLine
 10
8584.98563
 20
-13450.39209
 30
0.0
 11
8609.48563
 21
-13450.39209
 31
0.0
  0
LINE
  5
1C8
330
A
100
AcDbEntity
  8
$_$X$$$$$$$N$X
  6
Continuous
 62
     2
100
AcDbLine
 10
8584.98563
 20
-13444.39209
 30
0.0
 11
8584.98563
 21
-13446.39209
 31
0.0
  0
LINE
  5
1C9
330
A
100
AcDbEntity
  8
$_$X$$$$$$$N$X
  6
Continuous
 62
     2
100
AcDbLine
 10
8584.98563
 20
-13448.39209
 30
0.0
 11
8584.98563
 21
-13450.39209
 31
0.0
  0
LINE
  5
1CA
330
A
100
AcDbEntity
  8
$_$X$$$$$$$N$X
  6
Continuous
 62
     2
100
AcDbLine
 10
8556.98563
 20
-13444.39209
 30
0.0
 11
8556.98563
 21
-13446.39209
 31
0.0
  0
LINE
  5
1CB
330
A
100
AcDbEntity
  8
$_$X$$$$$$$N$X
  6
Continuous
 62
     2
100
AcDbLine
 10
8556.98563
 20
-13448.39209
 30
0.0
 11
8556.98563
 21
-13450.39209
 31
0.0
  0
LINE
  5
1CC
330
A
100
AcDbEntity
  8
$$15$9
  6
Continuous
 62
     3
100
AcDbLine
 10
9062.475037
 20
-13686.756317
 30
0.0
 11
9062.475037
 21
-13719.131341
 31
0.0
  0
LINE
  5
1CD
330
A
100
AcDbEntity
  8
$$15$9
  6
Continuous
 62
     3
100
AcDbLine
 10
9078.375037
 20
-13686.756387
 30
0.0
 11
9078.375037
 21
-13719.923021
 31
0.0
  0
ARC
  5
1CE
330
A
100
AcDbEntity
  8
$$15$9
  6
Continuous
 62
     3
100
AcDbCircle
 10
8632.335665
 20
-13734.706387
 30
0.0
 40
55.9
100
AcDbArc
 50
16.188428
 51
90.0
  0
ARC
  5
1CF
330
A
100
AcDbEntity
  8
$$15$9
  6
Continuous
 62
     3
100
AcDbCircle
 10
8632.335665
 20
-13734.706387
 30
0.0
 40
40.0
100
AcDbArc
 50
22.926313
 51
90.0
  0
LINE
  5
1D0
330
A
100
AcDbEntity
  8
$$15$9
  6
Continuous
 62
     3
100
AcDbLine
 10
8670.835669
 20
-14186.306379
 30
0.0
 11
8686.735669
 21
-14186.306379
 31
0.0
  0
LINE
  5
1D1
330
A
100
AcDbEntity
  8
$$$$$$15$9
  6
Continuous
 62
     6
100
AcDbLine
 10
8670.83566
 20
-14186.30636
 30
0.0
 11
8686.73566
 21
-14186.30636
 31
0.0
  0
LINE
  5
1D2
330
A
100
AcDbEntity
  8
$$$$$$15$9
  6
Continuous
 62
     6
100
AcDbLine
 10
8672.83566
 20
-14191.30636
 30
0.0
 11
8684.73566
 21
-14191.30636
 31
0.0
  0
ARC
  5
1D3
330
A
100
AcDbEntity
  8
$$$$$$15$9
  6
Continuous
 62
     6
100
AcDbCircle
 10
8672.835667
 20
-14189.306386
 30
0.0
 40
2.0
100
AcDbArc
 50
180.0
 51
270.0
  0
ARC
  5
1D4
330
A
100
AcDbEntity
  8
$$$$$$15$9
  6
Continuous
 62
     6
100
AcDbCircle
 10
8684.735667
 20
-14189.306386
 30
0.0
 40
2.0
100
AcDbArc
 50
270.0
 51
0.0
  0
LINE
  5
1D5
330
A
100
AcDbEntity
  8
$$$$$$15$9
  6
Continuous
 62
     6
100
AcDbLine
 10
8670.835667
 20
-14186.306386
 30
0.0
 11
8670.835667
 21
-14189.306386
 31
0.0
  0
LINE
  5
1D6
330
A
100
AcDbEntity
  8
$$$$$$15$9
  6
Continuous
 62
     6
100
AcDbLine
 10
8686.735667
 20
-14186.306386
 30
0.0
 11
8686.735667
 21
-14189.306386
 31
0.0
  0
LINE
  5
1D7
330
A
100
AcDbEntity
  8
$$15$9
  6
Continuous
 62
     3
100
AcDbLine
 10
8670.835667
 20
-14186.131358
 30
0.0
 11
8670.835667
 21
-14186.306379
 31
0.0
  0
LINE
  5
1D8
330
A
100
AcDbEntity
  8
$$15$9
  6
Continuous
 62
     3
100
AcDbLine
 10
8686.735667
 20
-14186.131359
 30
0.0
 11
8686.735667
 21
-14186.306379
 31
0.0
  0
ARC
  5
1D9
330
A
100
AcDbEntity
  8
$$15$9
  6
Continuous
 62
     3
100
AcDbCircle
 10
8276.135661
 20
-13734.706387
 30
0.0
 40
55.9
100
AcDbArc
 50
90.0
 51
163.811572
  0
ARC
  5
1DA
330
A
100
AcDbEntity
  8
$$15$9
  6
Continuous
 62
     3
100
AcDbCircle
 10
8276.135661
 20
-13734.706387
 30
0.0
 40
40.0
100
AcDbArc
 50
90.0
 51
157.073687
  0
LINE
  5
1DB
330
A
100
AcDbEntity
  8
$$15$9
  6
Continuous
 62
     3
100
AcDbLine
 10
8454.235668
 20
-13678.806385
 30
0.0
 11
8276.135661
 21
-13678.806382
 31
0.0
  0
ARC
  5
1DC
330
A
100
AcDbEntity
  8
$$$$$$15$9
  6
Continuous
 62
     6
100
AcDbCircle
 10
8684.735672
 20
-13706.13136
 30
0.0
 40
2.0
100
AcDbArc
 50
0.0
 51
90.0
  0
LINE
  5
1DD
330
A
100
AcDbEntity
  8
$$$$$$15$9
  6
Continuous
 62
     6
100
AcDbLine
 10
8686.735672
 20
-13709.13136
 30
0.0
 11
8686.735672
 21
-13706.13136
 31
0.0
  0
LINE
  5
1DE
330
A
100
AcDbEntity
  8
$$15$9
  6
Continuous
 62
     3
100
AcDbLine
 10
8686.735667
 20
-13719.131345
 30
0.0
 11
8686.735667
 21
-13709.131368
 31
0.0
  0
LINE
  5
1DF
330
A
100
AcDbEntity
  8
$$$$$$15$9
  6
Continuous
 62
     6
100
AcDbLine
 10
8679.132859
 20
-13704.131354
 30
0.0
 11
8684.735662
 21
-13704.131354
 31
0.0
  0
LINE
  5
1E0
330
A
100
AcDbEntity
  8
$$$$$$15$9
  6
Continuous
 62
     6
100
AcDbLine
 10
8682.04208
 20
-13709.131354
 30
0.0
 11
8686.735662
 21
-13709.131354
 31
0.0
  0
ARC
  5
1E1
330
A
100
AcDbEntity
  8
$$$$$$15$9
  6
Continuous
 62
     6
100
AcDbCircle
 10
8223.735653
 20
-13706.13136
 30
0.0
 40
2.0
100
AcDbArc
 50
90.0
 51
180.0
  0
LINE
  5
1E2
330
A
100
AcDbEntity
  8
$$$$$$15$9
  6
Continuous
 62
     6
100
AcDbLine
 10
8221.735653
 20
-13709.13136
 30
0.0
 11
8221.735653
 21
-13706.13136
 31
0.0
  0
LINE
  5
1E3
330
A
100
AcDbEntity
  8
$$15$9
  6
Continuous
 62
     3
100
AcDbLine
 10
8221.735658
 20
-13719.131345
 30
0.0
 11
8221.735658
 21
-13709.131368
 31
0.0
  0
LINE
  5
1E4
330
A
100
AcDbEntity
  8
$$$$$$15$9
  6
Continuous
 62
     6
100
AcDbLine
 10
8229.338465
 20
-13704.131354
 30
0.0
 11
8223.735662
 21
-13704.131354
 31
0.0
  0
LINE
  5
1E5
330
A
100
AcDbEntity
  8
$$$$$$15$9
  6
Continuous
 62
     6
100
AcDbLine
 10
8226.429244
 20
-13709.131354
 30
0.0
 11
8221.735662
 21
-13709.131354
 31
0.0
  0
LINE
  5
1E6
330
A
100
AcDbEntity
  8
$_$X$$$$$$$N$X
  6
Continuous
 62
     4
100
AcDbLine
 10
9258.47504
 20
-13718.30638
 30
0.0
 11
9161.475
 21
-13718.30638
 31
0.0
  0
ARC
  5
1E7
330
A
100
AcDbEntity
  8
$_$X$$$$$$$N$X
  6
Continuous
 62
     4
100
AcDbCircle
 10
9161.475008
 20
-13978.949242
 30
0.0
 40
260.642857
100
AcDbArc
 50
90.000003
 51
103.30885
  0
LINE
  5
1E8
330
A
100
AcDbEntity
  8
$_$X$$$$$$$N$X
  6
Continuous
 62
     4
100
AcDbLine
 10
9258.47504
 20
-13718.30638
 30
0.0
 11
9355.47508
 21
-13718.30638
 31
0.0
  0
ARC
  5
1E9
330
A
100
AcDbEntity
  8
$_$X$$$$$$$N$X
  6
Continuous
 62
     4
100
AcDbCircle
 10
9355.475068
 20
-13978.949242
 30
0.0
 40
260.642857
100
AcDbArc
 50
76.69115
 51
89.999997
  0
LINE
  5
1EA
330
A
100
AcDbEntity
  8
$_$X$$$$$$$N$X
  6
Continuous
 62
     4
100
AcDbLine
 10
9100.47504
 20
-14158.30638
 30
0.0
 11
9416.47504
 21
-14158.30638
 31
0.0
  0
LINE
  5
1EB
330
A
100
AcDbEntity
  8
$_$X$$$$$$$N$X
  6
DIVIDE
 62
     4
100
AcDbLine
 10
9399.23015
 20
-13589.83103
 30
0.0
 11
9399.23015
 21
-13492.83099
 31
0.0
  0
ARC
  5
1EC
330
A
100
AcDbEntity
  8
$_$X$$$$$$$N$X
  6
DIVIDE
 62
     4
100
AcDbCircle
 10
9138.587289
 20
-13492.831004
 30
0.0
 40
260.642857
100
AcDbArc
 50
0.000003
 51
13.30885
  0
LINE
  5
1ED
330
A
100
AcDbEntity
  8
$_$X$$$$$$$N$X
  6
DIVIDE
 62
     4
100
AcDbLine
 10
9399.23015
 20
-13589.83103
 30
0.0
 11
9399.23015
 21
-13686.83107
 31
0.0
  0
ARC
  5
1EE
330
A
100
AcDbEntity
  8
$_$X$$$$$$$N$X
  6
DIVIDE
 62
     4
100
AcDbCircle
 10
9138.587289
 20
-13686.831064
 30
0.0
 40
260.642857
100
AcDbArc
 50
352.329847
 51
359.999997
  0
LINE
  5
1EF
330
A
100
AcDbEntity
  8
$_$X$$$$$$$N$X
  6
DIVIDE
 62
     4
100
AcDbLine
 10
9392.23015
 20
-13432.831
 30
0.0
 11
9382.23015
 21
-13432.831
 31
0.0
  0
LINE
  5
1F0
330
A
100
AcDbEntity
  8
$_$X$$$$$$$N$X
  6
DIVIDE
 62
     4
100
AcDbLine
 10
9382.23015
 20
-13719.68323
 30
0.0
 11
9382.23015
 21
-13432.831
 31
0.0
  0
ARC
  5
1F1
330
A
100
AcDbEntity
  8
$_$X$$$$$$$N$X
  6
DIVIDE
 62
     4
100
AcDbCircle
 10
9398.226776
 20
-13719.892714
 30
0.0
 40
266.967581
100
AcDbArc
 50
96.629231
 51
172.654489
  0
LINE
  5
1F2
330
A
100
AcDbEntity
  8
$$12$7
  6
Continuous
 62
     3
100
AcDbLine
 10
8454.235672
 20
-13080.992094
 30
0.0
 11
8670.835669
 21
-13080.992094
 31
0.0
  0
ARC
  5
1F4
330
A
100
AcDbEntity
  8
$J$$$$$$15$9
  6
Continuous
 62
     6
100
AcDbCircle
 10
8236.015089
 20
-13093.268112
 30
0.0
 40
0.720588
100
AcDbArc
 50
322.701442
 51
136.885256
  0
ARC
  5
1F5
330
A
100
AcDbEntity
  8
$J$$$$$$15$9
  6
Continuous
 62
     6
100
AcDbCircle
 10
8229.685677
 20
-13087.342098
 30
0.0
 40
7.95
100
AcDbArc
 50
180.0
 51
316.885257
  0
ARC
  5
1F6
330
A
100
AcDbEntity
  8
$J$$$$$$15$9
  6
Continuous
 62
     6
100
AcDbCircle
 10
8229.685677
 20
-13087.342098
 30
0.0
 40
7.95
100
AcDbArc
 50
43.114743
 51
180.0
  0
ARC
  5
1F7
330
A
100
AcDbEntity
  8
$J$$$$$$15$9
  6
Continuous
 62
     6
100
AcDbCircle
 10
8236.015089
 20
-13081.416083
 30
0.0
 40
0.720588
100
AcDbArc
 50
223.114744
 51
37.298558
  0
ARC
  5
1F8
330
A
100
AcDbEntity
  8
$J$$$$$$15$9
  6
Continuous
 62
     6
100
AcDbCircle
 10
8228.235677
 20
-13087.342098
 30
0.0
 40
10.5
100
AcDbArc
 50
37.298558
 51
180.0
  0
ARC
  5
1F9
330
A
100
AcDbEntity
  8
$$15$9
  6
Continuous
 62
     3
100
AcDbCircle
 10
8229.685675
 20
-13087.342105
 30
0.0
 40
7.95
100
AcDbArc
 50
180.0
 51
360.0
  0
LINE
  5
1FA
330
A
100
AcDbEntity
  8
$$12$7
  6
Continuous
 62
     3
100
AcDbLine
 10
8237.635674
 20
-13096.692094
 30
0.0
 11
8237.635674
 21
-13080.992098
 31
0.0
  0
ARC
  5
1FB
330
A
100
AcDbEntity
  8
$$15$9
  6
Continuous
 62
     3
100
AcDbCircle
 10
8229.685675
 20
-13087.342098
 30
0.0
 40
7.95
100
AcDbArc
 50
360.0
 51
180.0
  0
LINE
  5
1FC
330
A
100
AcDbEntity
  8
$$12$7
  6
Continuous
 62
     3
100
AcDbLine
 10
8454.235672
 20
-13080.992098
 30
0.0
 11
8237.635674
 21
-13080.992098
 31
0.0
  0
LINE
  5
1FD
330
A
100
AcDbEntity
  8
$$12$7
  6
Continuous
 62
     3
100
AcDbLine
 10
8223.335672
 20
-13095.292099
 30
0.0
 11
8236.035672
 21
-13095.292099
 31
0.0
  0
LINE
  5
1FE
330
A
100
AcDbEntity
  8
$$12$7
  6
Continuous
 62
     3
100
AcDbLine
 10
8223.335665
 20
-13453.492099
 30
0.0
 11
8229.685668
 21
-13453.492099
 31
0.0
  0
ARC
  5
1FF
330
A
100
AcDbEntity
  8
$$12$7
  6
Continuous
 62
     3
100
AcDbCircle
 10
8229.685668
 20
-13461.442099
 30
0.0
 40
7.95
100
AcDbArc
 50
180.0
 51
270.035206
  0
ARC
  5
200
330
A
100
AcDbEntity
  8
$$12$7
  6
Continuous
 62
     3
100
AcDbCircle
 10
8229.685668
 20
-13461.44209
 30
0.0
 40
7.95
100
AcDbArc
 50
89.964794
 51
180.0
  0
ARC
  5
201
330
A
100
AcDbEntity
  8
$J$$$$$$15$9
  6
Continuous
 62
     6
100
AcDbCircle
 10
8228.235677
 20
-13087.342098
 30
0.0
 40
10.5
100
AcDbArc
 50
180.0
 51
242.181826
  0
ARC
  5
202
330
A
100
AcDbEntity
  8
$J$$$$$$15$9
  6
Continuous
 62
     6
100
AcDbCircle
 10
8228.235677
 20
-13087.342098
 30
0.0
 40
10.5
100
AcDbArc
 50
310.787027
 51
322.701442
  0
ARC
  5
203
330
A
100
AcDbEntity
  8
$J$$$$$$15$9
  6
Continuous
 62
     6
100
AcDbCircle
 10
8672.456254
 20
-13093.268112
 30
0.0
 40
0.720588
100
AcDbArc
 50
43.114744
 51
217.298558
  0
ARC
  5
204
330
A
100
AcDbEntity
  8
$J$$$$$$15$9
  6
Continuous
 62
     6
100
AcDbCircle
 10
8678.785666
 20
-13087.342098
 30
0.0
 40
7.95
100
AcDbArc
 50
223.114743
 51
360.0
  0
ARC
  5
205
330
A
100
AcDbEntity
  8
$J$$$$$$15$9
  6
Continuous
 62
     6
100
AcDbCircle
 10
8678.785666
 20
-13087.342098
 30
0.0
 40
7.95
100
AcDbArc
 50
0.0
 51
136.885257
  0
ARC
  5
206
330
A
100
AcDbEntity
  8
$J$$$$$$15$9
  6
Continuous
 62
     6
100
AcDbCircle
 10
8672.456254
 20
-13081.416083
 30
0.0
 40
0.720588
100
AcDbArc
 50
142.701442
 51
316.885256
  0
ARC
  5
207
330
A
100
AcDbEntity
  8
$J$$$$$$15$9
  6
Continuous
 62
     6
100
AcDbCircle
 10
8680.235666
 20
-13087.342098
 30
0.0
 40
10.5
100
AcDbArc
 50
0.0
 51
142.701442
  0
ARC
  5
208
330
A
100
AcDbEntity
  8
$$15$9
  6
Continuous
 62
     3
100
AcDbCircle
 10
8678.785668
 20
-13087.342105
 30
0.0
 40
7.95
100
AcDbArc
 50
180.0
 51
360.0
  0
LINE
  5
209
330
A
100
AcDbEntity
  8
$$12$7
  6
Continuous
 62
     3
100
AcDbLine
 10
8670.835669
 20
-13096.692094
 30
0.0
 11
8670.835669
 21
-13080.992098
 31
0.0
  0
ARC
  5
20A
330
A
100
AcDbEntity
  8
$$15$9
  6
Continuous
 62
     3
100
AcDbCircle
 10
8678.785668
 20
-13087.342098
 30
0.0
 40
7.95
100
AcDbArc
 50
0.0
 51
180.0
  0
LINE
  5
20B
330
A
100
AcDbEntity
  8
$$12$7
  6
Continuous
 62
     3
100
AcDbLine
 10
8685.135672
 20
-13095.292099
 30
0.0
 11
8672.435672
 21
-13095.292099
 31
0.0
  0
LINE
  5
20C
330
A
100
AcDbEntity
  8
$$12$7
  6
Continuous
 62
     3
100
AcDbLine
 10
8685.135665
 20
-13453.492099
 30
0.0
 11
8678.785661
 21
-13453.492099
 31
0.0
  0
ARC
  5
20D
330
A
100
AcDbEntity
  8
$$12$7
  6
Continuous
 62
     3
100
AcDbCircle
 10
8678.785661
 20
-13461.442099
 30
0.0
 40
7.95
100
AcDbArc
 50
269.964794
 51
360.0
  0
ARC
  5
20E
330
A
100
AcDbEntity
  8
$$12$7
  6
Continuous
 62
     3
100
AcDbCircle
 10
8678.785661
 20
-13461.44209
 30
0.0
 40
7.95
100
AcDbArc
 50
0.0
 51
90.035206
  0
ARC
  5
20F
330
A
100
AcDbEntity
  8
$J$$$$$$15$9
  6
Continuous
 62
     6
100
AcDbCircle
 10
8680.235666
 20
-13087.342098
 30
0.0
 40
10.5
100
AcDbArc
 50
297.818174
 51
360.0
  0
ARC
  5
210
330
A
100
AcDbEntity
  8
$J$$$$$$15$9
  6
Continuous
 62
     6
100
AcDbCircle
 10
8680.235666
 20
-13087.342098
 30
0.0
 40
10.5
100
AcDbArc
 50
217.298558
 51
229.212973
  0
LINE
  5
211
330
A
100
AcDbEntity
  8
$$15$9
  6
Continuous
 62
     3
100
AcDbLine
 10
8670.83566
 20
-13452.09211
 30
0.0
 11
8670.83566
 21
-13453.49209
 31
0.0
  0
LINE
  5
212
330
A
100
AcDbEntity
  8
$$15$9
  6
Continuous
 62
     3
100
AcDbLine
 10
8237.63566
 20
-13452.09211
 30
0.0
 11
8237.63566
 21
-13453.49209
 31
0.0
  0
LINE
  5
213
330
A
100
AcDbEntity
  8
$$12$7
  6
Continuous
 62
     3
100
AcDbLine
 10
8665.73566
 20
-13449.61409
 30
0.0
 11
8665.73566
 21
-13453.49209
 31
0.0
  0
LINE
  5
214
330
A
100
AcDbEntity
  8
$$12$7
  6
Continuous
 62
     3
100
AcDbLine
 10
8242.73566
 20
-13449.6141
 30
0.0
 11
8242.73566
 21
-13453.49209
 31
0.0
  0
LINE
  5
215
330
A
100
AcDbEntity
  8
$$12$7
  6
Continuous
 62
     3
100
AcDbLine
 10
8665.735662
 20
-13096.692094
 30
0.0
 11
8670.835664
 21
-13096.692094
 31
0.0
  0
LINE
  5
216
330
A
100
AcDbEntity
  8
$$12$7
  6
Continuous
 62
     3
100
AcDbLine
 10
8242.735662
 20
-13096.692094
 30
0.0
 11
8237.635665
 21
-13096.692094
 31
0.0
  0
LINE
  5
217
330
A
100
AcDbEntity
  8
$$15$9
  6
Continuous
 62
     3
100
AcDbLine
 10
8665.735662
 20
-13452.092115
 30
0.0
 11
8670.835663
 21
-13452.092115
 31
0.0
  0
LINE
  5
218
330
A
100
AcDbEntity
  8
$$15$9
  6
Continuous
 62
     3
100
AcDbLine
 10
8242.735662
 20
-13452.092115
 30
0.0
 11
8237.635662
 21
-13452.092115
 31
0.0
  0
LINE
  5
219
330
A
100
AcDbEntity
  8
$$$$$$
  6
Continuous
 62
     5
100
AcDbLine
 10
8687.735659
 20
-13719.131352
 30
0.0
 11
8667.735661
 21
-13719.131354
 31
0.0
  0
LINE
  5
21A
330
A
100
AcDbEntity
  8
$$$$$$
  6
Continuous
 62
     5
100
AcDbLine
 10
8687.735685
 20
-14186.131362
 30
0.0
 11
8687.735659
 21
-13719.131352
 31
0.0
  0
LINE
  5
21B
330
A
100
AcDbEntity
  8
$$$$$$
  6
Continuous
 62
     5
100
AcDbLine
 10
8220.735651
 20
-14186.13136
 30
0.0
 11
8220.735651
 21
-13719.131351
 31
0.0
  0
CIRCLE
  5
21C
330
A
100
AcDbEntity
  8
$$$$$$
  6
Continuous
 62
     5
100
AcDbCircle
 10
8454.235674
 20
-13832.626361
 30
0.0
 40
5.0
  0
CIRCLE
  5
21D
330
A
100
AcDbEntity
  8
$$$$$$
  6
Continuous
 62
     5
100
AcDbCircle
 10
8454.235674
 20
-13892.626361
 30
0.0
 40
5.0
  0
CIRCLE
  5
21E
330
A
100
AcDbEntity
  8
$$$$$$
  6
Continuous
 62
     5
100
AcDbCircle
 10
8454.235674
 20
-13952.626361
 30
0.0
 40
5.0
  0
CIRCLE
  5
21F
330
A
100
AcDbEntity
  8
$$$$$$
  6
Continuous
 62
     5
100
AcDbCircle
 10
8454.235674
 20
-14012.626361
 30
0.0
 40
5.0
  0
CIRCLE
  5
220
330
A
100
AcDbEntity
  8
$$$$$$
  6
Continuous
 62
     5
100
AcDbCircle
 10
8454.235674
 20
-14072.626361
 30
0.0
 40
5.0
  0
CIRCLE
  5
221
330
A
100
AcDbEntity
  8
$$$$$$
  6
Continuous
 62
     5
100
AcDbCircle
 10
8514.235674
 20
-13832.626361
 30
0.0
 40
5.0
  0
CIRCLE
  5
222
330
A
100
AcDbEntity
  8
$$$$$$
  6
Continuous
 62
     5
100
AcDbCircle
 10
8514.235674
 20
-13892.626361
 30
0.0
 40
5.0
  0
CIRCLE
  5
223
330
A
100
AcDbEntity
  8
$$$$$$
  6
Continuous
 62
     5
100
AcDbCircle
 10
8514.235674
 20
-13952.626361
 30
0.0
 40
5.0
  0
CIRCLE
  5
224
330
A
100
AcDbEntity
  8
$$$$$$
  6
Continuous
 62
     5
100
AcDbCircle
 10
8514.235674
 20
-14012.626361
 30
0.0
 40
5.0
  0
CIRCLE
  5
225
330
A
100
AcDbEntity
  8
$$$$$$
  6
Continuous
 62
     5
100
AcDbCircle
 10
8514.235674
 20
-14072.626361
 30
0.0
 40
5.0
  0
CIRCLE
  5
226
330
A
100
AcDbEntity
  8
$$$$$$
  6
Continuous
 62
     5
100
AcDbCircle
 10
8574.235674
 20
-13832.626361
 30
0.0
 40
5.0
  0
CIRCLE
  5
227
330
A
100
AcDbEntity
  8
$$$$$$
  6
Continuous
 62
     5
100
AcDbCircle
 10
8574.235674
 20
-13892.626361
 30
0.0
 40
5.0
  0
CIRCLE
  5
228
330
A
100
AcDbEntity
  8
$$$$$$
  6
Continuous
 62
     5
100
AcDbCircle
 10
8574.235674
 20
-13952.626361
 30
0.0
 40
5.0
  0
CIRCLE
  5
229
330
A
100
AcDbEntity
  8
$$$$$$
  6
Continuous
 62
     5
100
AcDbCircle
 10
8574.235674
 20
-14012.626361
 30
0.0
 40
5.0
  0
CIRCLE
  5
22A
330
A
100
AcDbEntity
  8
$$$$$$
  6
Continuous
 62
     5
100
AcDbCircle
 10
8574.235674
 20
-14072.626361
 30
0.0
 40
5.0
  0
CIRCLE
  5
22B
330
A
100
AcDbEntity
  8
$$$$$$
  6
Continuous
 62
     5
100
AcDbCircle
 10
8394.235674
 20
-13832.626363
 30
0.0
 40
5.0
  0
CIRCLE
  5
22C
330
A
100
AcDbEntity
  8
$$$$$$
  6
Continuous
 62
     5
100
AcDbCircle
 10
8394.235674
 20
-13892.626363
 30
0.0
 40
5.0
  0
CIRCLE
  5
22D
330
A
100
AcDbEntity
  8
$$$$$$
  6
Continuous
 62
     5
100
AcDbCircle
 10
8394.235674
 20
-13952.626363
 30
0.0
 40
5.0
  0
CIRCLE
  5
22E
330
A
100
AcDbEntity
  8
$$$$$$
  6
Continuous
 62
     5
100
AcDbCircle
 10
8394.235674
 20
-14012.626363
 30
0.0
 40
5.0
  0
CIRCLE
  5
22F
330
A
100
AcDbEntity
  8
$$$$$$
  6
Continuous
 62
     5
100
AcDbCircle
 10
8394.235674
 20
-14072.626363
 30
0.0
 40
5.0
  0
CIRCLE
  5
230
330
A
100
AcDbEntity
  8
$$$$$$
  6
Continuous
 62
     5
100
AcDbCircle
 10
8334.235674
 20
-13832.626363
 30
0.0
 40
5.0
  0
CIRCLE
  5
231
330
A
100
AcDbEntity
  8
$$$$$$
  6
Continuous
 62
     5
100
AcDbCircle
 10
8334.235674
 20
-13892.626363
 30
0.0
 40
5.0
  0
CIRCLE
  5
232
330
A
100
AcDbEntity
  8
$$$$$$
  6
Continuous
 62
     5
100
AcDbCircle
 10
8334.235674
 20
-13952.626363
 30
0.0
 40
5.0
  0
CIRCLE
  5
233
330
A
100
AcDbEntity
  8
$$$$$$
  6
Continuous
 62
     5
100
AcDbCircle
 10
8334.235674
 20
-14012.626363
 30
0.0
 40
5.0
  0
CIRCLE
  5
234
330
A
100
AcDbEntity
  8
$$$$$$
  6
Continuous
 62
     5
100
AcDbCircle
 10
8334.235674
 20
-14072.626363
 30
0.0
 40
5.0
  0
LINE
  5
235
330
A
100
AcDbEntity
  8
$$$$$$
  6
Continuous
 62
     5
100
AcDbLine
 10
8667.735678
 20
-13719.13135
 30
0.0
 11
8454.235673
 21
-13719.131344
 31
0.0
  0
LINE
  5
236
330
A
100
AcDbEntity
  8
$$$$$$
  6
Continuous
 62
     5
100
AcDbLine
 10
8220.735674
 20
-13719.131347
 30
0.0
 11
8240.735672
 21
-13719.131349
 31
0.0
  0
LINE
  5
237
330
A
100
AcDbEntity
  8
$$$$$$
  6
Continuous
 62
     5
100
AcDbLine
 10
8240.735655
 20
-13719.131345
 30
0.0
 11
8454.235662
 21
-13719.131344
 31
0.0
  0
LINE
  5
238
330
A
100
AcDbEntity
  8
$$$$$$
  6
Continuous
 62
     5
100
AcDbLine
 10
8687.735659
 20
-14186.121431
 30
0.0
 11
8667.735661
 21
-14186.121429
 31
0.0
  0
LINE
  5
239
330
A
100
AcDbEntity
  8
$$$$$$
  6
Continuous
 62
     5
100
AcDbLine
 10
8667.735678
 20
-14186.121433
 30
0.0
 11
8454.235673
 21
-14186.121434
 31
0.0
  0
LINE
  5
23A
330
A
100
AcDbEntity
  8
$$$$$$
  6
Continuous
 62
     5
100
AcDbLine
 10
8220.735674
 20
-14186.121426
 30
0.0
 11
8240.735672
 21
-14186.121424
 31
0.0
  0
LINE
  5
23B
330
A
100
AcDbEntity
  8
$$$$$$
  6
Continuous
 62
     5
100
AcDbLine
 10
8240.735655
 20
-14186.121428
 30
0.0
 11
8454.235662
 21
-14186.121434
 31
0.0
  0
LINE
  5
23C
330
A
100
AcDbEntity
  8
$$$$$$
  6
Continuous
 62
     5
100
AcDbLine
 10
9075.67503
 20
-13719.131336
 30
0.0
 11
9061.675032
 21
-13719.131334
 31
0.0
  0
LINE
  5
23D
330
A
100
AcDbEntity
  8
$$$$$$
  6
Continuous
 62
     5
100
AcDbLine
 10
9062.475032
 20
-13729.131334
 30
0.0
 11
9062.475033
 21
-13729.131337
 31
0.0
  0
ARC
  5
23E
330
A
100
AcDbEntity
  8
$$$$$$
  6
Continuous
 62
     5
100
AcDbCircle
 10
9075.67503
 20
-13724.131336
 30
0.0
 40
5.0
100
AcDbArc
 50
360.0
 51
89.999993
  0
LINE
  5
23F
330
A
100
AcDbEntity
  8
$$$$$$
  6
Continuous
 62
     5
100
AcDbLine
 10
9075.67504
 20
-14186.131348
 30
0.0
 11
9061.675042
 21
-14186.131349
 31
0.0
  0
ARC
  5
240
330
A
100
AcDbEntity
  8
$$$$$$
  6
Continuous
 62
     5
100
AcDbCircle
 10
9075.675039
 20
-14181.131348
 30
0.0
 40
5.0
100
AcDbArc
 50
270.000007
 51
0.0
  0
LINE
  5
241
330
A
100
AcDbEntity
  8
$$$$$$
  6
Continuous
 62
     5
100
AcDbLine
 10
9061.675038
 20
-14186.131349
 30
0.0
 11
9061.675032
 21
-13719.131334
 31
0.0
  0
CIRCLE
  5
242
330
A
100
AcDbEntity
  8
$$$$$$
  6
Continuous
 62
     5
100
AcDbCircle
 10
9070.425045
 20
-14108.626397
 30
0.0
 40
2.25
  0
LINE
  5
243
330
A
100
AcDbEntity
  8
$$$$$$
  6
Continuous
 62
     5
100
AcDbLine
 10
9080.675036
 20
-14181.13744
 30
0.0
 11
9080.675029
 21
-13724.131336
 31
0.0
  0
CIRCLE
  5
244
330
A
100
AcDbEntity
  8
$$$$$$
  6
Continuous
 62
     5
100
AcDbCircle
 10
9070.425034
 20
-13796.626388
 30
0.0
 40
2.25
  0
LINE
  5
245
330
A
100
AcDbEntity
  8
$$$$$$
  6
Continuous
 62
     5
100
AcDbLine
 10
9062.475032
 20
-14176.121426
 30
0.0
 11
9062.475033
 21
-14176.121422
 31
0.0
  0
LINE
  5
246
330
A
100
AcDbEntity
  8
$$$$$$
  6
Continuous
 62
     5
100
AcDbLine
 10
8686.135662
 20
-13451.992096
 30
0.0
 11
8686.135661
 21
-13456.192096
 31
0.0
  0
LINE
  5
247
330
A
100
AcDbEntity
  8
$$$$$$
  6
Continuous
 62
     5
100
AcDbLine
 10
8686.935662
 20
-13451.992096
 30
0.0
 11
8686.935665
 21
-13459.842091
 31
0.0
  0
ARC
  5
248
330
A
100
AcDbEntity
  8
$$$$$$
  6
Continuous
 62
     5
100
AcDbCircle
 10
8686.935662
 20
-13451.992096
 30
0.0
 40
0.8
100
AcDbArc
 50
90.0
 51
180.0
  0
ARC
  5
249
330
A
100
AcDbEntity
  8
$$$$$$
  6
Continuous
 62
     5
100
AcDbCircle
 10
8686.935662
 20
-13451.992096
 30
0.0
 40
0.8
100
AcDbArc
 50
0.0
 51
90.0
  0
LINE
  5
24A
330
A
100
AcDbEntity
  8
$$$$$$
  6
Continuous
 62
     5
100
AcDbLine
 10
8686.935661
 20
-13456.192096
 30
0.0
 11
8686.135661
 21
-13456.192096
 31
0.0
  0
ARC
  5
24B
330
A
100
AcDbEntity
  8
$$$$$$
  6
Continuous
 62
     5
100
AcDbCircle
 10
8677.385901
 20
-13459.842094
 30
0.0
 40
10.35
100
AcDbArc
 50
270.0
 51
0.00002
  0
LINE
  5
24C
330
A
100
AcDbEntity
  8
$$$$$$
  6
Continuous
 62
     5
100
AcDbLine
 10
8687.735662
 20
-13451.992096
 30
0.0
 11
8687.735665
 21
-13459.84212
 31
0.0
  0
ARC
  5
24D
330
A
100
AcDbEntity
  8
$$$$$$
  6
Continuous
 62
     5
100
AcDbCircle
 10
8677.385665
 20
-13459.842094
 30
0.0
 40
9.55
100
AcDbArc
 50
270.0
 51
0.00002
  0
LINE
  5
24E
330
A
100
AcDbEntity
  8
$$$$$$
  6
Continuous
 62
     5
100
AcDbLine
 10
8677.386182
 20
-13470.192094
 30
0.0
 11
8454.235674
 21
-13470.192095
 31
0.0
  0
LINE
  5
24F
330
A
100
AcDbEntity
  8
$$$$$$
  6
Continuous
 62
     5
100
AcDbLine
 10
8667.388678
 20
-13469.392096
 30
0.0
 11
8667.385669
 21
-13469.392096
 31
0.0
  0
LINE
  5
250
330
A
100
AcDbEntity
  8
$$$$$$
  6
Continuous
 62
     5
100
AcDbLine
 10
8677.385665
 20
-13469.392092
 30
0.0
 11
8667.735675
 21
-13469.392094
 31
0.0
  0
LINE
  5
251
330
A
100
AcDbEntity
  8
$$$$$$
  6
Continuous
 62
     5
100
AcDbLine
 10
8222.335672
 20
-13451.992091
 30
0.0
 11
8222.335674
 21
-13456.192091
 31
0.0
  0
LINE
  5
252
330
A
100
AcDbEntity
  8
$$$$$$
  6
Continuous
 62
     5
100
AcDbLine
 10
8221.535672
 20
-13451.992091
 30
0.0
 11
8221.535669
 21
-13459.842086
 31
0.0
  0
ARC
  5
253
330
A
100
AcDbEntity
  8
$$$$$$
  6
Continuous
 62
     5
100
AcDbCircle
 10
8221.535672
 20
-13451.992091
 30
0.0
 40
0.8
100
AcDbArc
 50
0.0
 51
90.0
  0
ARC
  5
254
330
A
100
AcDbEntity
  8
$$$$$$
  6
Continuous
 62
     5
100
AcDbCircle
 10
8221.535672
 20
-13451.992091
 30
0.0
 40
0.8
100
AcDbArc
 50
90.0
 51
180.0
  0
LINE
  5
255
330
A
100
AcDbEntity
  8
$$$$$$
  6
Continuous
 62
     5
100
AcDbLine
 10
8221.535674
 20
-13456.192091
 30
0.0
 11
8222.335674
 21
-13456.192091
 31
0.0
  0
ARC
  5
256
330
A
100
AcDbEntity
  8
$$$$$$
  6
Continuous
 62
     5
100
AcDbCircle
 10
8231.085434
 20
-13459.842089
 30
0.0
 40
10.35
100
AcDbArc
 50
179.99998
 51
270.0
  0
LINE
  5
257
330
A
100
AcDbEntity
  8
$$$$$$
  6
Continuous
 62
     5
100
AcDbLine
 10
8220.735672
 20
-13451.992091
 30
0.0
 11
8220.735669
 21
-13459.842115
 31
0.0
  0
ARC
  5
258
330
A
100
AcDbEntity
  8
$$$$$$
  6
Continuous
 62
     5
100
AcDbCircle
 10
8231.085669
 20
-13459.842089
 30
0.0
 40
9.55
100
AcDbArc
 50
179.99998
 51
270.0
  0
LINE
  5
259
330
A
100
AcDbEntity
  8
$$$$$$
  6
Continuous
 62
     5
100
AcDbLine
 10
8231.085152
 20
-13470.192089
 30
0.0
 11
8454.235663
 21
-13470.192095
 31
0.0
  0
LINE
  5
25A
330
A
100
AcDbEntity
  8
$$$$$$
  6
Continuous
 62
     5
100
AcDbLine
 10
8241.082656
 20
-13469.392091
 30
0.0
 11
8241.085665
 21
-13469.392091
 31
0.0
  0
LINE
  5
25B
330
A
100
AcDbEntity
  8
$$$$$$
  6
Continuous
 62
     5
100
AcDbLine
 10
8231.085669
 20
-13469.392087
 30
0.0
 11
8240.73566
 21
-13469.392089
 31
0.0
  0
LINE
  5
25C
330
A
100
AcDbEntity
  8
$J$$$$$$15$9
  6
Continuous
 62
     6
100
AcDbLine
 10
9433.52502
 20
-13792.30638
 30
0.0
 11
9433.52502
 21
-13820.30638
 31
0.0
  0
LINE
  5
25D
330
A
100
AcDbEntity
  8
$J$$$$$$15$9
  6
Continuous
 62
     6
100
AcDbLine
 10
9455.52502
 20
-13792.30638
 30
0.0
 11
9455.52502
 21
-13820.30638
 31
0.0
  0
LINE
  5
25E
330
A
100
AcDbEntity
  8
$J$$$$$$15$9
  6
Continuous
 62
     6
100
AcDbLine
 10
9454.52502
 20
-13791.30638
 30
0.0
 11
9434.52502
 21
-13791.30638
 31
0.0
  0
LINE
  5
25F
330
A
100
AcDbEntity
  8
$J$$$$$$15$9
  6
Continuous
 62
     6
100
AcDbLine
 10
9454.52502
 20
-13821.30638
 30
0.0
 11
9434.52502
 21
-13821.30638
 31
0.0
  0
ARC
  5
260
330
A
100
AcDbEntity
  8
$J$$$$$$15$9
  6
Continuous
 62
     6
100
AcDbCircle
 10
9454.525018
 20
-13792.306381
 30
0.0
 40
1.0
100
AcDbArc
 50
0.0
 51
90.0
  0
ARC
  5
261
330
A
100
AcDbEntity
  8
$J$$$$$$15$9
  6
Continuous
 62
     6
100
AcDbCircle
 10
9434.525018
 20
-13792.306381
 30
0.0
 40
1.0
100
AcDbArc
 50
90.0
 51
180.0
  0
ARC
  5
262
330
A
100
AcDbEntity
  8
$J$$$$$$15$9
  6
Continuous
 62
     6
100
AcDbCircle
 10
9434.525018
 20
-13820.306381
 30
0.0
 40
1.0
100
AcDbArc
 50
180.0
 51
270.0
  0
ARC
  5
263
330
A
100
AcDbEntity
  8
$J$$$$$$15$9
  6
Continuous
 62
     6
100
AcDbCircle
 10
9454.525018
 20
-13820.306381
 30
0.0
 40
1.0
100
AcDbArc
 50
270.0
 51
360.0
  0
LINE
  5
264
330
A
100
AcDbEntity
  8
$J$$$$$$15$9
  6
Continuous
 62
     6
100
AcDbLine
 10
9433.52502
 20
-14084.30638
 30
0.0
 11
9433.52502
 21
-14112.30638
 31
0.0
  0
LINE
  5
265
330
A
100
AcDbEntity
  8
$J$$$$$$15$9
  6
Continuous
 62
     6
100
AcDbLine
 10
9455.52502
 20
-14084.30638
 30
0.0
 11
9455.52502
 21
-14112.30638
 31
0.0
  0
LINE
  5
266
330
A
100
AcDbEntity
  8
$J$$$$$$15$9
  6
Continuous
 62
     6
100
AcDbLine
 10
9454.52502
 20
-14083.30638
 30
0.0
 11
9434.52502
 21
-14083.30638
 31
0.0
  0
LINE
  5
267
330
A
100
AcDbEntity
  8
$J$$$$$$15$9
  6
Continuous
 62
     6
100
AcDbLine
 10
9454.52502
 20
-14113.30638
 30
0.0
 11
9434.52502
 21
-14113.30638
 31
0.0
  0
ARC
  5
268
330
A
100
AcDbEntity
  8
$J$$$$$$15$9
  6
Continuous
 62
     6
100
AcDbCircle
 10
9454.525018
 20
-14084.306381
 30
0.0
 40
1.0
100
AcDbArc
 50
0.0
 51
90.0
  0
ARC
  5
269
330
A
100
AcDbEntity
  8
$J$$$$$$15$9
  6
Continuous
 62
     6
100
AcDbCircle
 10
9434.525018
 20
-14084.306381
 30
0.0
 40
1.0
100
AcDbArc
 50
90.0
 51
180.0
  0
ARC
  5
26A
330
A
100
AcDbEntity
  8
$J$$$$$$15$9
  6
Continuous
 62
     6
100
AcDbCircle
 10
9434.525018
 20
-14112.306381
 30
0.0
 40
1.0
100
AcDbArc
 50
180.0
 51
270.0
  0
ARC
  5
26B
330
A
100
AcDbEntity
  8
$J$$$$$$15$9
  6
Continuous
 62
     6
100
AcDbCircle
 10
9454.525018
 20
-14112.306381
 30
0.0
 40
1.0
100
AcDbArc
 50
270.0
 51
360.0
  0
CIRCLE
  5
26C
330
A
100
AcDbEntity
  8
$$$$$$
  6
Continuous
 62
     6
100
AcDbCircle
 10
9070.425032
 20
-13796.626384
 30
0.0
 40
4.0
  0
CIRCLE
  5
26D
330
A
100
AcDbEntity
  8
$$$$$$
  6
Continuous
 62
     6
100
AcDbCircle
 10
9070.425042
 20
-14108.626394
 30
0.0
 40
4.0
  0
LINE
  5
26E
330
A
100
AcDbEntity
  8
$J$$$$$$15$9
  6
Continuous
 62
     6
100
AcDbLine
 10
8690.73566
 20
-13792.30638
 30
0.0
 11
8690.73566
 21
-13820.30638
 31
0.0
  0
ARC
  5
26F
330
A
100
AcDbEntity
  8
$J$$$$$$15$9
  6
Continuous
 62
     6
100
AcDbCircle
 10
8689.73566
 20
-13792.306395
 30
0.0
 40
1.0
100
AcDbArc
 50
0.0
 51
90.0
  0
ARC
  5
270
330
A
100
AcDbEntity
  8
$J$$$$$$15$9
  6
Continuous
 62
     6
100
AcDbCircle
 10
8689.73566
 20
-13820.306395
 30
0.0
 40
1.0
100
AcDbArc
 50
270.0
 51
0.0
  0
LINE
  5
271
330
A
100
AcDbEntity
  8
$J$$$$$$15$9
  6
Continuous
 62
     6
100
AcDbLine
 10
8689.735662
 20
-13791.306394
 30
0.0
 11
8687.735663
 21
-13791.306394
 31
0.0
  0
LINE
  5
272
330
A
100
AcDbEntity
  8
$J$$$$$$15$9
  6
Continuous
 62
     6
100
AcDbLine
 10
8689.735662
 20
-13821.306384
 30
0.0
 11
8687.735665
 21
-13821.306384
 31
0.0
  0
LINE
  5
273
330
A
100
AcDbEntity
  8
$J$$$$$$15$9
  6
Continuous
 62
     6
100
AcDbLine
 10
8690.73566
 20
-14084.30638
 30
0.0
 11
8690.73566
 21
-14112.30638
 31
0.0
  0
ARC
  5
274
330
A
100
AcDbEntity
  8
$J$$$$$$15$9
  6
Continuous
 62
     6
100
AcDbCircle
 10
8689.73566
 20
-14084.306392
 30
0.0
 40
1.0
100
AcDbArc
 50
0.0
 51
90.0
  0
ARC
  5
275
330
A
100
AcDbEntity
  8
$J$$$$$$15$9
  6
Continuous
 62
     6
100
AcDbCircle
 10
8689.73566
 20
-14112.306392
 30
0.0
 40
1.0
100
AcDbArc
 50
270.0
 51
0.0
  0
LINE
  5
276
330
A
100
AcDbEntity
  8
$J$$$$$$15$9
  6
Continuous
 62
     6
100
AcDbLine
 10
8689.735662
 20
-14083.306392
 30
0.0
 11
8687.735679
 21
-14083.306392
 31
0.0
  0
LINE
  5
277
330
A
100
AcDbEntity
  8
$J$$$$$$15$9
  6
Continuous
 62
     6
100
AcDbLine
 10
8689.735662
 20
-14113.306382
 30
0.0
 11
8687.735681
 21
-14113.306382
 31
0.0
  0
LINE
  5
278
330
A
100
AcDbEntity
  8
$$$$$$
  6
Continuous
 62
     6
100
AcDbLine
 10
8687.73566
 20
-13792.62638
 30
0.0
 11
8687.73566
 21
-13800.62638
 31
0.0
  0
ARC
  5
279
330
A
100
AcDbEntity
  8
$$$$$$
  6
Continuous
 62
     6
100
AcDbCircle
 10
8684.735662
 20
-13796.626384
 30
0.0
 40
5.0
100
AcDbArc
 50
306.869897
 51
53.130103
  0
LINE
  5
27A
330
A
100
AcDbEntity
  8
$$$$$$
  6
Continuous
 62
     6
100
AcDbLine
 10
8687.73566
 20
-13457.44209
 30
0.0
 11
8687.73566
 21
-13465.44209
 31
0.0
  0
ARC
  5
27B
330
A
100
AcDbEntity
  8
$$$$$$
  6
Continuous
 62
     6
100
AcDbCircle
 10
8684.735662
 20
-13461.442094
 30
0.0
 40
5.0
100
AcDbArc
 50
306.869897
 51
53.130103
  0
ARC
  5
27C
330
A
100
AcDbEntity
  8
$_$X$$$$$$$N$X
  6
Continuous
 62
     4
100
AcDbCircle
 10
9432.475039
 20
-13735.306388
 30
0.0
 40
10.0
100
AcDbArc
 50
65.795236
 51
90.0
  0
LINE
  5
27D
330
A
100
AcDbEntity
  8
$_$X$$$$$$$N$X
  6
Continuous
 62
     4
100
AcDbLine
 10
9426.65226
 20
-13756.30638
 30
0.0
 11
9426.551
 21
-13760.30638
 31
0.0
  0
LINE
  5
27E
330
A
100
AcDbEntity
  8
$_$X$$$$$$$N$X
  6
Continuous
 62
     4
100
AcDbLine
 10
9426.29783
 20
-13770.30638
 30
0.0
 11
9416.47504
 21
-14158.30638
 31
0.0
  0
LINE
  5
27F
330
A
100
AcDbEntity
  8
$$15$9
  6
Continuous
 62
     3
100
AcDbLine
 10
9436.575028
 20
-13718.602444
 30
0.0
 11
9436.575028
 21
-13791.306384
 31
0.0
  0
LINE
  5
280
330
A
100
AcDbEntity
  8
$$15$9
  6
Continuous
 62
     3
100
AcDbLine
 10
9452.475033
 20
-13718.602435
 30
0.0
 11
9452.475033
 21
-13791.306384
 31
0.0
  0
LINE
  5
281
330
A
100
AcDbEntity
  8
$$15$9
  6
Continuous
 62
     3
100
AcDbLine
 10
9436.575028
 20
-13821.306384
 30
0.0
 11
9436.575027
 21
-14083.306384
 31
0.0
  0
LINE
  5
282
330
A
100
AcDbEntity
  8
$$15$9
  6
Continuous
 62
     3
100
AcDbLine
 10
9436.575027
 20
-14113.306384
 30
0.0
 11
9436.575027
 21
-14186.306362
 31
0.0
  0
LINE
  5
283
330
A
100
AcDbEntity
  8
$$15$9
  6
Continuous
 62
     3
100
AcDbLine
 10
9452.475033
 20
-13821.306384
 30
0.0
 11
9452.475033
 21
-14083.306384
 31
0.0
  0
LINE
  5
284
330
A
100
AcDbEntity
  8
$$15$9
  6
Continuous
 62
     3
100
AcDbLine
 10
9452.475033
 20
-14113.306384
 30
0.0
 11
9452.475033
 21
-14186.306353
 31
0.0
  0
LINE
  5
285
330
A
100
AcDbEntity
  8
$_$X$$$$$$$N$X
  6
Continuous
 62
     4
100
AcDbLine
 10
9090.29782
 20
-13756.30638
 30
0.0
 11
9090.39909
 21
-13760.30638
 31
0.0
  0
LINE
  5
286
330
A
100
AcDbEntity
  8
$_$X$$$$$$$N$X
  6
Continuous
 62
     4
100
AcDbLine
 10
9090.65225
 20
-13770.30638
 30
0.0
 11
9100.47504
 21
-14158.30638
 31
0.0
  0
LINE
  5
287
330
A
100
AcDbEntity
  8
$_$X$$$$$$$N$X
  6
Continuous
 62
     4
100
AcDbLine
 10
9080.67503
 20
-13725.30638
 30
0.0
 11
9432.47504
 21
-13725.30638
 31
0.0
  0
ARC
  5
288
330
A
100
AcDbEntity
  8
$_$X$$$$$$$N$X
  6
Continuous
 62
     4
100
AcDbCircle
 10
9084.475042
 20
-13735.306381
 30
0.0
 40
10.0
100
AcDbArc
 50
90.0
 51
112.333761
  0
LINE
  5
289
330
A
100
AcDbEntity
  8
$_$X$$$$$$$N$X
  6
Continuous
 62
     4
100
AcDbLine
 10
9080.67503
 20
-13751.30638
 30
0.0
 11
9436.57503
 21
-13751.30638
 31
0.0
  0
LINE
  5
28A
330
A
100
AcDbEntity
  8
$_$X$$$$$$$N$X
  6
Continuous
 62
     4
100
AcDbLine
 10
9080.67503
 20
-13756.30638
 30
0.0
 11
9436.57503
 21
-13756.30638
 31
0.0
  0
LINE
  5
28B
330
A
100
AcDbEntity
  8
$$$$$$
  6
Continuous
 62
     6
100
AcDbLine
 10
8687.73566
 20
-14104.62639
 30
0.0
 11
8687.73566
 21
-14112.62639
 31
0.0
  0
ARC
  5
28C
330
A
100
AcDbEntity
  8
$$$$$$
  6
Continuous
 62
     6
100
AcDbCircle
 10
8684.735662
 20
-14108.626394
 30
0.0
 40
5.0
100
AcDbArc
 50
306.869897
 51
53.130103
  0
LINE
  5
28D
330
A
100
AcDbEntity
  8
1
  6
Continuous
 62
     7
100
AcDbLine
 10
8280.38566
 20
-14215.30637
 30
0.0
 11
8253.08566
 21
-14215.30637
 31
0.0
  0
ARC
  5
28E
330
A
100
AcDbEntity
  8
1
  6
Continuous
 62
     7
100
AcDbCircle
 10
8280.385645
 20
-14212.306379
 30
0.0
 40
3.0
100
AcDbArc
 50
270.0
 51
0.0
  0
ARC
  5
28F
330
A
100
AcDbEntity
  8
1
  6
Continuous
 62
     7
100
AcDbCircle
 10
8253.085645
 20
-14212.306379
 30
0.0
 40
3.0
100
AcDbArc
 50
180.0
 51
270.0
  0
LINE
  5
290
330
A
100
AcDbEntity
  8
1
  6
Continuous
 62
     7
100
AcDbLine
 10
8283.48566
 20
-14228.80637
 30
0.0
 11
8273.48566
 21
-14228.80637
 31
0.0
  0
LINE
  5
291
330
A
100
AcDbEntity
  8
1
  6
Continuous
 62
     7
100
AcDbLine
 10
8259.98566
 20
-14228.80637
 30
0.0
 11
8249.98566
 21
-14228.80637
 31
0.0
  0
LINE
  5
292
330
A
100
AcDbEntity
  8
1
  6
Continuous
 62
     7
100
AcDbLine
 10
8273.48566
 20
-14215.30637
 30
0.0
 11
8273.48566
 21
-14228.80637
 31
0.0
  0
LINE
  5
293
330
A
100
AcDbEntity
  8
1
  6
Continuous
 62
     7
100
AcDbLine
 10
8259.98566
 20
-14215.30637
 30
0.0
 11
8259.98566
 21
-14228.80637
 31
0.0
  0
ARC
  5
294
330
A
100
AcDbEntity
  8
1
  6
Continuous
 62
     7
100
AcDbCircle
 10
8222.024107
 20
-14208.556379
 30
0.0
 40
64.711538
100
AcDbArc
 50
341.764275
 51
18.235725
  0
ARC
  5
295
330
A
100
AcDbEntity
  8
1
  6
Continuous
 62
     7
100
AcDbCircle
 10
8311.447184
 20
-14208.556379
 30
0.0
 40
64.711538
100
AcDbArc
 50
161.764275
 51
198.235725
  0
LINE
  5
296
330
A
100
AcDbEntity
  8
1
  6
Continuous
 62
     7
100
AcDbLine
 10
8283.485656
 20
-14187.281359
 30
0.0
 11
8283.485656
 21
-14228.806388
 31
0.0
  0
LINE
  5
297
330
A
100
AcDbEntity
  8
1
  6
Continuous
 62
     7
100
AcDbLine
 10
8249.985656
 20
-14187.281359
 30
0.0
 11
8249.985656
 21
-14228.806388
 31
0.0
  0
LINE
  5
298
330
A
100
AcDbEntity
  8
$$15$9
  6
Continuous
 62
     3
100
AcDbLine
 10
8237.635656
 20
-14186.306379
 30
0.0
 11
8221.735656
 21
-14186.306379
 31
0.0
  0
LINE
  5
299
330
A
100
AcDbEntity
  8
$$$$$$15$9
  6
Continuous
 62
     6
100
AcDbLine
 10
8237.63566
 20
-14186.30636
 30
0.0
 11
8221.73566
 21
-14186.30636
 31
0.0
  0
LINE
  5
29A
330
A
100
AcDbEntity
  8
$$$$$$15$9
  6
Continuous
 62
     6
100
AcDbLine
 10
8235.63566
 20
-14191.30636
 30
0.0
 11
8223.73566
 21
-14191.30636
 31
0.0
  0
ARC
  5
29B
330
A
100
AcDbEntity
  8
$$$$$$15$9
  6
Continuous
 62
     6
100
AcDbCircle
 10
8235.635658
 20
-14189.306386
 30
0.0
 40
2.0
100
AcDbArc
 50
270.0
 51
0.0
  0
ARC
  5
29C
330
A
100
AcDbEntity
  8
$$$$$$15$9
  6
Continuous
 62
     6
100
AcDbCircle
 10
8223.735658
 20
-14189.306386
 30
0.0
 40
2.0
100
AcDbArc
 50
180.0
 51
270.0
  0
LINE
  5
29D
330
A
100
AcDbEntity
  8
$$$$$$15$9
  6
Continuous
 62
     6
100
AcDbLine
 10
8237.635658
 20
-14186.306386
 30
0.0
 11
8237.635658
 21
-14189.306386
 31
0.0
  0
LINE
  5
29E
330
A
100
AcDbEntity
  8
$$$$$$15$9
  6
Continuous
 62
     6
100
AcDbLine
 10
8221.735658
 20
-14186.306386
 30
0.0
 11
8221.735658
 21
-14189.306386
 31
0.0
  0
LINE
  5
29F
330
A
100
AcDbEntity
  8
$$15$9
  6
Continuous
 62
     3
100
AcDbLine
 10
8237.635658
 20
-14186.131358
 30
0.0
 11
8237.635658
 21
-14186.306379
 31
0.0
  0
LINE
  5
2A0
330
A
100
AcDbEntity
  8
$$15$9
  6
Continuous
 62
     3
100
AcDbLine
 10
8221.735658
 20
-14186.131359
 30
0.0
 11
8221.735658
 21
-14186.306379
 31
0.0
  0
LINE
  5
2A1
330
A
100
AcDbEntity
  8
$J$$$$$$15$9
  6
Continuous
 62
     6
100
AcDbLine
 10
8217.73566
 20
-14084.30638
 30
0.0
 11
8217.73566
 21
-14112.30638
 31
0.0
  0
ARC
  5
2A2
330
A
100
AcDbEntity
  8
$J$$$$$$15$9
  6
Continuous
 62
     6
100
AcDbCircle
 10
8218.735665
 20
-14084.306392
 30
0.0
 40
1.0
100
AcDbArc
 50
90.0
 51
180.0
  0
ARC
  5
2A3
330
A
100
AcDbEntity
  8
$J$$$$$$15$9
  6
Continuous
 62
     6
100
AcDbCircle
 10
8218.735665
 20
-14112.306392
 30
0.0
 40
1.0
100
AcDbArc
 50
180.0
 51
270.0
  0
LINE
  5
2A4
330
A
100
AcDbEntity
  8
$J$$$$$$15$9
  6
Continuous
 62
     6
100
AcDbLine
 10
8218.735662
 20
-14083.306392
 30
0.0
 11
8220.735645
 21
-14083.306392
 31
0.0
  0
LINE
  5
2A5
330
A
100
AcDbEntity
  8
$J$$$$$$15$9
  6
Continuous
 62
     6
100
AcDbLine
 10
8218.735662
 20
-14113.306382
 30
0.0
 11
8220.735644
 21
-14113.306382
 31
0.0
  0
LINE
  5
2A6
330
A
100
AcDbEntity
  8
$$$$$$
  6
Continuous
 62
     6
100
AcDbLine
 10
8220.73566
 20
-14104.62639
 30
0.0
 11
8220.73566
 21
-14112.62639
 31
0.0
  0
ARC
  5
2A7
330
A
100
AcDbEntity
  8
$$$$$$
  6
Continuous
 62
     6
100
AcDbCircle
 10
8223.735662
 20
-14108.626394
 30
0.0
 40
5.0
100
AcDbArc
 50
126.869897
 51
233.130103
  0
LINE
  5
2A8
330
A
100
AcDbEntity
  8
$J$$$$$$15$9
  6
Continuous
 62
     6
100
AcDbLine
 10
8217.73566
 20
-13792.30638
 30
0.0
 11
8217.73566
 21
-13820.30638
 31
0.0
  0
ARC
  5
2A9
330
A
100
AcDbEntity
  8
$J$$$$$$15$9
  6
Continuous
 62
     6
100
AcDbCircle
 10
8218.735665
 20
-13792.306395
 30
0.0
 40
1.0
100
AcDbArc
 50
90.0
 51
180.0
  0
ARC
  5
2AA
330
A
100
AcDbEntity
  8
$J$$$$$$15$9
  6
Continuous
 62
     6
100
AcDbCircle
 10
8218.735665
 20
-13820.306395
 30
0.0
 40
1.0
100
AcDbArc
 50
180.0
 51
270.0
  0
LINE
  5
2AB
330
A
100
AcDbEntity
  8
$J$$$$$$15$9
  6
Continuous
 62
     6
100
AcDbLine
 10
8218.735662
 20
-13791.306394
 30
0.0
 11
8220.735662
 21
-13791.306394
 31
0.0
  0
LINE
  5
2AC
330
A
100
AcDbEntity
  8
$J$$$$$$15$9
  6
Continuous
 62
     6
100
AcDbLine
 10
8218.735662
 20
-13821.306384
 30
0.0
 11
8220.73566
 21
-13821.306384
 31
0.0
  0
LINE
  5
2AD
330
A
100
AcDbEntity
  8
$$$$$$
  6
Continuous
 62
     6
100
AcDbLine
 10
8220.73566
 20
-13792.62638
 30
0.0
 11
8220.73566
 21
-13800.62638
 31
0.0
  0
ARC
  5
2AE
330
A
100
AcDbEntity
  8
$$$$$$
  6
Continuous
 62
     6
100
AcDbCircle
 10
8223.735662
 20
-13796.626384
 30
0.0
 40
5.0
100
AcDbArc
 50
126.869897
 51
233.130103
  0
LINE
  5
2AF
330
A
100
AcDbEntity
  8
$$15$9
  6
Continuous
 62
     3
100
AcDbLine
 10
8240.73566
 20
-13469.392095
 30
0.0
 11
8677.385665
 21
-13469.392093
 31
0.0
  0
LINE
  5
2B0
330
A
100
AcDbEntity
  8
$$15$9
  6
Continuous
 62
     3
100
AcDbLine
 10
8667.735675
 20
-13469.392093
 30
0.0
 11
8678.794836
 21
-13469.392093
 31
0.0
  0
LINE
  5
2B1
330
A
100
AcDbEntity
  8
$$12$7
  6
Continuous
 62
     3
100
AcDbLine
 10
8685.135665
 20
-13453.492099
 30
0.0
 11
8685.135666
 21
-13400.390326
 31
0.0
  0
LINE
  5
2B2
330
A
100
AcDbEntity
  8
$$12$7
  6
Continuous
 62
     3
100
AcDbLine
 10
8685.135672
 20
-13095.292099
 30
0.0
 11
8685.135671
 21
-13146.393887
 31
0.0
  0
LINE
  5
2B3
330
A
100
AcDbEntity
  8
$$12$7
  6
Continuous
 62
     3
100
AcDbLine
 10
8672.435665
 20
-13453.492093
 30
0.0
 11
8672.435665
 21
-13444.394985
 31
0.0
  0
LINE
  5
2B4
330
A
100
AcDbEntity
  8
$$15$9
  6
Continuous
 62
     3
100
AcDbLine
 10
8668.822347
 20
-13447.492105
 30
0.0
 11
8672.435665
 21
-13447.492105
 31
0.0
  0
LINE
  5
2B5
330
A
100
AcDbEntity
  8
$$15$9
  6
Continuous
 62
     3
100
AcDbLine
 10
8466.815555
 20
-13441.492104
 30
0.0
 11
8441.655818
 21
-13441.492104
 31
0.0
  0
LINE
  5
2B6
330
A
100
AcDbEntity
  8
$$15$9
  6
Continuous
 62
     3
100
AcDbLine
 10
8473.148955
 20
-13447.492104
 30
0.0
 11
8435.32243
 21
-13447.492104
 31
0.0
  0
LINE
  5
2B7
330
A
100
AcDbEntity
  8
$$15$9
  6
Continuous
 62
     3
100
AcDbLine
 10
8678.780776
 20
-13453.492092
 30
0.0
 11
8226.510666
 21
-13453.492099
 31
0.0
  0
LINE
  5
2B8
330
A
100
AcDbEntity
  8
$$15$9
  6
Continuous
 62
     3
100
AcDbLine
 10
8239.648971
 20
-13447.492107
 30
0.0
 11
8236.035666
 21
-13447.492107
 31
0.0
  0
LINE
  5
2B9
330
A
100
AcDbEntity
  8
$$12$7
  6
Continuous
 62
     3
100
AcDbLine
 10
8236.035665
 20
-13453.492093
 30
0.0
 11
8236.035665
 21
-13444.394991
 31
0.0
  0
LINE
  5
2BA
330
A
100
AcDbEntity
  8
$$15$9
  6
Continuous
 62
     3
100
AcDbLine
 10
8240.73566
 20
-13469.392097
 30
0.0
 11
8229.680749
 21
-13469.392097
 31
0.0
  0
LINE
  5
2BB
330
A
100
AcDbEntity
  8
$$12$7
  6
Continuous
 62
     3
100
AcDbLine
 10
8454.23566
 20
-13092.34208
 30
0.0
 11
8487.66348
 21
-13092.34208
 31
0.0
  0
LINE
  5
2BC
330
A
100
AcDbEntity
  8
$$12$7
  6
Continuous
 62
     3
100
AcDbLine
 10
8654.30783
 20
-13092.34208
 30
0.0
 11
8670.83566
 21
-13092.34208
 31
0.0
  0
LINE
  5
2BD
330
A
100
AcDbEntity
  8
$$12$7
  6
Continuous
 62
     3
100
AcDbLine
 10
8665.73566
 20
-13092.34208
 30
0.0
 11
8665.73566
 21
-13097.16997
 31
0.0
  0
LINE
  5
2BE
330
A
100
AcDbEntity
  8
$$12$7
  6
Continuous
 62
     3
100
AcDbLine
 10
8672.435672
 20
-13095.292099
 30
0.0
 11
8672.435671
 21
-13102.389088
 31
0.0
  0
LINE
  5
2BF
330
A
100
AcDbEntity
  8
$$12$7
  6
Continuous
 62
     3
100
AcDbLine
 10
8454.23566
 20
-13092.34208
 30
0.0
 11
8420.8078
 21
-13092.34208
 31
0.0
  0
LINE
  5
2C0
330
A
100
AcDbEntity
  8
$$12$7
  6
Continuous
 62
     3
100
AcDbLine
 10
8242.73566
 20
-13092.34208
 30
0.0
 11
8242.73566
 21
-13097.17
 31
0.0
  0
LINE
  5
2C1
330
A
100
AcDbEntity
  8
$$12$7
  6
Continuous
 62
     3
100
AcDbLine
 10
8236.035672
 20
-13095.292099
 30
0.0
 11
8236.035671
 21
-13102.38911
 31
0.0
  0
LINE
  5
2C2
330
A
100
AcDbEntity
  8
$$12$7
  6
Continuous
 62
     3
100
AcDbLine
 10
8254.16359
 20
-13092.34208
 30
0.0
 11
8237.63566
 21
-13092.34208
 31
0.0
  0
LINE
  5
2C3
330
A
100
AcDbEntity
  8
$$12$7
  6
Continuous
 62
     3
100
AcDbLine
 10
8223.335672
 20
-13095.292099
 30
0.0
 11
8223.335671
 21
-13146.393745
 31
0.0
  0
LINE
  5
2C4
330
A
100
AcDbEntity
  8
$$12$7
  6
Continuous
 62
     3
100
AcDbLine
 10
8223.335665
 20
-13453.492099
 30
0.0
 11
8223.335666
 21
-13400.39028
 31
0.0
  0
LINE
  5
2C5
330
A
100
AcDbEntity
  8
$$$$$$
  6
Continuous
 62
     5
100
AcDbLine
 10
8667.735675
 20
-13470.192096
 30
0.0
 11
8667.735675
 21
-13469.392094
 31
0.0
  0
LINE
  5
2C6
330
A
100
AcDbEntity
  8
$$$$$$
  6
Continuous
 62
     5
100
AcDbLine
 10
8240.73566
 20
-13470.192091
 30
0.0
 11
8240.73566
 21
-13469.392089
 31
0.0
  0
ARC
  5
2C7
330
A
100
AcDbEntity
  8
$_$X$$$$$$$N$X
  6
Continuous
 62
     4
100
AcDbCircle
 10
8644.643499
 20
-13415.627025
 30
0.0
 40
40.0
100
AcDbArc
 50
288.804014
 51
358.099839
  0
ARC
  5
2C8
330
A
100
AcDbEntity
  8
$_$X$$$$$$$N$X
  6
Continuous
 62
     4
100
AcDbCircle
 10
8603.485647
 20
-13451.392121
 30
0.0
 40
6.0
100
AcDbArc
 50
339.512969
 51
0.0
  0
LINE
  5
2C9
330
A
100
AcDbEntity
  8
$_$X$$$$$$$N$X
  6
Continuous
 62
     4
100
AcDbLine
 10
8611.48563
 20
-13432.85702
 30
0.0
 11
8611.48563
 21
-13453.49209
 31
0.0
  0
ARC
  5
2CA
330
A
100
AcDbEntity
  8
$_$X$$$$$$$N$X
  6
Continuous
 62
     4
100
AcDbCircle
 10
8538.485647
 20
-13451.392121
 30
0.0
 40
6.0
100
AcDbArc
 50
180.0
 51
200.487042
  0
LINE
  5
2CB
330
A
100
AcDbEntity
  8
$_$X$$$$$$$N$X
  6
Continuous
 62
     4
100
AcDbLine
 10
8530.48563
 20
-13432.85702
 30
0.0
 11
8530.48563
 21
-13453.49209
 31
0.0
  0
ARC
  5
2CC
330
A
100
AcDbEntity
  8
$_$X$$$$$$$N$X
  6
Continuous
 62
     4
100
AcDbCircle
 10
8497.327817
 20
-13415.627035
 30
0.0
 40
40.0
100
AcDbArc
 50
181.900161
 51
251.195986
  0
ARC
  5
2CD
330
A
100
AcDbEntity
  8
$_$X$$$$$$$N$X
  6
Continuous
 62
     4
100
AcDbCircle
 10
8263.827856
 20
-13415.627055
 30
0.0
 40
40.0
100
AcDbArc
 50
181.900161
 51
251.195881
  0
LINE
  5
2CE
330
A
100
AcDbEntity
  8
$_$X$$$$$$$N$X
  6
Continuous
 62
     4
100
AcDbLine
 10
8296.98569
 20
-13432.85702
 30
0.0
 11
8296.98569
 21
-13453.49209
 31
0.0
  0
ARC
  5
2CF
330
A
100
AcDbEntity
  8
$_$X$$$$$$$N$X
  6
Continuous
 62
     4
100
AcDbCircle
 10
8304.985695
 20
-13451.392116
 30
0.0
 40
6.0
100
AcDbArc
 50
180.0
 51
200.487125
  0
ARC
  5
2D0
330
A
100
AcDbEntity
  8
$_$X$$$$$$$N$X
  6
Continuous
 62
     4
100
AcDbCircle
 10
8369.985695
 20
-13451.392116
 30
0.0
 40
6.0
100
AcDbArc
 50
339.512886
 51
0.0
  0
LINE
  5
2D1
330
A
100
AcDbEntity
  8
$_$X$$$$$$$N$X
  6
Continuous
 62
     4
100
AcDbLine
 10
8377.98569
 20
-13432.85702
 30
0.0
 11
8377.98569
 21
-13453.49209
 31
0.0
  0
ARC
  5
2D2
330
A
100
AcDbEntity
  8
$_$X$$$$$$$N$X
  6
Continuous
 62
     4
100
AcDbCircle
 10
8411.143537
 20
-13415.627065
 30
0.0
 40
40.0
100
AcDbArc
 50
288.804014
 51
358.099839
  0
LINE
  5
2D3
330
A
100
AcDbEntity
  8
$$$$$$
  6
Continuous
 62
     6
100
AcDbLine
 10
8220.73571
 20
-13457.44209
 30
0.0
 11
8220.73571
 21
-13465.44209
 31
0.0
  0
ARC
  5
2D4
330
A
100
AcDbEntity
  8
$$$$$$
  6
Continuous
 62
     6
100
AcDbCircle
 10
8223.735711
 20
-13461.442094
 30
0.0
 40
5.0
100
AcDbArc
 50
126.869897
 51
233.130103
  0
DIMENSION
  5
2E2
330
A
100
AcDbEntity
  8
$$$$
  6
Continuous
 62
     2
100
AcDbDimension
  2
*D6
 10
8217.735662
 20
-13596.367184
 30
0.0
 11
8460.9856
 21
-13588.86718
 31
0.0
 70
   160
 71
     5
 42
-1.0
  3
MSADIM
100
AcDbAlignedDimension
 13
8690.735662
 23
-13792.306384
 33
0.0
 14
8217.735662
 24
-13792.306384
 34
0.0
100
AcDbRotatedDimension
  0
DIMENSION
  5
2F0
330
A
100
AcDbEntity
  8
$$$$
  6
Continuous
 62
     2
100
AcDbDimension
  2
*D7
 10
9061.675032
 20
-13596.367184
 30
0.0
 11
9270.7798
 21
-13588.86718
 31
0.0
 70
   160
 71
     5
 42
-1.0
  3
MSADIM
100
AcDbAlignedDimension
 13
9455.525022
 23
-13792.306384
 33
0.0
 14
9061.675032
 24
-13719.131334
 34
0.0
100
AcDbRotatedDimension
  0
TEXT
  5
2F1
330
A
100
AcDbEntity
  8
1
  6
Continuous
 62
     3
100
AcDbText
 10
9671.123743
 20
-14472.25481
 30
0.0
 40
15.0
  1
設計課‐文書　様式－Ｄ－０１０（０３.１１.７　改訂１版）
 41
0.666667
  7
BIGFONT
 72
     4
 11
9831.59049
 21
-14464.75481
 31
0.0
100
AcDbText
  0
LINE
  5
2F2
330
A
100
AcDbEntity
  8
$$$$$$
  6
Continuous
 62
     2
100
AcDbLine
 10
9506.06907
 20
-13403.97171
 30
0.0
 11
9941.90295
 21
-13403.97171
 31
0.0
  0
TEXT
  5
2F3
330
A
100
AcDbEntity
  8
$$$$$$
  6
Continuous
 62
     2
100
AcDbText
 10
9477.274114
 20
-13396.30477
 30
0.0
 40
20.12012
  1
３、取付ねじ周りに、バリ、メクレ等なきこと。
 41
0.857133
  7
BIGFONT
 72
     4
 11
9696.5809
 21
-13386.24471
 31
0.0
100
AcDbText
  0
DIMENSION
  5
302
330
A
100
AcDbEntity
  8
$$$S$$
  6
Continuous
 62
     2
100
AcDbDimension
  2
*D8
 10
8802.493632
 20
-13678.806394
 30
0.0
 11
8794.99363
 21
-13949.34331
 31
0.0
 70
   160
 71
     5
 42
-1.0
 51
90.0
  3
MSADIM
100
AcDbAlignedDimension
 13
8658.485666
 23
-14228.806393
 33
0.0
 14
8630.835662
 24
-13678.806394
 34
0.0
 50
90.0
100
AcDbRotatedDimension
  0
DIMENSION
  5
310
330
A
100
AcDbEntity
  8
$$$$
  6
Continuous
 62
     2
100
AcDbDimension
  2
*D9
 10
8220.73565
 20
-13645.84319
 30
0.0
 11
8470.639135
 21
-13638.34319
 31
0.0
 70
   160
 71
     5
 42
-1.0
  3
MSADIM
100
AcDbAlignedDimension
 13
8687.73566
 23
-13719.13135
 33
0.0
 14
8220.73565
 24
-13719.13135
 34
0.0
100
AcDbRotatedDimension
  0
DIMENSION
  5
31E
330
A
100
AcDbEntity
  8
$$$$
  6
Continuous
 62
     2
100
AcDbDimension
  2
*D10
 10
9061.675035
 20
-13648.30871
 30
0.0
 11
9262.510415
 21
-13640.80871
 31
0.0
 70
   160
 71
     5
 42
-1.0
  3
MSADIM
100
AcDbAlignedDimension
 13
9452.475035
 23
-13720.74915
 33
0.0
 14
9061.675035
 24
-13721.27805
 34
0.0
100
AcDbRotatedDimension
  0
INSERT
  5
32C
330
A
100
AcDbEntity
  8
1
  6
Continuous
 62
     7
100
AcDbBlockReference
  2
*U11
 10
4319.52721
 20
-11139.16034
 30
0.0
  0
INSERT
  5
333
330
A
100
AcDbEntity
  8
1
  6
Continuous
 62
     7
100
AcDbBlockReference
  2
*U12
 10
4205.24291
 20
-10867.51798
 30
0.0
  0
ENDSEC
  0
SECTION
  2
OBJECTS
  0
DICTIONARY
  5
19
330
0
100
AcDbDictionary
281
     1
  3
ACAD_GROUP
350
1A
  3
ACAD_LAYOUT
350
336
  3
ACAD_MLINESTYLE
350
1B
  3
ACAD_PLOTSETTINGS
350
33A
  3
ACAD_PLOTSTYLENAME
350
337
  3
ACAD_TABLESTYLE
350
5F5F20C9
  3
ACAD_WIPEOUT_VARS
350
33B
  3
AcadDim
350
5F5F20C6
  0
DICTIONARY
  5
1A
102
{ACAD_REACTORS
330
19
102
}
330
19
100
AcDbDictionary
281
     1
  0
DICTIONARY
  5
336
102
{ACAD_REACTORS
330
19
102
}
330
19
100
AcDbDictionary
281
     1
  3
LAYOUT1
350
339
  3
MODEL
350
338
  0
DICTIONARY
  5
1B
102
{ACAD_REACTORS
330
19
102
}
330
19
100
AcDbDictionary
281
     1
  3
STANDARD
350
1C
  0
DICTIONARY
  5
33A
102
{ACAD_REACTORS
330
19
102
}
330
19
100
AcDbDictionary
281
     1
  0
ACDBDICTIONARYWDFLT
  5
337
102
{ACAD_REACTORS
330
19
102
}
330
19
100
AcDbDictionary
281
     1
  3
NORMAL
350
335
100
AcDbDictionaryWithDefault
340
335
  0
DICTIONARY
  5
5F5F20C9
102
{ACAD_REACTORS
330
19
102
}
330
19
100
AcDbDictionary
281
     1
  0
WIPEOUTVARIABLES
  5
33B
330
19
100
AcDbWipeoutVariables
 70
     1
  0
XRECORD
  5
5F5F20C6
102
{ACAD_REACTORS
330
19
102
}
330
19
100
AcDbXrecord
280
     1
 90
   990106
  3
 
 60
     0
 61
     0
 62
     2
 63
     2
 64
     0
 65
     0
 66
     0
 67
     3
 68
     1
 69
     0
 70
     0
 71
     0
 72
     0
 40
0.0
170
     0
  0
LAYOUT
  5
339
102
{ACAD_REACTORS
330
336
102
}
330
336
100
AcDbPlotSettings
  1

  2

  4

  6

 40
0.0
 41
0.0
 42
0.0
 43
0.0
 44
0.0
 45
0.0
 46
0.0
 47
0.0
 48
0.0
 49
0.0
140
0.0
141
0.0
142
1.0
143
1.0
 70
     0
 72
     0
 73
     0
 74
     0
  7

 75
     0
147
1.0
148
0.0
149
0.0
100
AcDbLayout
  1
LAYOUT1
 70
     0
 71
     0
 10
0.0
 20
0.0
 11
0.0
 21
0.0
 12
0.0
 22
0.0
 32
0.0
 14
0.0
 24
0.0
 34
0.0
 15
0.0
 25
0.0
 35
0.0
146
0.0
 13
0.0
 23
0.0
 33
0.0
 16
0.0
 26
0.0
 36
0.0
 17
0.0
 27
0.0
 37
0.0
 76
     0
330
B
  0
LAYOUT
  5
338
102
{ACAD_REACTORS
330
336
102
}
330
336
100
AcDbPlotSettings
  1

  2

  4

  6

 40
0.0
 41
0.0
 42
0.0
 43
0.0
 44
0.0
 45
0.0
 46
0.0
 47
0.0
 48
0.0
 49
0.0
140
0.0
141
0.0
142
1.0
143
1.0
 70
  1024
 72
     0
 73
     0
 74
     0
  7

 75
     0
147
1.0
148
0.0
149
0.0
100
AcDbLayout
  1
MODEL
 70
     0
 71
     0
 10
0.0
 20
0.0
 11
0.0
 21
0.0
 12
0.0
 22
0.0
 32
0.0
 14
0.0
 24
0.0
 34
0.0
 15
0.0
 25
0.0
 35
0.0
146
0.0
 13
0.0
 23
0.0
 33
0.0
 16
0.0
 26
0.0
 36
0.0
 17
0.0
 27
0.0
 37
0.0
 76
     0
330
A
331
334
  0
MLINESTYLE
  5
1C
102
{ACAD_REACTORS
330
1B
102
}
330
1B
100
AcDbMlineStyle
  2
Standard
 70
     0
  3

 62
     0
 51
90.0
 52
90.0
 71
     2
 49
0.5
 62
   256
  6
BYLAYER
 49
-0.5
 62
   256
  6
BYLAYER
  0
ACDBPLACEHOLDER
  5
335
102
{ACAD_REACTORS
330
337
102
}
330
337
  0
ENDSEC
  0
SECTION
  2
THUMBNAILIMAGE
 90
    30584
310
28000000B4000000A400000001000800000000005073000000040000000400000001000048000000FFFFFF0000F800008800000050F8000090F868003030000098B82000C8F02000F8F8F80000D8D80080E86800F8F80000B8F8000088F80000F800F800C8C8C8008888880000F8500000F8F80000F8D80000F8B00000F868
310
000068680068680000F0F0000000F0F000C0C0000000E8D80000E0E000005000004848000000A8A800A0A0000000484800E0E00000404000003838000000888800C8C8000000B8B80080800000D0F02000A8A80000E8E800000070700000B0B0007070000000E8E800009090005858000000E80000008800008888000000C0
310
C000C81800000080800000C8C800B0B00000D0D00000D8D8000000E0B80000A0A000B8B800007878000090900000989800005888580000D0D00000B800005050000000505000F8000000FFFFFF00FFFFFF00FFFFFF00FFFFFF00FFFFFF00FFFFFF00FFFFFF00FFFFFF00FFFFFF00FFFFFF00FFFFFF00FFFFFF00FFFFFF00FF
310
FFFF00FFFFFF00FFFFFF00FFFFFF00FFFFFF00FFFFFF00FFFFFF00FFFFFF00FFFFFF00FFFFFF00FFFFFF00FFFFFF00FFFFFF00FFFFFF00FFFFFF00FFFFFF00FFFFFF00FFFFFF00FFFFFF00FFFFFF00FFFFFF00FFFFFF00FFFFFF00FFFFFF00FFFFFF00FFFFFF00FFFFFF00FFFFFF00FFFFFF00FFFFFF00FFFFFF00FFFFFF00
310
FFFFFF00FFFFFF00FFFFFF00FFFFFF00FFFFFF00FFFFFF00FFFFFF00FFFFFF00FFFFFF00FFFFFF00FFFFFF00FFFFFF00FFFFFF00FFFFFF00FFFFFF00FFFFFF00FFFFFF00FFFFFF00FFFFFF00FFFFFF00FFFFFF00FFFFFF00FFFFFF00FFFFFF00FFFFFF00FFFFFF00FFFFFF00FFFFFF00FFFFFF00FFFFFF00FFFFFF00FFFFFF
310
00FFFFFF00FFFFFF00FFFFFF00FFFFFF00FFFFFF00FFFFFF00FFFFFF00FFFFFF00FFFFFF00FFFFFF00FFFFFF00FFFFFF00FFFFFF00FFFFFF00FFFFFF00FFFFFF00FFFFFF00FFFFFF00FFFFFF00FFFFFF00FFFFFF00FFFFFF00FFFFFF00FFFFFF00FFFFFF00FFFFFF00FFFFFF00FFFFFF00FFFFFF00FFFFFF00FFFFFF00FFFF
310
FF00FFFFFF00FFFFFF00FFFFFF00FFFFFF00FFFFFF00FFFFFF00FFFFFF00FFFFFF00FFFFFF00FFFFFF00FFFFFF00FFFFFF00FFFFFF00FFFFFF00FFFFFF00FFFFFF00FFFFFF00FFFFFF00FFFFFF00FFFFFF00FFFFFF00FFFFFF00FFFFFF00FFFFFF00FFFFFF00FFFFFF00FFFFFF00FFFFFF00FFFFFF00FFFFFF00FFFFFF00FF
310
FFFF00FFFFFF00FFFFFF00FFFFFF00FFFFFF00FFFFFF00FFFFFF00FFFFFF00FFFFFF00FFFFFF00FFFFFF00FFFFFF00FFFFFF00FFFFFF00FFFFFF00FFFFFF00FFFFFF00FFFFFF00FFFFFF00FFFFFF00FFFFFF00FFFFFF00FFFFFF00FFFFFF00FFFFFF00FFFFFF00FFFFFF00FFFFFF00FFFFFF00FFFFFF00FFFFFF00FFFFFF00
310
FFFFFF00FFFFFF00FFFFFF00FFFFFF00FFFFFF00FFFFFF00FFFFFF00FFFFFF00FFFFFF00FFFFFF00FFFFFF00FFFFFF0000000000000000000000000000000000000000000000000000000000000000000000000000000000000000000000000000000000000000000000000000000000000000000000000000000000000000
310
00000000000000000000000000000000000000000000000000000000000000000000000000000000000000000000000000000000000000000000000000000000000000000000000000000000000000000000000000000000000000000000000000000000000000000000000000000000000000000000000000000000000000
310
00000000000000000000000000000000000000000000000000000000000000000000000000000000000000000000000000000000000000000000000000000000000000000000000000000000000000000000000000000000000000000000000000000000000000000000000000000000000000000000000000000000000000
310
00000000000000000000000000000000000000000000000000000000000000000000000000000000000000000000000000000000000000000000000000000000000000000000000000000000000000000000000000000000000000000000000000000000000000000000000000000000000000000000000000000000000000
310
00000000000000000000000000000000000000000000000000000000000000000000000000000000000000000000000000000000000000000000000000000000000000000000000000000000000000000000000000000000000000000000000000000000000000000000000000000000000000000000000000000000000000
310
00000000000000000000000000000000000000000000000000000000000000000000000000000000000000000000000000000000000000000000000000000000000000000000000000000000000000000000000000000000000000000000000000000000000000000000000000000000000000000000000000000000000000
310
00000000000000000000000000000000000000000000000000000000000000000000000000000000000000000000000000000000000000000000000000000000000000000000000000000000000000000000000000000000000000000000000000000000000000000000000000000000000000000000000000000000000000
310
00000000000000000000000000000000000000000000000000000000000000000000000000000000000000000000000000000000000000000000000000000000000000000000000000000000000000000000000000000000000000000000000000000000000000000000000000000000000000000000000000000000000000
310
00000000000000000000000000000000000000000000000000000000000000000000000000000000000000000000000000000000000000000000000000000000000000000000000000000000000000000000000000000000000000000000000000000000000000000000000000000000000000000000000000000000000000
310
00000000000000000000000000000000000000000000000000000000000000000000000000000000000000000000000000000000000000000000000000000000000000000000000000000000000000000000000000000000000000000000000000000000000000000000000000000000000000000000000000000000000000
310
00000000000000000000000000000000000000000000000000000000000000000000000000000000000000000000000000000000000000000000000000000000000000000000000000000000000000000000000000000000000000000000000000000000000000000000000000000000000000000000000000000000000000
310
00000000000000000000000000000000000000000000000000000000000000000000000000000000000000000000000000000000000000000000000000000000000000000000000000000000000000000000000000000000000000000000000000000000000000000000000000000000000000000000000000000000000000
310
00000000000000000000000000000000000000000000000000000000000000000000000000000000000000000000000000000000000000000000000000000000000000000000000000000000000000000000000000000000000000000000000000000000000000000000000000000000000000000000000000000000000000
310
00000000000000000000000000000000000000000000000000000000000000000000000000000000000000000000000000000000000000000000000000000000000000000000000000000000000000000000000000000000000000000000000000000000000000000000000000000000000000000000000000000000000000
310
00000000000000000000000000000000000000000000000000000000000000000000000000000000000000000000000000000000000000000000000000000000000000000000000000000000000000000000000000000000000000000000000000000000000000000000000000000000000000000000000000000000000000
310
00000000000000000000000000000000000000000000000000000000000000000000000000000000000000000000000000000000000000000000000000000000000000000000000000000000000000000000000000000000000000000000000000000000000000000000000000000000000000000000000000000000000000
310
00000000000000000000000000000000000000000000000000000000000000000000000000000000000000000000000000000000000000000000000000000000000000000000000000000000000000000000000000000000000000000000000000000000000000000000000000000000000000000000000000000000000000
310
00000000000000000000000000000000000000000000000000000000000000000000000000000000000000000000000000000000000000000000000000000000000000000000000000000000000000000000000000000000000000000000000000000000000000000000000000000000000000000000000000000000000000
310
00000000000000000000000000000000000000000000000000000000000000000000000000000000000000000000000000000000000000000000000000000000000000000000000000000000000000000000000000000000000000000000000000000000000000000000000000000000000000000000000000000000000000
310
00000000000000000000000000000000000000000000000000000000000000000000000000000000000000000000000000000000000000000000000000000000000000000000000000000000000000000000000000000000000000000000000000000000000000000000000000000000000000000000000000000000000000
310
00000000000000000000000000000000000000000000000000000000000000000000000000000000000000000000000000000000000000000000000000000000000000000000000000000000000000000000000000000000000000000000000000000000000000000000000000000000000000000000000000000000000000
310
00000000000000000000000000000000000000000000000000000000000000000000000000000000000000000000000000000000000000000000000000000000000000000000000000000000000000000000000000000000000000000000000000000000000000000000000000000000000000000000000000000000000000
310
00000000000000000000000000000000000000000000000000000000000000000000000000000000000000000000000000000000000000000000000000000000000000000000000000000000000000000000000000000000000000000000000000000000000000000000000000000000000000000000000000000000000000
310
00000000000000000000000000000000000000000000000000000000000000000000000000000000000000000000000000000000000000000000000000000000000000000000000000000000000000000000000000000000000000000000000000000000000000000000000000000000000000000000000000000000000000
310
00000000000000000000000000000000000000000000000000000000000000000000000000000000000000000000000000000000000000000000000000000000000000000000000000000000000000000000000000000000000000000000000000000000000000000000000000000000000000000000000000000000000000
310
00000000000000000000000000000000000000000000000000000000000000000000000000000000000000000000000000000000000000000000000000000000000000000000000000000000000000000000000000000000000000000000000000000000000000000000000000000000000000000000000000000000000000
310
00000000000000000000000000000000000000000000000000000000000000000000000000000000000000000000000000000000000000000000000000000000000000000000000000000000000000000000000000000000000000000000000000000000000000000000000000000000000000000000000000000000000000
310
00000000000000000000000000000000000000000000000000000000000000000000000000000000000000000000000000000000000000000000000000000000000000000000000000000000000000000000000000000000000000000000000000000000000000000000000000000000000000000000000000000000000000
310
00000000000000000000000000000000000000000000000000000000000000000000000000000000000000000000000000000000000000000000000000000000000000000000000000000000000000000000000000000000000000000000000000000000000000000000000000000000000000000000000000000000000000
310
00000000000000000000000000000000000000000000000000000000000000000000000000000000000000000000000000000000000000000000000000000000000000000000000000000000000000000000000000000000000000000000000000000000000000000000000000000000000000000000000000000000000000
310
00000000000000000000000000000000000000000000000000000000000000000000000000000000000000000000000000000000000000000000000000000000000000000000000000000000000000000000000000000000000000000000000000000000000000000000000000000000000000000000000000000000000000
310
00000000000000000000000000000000000000000000000000000000000000000000000000000000000000000000000000000000000000000000000000000000000000000000000000000000000000000000000000000000000000000000000000000000000000000000000000000000000000000000000000000000000000
310
00000000000000000000000000000000000000000000000000000000000000000000000000000000000000000000000000000000000000000000000000000000000000000000000000000000000000000000000000000000000000000000000000000000000000000000000000000000000000000000000000000000000000
310
00000000000000000000000000000000000000000000000000000000000000000000000000000000000000000000000000000000000000000000000000000000000000000000000000000000000000000000000000000000000000000000000000000000000000000000000000000000000000000000000000000000000000
310
00000000000000000000000000000000000000000000000000000000000000000000000000000000000000000000000000000000000000000000000000000000000000000000000000000000000000000000000000000000000000000000000000000000000000000000000000000000000000000000000000000000000000
310
00000000000000000000000000000000000000000000000000000000000000000000000000000000000000000000000000000000000000000000000000000000000000000000000000000000000000000000000000000000000000000000000000000000000000000000000000000000000000000000000000000000000000
310
00000000000000000000000000000000000000000000000000000000000000000000000000000000000000000000000000000000000000000000000000000000000000000000000000000000000000000000000000000000000000000000000000000000000000000000000000000000000000000000000000000000000000
310
00000000000000000000000000000000000000000000000000000000000000000000000000000000000000000000000000000000000000000000000000000000000000000000000000000000000000000000000000000000000000000000000000000000000000000000000000000000000000000000000000000000000000
310
00000000000000000000000000000000000000000000000000000000000000000000000000000000000000000000000000000000000000000000000000000000000000000000000000000000000000000000000000000000000000000000000000000000000000000000000000000000000000000000000000000000000000
310
00000000000000000000000000000000000000000000000000000000000000000000000000000000000000000000000000000000000000000000000000000000000000000000000000000000000000000000000000000000000000000000000000000000000000000000000000000000000000000000000000000000000000
310
00000000000000000000000000000000000000000000000000000000000000000000000000000000000000000000000000000000000000000000000000000000000000000000000000000000000000000000000000000000000000000000000000000000000000000000000000000000000000000000000000000000000000
310
00000000000000000000000000000000000000000000000000000000000000000000000000000000000000000000000000000000000000000000000000000000000000000000000000000000000000000000000000000000000000000000000000000000000000000000000000000000000000000000000000000000000000
310
00000000000000000000000000000000000000000000000000000000000000000000000000000000000000000000000000000000000000000000000000000000000000000000000000000000000000000000000000000000000000000000000000000000000000000000000000000000000000000000000000000000000000
310
00000000000000000000000000000000000000000000000000000000000000000000000000000000000000000000000000000000000000000000000000000000000000000000000000000000000000000000000000000000000000000000000000000000000000000000000000000000000000000000000000000000000000
310
00000000000000000000000000000000000000000000000000000000000000000000000000000000000000000000000000000000000000000000000000000000000000000000000000000000000000000000000000000000000000000000000000000000000000000000000000000000000000000000000000000000000000
310
00000000000000000000000000000000000000000000000000000000000000000000000000000000000000000000000000000000000000000000000000000000000000000000000000000000000000000000000000000000000000000000000000000000000000000000000000000000000000000000000000000000000000
310
00000000000000000000000000000000000000000000000000000000000000000000000000000000000000000000000000000000000000000000000000000000000000000000000000000000000000000000000000000000000000000000000000000000000000000000000000000000000000000000000000000000000000
310
00000000000000000000000000000000000000000000000000000000000000000000000000000000000000000000000000000000000000000000000000000000000000000000000000000000000000000000000000000000000000000000000000000000000000000000000000000000000000000000000000000000000000
310
00000000000000000000000000000000000000000000000000000000000000000000000000000000000000000000000000000000000000000000000000000000000000000000000000000000000000000000000000000000000000000000000000000000000000000000000000000000000000000000000000000000000000
310
00000000000000000000000000000000000000000000000000000000000000000000000000000000000000000000000000000000000000000000000000000000000000000000000000000000000000000000000000000000000000000000000000000000000000000000000000000000000000000000000000000000000000
310
00000000000000000000000000000000000000000000000000000000000000000000000000000000000000000000000000000000000000000000000000000000000000000000000000000000000000000000000000000000000000000000000000000000000000000000000000000000000000000000000000000000000000
310
00000000000000000000000000000000000000000000000000000000000000000000000000000000000000000000000000000000000000000000000000000000000000000000000000000000000000000000000000000000000000000000000000000000000000000000000000000000000000000000000000000000000000
310
00000000000000000000000000000000000000000000000000000000000000000000000000000000000000000000000000000000000000000000000000000000000000000000000000000000000000000000000000000000000000000000000000000000000000000000000000000000000000000000000000000000000000
310
00000000000000000000000000000000000000000000000000000000000000000000000000000000000000000000000000000000000000000000000000000000000000000000000000000000000000000000000000000000000000000000000000000000000000000000000000000000000000000000000000000000000000
310
00000000000000000000000000000000000000000000000000000000000000000000000000000000000000000000000000000000000000000000000000000000000000000000000000000000000000000000000000000000000000000000000000000000000000000000000000000000000000000000000000000000000000
310
00000000000000000000000000000000000000000000000000000000000000000000000000000000000000000000000000000000000000000000000000000000000000000000000000000000000000000000000000000000000000000000000000000000000000000000000000000000000000000000000000000000000000
310
00000000000000000000000000000000000000000000000000000000000000000000000000000000000000000000000000000000000000000000000000000000000000000000000000000000000000000000000000000000000000000000000000000000000000000000000000000000000000000000000000000000000000
310
00000000000000000000000000000000000000000000000000000000000000000000000000000000000000000000000000000000000000000000000000000000000000000000000000000000000000000000000000000000000000000000000000000000000000000000000000000000000000000000000000000000000000
310
00000000000000000000000000000000000000000000000000000000000000000000000000000000000000000000000000000000000000000000000000000000000000000000000000000000000000000000000000000000000000000000000000000000000000000000000000000000000000000000000000000000000000
310
00000000000000000000000000000000000000000000000000000000000000000000000000000000000000000000000000000000000000000000000000000000000000000000000000000000000000000000000000000000000000000000000000000000000000000000000000000000000000000000000000000000000000
310
00000000000000000000000000000000000000000000000000000000000000000000000000000000000000000000000000000000000000000000000000000000000000000000000000000000000000000000000000000000000000000000000000000000000000000000000000000000000000000000000000000000000000
310
00000000000000000000000000000000000000000000000000000000000000000000000000000000000000000000000000000000000000000000000000000000000000000000000000000000000000000000000000000000000000000000000000000000000000000000000000000000000000000000000000000000000000
310
00000000000000000000000000000000000000000000000000000000000000000000000000000000000000000000000000000000000000000000000000000000000000000000000000000000000000000000000000000000000000000000000000000000000000000000000000000000000000000000000000000000000000
310
00000000000000000000000000000000000000000000000000000000000000000000000000000000000000000000000000000000000000000000000000000000000000000000000000000000000000000000000000000000000000000000000000000000000000000000000000000000000000000000000000000000000000
310
00000000000000000000000000000000000000000000000000000000000000000000000000000000000000000000000000000000000000000000000000000000000000000000000000000000000000000000000000000000000000000000000000000000000000000000000000000000000000000000000000000000000000
310
00000000000000000000000000000000000000000000000000000000000000000000000000000000000000000000000000000000000000000000000000000000000000000000000000000000000000000000000000000000000000000000000000000000000000000000000000000000000000000000000000000000000000
310
00000000000000000000000000000000000000000000000000000000000000000000000000000000000000000000000000000000000000000000000000000000000000000000000000000000000000000000000000000000000000000000000000000000000000000000000000000000000000000000000000000000000000
310
00000000000000000000000000000000000000000000000000000000000000000000000000000000000000000000000000000000000000000000000000000000000000000000000000000000000000000000000000000000000000000000000000000000000000000000000000000000000000000000000000000000000000
310
00000000000000000000000000000000000000000000000000000000000000000000000000000000000000000000000000000000000000000000000000000000000000000000000000000000000000000000000000000000000000000000000000000000000000000000000000000000000000000000000000000000000000
310
00000000000000000000000000000000000000000000000000000000000000000000000000000000000000000000000000000000000000000000000000000000000000000000000000000000000000000000000000000000000000000000000000000000000000000000000000000000000000000000000000000000000000
310
00000000000000000000000000000000000000000000000000000000000000000000000000000000000000000000000000000000000000000000000000000000000000000000000000000000000000000000000000000000000000000000000000000000000000000000000000000000000000000000000000000000000000
310
00000000000000000000000000000000000000000000000000000000000000000000000000000000000000000000000000000000000000000000000000000000000000000000000000000000000000000000000000000000000000000000000000000000000000000000000000000000000000000000000000000000000000
310
00000000000000000000000000000000000000000000000000000000000000000000000000000000000000000000000000000000000000000000000000000000000000000000000000000000000000000000000000000000000000000000000000000000000000000000000000000000000000000000000000000000000000
310
00000000000000000000000000000000000000000000000000000000000000000000000000000000000000000000000000000000000000000000000000000000000000000000000001010101010101010101010101010101010000000000000000000000000000000000000000000000000000000000000000000000000000
310
00000000000000000000000000000001010101010101010101010101010101010101010101010101010101010101010101010101010101010101010101010101010101010101010101010101010101010101010101010101010101010101010101010101010101010101010101010101010101111212120101010101010101
310
01010101010101010101010101010101010100000000000000000000000000000000000000000000000000000000000000000000000000000000000000000000000000000100000000000000000000000000000000010000010101010101010101001D0101010101010101011D000000000000000000000000000000000000
310
000000010101010101000000121212120000000001010100010000000000000000001D0101010000001212121212000000000001010100000000000012121212000000000000010000000000000000000000000000000000000000000000000000000000000000000000000000000000000000000000000000010000000000
310
00000000000000000000000100000101010101010101010101320132320132320132000000000000000000000000000000000000000000000000000000010101010101010101010101010101010101010101010101010101013201000000461212121200000000000101010000000000001212121200000000000001000000
310
00000000000000000000000000000000000000000000000000000000000000000000000000000000000000000000000100000000000000000000000000000000010000010101010101010101001D0101010101010101011D000000000000000000000000000000000000000000000000000001003201323201320101000001
310
010101010012121212120000001D0101010012121212121200121200000001121212121212121212120012121212120000010000000000000000000000000000000000000000000000000000000000000000000000000000000000000000000000000000010000000000000000000000000000000001010101010101010101
310
01010101010101010101010101010101010101010101010101010101010101010101010101010101010101010101010101010101010101010101121212121201010101010101011212121201010112010101010112121212121212120101011201121212010101000000000000000000000000000000000000000000000000
310
00000000000000000000000000000000000000000000000000000100000000000000000000000000000000010001010001010101010101010101010100000000000000000000000101010101010101000000000000000000000000000001000000000000000000000000000000010000000001000000010000000100000001
310
00000001000000000001000000000100000000000101330001000000010000000000000000000000000000000000000000000000000000000000000000000000000000000000000000000000000000010000000000000000000000000000000001010101010101010101010101010101010101010101010101010101010101
310
01010101010101010101010101010101010101010000001212121212121212000000000100000000010000000100000001000000010000000100121212000100121200010012121200011201331212120001000000000000000000000000000000000000000000000000000000000000000000000000000000000000000000
310
00000000000100000000000000000000000000000000010000000001000000000001000000000100000000000000000000000000000000000000000000000000000000000000000001000000121212121212121200000000010000000001000000010000000100000001000000010012121200010012120001001212120001
310
00330112121200010000000000000000000000000000000000000000000000000000000000000000000000000000000000000000000000000000010000000000000000000000000000000001010101010101010101010101010101010101010101010101010101010101010101010101010101010101010101010101010101
310
01010101010101010101010101010101010101010101010101010101010101010101010101010101010101010101010101010101010101010101010101000000000000000000000000000000000000000000000000000000000000000000000000000000000000000000000000000001000000000000000000000000000000
310
00010000000001000000000001000000000100000000000000000000000000000000000000000000000000000000000000000001000000000000010101010000000000010000000001010101010101010101010101010101010101010100010101010101010101010001010100010101010100000000000000000000000000
310
00000000000000000000000000000000000000000000000000000000000000000000000000010000000000000000000000000000000001010101010101010101010101010101010101010101010101010101010101010101010101010101010101010101010101010101010101010101010101010101010101010101010101
310
01010101010101010101010101010101010101010101010101010101010101010101010101010101000000000000000000000000000000000000000000000000000000000000000000000000000000000000000000000000000001000000000000000000000000000000000000000000000000000000000000000000000000
310
00000000000000000000000000000000000000000000000000000000000000000000000000000000000000000000000000000000000000000000000000000000000000000000000000000000000000000000000000000000000000000100000000000000000000000000000000000000000000000000000000000000000000
310
00000000000000000000000000000000010000000000000000000000000000000000000000000000000000000000000000000000000000000000000000000000000000000000000000000000000000000000000000000000000000000000000000000000000000000000000000000000000000000000000000000000000000
310
00000000000000000000000000000000000001000000000000000000000000000000000000000000000000000000000000000000000000000000000000000000000000000001000000000000000000000000000000000000000000000000000000000808080000000000000000000000000000000000000808121212121212
310
12121212000000000000000000000000000008081000000000000000000000000000000000080810000000000000000000000000000000000000000000000000000000000000000100000000000000000000000000000000000000000000000000000000000000000000000000000000000000000000000000000100000000
310
0000000000000000000000000000000000000000000000000808080000000000000000000000000000000000000808080000000000000012000000000000000000000000000000080F0808000000000000000000000000000000080F0800000000000000000000000000000000000000000000000000000000000000010000
310
0000000000000000000000000000000000000000000000000000000000000000000000000000000000000000000000000100000000000000000000000000000000000000000000000000000E0E0847084747474747474747474747474747474747474747474747000000000012000000000000000000000000000047470808
310
10000000000000000000000000000000080801010000000000000000000000000000000000000000000000000000000000000100000000000000000000000000000000000000000000000000000000000000000000000000000000000000000000000000000100000000000000000000000000000000000000000000000000
310
00470000000000000000000000000000000000000000000000000000470000000000120000000000000000000000000000474701010101010101010101010101010101010101010101000000000000000000000000000000000000000000000000000000000000010000000000000000000000000000000000000000000000
310
0000000000000000000000000000000000000000000000000000000100000000000000000000000000000000000000000000000000004700000000000000000000000000000000000000000000000000004700000000001200000000000000000000000000004747010B0B0B0B0B0B0B0B0B0B0B0B0B0B0B0B0B0B0B010100
310
00000000000000000000000000000000000000000000000000000000000100000000000000000000000000000000000000000000000000000000000000000000000000000000000000000000000000000100000000000000000000000000000000000000000000000000004700000000000000000000000000000000000000
310
000000000000004700000000001200000000000000000000000000004747240B00000000000000000000000000000000000B0101000000000000000000000000000000000000000000000000000000000000010000000000000000000000000000000000000000000000000000000000000000000000000000000000000000
310
0000000000000100000000000000000000000000000000000000000000000000000E00000000000000000000000000000000000000000000000000000E00000000001200000000000000000000000000004747451800000000000000000000000000000000000B010100000000000000000000000000000000000000000000
310
00000000000000000100000000000000000000000000000000000000000000000000000000000000000000000000000000000000000000000000000100000000000000000000000000000000000000000000000000000E00000000000000000000000000000000000000000000000000000E00000000001200000000000000
310
000000000000004747311800000000000000000000000000000000000B0E0E000000000000000000000000000000000000000000000000000000000000010000000000000000000000000000000000000000000000000000000000000000000000000000000000000000000000000000010000000000000000000000000000
310
0000000000000000000000000E00000000000000000000000000000000000000000000000000000E000000000012000000000000000000000000000047472E2B00000000000000000000000000000000000B010100000000000000000000000000000000000000000000000000000000000001000000000000000000000000
310
000000000000000000000000000000000000000000000000000000000000000000000000000001000000000000000000000000000000000000000000000000000047000000000047470000000000474700000000004747000000000047000000000012000000000000000000000000000047473F2200000000000000000000
310
000000000000000B0101000000000000000000000000000000000000000000000000000000000000010000000000000000000000000000000000000000000000000000000000000000000000000000000000000000000000000000010000000000000000000000000000000000000000000000000000470000000000000000
310
0000000000000000000000000000000000004700000000001200000000000000000000000000004747343B00000000000000000000000000000000000B010100000000000000000000000000000000000000000000000000000000000001000000000000000000000000000000000000000000000000000000000000000000
310
00000000000000000000000000000000000100000000000000000000000000000000000000000000000000004700000000000000000000000000000000000000000000000000004700000000001200000000000000000000000000004747403A00000000000000000000000000000000000B01010000000000000000000000
310
00000000000000000000000000000000000000010000000000000000000000000000000000000000000000000000000000000000000000000000000000000000000000000000010000000000000000000000000000000000000000000000000000470000000000474700000000004747000000000047470000000000470000
310
0000001200000000001200000000000000004747412600000000000000000000000000000000000B010100000000000000000000000000000000000000000000000000000000000001000000000000000000000000000000000000000000000000000000000000000000000000000000000000000000000000000001000000
310
00000000000000000000000000000000000000000000004700000000000000000000000000000000000000000000000000004700000000001200000000001212120000000000004747201A00000000000000000000000000000000000B01010000000000000000000000000000000000000000000000000000000000000100
310
00000000000000000000000000000000000000000000000000000000000000000000000000000000000000000000000000010000000000000000000000000000000000000000000000000000470000000000000000000000000000000000000000000000000000470000000000120000000000113C1235460000000047472A
310
1A00000000000000000000000000000000000B010100000000000000000000000000000000000000000000000000000000000001000000000000000000000000000000000000000000000000000000000000000000000000000000000000000000000000000001000000000000000000000000000000000000000000000000
310
00004700000000004702000047000047020000470000470200000000004700000000001200000000000000463512354600004747393900000000000000000000000000000000000B01010000000000000000000000000000000000000000000000000000000000000100000000000000000000000000000000000000000000
310
0000000000000000000000000000000000000000000000000000000001000000000000000000000000000000000000000000000000000047000000000047470000470000474700004700004747000000000047000000000012000000000000000000463512354647471A2A00000000000000000000000000000000000B0101
310
00000000000000000000000000000000000000000000000000000000000001000000000000000000000000000000000000000000000000000000000000000000000000000000000000000000000000000001000000000000000000000000000000000000000000000000000047000000000000000000000000000000000000
310
000000000000000047000000000012000000000000000000000046351247471A2000000000000000000000000000000000000B01010000000000000000000000000000000000000000000000000000000000000100000000000000000000000000000000000000000000000000000000000000000000000000000000000000
310
000000000000000100000000000000000000000000000000000000000000000000004700000000000000000000000000000000000000000000000000004700000000001200000000001212120000000000464747070600000000000000000000000000000000000B0101000000000000000000000000000000000000000000
310
00000000000000000001000000000000000000000000000000000000000000000000000000000000000000000000000000000000000000000000000001000000000000000000000000000000000000000000000000000047000000000047470000000000474700000000004747000000000047000000000012000000000015
310
1B091600000000004747290438000000000000000000000000000000000B01010000000000000000000000000000000000000000000000000000000000000100000000000000000000000000000000000000000000000000000000000000000000000000000000000000000000000000000100000000000000000000000000
310
0000000000000000000000000047000000000000000000000000000000000000000000000000000047000000000012000000000000001F121F0000000047473B0A12000000000000000000000000000000000B0101000000000000000000000000000000000000000000000000000000000000010000000000000000000000
310
0000000000000000000000000000000000000000000000000000000000000000000000000000000100000000000000000000000000000000000000000000000000004700000000000000000000000000000000000000000000000000004700000000001200000000000000001609091600004747223F000000000000000000
310
00000000000000000B01010000000000000000000000000000000000000000000000000000000000000100000000000000000000000000000000000000000000000000000000000000000000000000000000000000000000000000000100000000000000000000000000000000000000000000000000004700000000004702
310
0000470000470200004700004702000000000047000000000012000000000000000000001F121F0047472B2E00000000000000000000000000000000000B0101000000000000000000000000000000000000000000000000000000000000010000000000000000000000000000000000000000000000000000000000000000
310
0000000000000000000000000000000000000100000000000000000000000000000000000000000000000000000E00000000004747000047000047470000470000474700000000120E2D000000001200000000000000000000001609094747183100000000000000000000000000000000000B010100000000000000000000
310
00000000000000000000000000000000000000000100000000000000000000000000000000000000000000000000000000000000000000000000000000000000000000000000000100000000000000000000000000000000000000000000000000000E00000000000000000000000000000000000000000000000000000E43
310
2F25000012000000000000000000000000001F470E184500000000000000000000000000000000000B0E0E000000000000000000000000000000000000000000000000000000000000010000000000000000000000000000000000000000000000000000000000000000000000000000000000000000000000000000010000
310
000000000000000000000000000000000000000000000000120000000000000000000000000000000000000000000000000000120030193821120000000000000000000000000000470E0B2400000000000000000000000000000000000B011200000000000000000000000000000000000000000000000000000000000001
310
00000000000000000000000000000000000000000000000000000000000000000000000000000000000000000000000000000100000000000000000000000000000000000000000000000000001200000000000000000000000000000000000000000000000000001200000027121200000000000000000000000000254747
310
0B0101010101010101010101010101010101010B0112000000000000000000000000000000000000000000000000000000000000010000000000000000000000000000000000000000000000000000000000000000000000000000000000000000000000000000010000000000000000000000000000000000000000000000
310
00000012000000000000000000000000000000000000000000000000000012000000002C12092C000000000000000000002C12470B0B0B0B0B0B0B0B0B0B0B0B0B0B0B0B0B0B0B0B0B0B1200000000000000000000000000000000000000000000000000000000000001000000000000000000000000000000000000000000
310
0000000000000000000000000000000000000000000000000000000000010000000000000000000000000000000000000000000000000000121D0000000000000000000000000000000000000000000000001D120000000000123D1227000000000000002509192D4747000000000000000000000000000000000000000001
310
1200000000000000000000000000000000000000000000000000000000000001000000000000000000000000000000000000000000000000000000000000000000000000000000000000000000000000000001000000000000000000000000000000000000000000000000001D124747474747474747474747474747474747
310
474747474747474747121D000000001200213819300000003D1C1C3D0000120B0B0B0B0B0B0B0B0B0B0B0B0B0B0B0B0B0B0B0B0B0B1200000000000000000000000000000000000000000000000000000000000001000000000000000000000000000000000000000000000000000000000000000000000000000000000000
310
0000000000000000010000000000000000000000000000000000000000000000000000120E4401010101010101010101010101010101010101010101440E12000000000012000000252F134319092500000000120100000000000000000000000000000000000B0B0000120000000000000000000000000000000000000000
310
00000000000000000000010000000000000000000000000000000000000000000000000000000000000000000000000000000000000000000000000000010000000000000000000000000000000000000000000000000000120101010101010101010101010101010101010101010101121212121212121212121200000000
310
121212000000002C381201001E0B1E000000000000000000000000000B0B00001200000000000000000000000000000000000000000000000000000000000001000000000000000000000000000000000000000000000000000000000000000000000000000000000000000000000000000001000000000000000000000000
310
000000000000000000000000000012000000000000000000000000000000000000000000000000000012351919353000000000000021000000002509192D12000000262A000000000000000000000000000B0B0000120000000000000000000000000000000000000000000000000000000000000100000000000000000000
310
00000000000000000000000000000000000000000000000000000000000000000000000000000000010000000000000000000000000000000000000000000000000000121212121212121212121212121212121212121212121212121212120000161F0912091F1600000000003D1C1C3D0000121212121212121212121212
310
12121212121212121212121200000000000000000000000000000000000000000000000000000000000001000000000000000000000000000000000000000000000000000000000000000000000000000000000000000000000000000001000000000000000000000000000000000000000000000000000012000000000000
310
0000000000001212121212000000000000000000120000000000003035191935142D1909250000000012000000002B280000001212121212000000000B0B0000120000000000000000000000000000000000000000000000000000000000000100000000000000000000000000000000000000000000000000000000000000
310
0000000000000000000000000000000000000001000000000000000000000000000000000000000000000000000012000000000000000000000000000000000000000000000000000012000000000000000000161F12121200000000000012000000002A260000000000000000000000000B0B000012000000000000000000
310
00000000000000000000000000000000000000000001000000000000000000000000000000000000000000000000000000000000000000000000000000000000000000000000000001000000000000000000000000000000000000000000000000000012121212121212121212121212121212121212121212121212121212
310
00000000000000000000002100000000000000001212121212121212121212121212121212121212121212120000000000000000000000000000000000000000000000000000000000000100000000000000000000000000000000000000000000000000000000000000000000000000000000000000000000000000000100
310
00000000000000000000000000000000000000000000000000000000000000000000000000001212000000000000000000000000000000000000000000000000000000000000000000000000000000202200000012121200000000000B0B000000000000000000000000000000000000000000000000000000000000000000
310
01000000000000000000000000000000000000000000000000000000000000000000000000000000000000000000000000000001000000000000000000000000000000000000000000000000000000000000000000000000000000000000000000000000000000000000000000000000000000000000000000000000000000
310
0000000000002626000000000000000000000B0B0000000000000000000000000000000000000000000000000000000000000000000100000000000000000000000000000000000000000000000000000000000000000000000000000000000000000000000000000100000000000000000000000000000000000000000000
310
00000000000000000000000000000000000000000000000000000000000000000000000000000000000000000000000000000000000000000000000022200000000000000000000B0B000000000000000000000000000000000000000000000000000000000000000000010000000000000000000000000000000000000000
310
00000000000000000000000000000000000000000000000000000000000001000000000000000000000000000000000000000000000000000000000000000000000000000000000000000000000000000000000000000000000000000000000000000000000000000000000000000000002E0B2000000000000000000B0B00
310
00000000000000000000000000000000000000000000000000000000000000000100000000000000000000000000000000000000000000000000000000000000000000000000000000000000000000000000000100000000000000000000000000000000000000000000000000000000000000000000000000000000000000
310
000000000000000000000000000000000000000000000000000000000000000000000000000000002E2226000000000000000B0B000000000000000000000000000000000000000000000000000000000000000000010000000000000000000000000000000000000000000000000000000000000000000000000000000000
310
000000000000000000010000000000000000000000000000000000000000000000000000000000000000000000000000000000000000000000000000000000000000000000000000000000000000000000000000000000000000000000000026222E00000000000B0B24000000000000000000000000000000000000000000
310
00000000000000000000000100000000000000000000000000000000000000000000000000000000000000000000000000000000000000000000000000000100000000000000000000000000000000000000000000000000003601010101010101010101010101010101010101010101010101013600000000000000000000
310
00000000000000000000000000000000000000000000200B2B26203F000B3A000000000000000000000000000000000000000000000000000000000000000000010000000000000000000000000000000000000000000000000000000000000000000000000000000000000000000000000000010000000000000000000000
310
000000000000000000000000000000010D0B010B010101010B01030B03030B03010B0101010B01010B0D01000000000000000000000000000000000000000000000000000000000000000000003F20262B0B0B4100000000000000000000000000000000000000000000000000000000000000000001000000000000000000
310
00000000000000000000000000000000000000000000000000000000000000000000000000000000000100000000000000000000000000000000000000000000000000000D0B391A0B12120B120B1A450C0C0C0C451A0B120B120B1A45340B0D00000000000000000000000000000000000000000000000000000000000000
310
00000000000000240B240000000000000000000000000000000000000000000000000000000000000000000100000000000000000000000000000000000000000000000000000000000000000000000000000000000000000000000000000100000000000000000000000000000000000000000000000000000B340B0B0B0B
310
0B0B0B0B0B0B0B0B0B0B0B0B0B0B0B0B0B0B0B0B340B000000000000000000000000000000000000000000000000000000000000000000000000000000000000000000000000000000000000000000000000000000000000000000000000000001000000000000000000000000000000000000000000000000000000000000
310
000000000000000000000000000000000000000001000000000000000000000000000000000000000000000000000001310B0000000000000000450B0B0B0B4500000000000000450B000100000000000000000000000000000000000000000000000000000000000000000000000000000000000000000000121212121212
310
121212121212121212121212121212121212121200000100000000000000000000000000000000000000000000000000000000000000000000000000000000000000000000000000000100000000000000000000000000000000000000000000000000000B3F0B0000000000000000000B0B0B0B0000000000000000000B00
310
0B000000000000000000000000000000000000000000000000000000000000000000000000000000000000000012121212121212121212121212121212121212121212000000000000000001000000000000000000000000000000000000000000000000000000000000000000000000000000000000000000000000000001
310
00000000000000000000000000000000000000000000000000000B400B0000000000000000000B0B0B0B0000000000000000000B000B00000000000000000000000000000000000000000000000000000000000000000000000000000000000000001212121212121212121212121212121212121212121212121212121200
310
000100000000000000000000000000000000000000000000000000000000000000000000000000000000000000000000000000000100000000000000000000000000000000000000000000000000000B2A0B0000000000000000000B0B0B0B0000000000000000000B000B0000000000000000000000000000000000000000
310
00000000000000000000000000000000000000000000000012121212121212121212121212121212121212121212001200000000000001000000000000000000000000000000000000000000000000000000000000000000000000000000000000000000000000000001000000000000000000000000000000000000000000
310
00000000000B1A0B0000000000000000000B0B0B0B0000000000000000000B000B00000000000000000000000000000000000000000000000000000000000000000000000000000000000000001212121212121212121212121212121212121212121212121212121200000100000000000000000000000000000000000000
310
000000000000000000000000000000000000000000000000000000000000000100000000000000000000000000000000000000000000000000000B3A0B0000000000000000000B0B0B0B0000000000000000000B000B0000000000000000000000000000000000000000000000000000000000000000000000000000000000
310
0000000012001212121212121212121212121212121200000000000000000000000100000000000000000000000000000000000000000000000000000000000000000000000000000000000000000000000000000100000000000000000000000000000000000000000000000000000B220B0000000000000000000B0B0B0B
310
0000000000000000000B000B00000000000000000000000000000000000000000000000000000000000000000000000000000000000000000012121212121212121212121212121212121212121212121212121200000100000000000000000000000000000000000000000000000000000000000000000000000000000000
310
000000000000000000000100000000000000000000000000000000000000000000000000000B180B0000000000000000000B0B0B0B0000000000000000000B000B0000000000000000000000000000000000000000000000000000000000000000000000000000000000000000000012121212121212120000000000000000
310
0000000000000000000000000100000000000000000000000000000000000000000000000000000000000000000000000000000000000000000000000000000100000000000000000000000000000000000000000000000000000B0B0B0000000000000000000B0B0B0B0000000000000000000B000B000000000000000000
310
00000000000000000000000000000000000000000000000000000000000000000000000000121212121212121200000000000000000000000000000000000000000100000000000000000000000000000000000000000000000000000000000000000000000000000000000000000000000000000100000000000000000000
310
000000000000000000000000000000000B180B0000000000000000000B0B0B0B0000000000000000000B000B0000000000000000000000000000000000000000000000000000000000000000000000000000000000000000000000000000000000000000000000000000000000000000000000000000010000000000000000
310
0000000000000000000000000000000000000000000000000000000000000000000000000000000000000100000000000000000000000000000000000000000000000000000B220B0000000000000000000B0B0B0B0000000000000000000B000B000000000000000000000000000000000000000000000000000000000000
310
00000000000000000000000000000000000000000000000000000000000000000000000000000000000000000100000000000000000000000000000000000000000000000000000000000000000000000000000000000000000000000000000100000000000000000000000000000000000000000000000000000B260B0000
310
000000000000000B0B0B0B0000000000000000000B000B0000000000000000000000000000000000000000000000000000000000000000000000000000000000000000000000000000000000000000000000000000000000000000000000000000010000000000000000000000000000000000000000000000000000000000
310
0000000000000000000000000000000000000000000100000000000000000000000000000000000000000000000000000B3E0B0000000000000000000B0B0B0B0000000000000000000B000B000000000000000000000000000000000000000000000000000000000000000000000000000000000000000000000000000000
310
00000000000000000000000000000000000000000000000100000000000000000000000000000000000000000000000000000000000000000000000000000000000000000000000000000100000000000000000000000000000000000000000000000000000B200B0000000000000000000B0B0B0B0000000000000000000B
310
000B0000000000000000000000000000000000000000000000000000000000000000000000000000000000000000000000000000000000000000000000000000000000000000000000000000010000000000000000000000000000000000000000000000000000000000000000000000000000000000000000000000000000
310
0100000000000000000000000000000000000000000000000000000B280B0000000000000000000B0B0B0B0000000000000000000B000B000000000000000000000000000000000000000000000000000000000000000000000000000000000000000000000000000000000000000000000000000000000000000000000000
310
000001000000000000000000000000000000000000000000000000000000000000000000000000000000000000000000000000000001000000000000000000000000000000000000000000000000000001310B0000000000000000000B0B0B0B0000000000000000000B000100000000000000000000000000000000000000
310
00000000000000000101010101010101010101121212121212010101010101010101010101121201010101010112010112010101010101010000000000000000000000000000000000000000000000000000000000000000000000000000000000000000000000000000010000000000000000000000000000000000000000
310
00000000000001340B0000000000000000260B0B0B0B2600000000000000260B3901000000000000000000000000000000000000000000000000000000010001000000000000000112121212121200000000121212121212120012120000000000010000011212120000000001000000000000000000000000000000000000
310
000000000000000000000000000000000000000000000000000000000000000001000000000000000000000000000000000000000000000000000001010B0B0B0B0B0B0B0B0B0B180B0B180B0B0B0B0B0B0B0B0B18010100000000000000000000000000000000000000000000000000000001010101010101010101121212
310
121212120101010112121212121212121212121212120101120101010101010101010100000000000000000000000000000000000000000000000000000000000000000000000000000000000000000000000000000100000000000000000000000000000000000000000000000000000101010B0B0B0B0B0B0B0B0B010101
310
010B0B0B0B0B0B0B0B0B010101000000000000000000000000000000000000000000000000000000010001000000000000001212121212121200000000121212121212121212121212121200010000010000000000000001000000000000000000000000000000000000000000000000000000000000000000000000000000
310
00000000000000000000000100000000000000000000000000000000000000000000000000004201010101010101010101010101010101010101010101010101014200000000000000000000000000000000000000000000000000000001010112121212010101121212120101010101010101121212120101011212121212
310
01010101120112121212121212010000000000000000000000000000000000000000000000000000000000000000000000000000000000000000000000000000010000000000000000000000000000000000000000000000000000000000000000000000000000000000000000000000000000000000000000000000000000
310
00000000000000000000000000000000000000010001121212120000001212121200000000000000011212121200000012121212120000010000011212121212121201000000000000000000000000000000000000000000000000000000000000000000000000000000000000000000000000000001000000000000000000
310
00000000000000000000000000000000000000000000000000000000000000000000000000000000000000000000000000000000000000000000000000000000000000000000000001010112121201010101011212121201010101010101121212120101011212121212010101011201121212121212120100000000000000
310
00000000000000000000000000000000000000000000000000000000000000000000000000000000000000010000000000000000000000000000000000000000000000000000000000000000000000000000000000000000000000000000000000000000000000000000000000000000000000000000000000000000000100
310
01121212000000000112121212000000000000011212121200000012121212120000010000011212121212121201000000000000000000000000000000000000000000000000000000000000000000000000000000000000000000000000000001000000000000000000000000000000000000000000000000000000000000
310
00000000000000000000000000000000000000000000000000000000000000000000000000000000000000000000000000000001010101010101010101010101010101010101010101011212121212121201010101010101121201011212121212010100000000000000000000000000000000000000000000000000000000
310
00000000000000000000000000000000000000000000010000000000000000000000000000000000000000000000000000000000000000000000000000000000000000000000000000000000000000000000000000000000000000000000000000000000000000000112010000121212000001001212121212120000000100
310
12121212121212000000000000011212010012121212120001000000000000000000000000000000000000000000000000000000000000000000000000000000000000000000000000000001010101010101010101010101010101010101010101010101010101010101010101010101010101010101010101010101010101
310
01010101010101010101010101010101010101010101010101010101010101010101010101010101010101010101010101010101010101010101010101010101010101010101010101010101010100000000000000000000000000000000000000000000000000000000000000000000000000000000000000000000000000
310
00000000000000000000000000000000000000000000000000000000000000000000000000000000000000000000000000000000000000000000000000000000000000000000000000000000000000000000000000000000000000000000000000000000000000000000000000000000000000000000000000000000000000
310
00000000000000000000000000000000000000000000000000000000000000000000000000000000000000000000000000000000000000000000000000000000000000000000000000000000000000000000000000000000000000000000000000000000000000000000000000000000000000000000000000000000000000
310
00000000000000000000000000000000000000000000000000000000000000000000000000000000000000000000000000000000000000000000000000000000000000000000000000000000000000000000000000000000000000000000000000000000000000000000000000000000000000000000000000000000000000
310
00000000000000000000000000000000000000000000000000000000000000000000000000000000000000000000000000000000000000000000000000000000000000000000000000000000000000000000000000000000000000000000000000000000000000000000000000000000000000000000000000000000000000
310
00000000000000000000000000000000000000000000000000000000000000000000000000000000000000000000000000000000000000000000000000000000000000000000000000000000000000000000000000000000000000000000000000000000000000000000000000000000000000000000000000000000000000
310
00000000000000000000000000000000000000000000000000000000000000000000000000000000000000000000000000000000000000000000000000000000000000000000000000000000000000000000000000000000000000000000000000000000000000000000000000000000000000000000000000000000000000
310
00000000000000000000000000000000000000000000000000000000000000000000000000000000000000000000000000000000000000000000000000000000000000000000000000000000000000000000000000000000000000000000000000000000000000000000000000000000000000000000000000000000000000
310
00000000000000000000000000000000000000000000000000000000000000000000000000000000000000000000000000000000000000000000000000000000000000000000000000000000000000000000000000000000000000000000000000000000000000000000000000000000000000000000000000000000000000
310
00000000000000000000000000000000000000000000000000000000000000000000000000000000000000000000000000000000000000000000000000000000000000000000000000000000000000000000000000000000000000000000000000000000000000000000000000000000000000000000000000000000000000
310
00000000000000000000000000000000000000000000000000000000000000000000000000000000000000000000000000000000000000000000000000000000000000000000000000000000000000000000000000000000000000000000000000000000000000000000000000000000000000000000000000000000000000
310
00000000000000000000000000000000000000000000000000000000000000000000000000000000000000000000000000000000000000000000000000000000000000000000000000000000000000000000000000000000000000000000000000000000000000000000000000000000000000000000000000000000000000
310
00000000000000000000000000000000000000000000000000000000000000000000000000000000000000000000000000000000000000000000000000000000000000000000000000000000000000000000000000000000000000000000000000000000000000000000000000000000000000000000000000000000000000
310
00000000000000000000000000000000000000000000000000000000000000000000000000000000000000000000000000000000000000000000000000000000000000000000000000000000000000000000000000000000000000000000000000000000000000000000000000000000000000000000000000000000000000
310
00000000000000000000000000000000000000000000000000000000000000000000000000000000000000000000000000000000000000000000000000000000000000000000000000000000000000000000000000000000000000000000000000000000000000000000000000000000000000000000000000000000000000
310
00000000000000000000000000000000000000000000000000000000000000000000000000000000000000000000000000000000000000000000000000000000000000000000000000000000000000000000000000000000000000000000000000000000000000000000000000000000000000000000000000000000000000
310
00000000000000000000000000000000000000000000000000000000000000000000000000000000000000000000000000000000000000000000000000000000000000000000000000000000000000000000000000000000000000000000000000000000000000000000000000000000000000000000000000000000000000
310
00000000000000000000000000000000000000000000000000000000000000000000000000000000000000000000000000000000000000000000000000000000000000000000000000000000000000000000000000000000000000000000000000000000000000000000000000000000000000000000000000000000000000
310
00000000000000000000000000000000000000000000000000000000000000000000000000000000000000000000000000000000000000000000000000000000000000000000000000000000000000000000000000000000000000000000000000000000000000000000000000000000000000000000000000000000000000
310
00000000000000000000000000000000000000000000000000000000000000000000000000000000000000000000000000000000000000000000000000000000000000000000000000000000000000000000000000000000000000000000000000000000000000000000000000000000000000000000000000000000000000
310
00000000000000000000000000000000000000000000000000000000000000000000000000000000000000000000000000000000000000000000000000000000000000000000000000000000000000000000000000000000000000000000000000000000000000000000000000000000000000000000000000000000000000
310
00000000000000000000000000000000000000000000000000000000000000000000000000000000000000000000000000000000000000000000000000000000000000000000000000000000000000000000000000000000000000000000000000000000000000000000000000000000000000000000000000000000000000
310
00000000000000000000000000000000000000000000000000000000000000000000000000000000000000000000000000000000000000000000000000000000000000000000000000000000000000000000000000000000000000000000000000000000000000000000000000000000000000000000000000000000000000
310
00000000000000000000000000000000000000000000000000000000000000000000000000000000000000000000000000000000000000000000000000000000000000000000000000000000000000000000000000000000000000000000000000000000000000000000000000000000000000000000000000000000000000
310
00000000000000000000000000000000000000000000000000000000000000000000000000000000000000000000000000000000000000000000000000000000000000000000000000000000000000000000000000000000000000000000000000000000000000000000000000000000000000000000000000000000000000
310
00000000000000000000000000000000000000000000000000000000000000000000000000000000000000000000000000000000000000000000000000000000000000000000000000000000000000000000000000000000000000000000000000000000000000000000000000000000000000000000000000000000000000
310
00000000000000000000000000000000000000000000000000000000000000000000000000000000000000000000000000000000000000000000000000000000000000000000000000000000000000000000000000000000000000000000000000000000000000000000000000000000000000000000000000000000000000
310
00000000000000000000000000000000000000000000000000000000000000000000000000000000000000000000000000000000000000000000000000000000000000000000000000000000000000000000000000000000000000000000000000000000000000000000000000000000000000000000000000000000000000
310
00000000000000000000000000000000000000000000000000000000000000000000000000000000000000000000000000000000000000000000000000000000000000000000000000000000000000000000000000000000000000000000000000000000000000000000000000000000000000000000000000000000000000
310
00000000000000000000000000000000000000000000000000000000000000000000000000000000000000000000000000000000000000000000000000000000000000000000000000000000000000000000000000000000000000000000000000000000000000000000000000000000000000000000000000000000000000
310
00000000000000000000000000000000000000000000000000000000000000000000000000000000000000000000000000000000000000000000000000000000000000000000000000000000000000000000000000000000000000000000000000000000000000000000000000000000000000000000000000000000000000
310
00000000000000000000000000000000000000000000000000000000000000000000000000000000000000000000000000000000000000000000000000000000000000000000000000000000000000000000000000000000000000000000000000000000000000000000000000000000000000000000000000000000000000
310
00000000000000000000000000000000000000000000000000000000000000000000000000000000000000000000000000000000000000000000000000000000000000000000000000000000000000000000000000000000000000000000000000000000000000000000000000000000000000000000000000000000000000
310
00000000000000000000000000000000000000000000000000000000000000000000000000000000000000000000000000000000000000000000000000000000000000000000000000000000000000000000000000000000000000000000000000000000000000000000000000000000000000000000000000000000000000
310
00000000000000000000000000000000000000000000000000000000000000000000000000000000000000000000000000000000000000000000000000000000000000000000000000000000000000000000000000000000000000000000000000000000000000000000000000000000000000000000000000000000000000
310
00000000000000000000000000000000000000000000000000000000000000000000000000000000000000000000000000000000000000000000000000000000000000000000000000000000000000000000000000000000000000000000000000000000000000000000000000000000000000000000000000000000000000
310
00000000000000000000000000000000000000000000000000000000000000000000000000000000000000000000000000000000000000000000000000000000000000000000000000000000000000000000000000000000000000000000000000000000000000000000000000000000000000000000000000000000000000
310
0000000000000000000000000000000000000000000000000000000000000000000000000000000000000000000000000000000000000000000000000000000000000000000000000000000000000000000000000000000000000000000000000000000000000000
  0
ENDSEC
  0
EOF
