  0
SECTION
  2
HEADER
  9
$ACADVER
  1
AC1015
  9
$ACADMAINTVER
 70
           6
  9
$DWGCODEPAGE
  3
ANSI_932
  9
$INSBASE
 10
0.0
 20
0.0
 30
0.0
  9
$EXTMIN
 10
4202.923274801972
 20
-16057.514209999999
 30
0.0
  9
$EXTMAX
 10
10007.626596270296
 20
-10864.523364013652
 30
0.0
  9
$LIMMIN
 10
0.0
 20
0.0
  9
$LIMMAX
 10
12.0
 20
9.0
  9
$ORTHOMODE
 70
           0
  9
$REGENMODE
 70
           1
  9
$FILLMODE
 70
           1
  9
$QTEXTMODE
 70
           0
  9
$MIRRTEXT
 70
           1
  9
$LTSCALE
 40
1.0
  9
$ATTMODE
 70
           1
  9
$TEXTSIZE
 40
0.2
  9
$TRACEWID
 40
0.05
  9
$TEXTSTYLE
  7
STANDARD
  9
$CLAYER
  8
0
  9
$CELTYPE
  6
CONTINUOUS
  9
$CECOLOR
 62
         256
  9
$CELTSCALE
 40
1.0
  9
$DISPSILH
 70
           0
  9
$DIMSCALE
 40
1.0
  9
$DIMASZ
 40
0.18
  9
$DIMEXO
 40
0.0625
  9
$DIMDLI
 40
0.38
  9
$DIMRND
 40
0.0
  9
$DIMDLE
 40
0.0
  9
$DIMEXE
 40
0.18
  9
$DIMTP
 40
0.0
  9
$DIMTM
 40
0.0
  9
$DIMTXT
 40
0.18
  9
$DIMCEN
 40
0.09
  9
$DIMTSZ
 40
0.0
  9
$DIMTOL
 70
           0
  9
$DIMLIM
 70
           0
  9
$DIMTIH
 70
           1
  9
$DIMTOH
 70
           1
  9
$DIMSE1
 70
           0
  9
$DIMSE2
 70
           0
  9
$DIMTAD
 70
           0
  9
$DIMZIN
 70
           0
  9
$DIMBLK
  1

  9
$DIMASO
 70
           1
  9
$DIMSHO
 70
           1
  9
$DIMPOST
  1

  9
$DIMAPOST
  1

  9
$DIMALT
 70
           0
  9
$DIMALTD
 70
           2
  9
$DIMALTF
 40
25.4
  9
$DIMLFAC
 40
1.0
  9
$DIMTOFL
 70
           0
  9
$DIMTVP
 40
0.0
  9
$DIMTIX
 70
           0
  9
$DIMSOXD
 70
           0
  9
$DIMSAH
 70
           0
  9
$DIMBLK1
  1

  9
$DIMBLK2
  1

  9
$DIMSTYLE
  2
STANDARD
  9
$DIMCLRD
 70
           0
  9
$DIMCLRE
 70
           0
  9
$DIMCLRT
 70
           0
  9
$DIMTFAC
 40
1.0
  9
$DIMGAP
 40
0.09
  9
$DIMJUST
 70
           0
  9
$DIMSD1
 70
           0
  9
$DIMSD2
 70
           0
  9
$DIMTOLJ
 70
           1
  9
$DIMTZIN
 70
           0
  9
$DIMALTZ
 70
           0
  9
$DIMALTTZ
 70
           0
  9
$DIMUPT
 70
           0
  9
$DIMDEC
 70
           4
  9
$DIMTDEC
 70
           4
  9
$DIMALTU
 70
           2
  9
$DIMALTTD
 70
           2
  9
$DIMTXSTY
  7
STANDARD
  9
$DIMAUNIT
 70
           0
  9
$DIMADEC
 70
           0
  9
$DIMALTRND
 40
0.0
  9
$DIMAZIN
 70
           0
  9
$DIMDSEP
 70
           0
  9
$DIMATFIT
 70
           3
  9
$DIMFRAC
 70
           0
  9
$DIMLDRBLK
  1

  9
$DIMLUNIT
 70
           2
  9
$DIMLWD
 70
           0
  9
$DIMLWE
 70
           0
  9
$DIMTMOVE
 70
           0
  9
$LUNITS
 70
           2
  9
$LUPREC
 70
           4
  9
$SKETCHINC
 40
0.1
  9
$FILLETRAD
 40
0.0
  9
$AUNITS
 70
           0
  9
$AUPREC
 70
           0
  9
$MENU
  1
acad
  9
$ELEVATION
 40
0.0
  9
$PELEVATION
 40
0.0
  9
$THICKNESS
 40
0.0
  9
$LIMCHECK
 70
           0
  9
$CHAMFERA
 40
0.0
  9
$CHAMFERB
 40
0.0
  9
$CHAMFERC
 40
0.0
  9
$CHAMFERD
 40
0.0
  9
$SKPOLY
 70
           0
  9
$TDCREATE
 40
2454294.557361077
  9
$TDUCREATE
 40
0.000000000
  9
$TDUPDATE
 40
2454294.558186482
  9
$TDUUPDATE
 40
2454294.183186482
  9
$TDINDWG
 40
0.0000925810
  9
$TDUSRTIMER
 40
0.0000925810
  9
$USRTIMER
 70
           1
  9
$ANGBASE
 50
0.0
  9
$ANGDIR
 70
           0
  9
$PDMODE
 70
           0
  9
$PDSIZE
 40
0.0
  9
$PLINEWID
 40
0.0
  9
$SPLFRAME
 70
           0
  9
$SPLINETYPE
 70
           6
  9
$SPLINESEGS
 70
          10
  9
$HANDSEED
  5
393
  9
$SURFTAB1
 70
           6
  9
$SURFTAB2
 70
           6
  9
$SURFTYPE
 70
           6
  9
$SURFU
 70
           6
  9
$SURFV
 70
           6
  9
$UCSBASE
  2

  9
$UCSNAME
  2

  9
$UCSORG
 10
0.0
 20
0.0
 30
0.0
  9
$UCSXDIR
 10
1.0
 20
0.0
 30
0.0
  9
$UCSYDIR
 10
0.0
 20
1.0
 30
0.0
  9
$UCSORTHOREF
  2

  9
$UCSORTHOVIEW
 70
           0
  9
$UCSORGTOP
 10
0.0
 20
0.0
 30
0.0
  9
$UCSORGBOTTOM
 10
0.0
 20
0.0
 30
0.0
  9
$UCSORGLEFT
 10
0.0
 20
0.0
 30
0.0
  9
$UCSORGRIGHT
 10
0.0
 20
0.0
 30
0.0
  9
$UCSORGFRONT
 10
0.0
 20
0.0
 30
0.0
  9
$UCSORGBACK
 10
0.0
 20
0.0
 30
0.0
  9
$PUCSBASE
  2

  9
$PUCSNAME
  2

  9
$PUCSORG
 10
0.0
 20
0.0
 30
0.0
  9
$PUCSXDIR
 10
1.0
 20
0.0
 30
0.0
  9
$PUCSYDIR
 10
0.0
 20
1.0
 30
0.0
  9
$PUCSORTHOREF
  2

  9
$PUCSORTHOVIEW
 70
           0
  9
$PUCSORGTOP
 10
0.0
 20
0.0
 30
0.0
  9
$PUCSORGBOTTOM
 10
0.0
 20
0.0
 30
0.0
  9
$PUCSORGLEFT
 10
0.0
 20
0.0
 30
0.0
  9
$PUCSORGRIGHT
 10
0.0
 20
0.0
 30
0.0
  9
$PUCSORGFRONT
 10
0.0
 20
0.0
 30
0.0
  9
$PUCSORGBACK
 10
0.0
 20
0.0
 30
0.0
  9
$USERI1
 70
           0
  9
$USERI2
 70
           0
  9
$USERI3
 70
           0
  9
$USERI4
 70
           0
  9
$USERI5
 70
           0
  9
$USERR1
 40
0.0
  9
$USERR2
 40
0.0
  9
$USERR3
 40
0.0
  9
$USERR4
 40
0.0
  9
$USERR5
 40
0.0
  9
$WORLDVIEW
 70
           1
  9
$SHADEDGE
 70
           3
  9
$SHADEDIF
 70
          70
  9
$TILEMODE
 70
           1
  9
$MAXACTVP
 70
          16
  9
$PINSBASE
 10
0.0
 20
0.0
 30
0.0
  9
$PLIMCHECK
 70
           0
  9
$PEXTMIN
 10
-1.000000000000E+20
 20
-1.000000000000E+20
 30
-1.000000000000E+20
  9
$PEXTMAX
 10
-1.000000000000E+20
 20
-1.000000000000E+20
 30
-1.000000000000E+20
  9
$PLIMMIN
 10
0.0
 20
0.0
  9
$PLIMMAX
 10
12.0
 20
9.0
  9
$UNITMODE
 70
           0
  9
$VISRETAIN
 70
           0
  9
$PLINEGEN
 70
           1
  9
$PSLTSCALE
 70
           0
  9
$TREEDEPTH
 70
        3020
  9
$CMLSTYLE
  2
Standard
  9
$CMLJUST
 70
           0
  9
$CMLSCALE
 40
1.0
  9
$PROXYGRAPHICS
 70
           0
  9
$MEASUREMENT
 70
           0
  9
$CELWEIGHT
370
           0
  9
$ENDCAPS
280
           0
  9
$JOINSTYLE
280
           0
  9
$LWDISPLAY
290
           0
  9
$INSUNITS
 70
           0
  9
$HYPERLINKBASE
  1

  9
$STYLESHEET
  1

  9
$XEDIT
290
           0
  9
$CEPSNTYPE
380
           0
  9
$PSTYLEMODE
290
           1
  9
$FINGERPRINTGUID
  2

  9
$VERSIONGUID
  2

  9
$EXTNAMES
290
           1
  9
$PSVPSCALE
 40
0.0
  0
ENDSEC
  0
SECTION
  2
CLASSES
  0
CLASS
  1
LWPOLYLINE
  2
AcDbPolyline
  3
"AutoCAD"
 90
        0
280
           0
281
           1
  0
CLASS
  1
IMAGE
  2
AcDbRasterImage
  3
ISM
 90
      127
280
           0
281
           1
  0
CLASS
  1
OLE2FRAME
  2
AcDbOle2Frame
  3
""
 90
        0
280
           0
281
           1
  0
CLASS
  1
HATCH
  2
AcDbHatch
  3
"ACAD_SEDONA"
 90
        0
280
           0
281
           1
  0
CLASS
  1
DICTIONARYVAR
  2
AcDbDictionaryVar
  3
"AutoCAD"
 90
        0
280
           0
281
           0
  0
CLASS
  1
RASTERVARIABLES
  2
AcDbRasterVariables
  3
ISM
 90
        0
280
           0
281
           0
  0
CLASS
  1
IMAGEDEF
  2
AcDbRasterImageDef
  3
ISM
 90
        0
280
           0
281
           0
  0
CLASS
  1
IMAGEDEF_REACTOR
  2
AcDbRasterImageDefReactor
  3
ISM
 90
        1
280
           0
281
           0
  0
CLASS
  1
IDBUFFER
  2
AcDbIdBuffer
  3
"Acad"
 90
        0
280
           0
281
           0
  0
CLASS
  1
SPATIAL_FILTER
  2
AcDbSpatialFilter
  3
"Acad"
 90
        0
280
           0
281
           0
  0
CLASS
  1
XRECORD
  2
AcDbXrecord
  3
"<Built In>"
 90
        0
280
           0
281
           0
  0
CLASS
  1
SORTENTSTABLE
  2
AcDbSortentsTable
  3
AutoCAD 2000
 90
        0
280
           0
281
           0
  0
CLASS
  1
LAYER_INDEX
  2
AcDbLayerIndex
  3
AutoCAD 2000
 90
        0
280
           0
281
           0
  0
CLASS
  1
SPATIAL_INDEX
  2
AcDbSpatialIndex
  3
AutoCAD 2000
 90
        0
280
           0
281
           0
  0
CLASS
  1
OBJECT_PTR
  2
CAseDLPNTableRecord
  3
"ASE-LPNTableRecord"
 90
        1
280
           0
281
           0
  0
CLASS
  1
LAYOUT
  2
AcDbLayout
  3
AutoCAD 2000
 90
        0
280
           0
281
           0
  0
CLASS
  1
PLOTSETTINGS
  2
AcDbPlotSettings
  3
AutoCAD 2000
 90
        0
280
           0
281
           0
  0
CLASS
  1
ACDBDICTIONARYWDFLT
  2
AcDbDictionaryWithDefault
  3
AutoCAD 2000
 90
        0
280
           0
281
           0
  0
CLASS
  1
ACDBPLACEHOLDER
  2
AcDbPlaceHolder
  3
AutoCAD 2000
 90
        0
280
           0
281
           0
  0
CLASS
  1
VBA_PROJECT
  2
AcDbVbaProject
  3
acadvba
 90
        0
280
           0
281
           0
  0
CLASS
  1
WIPEOUT
  2
AcDbWipeout
  3
WipeOut|AutoCAD Express Tool|expresstools@autodesk.com
 90
      127
280
           0
281
           1
  0
CLASS
  1
WIPEOUTVARIABLES
  2
AcDbWipeoutVariables
  3
WipeOut|AutoCAD Express Tool|expresstools@autodesk.com
 90
        0
280
           0
281
           0
  0
CLASS
  1
RTEXT
  2
RText
  3
RText|AutoCAD Express Tool|expresstools@autodesk.com
 90
        0
280
           0
281
           1
  0
CLASS
  1
ARCALIGNEDTEXT
  2
AcDbArcAlignedText
  3
ATEXT|AutoCAD Express Tool|expresstools@autodesk.com
 90
        0
280
           0
281
           1
  0
CLASS
  1
DIMASSOC
  2
AcDbDimAssoc
  3
AcDbDimAssoc|Product Desc:     AcDim ARX App For Dimension|Company:          Autodesk, Inc.|WEB Address:      www.autodesk.com
 90
        1
280
           0
281
           0
  0
ENDSEC
  0
SECTION
  2
TABLES
  0
TABLE
  2
VPORT
  5
7
100
AcDbSymbolTable
 70
           1
  0
VPORT
  5
38A
100
AcDbSymbolTableRecord
100
AcDbViewportTableRecord
  2
*ACTIVE
 70
           0
 10
0.0
 20
0.0
 11
1.0
 21
1.0
 12
0.0
 22
0.0
 13
0.0
 23
0.0
 14
0.0
 24
0.0
 15
0.0
 25
0.0
 16
0.0
 26
0.0
 36
1.0
 17
8836.588796
 27
-15311.83972
 37
0.0
 40
1633.21012
 41
1.365604
 42
50.0
 43
0.0
 44
0.0
 50
0.0
 51
0.0
 71
           0
 72
         100
 73
           1
 74
           0
 75
           0
 76
           0
 77
           0
 78
           0
281
           0
 65
           0
110
0.0
120
0.0
130
0.0
111
1.0
121
0.0
131
0.0
112
0.0
122
1.0
132
0.0
345
0
346
0
 79
           0
146
0.0
  0
ENDTAB
  0
TABLE
  2
LTYPE
  5
4
100
AcDbSymbolTable
 70
           9
  0
LTYPE
  5
11
100
AcDbSymbolTableRecord
100
AcDbLinetypeTableRecord
  2
ByBlock
 70
          64
  3

 72
          65
 73
           0
 40
0.0
  0
LTYPE
  5
12
100
AcDbSymbolTableRecord
100
AcDbLinetypeTableRecord
  2
ByLayer
 70
          64
  3

 72
          65
 73
           0
 40
0.0
  0
LTYPE
  5
13
100
AcDbSymbolTableRecord
100
AcDbLinetypeTableRecord
  2
CONTINUOUS
 70
           0
  3
Solid line
 72
          65
 73
           0
 40
0.0
  0
LTYPE
  5
22
102
{ACAD_XDICTIONARY
360
445241573803D104
102
}
100
AcDbSymbolTableRecord
100
AcDbLinetypeTableRecord
  2
DOT
 70
          64
  3
. . . . . . . . . . . . . . . . . . . . . . . . . . . . . . . . 
 72
          65
 73
           2
 40
0.25
 49
0.0
 74
           0
 49
-0.25
 74
           0
  0
LTYPE
  5
23
102
{ACAD_XDICTIONARY
360
445241573803D104
102
}
100
AcDbSymbolTableRecord
100
AcDbLinetypeTableRecord
  2
HIDDEN
 70
          64
  3
__ __ __ __ __ __ __ __ __ __ __ __ __ __ __ __ __ __ __ __ __ 
 72
          65
 73
           2
 40
0.375
 49
0.25
 74
           0
 49
-0.125
 74
           0
  0
LTYPE
  5
24
102
{ACAD_XDICTIONARY
360
445241573803D104
102
}
100
AcDbSymbolTableRecord
100
AcDbLinetypeTableRecord
  2
DASHED
 70
          64
  3
__ __ __ __ __ __ __ __ __ __ __ __ __ __ __ __ __ __ __ __ __
 72
          65
 73
           2
 40
0.75
 49
0.5
 74
           0
 49
-0.25
 74
           0
  0
LTYPE
  5
25
102
{ACAD_XDICTIONARY
360
445241573803D104
102
}
100
AcDbSymbolTableRecord
100
AcDbLinetypeTableRecord
  2
DASHDOT
 70
          64
  3
__ . __ . __ . __ . __ . __ . __ . __ . __ . __ . __ . __ . _
 72
          65
 73
           4
 40
1.0
 49
0.5
 74
           0
 49
-0.25
 74
           0
 49
0.0
 74
           0
 49
-0.25
 74
           0
  0
LTYPE
  5
26
102
{ACAD_XDICTIONARY
360
445241573803D104
102
}
100
AcDbSymbolTableRecord
100
AcDbLinetypeTableRecord
  2
DIVIDE
 70
          64
  3
____ . . ____ . . ____ . . ____ . . ____ . . ____ . . ____ . .
 72
          65
 73
           6
 40
1.25
 49
0.5
 74
           0
 49
-0.25
 74
           0
 49
0.0
 74
           0
 49
-0.25
 74
           0
 49
0.0
 74
           0
 49
-0.25
 74
           0
  0
LTYPE
  5
27
102
{ACAD_XDICTIONARY
360
445241573803D104
102
}
100
AcDbSymbolTableRecord
100
AcDbLinetypeTableRecord
  2
CENTER
 70
          64
  3
____ _ ____ _ ____ _ ____ _ ____ _ ____ _ ____ _ ____ _ ____ _
 72
          65
 73
           4
 40
2.0
 49
1.25
 74
           0
 49
-0.25
 74
           0
 49
0.25
 74
           0
 49
-0.25
 74
           0
  0
ENDTAB
  0
TABLE
  2
LAYER
  5
2
100
AcDbSymbolTable
 70
          13
  0
LAYER
  5
14
102
{ACAD_XDICTIONARY
360
5F205F5F5F5F205F
102
}
100
AcDbSymbolTableRecord
100
AcDbLayerTableRecord
  2
0
 70
           0
 62
           7
  6
CONTINUOUS
290
           1
370
          -3
390
38B
  0
LAYER
  5
1E
102
{ACAD_XDICTIONARY
360
5F205F5F5F5F205F
102
}
100
AcDbSymbolTableRecord
100
AcDbLayerTableRecord
  2
CONSTRUCTION_CLASS
 70
           0
 62
           7
  6
CONTINUOUS
290
           1
370
          -3
390
38B
  0
LAYER
  5
1F
102
{ACAD_XDICTIONARY
360
5F205F5F5F5F205F
102
}
100
AcDbSymbolTableRecord
100
AcDbLayerTableRecord
  2
PATTERN_CLASS
 70
           0
 62
           7
  6
CONTINUOUS
290
           1
370
          -3
390
38B
  0
LAYER
  5
28
102
{ACAD_XDICTIONARY
360
5F205F5F5F5F205F
102
}
100
AcDbSymbolTableRecord
100
AcDbLayerTableRecord
  2
1
 70
          64
 62
           7
  6
CONTINUOUS
290
           1
370
          -3
390
38B
  0
LAYER
  5
AA
102
{ACAD_XDICTIONARY
360
5F205F5F5F5F205F
102
}
100
AcDbSymbolTableRecord
100
AcDbLayerTableRecord
  2
$$$$$$
 70
          64
 62
           7
  6
CONTINUOUS
290
           1
370
          -3
390
38B
  0
LAYER
  5
BC
102
{ACAD_XDICTIONARY
360
5F205F5F5F5F205F
102
}
100
AcDbSymbolTableRecord
100
AcDbLayerTableRecord
  2
$$$$
 70
          64
 62
           7
  6
CONTINUOUS
290
           1
370
          -3
390
38B
  0
LAYER
  5
BE
102
{ACAD_XDICTIONARY
360
5F205F5F5F5F205F
102
}
100
AcDbSymbolTableRecord
100
AcDbLayerTableRecord
  2
DEFPOINTS
 70
          64
 62
           7
  6
CONTINUOUS
290
           0
370
          -3
390
38B
  0
LAYER
  5
C7
102
{ACAD_XDICTIONARY
360
5F205F5F5F5F205F
102
}
100
AcDbSymbolTableRecord
100
AcDbLayerTableRecord
  2
$$15$9
 70
          64
 62
           7
  6
CONTINUOUS
290
           1
370
          -3
390
38B
  0
LAYER
  5
CB
102
{ACAD_XDICTIONARY
360
5F205F5F5F5F205F
102
}
100
AcDbSymbolTableRecord
100
AcDbLayerTableRecord
  2
$$12$7
 70
          64
 62
           7
  6
CONTINUOUS
290
           1
370
          -3
390
38B
  0
LAYER
  5
CE
102
{ACAD_XDICTIONARY
360
5F205F5F5F5F205F
102
}
100
AcDbSymbolTableRecord
100
AcDbLayerTableRecord
  2
$$$$$$15$9
 70
          64
 62
           7
  6
CONTINUOUS
290
           1
370
          -3
390
38B
  0
LAYER
  5
11A
102
{ACAD_XDICTIONARY
360
5F205F5F5F5F205F
102
}
100
AcDbSymbolTableRecord
100
AcDbLayerTableRecord
  2
$_$X$$$$$$$N$X
 70
          64
 62
           7
  6
CONTINUOUS
290
           1
370
          -3
390
38B
  0
LAYER
  5
131
102
{ACAD_XDICTIONARY
360
5F205F5F5F5F205F
102
}
100
AcDbSymbolTableRecord
100
AcDbLayerTableRecord
  2
$J$$$$$$15$9
 70
          64
 62
           7
  6
CONTINUOUS
290
           1
370
          -3
390
38B
  0
LAYER
  5
34A
102
{ACAD_XDICTIONARY
360
5F205F5F5F5F205F
102
}
100
AcDbSymbolTableRecord
100
AcDbLayerTableRecord
  2
$$$S$$
 70
          64
 62
           7
  6
CONTINUOUS
290
           1
370
          -3
390
38B
  0
ENDTAB
  0
TABLE
  2
STYLE
  5
3
100
AcDbSymbolTable
 70
           4
  0
STYLE
  5
17
100
AcDbSymbolTableRecord
100
AcDbTextStyleTableRecord
  2
STANDARD
 70
           0
 40
0.0
 41
1.0
 50
0.0
 71
           0
 42
0.2
  3
TXT
  4

  0
STYLE
  5
2A
100
AcDbSymbolTableRecord
100
AcDbTextStyleTableRecord
  2
BIGFONT
 70
           0
 40
0.2
 41
1.0
 50
0.0
 71
           0
 42
0.2
  3
TXT
  4
BIGFONT
  0
STYLE
  5
90
100
AcDbSymbolTableRecord
100
AcDbTextStyleTableRecord
  2
MONOTXT
 70
           0
 40
0.2
 41
1.0
 50
0.0
 71
           0
 42
0.2
  3
MONOTXT
  4

  0
STYLE
  5
180
100
AcDbSymbolTableRecord
100
AcDbTextStyleTableRecord
  2
txt
 70
           0
 40
0.2
 41
1.0
 50
0.0
 71
           0
 42
0.2
  3
TXT
  4

  0
ENDTAB
  0
TABLE
  2
VIEW
  5
5
100
AcDbSymbolTable
 70
           0
  0
ENDTAB
  0
TABLE
  2
UCS
  5
6
100
AcDbSymbolTable
 70
           0
  0
ENDTAB
  0
TABLE
  2
APPID
  5
8
100
AcDbSymbolTable
 70
           1
  0
APPID
  5
16
100
AcDbSymbolTableRecord
100
AcDbRegAppTableRecord
  2
ACAD
 70
           0
  0
ENDTAB
  0
TABLE
  2
DIMSTYLE
  5
9
100
AcDbSymbolTable
 70
           2
100
AcDbDimStyleTable
 71
           0
  0
DIMSTYLE
105
18
100
AcDbSymbolTableRecord
100
AcDbDimStyleTableRecord
  2
STANDARD
 70
           0
  3

  4

 40
1.0
 41
0.18
 42
0.0625
 43
0.38
 44
0.18
 45
0.0
 46
0.0
 47
0.0
 48
0.0
 71
           0
 72
           0
 73
           1
 74
           1
 75
           0
 76
           0
 77
           0
 78
           0
 79
           0
140
0.18
141
0.09
142
0.0
143
25.4
144
1.0
145
0.0
146
1.0
147
0.09
148
0.0
170
           0
171
           2
172
           0
173
           0
174
           0
175
           0
176
           0
177
           0
178
           0
179
           0
271
           4
272
           4
273
           2
274
           2
275
           0
276
           0
277
           2
278
           0
279
           0
280
           0
281
           0
282
           0
283
           1
284
           0
285
           0
286
           0
288
           0
289
           0
340
17
341
0
342
0
343
0
344
0
371
          -2
372
          -2
  0
DIMSTYLE
105
BD
100
AcDbSymbolTableRecord
100
AcDbDimStyleTableRecord
  2
MSADIM
 70
           0
  3

  4

 40
1.0
 41
15.0
 42
7.5
 43
0.0
 44
3.0
 45
0.0
 46
0.0
 47
0.0
 48
0.0
 71
           0
 72
           0
 73
           0
 74
           0
 75
           0
 76
           0
 77
           1
 78
           2
 79
           0
140
15.0
141
3.6
142
0.0
143
0.03937
144
1.0
145
7.5
146
1.0
147
7.5
148
0.0
170
           0
171
           2
172
           0
173
           0
174
           0
175
           0
176
           0
177
           0
178
           0
179
           0
271
           1
272
           1
273
           5
274
           1
275
           0
276
           0
277
           2
278
           0
279
           0
280
           0
281
           0
282
           0
283
           1
284
           2
285
           0
286
           2
288
           0
289
           3
340
2A
341
0
342
0
343
0
344
0
371
          -2
372
          -2
  0
ENDTAB
  0
TABLE
  2
BLOCK_RECORD
  5
1
100
AcDbSymbolTable
 70
          15
  0
BLOCK_RECORD
  5
A
100
AcDbSymbolTableRecord
100
AcDbBlockTableRecord
  2
*MODEL_SPACE
340
38E
  0
BLOCK_RECORD
  5
B
100
AcDbSymbolTableRecord
100
AcDbBlockTableRecord
  2
*PAPER_SPACE
340
38F
  0
BLOCK_RECORD
  5
B0
102
{ACAD_XDICTIONARY
360
5CE000000000008C
102
}
100
AcDbSymbolTableRecord
100
AcDbBlockTableRecord
  2
*U0
340
0
102
{BLKREFS
331
B5
102
}
  0
BLOCK_RECORD
  5
B6
102
{ACAD_XDICTIONARY
360
5CE000000000008C
102
}
100
AcDbSymbolTableRecord
100
AcDbBlockTableRecord
  2
*U1
340
0
102
{BLKREFS
331
BB
102
}
  0
BLOCK_RECORD
  5
2D7
102
{ACAD_XDICTIONARY
360
5CE000000000008C
102
}
100
AcDbSymbolTableRecord
100
AcDbBlockTableRecord
  2
*D2
340
0
  0
BLOCK_RECORD
  5
2E5
102
{ACAD_XDICTIONARY
360
5CE000000000008C
102
}
100
AcDbSymbolTableRecord
100
AcDbBlockTableRecord
  2
*D3
340
0
  0
BLOCK_RECORD
  5
308
102
{ACAD_XDICTIONARY
360
5CE000000000008C
102
}
100
AcDbSymbolTableRecord
100
AcDbBlockTableRecord
  2
*U4
340
0
102
{BLKREFS
331
30D
102
}
  0
BLOCK_RECORD
  5
30E
102
{ACAD_XDICTIONARY
360
5CE000000000008C
102
}
100
AcDbSymbolTableRecord
100
AcDbBlockTableRecord
  2
*U5
340
0
102
{BLKREFS
331
313
102
}
  0
BLOCK_RECORD
  5
314
102
{ACAD_XDICTIONARY
360
5CE000000000008C
102
}
100
AcDbSymbolTableRecord
100
AcDbBlockTableRecord
  2
*U6
340
0
102
{BLKREFS
331
319
102
}
  0
BLOCK_RECORD
  5
320
102
{ACAD_XDICTIONARY
360
5CE000000000008C
102
}
100
AcDbSymbolTableRecord
100
AcDbBlockTableRecord
  2
*U7
340
0
102
{BLKREFS
331
325
102
}
  0
BLOCK_RECORD
  5
33B
102
{ACAD_XDICTIONARY
360
5CE000000000008C
102
}
100
AcDbSymbolTableRecord
100
AcDbBlockTableRecord
  2
*U8
340
0
102
{BLKREFS
331
340
102
}
  0
BLOCK_RECORD
  5
341
102
{ACAD_XDICTIONARY
360
5CE000000000008C
102
}
100
AcDbSymbolTableRecord
100
AcDbBlockTableRecord
  2
*U9
340
0
102
{BLKREFS
331
346
102
}
  0
BLOCK_RECORD
  5
34B
102
{ACAD_XDICTIONARY
360
5CE000000000008C
102
}
100
AcDbSymbolTableRecord
100
AcDbBlockTableRecord
  2
*D10
340
0
  0
BLOCK_RECORD
  5
359
102
{ACAD_XDICTIONARY
360
5CE000000000008C
102
}
100
AcDbSymbolTableRecord
100
AcDbBlockTableRecord
  2
*D11
340
0
  0
BLOCK_RECORD
  5
367
102
{ACAD_XDICTIONARY
360
5CE000000000008C
102
}
100
AcDbSymbolTableRecord
100
AcDbBlockTableRecord
  2
*D12
340
0
  0
BLOCK_RECORD
  5
375
102
{ACAD_XDICTIONARY
360
5CE000000000008C
102
}
100
AcDbSymbolTableRecord
100
AcDbBlockTableRecord
  2
*U13
340
0
102
{BLKREFS
331
382
102
}
  0
BLOCK_RECORD
  5
383
102
{ACAD_XDICTIONARY
360
5CE000000000008C
102
}
100
AcDbSymbolTableRecord
100
AcDbBlockTableRecord
  2
*U14
340
0
102
{BLKREFS
331
389
102
}
  0
ENDTAB
  0
ENDSEC
  0
SECTION
  2
BLOCKS
  0
BLOCK
  5
D
100
AcDbEntity
  8
0
390
0
100
AcDbBlockBegin
  2
*MODEL_SPACE
 70
           0
 10
0.0
 20
0.0
 30
0.0
  3
*MODEL_SPACE
  1

  0
ENDBLK
  5
E
100
AcDbEntity
  8
0
390
0
100
AcDbBlockEnd
  0
BLOCK
  5
F
100
AcDbEntity
 67
           1
  8
0
390
0
100
AcDbBlockBegin
  2
*PAPER_SPACE
 70
           0
 10
0.0
 20
0.0
 30
0.0
  3
*PAPER_SPACE
  1

  0
ENDBLK
  5
10
100
AcDbEntity
 67
           1
  8
0
390
0
100
AcDbBlockEnd
  0
BLOCK
  5
B1
102
{ACAD_XDICTIONARY
360
4F4B000000000000
102
}
100
AcDbEntity
  8
$$$$$$
  6
CONTINUOUS
 62
           3
100
AcDbBlockBegin
  2
*U0
 70
          65
 10
0.0
 20
0.0
 30
0.0
  3
*O0
  1

  0
CIRCLE
  5
B2
102
{ACAD_XDICTIONARY
360
4F4B000000000000
102
}
100
AcDbEntity
  8
$$$$$$
  6
CONTINUOUS
 62
           3
100
AcDbCircle
 10
-0.000006
 20
-0.252094
 30
0.0
 40
10.261974
  0
TEXT
  5
B3
102
{ACAD_XDICTIONARY
360
4F4B000000000000
102
}
100
AcDbEntity
  8
$$$$$$
  6
CONTINUOUS
 62
           2
100
AcDbText
 10
-1.8173347
 20
-6.05956
 30
0.0
 40
12.11918
  1
1
  7
BIGFONT
 72
           4
 11
0.18233
 21
0.00003
 31
0.0
100
AcDbText
  0
ENDBLK
  5
B4
102
{ACAD_XDICTIONARY
360
4F4B000000000000
102
}
100
AcDbEntity
  8
$$$$$$
  6
CONTINUOUS
 62
           2
100
AcDbBlockEnd
  0
BLOCK
  5
B7
102
{ACAD_XDICTIONARY
360
4F4B000000000000
102
}
100
AcDbEntity
  8
$$$$$$
  6
CONTINUOUS
 62
           3
100
AcDbBlockBegin
  2
*U1
 70
          65
 10
0.0
 20
0.0
 30
0.0
  3
*O1
  1

  0
CIRCLE
  5
B8
102
{ACAD_XDICTIONARY
360
4F4B000000000000
102
}
100
AcDbEntity
  8
$$$$$$
  6
CONTINUOUS
 62
           3
100
AcDbCircle
 10
-0.000006
 20
-0.117581
 30
0.0
 40
10.261974
  0
TEXT
  5
B9
102
{ACAD_XDICTIONARY
360
4F4B000000000000
102
}
100
AcDbEntity
  8
$$$$$$
  6
CONTINUOUS
 62
           2
100
AcDbText
 10
-3.87741855
 20
-6.059545
 30
0.0
 40
12.11913
  1
2
  7
BIGFONT
 72
           4
 11
0.18249
 21
0.00002
 31
0.0
100
AcDbText
  0
ENDBLK
  5
BA
102
{ACAD_XDICTIONARY
360
4F4B000000000000
102
}
100
AcDbEntity
  8
$$$$$$
  6
CONTINUOUS
 62
           2
100
AcDbBlockEnd
  0
BLOCK
  5
2D8
102
{ACAD_XDICTIONARY
360
4F4B000000000000
102
}
100
AcDbEntity
  8
$$$$
  6
CONTINUOUS
 62
           2
100
AcDbBlockBegin
  2
*D2
 70
           1
 10
0.0
 20
0.0
 30
0.0
  3
*N2
  1

  0
LINE
  5
2D9
102
{ACAD_XDICTIONARY
360
4F4B000000000000
102
}
100
AcDbEntity
  8
$$$$
  6
CONTINUOUS
 62
           2
100
AcDbLine
 10
7982.73567
 20
-15370.065780000001
 30
0.0
 11
7982.73567
 21
-15178.62658
 31
0.0
  0
LINE
  5
2DA
102
{ACAD_XDICTIONARY
360
4F4B000000000000
102
}
100
AcDbEntity
  8
$$$$
  6
CONTINUOUS
 62
           2
100
AcDbLine
 10
8690.73566
 20
-15370.065780000001
 30
0.0
 11
8690.73566
 21
-15178.62658
 31
0.0
  0
LINE
  5
2DB
102
{ACAD_XDICTIONARY
360
4F4B000000000000
102
}
100
AcDbEntity
  8
$$$$
  6
CONTINUOUS
 62
           2
100
AcDbLine
 10
7982.73567
 20
-15181.62658
 30
0.0
 11
8690.73566
 21
-15181.62658
 31
0.0
  0
SOLID
  5
2DC
102
{ACAD_XDICTIONARY
360
4F4B000000000000
102
}
100
AcDbEntity
  8
$$$$
  6
CONTINUOUS
 62
           2
100
AcDbTrace
 10
7997.73567
 20
-15183.87658
 30
0.0
 11
7982.73567
 21
-15181.62658
 31
0.0
 12
7997.73567
 22
-15179.37658
 32
0.0
 13
7997.73567
 23
-15179.37658
 33
0.0
  0
SOLID
  5
2DD
102
{ACAD_XDICTIONARY
360
4F4B000000000000
102
}
100
AcDbEntity
  8
$$$$
  6
CONTINUOUS
 62
           2
100
AcDbTrace
 10
8675.73566
 20
-15179.37658
 30
0.0
 11
8690.73566
 21
-15181.62658
 31
0.0
 12
8675.73566
 22
-15183.87658
 32
0.0
 13
8675.73566
 23
-15183.87658
 33
0.0
  0
MTEXT
  5
2DE
102
{ACAD_XDICTIONARY
360
4F4B000000000000
102
}
100
AcDbEntity
  8
$$$$
  6
CONTINUOUS
 62
           2
100
AcDbMText
 10
8314.09518
 20
-15174.12658
 30
0.0
 40
15.0
 41
167.208645
 71
           4
 72
           1
  1
{\A0;(708)}
  7
BIGFONT
 73
           1
 44
1.0
  0
POINT
  5
2DF
102
{ACAD_XDICTIONARY
360
4F4B000000000000
102
}
100
AcDbEntity
  8
DEFPOINTS
  6
ByBlock
 62
           0
100
AcDbPoint
 10
7982.73567
 20
-15181.626581
 30
0.0
  0
POINT
  5
2E0
102
{ACAD_XDICTIONARY
360
4F4B000000000000
102
}
100
AcDbEntity
  8
DEFPOINTS
  6
ByBlock
 62
           0
100
AcDbPoint
 10
8690.73566
 20
-15377.565780999999
 30
0.0
  0
POINT
  5
2E1
102
{ACAD_XDICTIONARY
360
4F4B000000000000
102
}
100
AcDbEntity
  8
DEFPOINTS
  6
ByBlock
 62
           0
100
AcDbPoint
 10
7982.73567
 20
-15377.565780999999
 30
0.0
  0
POINT
  5
2E2
102
{ACAD_XDICTIONARY
360
4F4B000000000000
102
}
100
AcDbEntity
  8
DEFPOINTS
  6
ByBlock
 62
           0
100
AcDbPoint
 10
8337.331394999999
 20
-15174.12658
 30
0.0
  0
ENDBLK
  5
2E3
102
{ACAD_XDICTIONARY
360
4F4B000000000000
102
}
100
AcDbEntity
  8
$$$$
  6
CONTINUOUS
 62
           2
100
AcDbBlockEnd
  0
BLOCK
  5
2E6
102
{ACAD_XDICTIONARY
360
4F4B000000000000
102
}
100
AcDbEntity
  8
$$$$
  6
CONTINUOUS
 62
           2
100
AcDbBlockBegin
  2
*D3
 70
           1
 10
0.0
 20
0.0
 30
0.0
  3
*N3
  1

  0
LINE
  5
2E7
102
{ACAD_XDICTIONARY
360
4F4B000000000000
102
}
100
AcDbEntity
  8
$$$$
  6
CONTINUOUS
 62
           2
100
AcDbLine
 10
9061.67503
 20
-15296.890719999999
 30
0.0
 11
9061.67503
 21
-15178.62657
 31
0.0
  0
LINE
  5
2E8
102
{ACAD_XDICTIONARY
360
4F4B000000000000
102
}
100
AcDbEntity
  8
$$$$
  6
CONTINUOUS
 62
           2
100
AcDbLine
 10
9455.525019999999
 20
-15370.065769999999
 30
0.0
 11
9455.525019999999
 21
-15178.62657
 31
0.0
  0
LINE
  5
2E9
102
{ACAD_XDICTIONARY
360
4F4B000000000000
102
}
100
AcDbEntity
  8
$$$$
  6
CONTINUOUS
 62
           2
100
AcDbLine
 10
9061.67503
 20
-15181.62657
 30
0.0
 11
9455.525019999999
 21
-15181.62657
 31
0.0
  0
SOLID
  5
2EA
102
{ACAD_XDICTIONARY
360
4F4B000000000000
102
}
100
AcDbEntity
  8
$$$$
  6
CONTINUOUS
 62
           2
100
AcDbTrace
 10
9076.67503
 20
-15183.87657
 30
0.0
 11
9061.67503
 21
-15181.62657
 31
0.0
 12
9076.67503
 22
-15179.37657
 32
0.0
 13
9076.67503
 23
-15179.37657
 33
0.0
  0
SOLID
  5
2EB
102
{ACAD_XDICTIONARY
360
4F4B000000000000
102
}
100
AcDbEntity
  8
$$$$
  6
CONTINUOUS
 62
           2
100
AcDbTrace
 10
9440.525019999999
 20
-15179.37657
 30
0.0
 11
9455.525019999999
 21
-15181.62657
 31
0.0
 12
9440.525019999999
 22
-15183.87657
 32
0.0
 13
9440.525019999999
 23
-15183.87657
 33
0.0
  0
MTEXT
  5
2EC
102
{ACAD_XDICTIONARY
360
4F4B000000000000
102
}
100
AcDbEntity
  8
$$$$
  6
CONTINUOUS
 62
           2
100
AcDbMText
 10
9247.953030000001
 20
-15174.12657
 30
0.0
 40
15.0
 41
165.98031
 71
           4
 72
           1
  1
{\A0;(393)}
  7
BIGFONT
 73
           1
 44
1.0
  0
POINT
  5
2ED
102
{ACAD_XDICTIONARY
360
4F4B000000000000
102
}
100
AcDbEntity
  8
DEFPOINTS
  6
ByBlock
 62
           0
100
AcDbPoint
 10
9061.67503
 20
-15181.626571000001
 30
0.0
  0
POINT
  5
2EE
102
{ACAD_XDICTIONARY
360
4F4B000000000000
102
}
100
AcDbEntity
  8
DEFPOINTS
  6
ByBlock
 62
           0
100
AcDbPoint
 10
9455.525019999999
 20
-15377.565771
 30
0.0
  0
POINT
  5
2EF
102
{ACAD_XDICTIONARY
360
4F4B000000000000
102
}
100
AcDbEntity
  8
DEFPOINTS
  6
ByBlock
 62
           0
100
AcDbPoint
 10
9061.67503
 20
-15304.390721
 30
0.0
  0
POINT
  5
2F0
102
{ACAD_XDICTIONARY
360
4F4B000000000000
102
}
100
AcDbEntity
  8
DEFPOINTS
  6
ByBlock
 62
           0
100
AcDbPoint
 10
9270.7798
 20
-15174.12657
 30
0.0
  0
ENDBLK
  5
2F1
102
{ACAD_XDICTIONARY
360
4F4B000000000000
102
}
100
AcDbEntity
  8
$$$$
  6
CONTINUOUS
 62
           2
100
AcDbBlockEnd
  0
BLOCK
  5
309
102
{ACAD_XDICTIONARY
360
4F4B000000000000
102
}
100
AcDbEntity
  8
$$$$$$
  6
CONTINUOUS
 62
           3
100
AcDbBlockBegin
  2
*U4
 70
          65
 10
0.0
 20
0.0
 30
0.0
  3
*O4
  1

  0
CIRCLE
  5
30A
102
{ACAD_XDICTIONARY
360
4F4B000000000000
102
}
100
AcDbEntity
  8
$$$$$$
  6
CONTINUOUS
 62
           3
100
AcDbCircle
 10
0.000001
 20
-0.252097
 30
0.0
 40
10.261974
  0
TEXT
  5
30B
102
{ACAD_XDICTIONARY
360
4F4B000000000000
102
}
100
AcDbEntity
  8
$$$$$$
  6
CONTINUOUS
 62
           2
100
AcDbText
 10
-1.8173347
 20
-6.05956
 30
0.0
 40
12.11918
  1
1
  7
BIGFONT
 72
           4
 11
0.18233
 21
0.00003
 31
0.0
100
AcDbText
  0
ENDBLK
  5
30C
102
{ACAD_XDICTIONARY
360
4F4B000000000000
102
}
100
AcDbEntity
  8
$$$$$$
  6
CONTINUOUS
 62
           2
100
AcDbBlockEnd
  0
BLOCK
  5
30F
102
{ACAD_XDICTIONARY
360
4F4B000000000000
102
}
100
AcDbEntity
  8
$$$$$$
  6
CONTINUOUS
 62
           3
100
AcDbBlockBegin
  2
*U5
 70
          65
 10
0.0
 20
0.0
 30
0.0
  3
*O5
  1

  0
CIRCLE
  5
310
102
{ACAD_XDICTIONARY
360
4F4B000000000000
102
}
100
AcDbEntity
  8
$$$$$$
  6
CONTINUOUS
 62
           3
100
AcDbCircle
 10
0.000001
 20
-0.117579
 30
0.0
 40
10.261974
  0
TEXT
  5
311
102
{ACAD_XDICTIONARY
360
4F4B000000000000
102
}
100
AcDbEntity
  8
$$$$$$
  6
CONTINUOUS
 62
           2
100
AcDbText
 10
-3.87741855
 20
-6.059545
 30
0.0
 40
12.11913
  1
2
  7
BIGFONT
 72
           4
 11
0.18249
 21
0.00002
 31
0.0
100
AcDbText
  0
ENDBLK
  5
312
102
{ACAD_XDICTIONARY
360
4F4B000000000000
102
}
100
AcDbEntity
  8
$$$$$$
  6
CONTINUOUS
 62
           2
100
AcDbBlockEnd
  0
BLOCK
  5
315
102
{ACAD_XDICTIONARY
360
4F4B000000000000
102
}
100
AcDbEntity
  8
$$$$$$
  6
CONTINUOUS
 62
           3
100
AcDbBlockBegin
  2
*U6
 70
          65
 10
0.0
 20
0.0
 30
0.0
  3
*O6
  1

  0
CIRCLE
  5
316
102
{ACAD_XDICTIONARY
360
4F4B000000000000
102
}
100
AcDbEntity
  8
$$$$$$
  6
CONTINUOUS
 62
           3
100
AcDbCircle
 10
0.000001
 20
-0.117473
 30
0.0
 40
10.261974
  0
TEXT
  5
317
102
{ACAD_XDICTIONARY
360
4F4B000000000000
102
}
100
AcDbEntity
  8
$$$$$$
  6
CONTINUOUS
 62
           2
100
AcDbText
 10
-3.87649855
 20
-6.059545
 30
0.0
 40
12.11913
  1
3
  7
BIGFONT
 72
           4
 11
0.18341
 21
0.00002
 31
0.0
100
AcDbText
  0
ENDBLK
  5
318
102
{ACAD_XDICTIONARY
360
4F4B000000000000
102
}
100
AcDbEntity
  8
$$$$$$
  6
CONTINUOUS
 62
           2
100
AcDbBlockEnd
  0
BLOCK
  5
321
102
{ACAD_XDICTIONARY
360
4F4B000000000000
102
}
100
AcDbEntity
  8
$$$$$$
  6
CONTINUOUS
 62
           3
100
AcDbBlockBegin
  2
*U7
 70
          65
 10
0.0
 20
0.0
 30
0.0
  3
*O7
  1

  0
CIRCLE
  5
322
102
{ACAD_XDICTIONARY
360
4F4B000000000000
102
}
100
AcDbEntity
  8
$$$$$$
  6
CONTINUOUS
 62
           3
100
AcDbCircle
 10
-0.000009
 20
-0.117578
 30
0.0
 40
10.261974
  0
TEXT
  5
323
102
{ACAD_XDICTIONARY
360
4F4B000000000000
102
}
100
AcDbEntity
  8
$$$$$$
  6
CONTINUOUS
 62
           2
100
AcDbText
 10
-3.87687855
 20
-6.059565
 30
0.0
 40
12.11913
  1
4
  7
BIGFONT
 72
           4
 11
0.18303
 21
0.0
 31
0.0
100
AcDbText
  0
ENDBLK
  5
324
102
{ACAD_XDICTIONARY
360
4F4B000000000000
102
}
100
AcDbEntity
  8
$$$$$$
  6
CONTINUOUS
 62
           2
100
AcDbBlockEnd
  0
BLOCK
  5
33C
102
{ACAD_XDICTIONARY
360
4F4B000000000000
102
}
100
AcDbEntity
  8
$$$$$$
  6
CONTINUOUS
 62
           3
100
AcDbBlockBegin
  2
*U8
 70
          65
 10
0.0
 20
0.0
 30
0.0
  3
*O8
  1

  0
CIRCLE
  5
33D
102
{ACAD_XDICTIONARY
360
4F4B000000000000
102
}
100
AcDbEntity
  8
$$$$$$
  6
CONTINUOUS
 62
           3
100
AcDbCircle
 10
0.000004
 20
-0.117593
 30
0.0
 40
10.261974
  0
TEXT
  5
33E
102
{ACAD_XDICTIONARY
360
4F4B000000000000
102
}
100
AcDbEntity
  8
$$$$$$
  6
CONTINUOUS
 62
           2
100
AcDbText
 10
-3.87686855
 20
-6.059575
 30
0.0
 40
12.11913
  1
3
  7
BIGFONT
 72
           4
 11
0.18304
 21
-0.00001
 31
0.0
100
AcDbText
  0
ENDBLK
  5
33F
102
{ACAD_XDICTIONARY
360
4F4B000000000000
102
}
100
AcDbEntity
  8
$$$$$$
  6
CONTINUOUS
 62
           2
100
AcDbBlockEnd
  0
BLOCK
  5
342
102
{ACAD_XDICTIONARY
360
4F4B000000000000
102
}
100
AcDbEntity
  8
$$$$$$
  6
CONTINUOUS
 62
           3
100
AcDbBlockBegin
  2
*U9
 70
          65
 10
0.0
 20
0.0
 30
0.0
  3
*O9
  1

  0
CIRCLE
  5
343
102
{ACAD_XDICTIONARY
360
4F4B000000000000
102
}
100
AcDbEntity
  8
$$$$$$
  6
CONTINUOUS
 62
           3
100
AcDbCircle
 10
0.000004
 20
0.000732
 30
0.0
 40
10.261974
  0
TEXT
  5
344
102
{ACAD_XDICTIONARY
360
4F4B000000000000
102
}
100
AcDbEntity
  8
$$$$$$
  6
CONTINUOUS
 62
           2
100
AcDbText
 10
-3.87686855
 20
-6.059575
 30
0.0
 40
12.11913
  1
4
  7
BIGFONT
 72
           4
 11
0.18304
 21
-0.00001
 31
0.0
100
AcDbText
  0
ENDBLK
  5
345
102
{ACAD_XDICTIONARY
360
4F4B000000000000
102
}
100
AcDbEntity
  8
$$$$$$
  6
CONTINUOUS
 62
           2
100
AcDbBlockEnd
  0
BLOCK
  5
34C
102
{ACAD_XDICTIONARY
360
4F4B000000000000
102
}
100
AcDbEntity
  8
$$$S$$
  6
CONTINUOUS
 62
           2
100
AcDbBlockBegin
  2
*D10
 70
           1
 10
0.0
 20
0.0
 30
0.0
  3
*N10
  1

  0
LINE
  5
34D
102
{ACAD_XDICTIONARY
360
4F4B000000000000
102
}
100
AcDbEntity
  8
$$$S$$
  6
CONTINUOUS
 62
           2
100
AcDbLine
 10
8638.335660000001
 20
-15264.065790000001
 30
0.0
 11
8805.493630000001
 21
-15264.065790000001
 31
0.0
  0
LINE
  5
34E
102
{ACAD_XDICTIONARY
360
4F4B000000000000
102
}
100
AcDbEntity
  8
$$$S$$
  6
CONTINUOUS
 62
           2
100
AcDbLine
 10
8665.98566
 20
-15814.065790000001
 30
0.0
 11
8805.493630000001
 21
-15814.065790000001
 31
0.0
  0
LINE
  5
34F
102
{ACAD_XDICTIONARY
360
4F4B000000000000
102
}
100
AcDbEntity
  8
$$$S$$
  6
CONTINUOUS
 62
           2
100
AcDbLine
 10
8802.493630000001
 20
-15264.065790000001
 30
0.0
 11
8802.493630000001
 21
-15814.065790000001
 31
0.0
  0
SOLID
  5
350
102
{ACAD_XDICTIONARY
360
4F4B000000000000
102
}
100
AcDbEntity
  8
$$$S$$
  6
CONTINUOUS
 62
           2
100
AcDbTrace
 10
8800.243630000001
 20
-15279.065790000001
 30
0.0
 11
8802.493630000001
 21
-15264.065790000001
 31
0.0
 12
8804.743630000001
 22
-15279.065790000001
 32
0.0
 13
8804.743630000001
 23
-15279.065790000001
 33
0.0
  0
SOLID
  5
351
102
{ACAD_XDICTIONARY
360
4F4B000000000000
102
}
100
AcDbEntity
  8
$$$S$$
  6
CONTINUOUS
 62
           2
100
AcDbTrace
 10
8804.743630000001
 20
-15799.065790000001
 30
0.0
 11
8802.493630000001
 21
-15814.065790000001
 31
0.0
 12
8800.243630000001
 22
-15799.065790000001
 32
0.0
 13
8800.243630000001
 23
-15799.065790000001
 33
0.0
  0
MTEXT
  5
352
102
{ACAD_XDICTIONARY
360
4F4B000000000000
102
}
100
AcDbEntity
  8
$$$S$$
  6
CONTINUOUS
 62
           2
100
AcDbMText
 10
8794.993630000001
 20
-15576.0594
 30
0.0
 40
15.0
 41
221.87007
 71
           4
 72
           1
  1
{\A0;550 1/2 {0-3}
  7
BIGFONT
 11
0.0
 21
1.0
 31
0.0
 73
           1
 44
1.0
  0
POINT
  5
353
102
{ACAD_XDICTIONARY
360
4F4B000000000000
102
}
100
AcDbEntity
  8
DEFPOINTS
  6
ByBlock
 62
           0
100
AcDbPoint
 10
8802.493630000001
 20
-15264.065791000001
 30
0.0
  0
POINT
  5
354
102
{ACAD_XDICTIONARY
360
4F4B000000000000
102
}
100
AcDbEntity
  8
DEFPOINTS
  6
ByBlock
 62
           0
100
AcDbPoint
 10
8658.485663
 20
-15814.065789
 30
0.0
  0
POINT
  5
355
102
{ACAD_XDICTIONARY
360
4F4B000000000000
102
}
100
AcDbEntity
  8
DEFPOINTS
  6
ByBlock
 62
           0
100
AcDbPoint
 10
8630.835660000001
 20
-15264.065791000001
 30
0.0
  0
POINT
  5
356
102
{ACAD_XDICTIONARY
360
4F4B000000000000
102
}
100
AcDbEntity
  8
DEFPOINTS
  6
ByBlock
 62
           0
100
AcDbPoint
 10
8794.993630000001
 20
-15534.602709999999
 30
0.0
  0
ENDBLK
  5
357
102
{ACAD_XDICTIONARY
360
4F4B000000000000
102
}
100
AcDbEntity
  8
$$$S$$
  6
CONTINUOUS
 62
           2
100
AcDbBlockEnd
  0
BLOCK
  5
35A
102
{ACAD_XDICTIONARY
360
4F4B000000000000
102
}
100
AcDbEntity
  8
$$$$
  6
CONTINUOUS
 62
           2
100
AcDbBlockBegin
  2
*D11
 70
           1
 10
0.0
 20
0.0
 30
0.0
  3
*N11
  1

  0
LINE
  5
35B
102
{ACAD_XDICTIONARY
360
4F4B000000000000
102
}
100
AcDbEntity
  8
$$$$
  6
CONTINUOUS
 62
           2
100
AcDbLine
 10
7985.73566
 20
-15296.89075
 30
0.0
 11
7985.73566
 21
-15228.42138
 31
0.0
  0
LINE
  5
35C
102
{ACAD_XDICTIONARY
360
4F4B000000000000
102
}
100
AcDbEntity
  8
$$$$
  6
CONTINUOUS
 62
           2
100
AcDbLine
 10
8687.73566
 20
-15296.89075
 30
0.0
 11
8687.73566
 21
-15228.42138
 31
0.0
  0
LINE
  5
35D
102
{ACAD_XDICTIONARY
360
4F4B000000000000
102
}
100
AcDbEntity
  8
$$$$
  6
CONTINUOUS
 62
           2
100
AcDbLine
 10
7985.73566
 20
-15231.42138
 30
0.0
 11
8687.73566
 21
-15231.42138
 31
0.0
  0
SOLID
  5
35E
102
{ACAD_XDICTIONARY
360
4F4B000000000000
102
}
100
AcDbEntity
  8
$$$$
  6
CONTINUOUS
 62
           2
100
AcDbTrace
 10
8000.73566
 20
-15233.67138
 30
0.0
 11
7985.73566
 21
-15231.42138
 31
0.0
 12
8000.73566
 22
-15229.17138
 32
0.0
 13
8000.73566
 23
-15229.17138
 33
0.0
  0
SOLID
  5
35F
102
{ACAD_XDICTIONARY
360
4F4B000000000000
102
}
100
AcDbEntity
  8
$$$$
  6
CONTINUOUS
 62
           2
100
AcDbTrace
 10
8672.73566
 20
-15229.17138
 30
0.0
 11
8687.73566
 21
-15231.42138
 31
0.0
 12
8672.73566
 22
-15233.67138
 32
0.0
 13
8672.73566
 23
-15233.67138
 33
0.0
  0
MTEXT
  5
360
102
{ACAD_XDICTIONARY
360
4F4B000000000000
102
}
100
AcDbEntity
  8
$$$$
  6
CONTINUOUS
 62
           2
100
AcDbMText
 10
8303.17878
 20
-15223.92138
 30
0.0
 40
15.0
 41
186.862185
 71
           4
 72
           1
  1
{\A0;702 1/2 }2}
  7
BIGFONT
 73
           1
 44
1.0
  0
POINT
  5
361
102
{ACAD_XDICTIONARY
360
4F4B000000000000
102
}
100
AcDbEntity
  8
DEFPOINTS
  6
ByBlock
 62
           0
100
AcDbPoint
 10
7985.73566
 20
-15231.42138
 30
0.0
  0
POINT
  5
362
102
{ACAD_XDICTIONARY
360
4F4B000000000000
102
}
100
AcDbEntity
  8
DEFPOINTS
  6
ByBlock
 62
           0
100
AcDbPoint
 10
8687.73566
 20
-15304.39075
 30
0.0
  0
POINT
  5
363
102
{ACAD_XDICTIONARY
360
4F4B000000000000
102
}
100
AcDbEntity
  8
DEFPOINTS
  6
ByBlock
 62
           0
100
AcDbPoint
 10
7985.73566
 20
-15304.39075
 30
0.0
  0
POINT
  5
364
102
{ACAD_XDICTIONARY
360
4F4B000000000000
102
}
100
AcDbEntity
  8
DEFPOINTS
  6
ByBlock
 62
           0
100
AcDbPoint
 10
8332.966175
 20
-15223.92138
 30
0.0
  0
ENDBLK
  5
365
102
{ACAD_XDICTIONARY
360
4F4B000000000000
102
}
100
AcDbEntity
  8
$$$$
  6
CONTINUOUS
 62
           2
100
AcDbBlockEnd
  0
BLOCK
  5
368
102
{ACAD_XDICTIONARY
360
4F4B000000000000
102
}
100
AcDbEntity
  8
$$$$
  6
CONTINUOUS
 62
           2
100
AcDbBlockBegin
  2
*D12
 70
           1
 10
0.0
 20
0.0
 30
0.0
  3
*N12
  1

  0
LINE
  5
369
102
{ACAD_XDICTIONARY
360
4F4B000000000000
102
}
100
AcDbEntity
  8
$$$$
  6
CONTINUOUS
 62
           2
100
AcDbLine
 10
9061.67503
 20
-15296.890719999999
 30
0.0
 11
9061.67503
 21
-15228.42138
 31
0.0
  0
LINE
  5
36A
102
{ACAD_XDICTIONARY
360
4F4B000000000000
102
}
100
AcDbEntity
  8
$$$$
  6
CONTINUOUS
 62
           2
100
AcDbLine
 10
9452.47503
 20
-15296.36182
 30
0.0
 11
9452.47503
 21
-15228.42138
 31
0.0
  0
LINE
  5
36B
102
{ACAD_XDICTIONARY
360
4F4B000000000000
102
}
100
AcDbEntity
  8
$$$$
  6
CONTINUOUS
 62
           2
100
AcDbLine
 10
9061.67503
 20
-15231.42138
 30
0.0
 11
9452.47503
 21
-15231.42138
 31
0.0
  0
SOLID
  5
36C
102
{ACAD_XDICTIONARY
360
4F4B000000000000
102
}
100
AcDbEntity
  8
$$$$
  6
CONTINUOUS
 62
           2
100
AcDbTrace
 10
9076.67503
 20
-15233.67138
 30
0.0
 11
9061.67503
 21
-15231.42138
 31
0.0
 12
9076.67503
 22
-15229.17138
 32
0.0
 13
9076.67503
 23
-15229.17138
 33
0.0
  0
SOLID
  5
36D
102
{ACAD_XDICTIONARY
360
4F4B000000000000
102
}
100
AcDbEntity
  8
$$$$
  6
CONTINUOUS
 62
           2
100
AcDbTrace
 10
9437.47503
 20
-15229.17138
 30
0.0
 11
9452.47503
 21
-15231.42138
 31
0.0
 12
9437.47503
 22
-15233.67138
 32
0.0
 13
9437.47503
 23
-15233.67138
 33
0.0
  0
MTEXT
  5
36E
102
{ACAD_XDICTIONARY
360
4F4B000000000000
102
}
100
AcDbEntity
  8
$$$$
  6
CONTINUOUS
 62
           2
100
AcDbMText
 10
9235.07735
 20
-15223.92138
 30
0.0
 40
15.0
 41
179.799195
 71
           4
 72
           1
  1
{\A0;391 1/2 }2}
  7
BIGFONT
 73
           1
 44
1.0
  0
POINT
  5
36F
102
{ACAD_XDICTIONARY
360
4F4B000000000000
102
}
100
AcDbEntity
  8
DEFPOINTS
  6
ByBlock
 62
           0
100
AcDbPoint
 10
9061.67503
 20
-15231.42138
 30
0.0
  0
POINT
  5
370
102
{ACAD_XDICTIONARY
360
4F4B000000000000
102
}
100
AcDbEntity
  8
DEFPOINTS
  6
ByBlock
 62
           0
100
AcDbPoint
 10
9452.47503
 20
-15303.86182
 30
0.0
  0
POINT
  5
371
102
{ACAD_XDICTIONARY
360
4F4B000000000000
102
}
100
AcDbEntity
  8
DEFPOINTS
  6
ByBlock
 62
           0
100
AcDbPoint
 10
9061.67503
 20
-15304.390719999999
 30
0.0
  0
POINT
  5
372
102
{ACAD_XDICTIONARY
360
4F4B000000000000
102
}
100
AcDbEntity
  8
DEFPOINTS
  6
ByBlock
 62
           0
100
AcDbPoint
 10
9262.510415000001
 20
-15223.92138
 30
0.0
  0
ENDBLK
  5
373
102
{ACAD_XDICTIONARY
360
4F4B000000000000
102
}
100
AcDbEntity
  8
$$$$
  6
CONTINUOUS
 62
           2
100
AcDbBlockEnd
  0
BLOCK
  5
376
102
{ACAD_XDICTIONARY
360
4F4B000000000000
102
}
100
AcDbEntity
  8
1
  6
CONTINUOUS
 62
           7
100
AcDbBlockBegin
  2
*U13
 70
          65
 10
0.0
 20
0.0
 30
0.0
  3
*O13
  1

  0
ELLIPSE
  5
377
102
{ACAD_XDICTIONARY
360
4F4B000000000000
102
}
100
AcDbEntity
  8
1
  6
CONTINUOUS
 62
           7
100
AcDbEllipse
 10
8.630661
 20
7.116228
 30
0.0
 11
-6.6430125000000011
 21
11.506035165315142
 31
0.0
210
0.0
220
0.0
230
1.0
 40
0.57735
 41
3.1415926535897931
 42
3.6184132600202443
  0
ELLIPSE
  5
378
102
{ACAD_XDICTIONARY
360
4F4B000000000000
102
}
100
AcDbEntity
  8
1
  6
CONTINUOUS
 62
           7
100
AcDbEllipse
 10
-8.070918
 20
-2.526433
 30
0.0
 11
-6.6430125000000011
 21
11.506035165315142
 31
0.0
210
0.0
220
0.0
230
1.0
 40
0.57735
 41
0.0
 42
6.2831753071795866
  0
LINE
  5
379
102
{ACAD_XDICTIONARY
360
4F4B000000000000
102
}
100
AcDbEntity
  8
1
  6
CONTINUOUS
 62
           7
100
AcDbLine
 10
-12.974176
 20
9.984075
 30
0.0
 11
-14.713957
 21
8.979586
 31
0.0
  0
LINE
  5
37A
102
{ACAD_XDICTIONARY
360
4F4B000000000000
102
}
100
AcDbEntity
  8
1
  6
CONTINUOUS
 62
           7
100
AcDbLine
 10
-10.132935
 20
14.654851
 30
0.0
 11
-14.286376
 21
12.256871
 31
0.0
  0
ELLIPSE
  5
37B
102
{ACAD_XDICTIONARY
360
4F4B000000000000
102
}
100
AcDbEntity
  8
1
  6
CONTINUOUS
 62
           7
100
AcDbEllipse
 10
-6.331171
 20
-1.521989
 30
0.0
 11
7.9552125000000045
 21
-13.77883223500703
 31
0.0
210
0.0
220
0.0
230
1.0
 40
0.57735
 41
0.7853981633974483
 42
3.9269908169872414
  0
LINE
  5
37C
102
{ACAD_XDICTIONARY
360
4F4B000000000000
102
}
100
AcDbEntity
  8
1
  6
CONTINUOUS
 62
           7
100
AcDbLine
 10
4.91918
 20
-8.017406
 30
0.0
 11
3.063466
 21
-6.945995
 31
0.0
  0
LINE
  5
37D
102
{ACAD_XDICTIONARY
360
4F4B000000000000
102
}
100
AcDbEntity
  8
1
  6
CONTINUOUS
 62
           7
100
AcDbLine
 10
-17.303059
 20
4.812629
 30
0.0
 11
-17.581508
 21
4.973439
 31
0.0
  0
LINE
  5
37E
102
{ACAD_XDICTIONARY
360
4F4B000000000000
102
}
100
AcDbEntity
  8
1
  6
CONTINUOUS
 62
           7
100
AcDbLine
 10
-1.427932
 20
-14.032465
 30
0.0
 11
15.273684
 21
-4.389829
 31
0.0
  0
LINE
  5
37F
102
{ACAD_XDICTIONARY
360
4F4B000000000000
102
}
100
AcDbEntity
  8
1
  6
CONTINUOUS
 62
           7
100
AcDbLine
 10
17.027833
 20
-1.026464
 30
0.0
 11
4.91918
 21
-8.017406
 31
0.0
  0
ELLIPSE
  5
380
102
{ACAD_XDICTIONARY
360
4F4B000000000000
102
}
100
AcDbEntity
  8
1
  6
CONTINUOUS
 62
           7
100
AcDbEllipse
 10
-6.331171
 20
-1.521989
 30
0.0
 11
-6.6430125000000055
 21
11.506035165315149
 31
0.0
210
0.0
220
0.0
230
1.0
 40
0.57735
 41
3.9269908169872414
 42
6.2831853071795862
  0
ENDBLK
  5
381
102
{ACAD_XDICTIONARY
360
4F4B000000000000
102
}
100
AcDbEntity
  8
1
  6
CONTINUOUS
 62
           7
100
AcDbBlockEnd
  0
BLOCK
  5
384
102
{ACAD_XDICTIONARY
360
4F4B000000000000
102
}
100
AcDbEntity
  8
1
  6
CONTINUOUS
 62
           7
100
AcDbBlockBegin
  2
*U14
 70
          65
 10
0.0
 20
0.0
 30
0.0
  3
*O14
  1

  0
LINE
  5
385
102
{ACAD_XDICTIONARY
360
4F4B000000000000
102
}
100
AcDbEntity
  8
1
  6
CONTINUOUS
 62
           7
100
AcDbLine
 10
2.011412
 20
-2.626744
 30
0.0
 11
1.640257
 21
-2.841027
 31
0.0
  0
ELLIPSE
  5
386
102
{ACAD_XDICTIONARY
360
4F4B000000000000
102
}
100
AcDbEntity
  8
1
  6
CONTINUOUS
 62
           7
100
AcDbEllipse
 10
0.371156
 20
0.214278
 30
0.0
 11
-1.6402500000000013
 21
2.8409963371148517
 31
0.0
210
0.0
220
0.0
230
1.0
 40
0.57735
 41
0.1133798364612151
 42
3.028212817128578
  0
ELLIPSE
  5
387
102
{ACAD_XDICTIONARY
360
4F4B000000000000
102
}
100
AcDbEntity
  8
1
  6
CONTINUOUS
 62
           7
100
AcDbEllipse
 10
0.00001
 20
-0.000003
 30
0.0
 11
-1.6402500000000013
 21
2.8409963371148517
 31
0.0
210
0.0
220
0.0
230
1.0
 40
0.57735
 41
0.0
 42
6.2831753071795866
  0
ENDBLK
  5
388
102
{ACAD_XDICTIONARY
360
4F4B000000000000
102
}
100
AcDbEntity
  8
1
  6
CONTINUOUS
 62
           7
100
AcDbBlockEnd
  0
ENDSEC
  0
SECTION
  2
ENTITIES
  0
LINE
  5
29
102
{ACAD_XDICTIONARY
360
4F4B000000000000
102
}
100
AcDbEntity
  8
1
  6
CONTINUOUS
 62
           3
100
AcDbLine
 10
8039.32491
 20
-15930.86283
 30
0.0
 11
8921.321970000001
 21
-15930.86283
 31
0.0
  0
TEXT
  5
2B
102
{ACAD_XDICTIONARY
360
4F4B000000000000
102
}
100
AcDbEntity
  8
1
  6
CONTINUOUS
 62
           3
100
AcDbText
 10
9502.86976
 20
-15886.642809999999
 30
0.0
 40
24.0
  1
設　計
 41
0.75
  7
BIGFONT
100
AcDbText
  0
TEXT
  5
2C
102
{ACAD_XDICTIONARY
360
4F4B000000000000
102
}
100
AcDbEntity
  8
1
  6
CONTINUOUS
 62
           3
100
AcDbText
 10
8947.68484
 20
-15995.66282
 30
0.0
 40
24.0
  1
作 成 年 月 日
 41
0.75
  7
BIGFONT
100
AcDbText
  0
TEXT
  5
2D
102
{ACAD_XDICTIONARY
360
4F4B000000000000
102
}
100
AcDbEntity
  8
1
  6
CONTINUOUS
 62
           3
100
AcDbText
 10
9933.727360000001
 20
-15887.769609999999
 30
0.0
 40
24.0
  1
尺　度
 41
0.75
  7
BIGFONT
100
AcDbText
  0
TEXT
  5
2E
102
{ACAD_XDICTIONARY
360
4F4B000000000000
102
}
100
AcDbEntity
  8
1
  6
CONTINUOUS
 62
           3
100
AcDbText
 10
9677.8783
 20
-15888.085569999999
 30
0.0
 40
24.0
  1
材　質
 41
0.75
  7
BIGFONT
100
AcDbText
  0
TEXT
  5
2F
102
{ACAD_XDICTIONARY
360
4F4B000000000000
102
}
100
AcDbEntity
  8
1
  6
CONTINUOUS
 62
           3
100
AcDbText
 10
9777.114159999999
 20
-15888.05467
 30
0.0
 40
24.0
  1
仕　上
 41
0.75
  7
BIGFONT
100
AcDbText
  0
TEXT
  5
30
102
{ACAD_XDICTIONARY
360
4F4B000000000000
102
}
100
AcDbEntity
  8
1
  6
CONTINUOUS
 62
           3
100
AcDbText
 10
9856.532380000001
 20
-15888.80539
 30
0.0
 40
24.0
  1
数 / 台
 41
0.5
  7
BIGFONT
100
AcDbText
  0
TEXT
  5
31
102
{ACAD_XDICTIONARY
360
4F4B000000000000
102
}
100
AcDbEntity
  8
1
  6
CONTINUOUS
 62
           3
100
AcDbText
 10
8075.02174
 20
-15957.28003
 30
0.0
 40
24.0
  1
版
 41
0.75
  7
BIGFONT
100
AcDbText
  0
TEXT
  5
32
102
{ACAD_XDICTIONARY
360
4F4B000000000000
102
}
100
AcDbEntity
  8
1
  6
CONTINUOUS
 62
           3
100
AcDbText
 10
8137.86268
 20
-15957.28003
 30
0.0
 40
24.0
  1
変更年月日
 41
0.75
  7
BIGFONT
100
AcDbText
  0
TEXT
  5
33
102
{ACAD_XDICTIONARY
360
4F4B000000000000
102
}
100
AcDbEntity
  8
1
  6
CONTINUOUS
 62
           3
100
AcDbText
 10
8252.434719999999
 20
-15956.936890000001
 30
0.0
 40
24.0
  1
設　計
 41
0.75
  7
BIGFONT
100
AcDbText
  0
TEXT
  5
34
102
{ACAD_XDICTIONARY
360
4F4B000000000000
102
}
100
AcDbEntity
  8
1
  6
CONTINUOUS
 62
           3
100
AcDbText
 10
8535.713019999999
 20
-15956.033170000001
 30
0.0
 40
24.0
  1
変　更　内　容
 41
0.75
  7
BIGFONT
100
AcDbText
  0
LINE
  5
35
102
{ACAD_XDICTIONARY
360
4F4B000000000000
102
}
100
AcDbEntity
  8
1
  6
CONTINUOUS
 62
           3
100
AcDbLine
 10
8135.32491
 20
-15858.86283
 30
0.0
 11
8135.32491
 21
-15965.662829999999
 31
0.0
  0
LINE
  5
36
102
{ACAD_XDICTIONARY
360
4F4B000000000000
102
}
100
AcDbEntity
  8
1
  6
CONTINUOUS
 62
           3
100
AcDbLine
 10
8231.324909999999
 20
-15858.86283
 30
0.0
 11
8231.324909999999
 21
-15965.662829999999
 31
0.0
  0
LINE
  5
37
102
{ACAD_XDICTIONARY
360
4F4B000000000000
102
}
100
AcDbEntity
  8
1
  6
CONTINUOUS
 62
           3
100
AcDbLine
 10
8327.324909999999
 20
-15858.86283
 30
0.0
 11
8327.324909999999
 21
-15965.662829999999
 31
0.0
  0
TEXT
  5
38
102
{ACAD_XDICTIONARY
360
4F4B000000000000
102
}
100
AcDbEntity
  8
1
  6
CONTINUOUS
 62
           3
100
AcDbText
 10
9583.990599999999
 20
-15888.39991
 30
0.0
 40
24.0
  1
公　差
 41
0.75
  7
BIGFONT
100
AcDbText
  0
TEXT
  5
39
102
{ACAD_XDICTIONARY
360
4F4B000000000000
102
}
100
AcDbEntity
  8
1
  6
CONTINUOUS
 62
           3
100
AcDbText
 10
9428.58088
 20
-15888.05467
 30
0.0
 40
24.0
  1
製　図
 41
0.75
  7
BIGFONT
100
AcDbText
  0
TEXT
  5
3A
102
{ACAD_XDICTIONARY
360
4F4B000000000000
102
}
100
AcDbEntity
  8
1
  6
CONTINUOUS
 62
           3
100
AcDbText
 10
9357.914919999999
 20
-15888.05467
 30
0.0
 40
24.0
  1
検　図
 41
0.75
  7
BIGFONT
100
AcDbText
  0
TEXT
  5
3B
102
{ACAD_XDICTIONARY
360
4F4B000000000000
102
}
100
AcDbEntity
  8
1
  6
CONTINUOUS
 62
           3
100
AcDbText
 10
9284.91136
 20
-15888.085569999999
 30
0.0
 40
24.0
  1
課　長
 41
0.75
  7
BIGFONT
100
AcDbText
  0
TEXT
  5
3C
102
{ACAD_XDICTIONARY
360
4F4B000000000000
102
}
100
AcDbEntity
  8
1
  6
CONTINUOUS
 62
           3
100
AcDbText
 10
9036.698560000001
 20
-15888.12955
 30
0.0
 40
24.0
  1
図　名
 41
0.75
  7
BIGFONT
100
AcDbText
  0
TEXT
  5
3D
102
{ACAD_XDICTIONARY
360
4F4B000000000000
102
}
100
AcDbEntity
  8
1
  6
CONTINUOUS
 62
           3
100
AcDbText
 10
9668.124159999999
 20
-15991.314850000001
 30
0.0
 40
24.0
  1
商
 41
0.75
  7
BIGFONT
100
AcDbText
  0
TEXT
  5
3E
102
{ACAD_XDICTIONARY
360
4F4B000000000000
102
}
100
AcDbEntity
  8
1
  6
CONTINUOUS
 62
           3
100
AcDbText
 10
9667.77916
 20
-16015.972089999999
 30
0.0
 40
24.0
  1
品
 41
0.75
  7
BIGFONT
100
AcDbText
  0
TEXT
  5
3F
102
{ACAD_XDICTIONARY
360
4F4B000000000000
102
}
100
AcDbEntity
  8
1
  6
CONTINUOUS
 62
           3
100
AcDbText
 10
9666.7441
 20
-16037.17693
 30
0.0
 40
24.0
  1
名
 41
0.75
  7
BIGFONT
100
AcDbText
  0
LINE
  5
40
102
{ACAD_XDICTIONARY
360
4F4B000000000000
102
}
100
AcDbEntity
  8
1
  6
CONTINUOUS
 62
           3
100
AcDbLine
 10
8039.32491
 20
-15894.86283
 30
0.0
 11
9997.12197
 21
-15894.86283
 31
0.0
  0
LINE
  5
41
102
{ACAD_XDICTIONARY
360
4F4B000000000000
102
}
100
AcDbEntity
  8
1
  6
CONTINUOUS
 62
           3
100
AcDbLine
 10
8039.32491
 20
-15965.662829999999
 30
0.0
 11
9997.12197
 21
-15965.662829999999
 31
0.0
  0
TEXT
  5
42
102
{ACAD_XDICTIONARY
360
4F4B000000000000
102
}
100
AcDbEntity
  8
1
  6
CONTINUOUS
 62
           3
100
AcDbText
 10
9391.189899999999
 20
-15991.66879
 30
0.0
 40
24.0
  1
部
 41
0.75
  7
BIGFONT
100
AcDbText
  0
TEXT
  5
43
102
{ACAD_XDICTIONARY
360
4F4B000000000000
102
}
100
AcDbEntity
  8
1
  6
CONTINUOUS
 62
           3
100
AcDbText
 10
9391.189899999999
 20
-16015.635550000001
 30
0.0
 40
24.0
  1
品
 41
0.75
  7
BIGFONT
100
AcDbText
  0
TEXT
  5
44
102
{ACAD_XDICTIONARY
360
4F4B000000000000
102
}
100
AcDbEntity
  8
1
  6
CONTINUOUS
 62
           3
100
AcDbText
 10
9389.80978
 20
-16037.530930000001
 30
0.0
 40
24.0
  1
名
 41
0.75
  7
BIGFONT
100
AcDbText
  0
LINE
  5
45
102
{ACAD_XDICTIONARY
360
4F4B000000000000
102
}
100
AcDbEntity
  8
1
  6
CONTINUOUS
 62
           3
100
AcDbLine
 10
9902.23185
 20
-15915.604289999999
 30
0.0
 11
9874.35699
 21
-15943.01463
 31
0.0
  0
LINE
  5
46
102
{ACAD_XDICTIONARY
360
4F4B000000000000
102
}
100
AcDbEntity
  8
1
  6
CONTINUOUS
 62
           3
100
AcDbLine
 10
9923.321970000001
 20
-15965.662829999999
 30
0.0
 11
9923.321970000001
 21
-15858.86283
 31
0.0
  0
LINE
  5
47
102
{ACAD_XDICTIONARY
360
4F4B000000000000
102
}
100
AcDbEntity
  8
1
  6
CONTINUOUS
 62
           3
100
AcDbLine
 10
9851.321970000001
 20
-15965.662829999999
 30
0.0
 11
9851.321970000001
 21
-15858.86283
 31
0.0
  0
LINE
  5
48
102
{ACAD_XDICTIONARY
360
4F4B000000000000
102
}
100
AcDbEntity
  8
1
  6
CONTINUOUS
 62
           3
100
AcDbLine
 10
9755.321970000001
 20
-15965.662829999999
 30
0.0
 11
9755.321970000001
 21
-15858.86283
 31
0.0
  0
LINE
  5
49
102
{ACAD_XDICTIONARY
360
4F4B000000000000
102
}
100
AcDbEntity
  8
1
  6
CONTINUOUS
 62
           3
100
AcDbLine
 10
9659.321970000001
 20
-16039.46283
 30
0.0
 11
9659.321970000001
 21
-15858.86283
 31
0.0
  0
LINE
  5
4A
102
{ACAD_XDICTIONARY
360
4F4B000000000000
102
}
100
AcDbEntity
  8
1
  6
CONTINUOUS
 62
           3
100
AcDbLine
 10
9563.321970000001
 20
-15965.662829999999
 30
0.0
 11
9563.321970000001
 21
-15858.86283
 31
0.0
  0
LINE
  5
4B
102
{ACAD_XDICTIONARY
360
4F4B000000000000
102
}
100
AcDbEntity
  8
1
  6
CONTINUOUS
 62
           3
100
AcDbLine
 10
9491.321970000001
 20
-15965.662829999999
 30
0.0
 11
9491.321970000001
 21
-15858.86283
 31
0.0
  0
LINE
  5
4C
102
{ACAD_XDICTIONARY
360
4F4B000000000000
102
}
100
AcDbEntity
  8
1
  6
CONTINUOUS
 62
           3
100
AcDbLine
 10
9419.321970000001
 20
-16039.46283
 30
0.0
 11
9419.321970000001
 21
-15858.86283
 31
0.0
  0
LINE
  5
4D
102
{ACAD_XDICTIONARY
360
4F4B000000000000
102
}
100
AcDbEntity
  8
1
  6
CONTINUOUS
 62
           3
100
AcDbLine
 10
9347.321970000001
 20
-15965.662829999999
 30
0.0
 11
9347.321970000001
 21
-15858.86283
 31
0.0
  0
LINE
  5
4E
102
{ACAD_XDICTIONARY
360
4F4B000000000000
102
}
100
AcDbEntity
  8
1
  6
CONTINUOUS
 62
           3
100
AcDbLine
 10
9203.321970000001
 20
-16039.46283
 30
0.0
 11
9203.321970000001
 21
-15858.86283
 31
0.0
  0
LINE
  5
4F
102
{ACAD_XDICTIONARY
360
4F4B000000000000
102
}
100
AcDbEntity
  8
1
  6
CONTINUOUS
 62
           3
100
AcDbLine
 10
8921.321970000001
 20
-16039.46283
 30
0.0
 11
8921.321970000001
 21
-15858.86283
 31
0.0
  0
LINE
  5
50
102
{ACAD_XDICTIONARY
360
4F4B000000000000
102
}
100
AcDbEntity
  8
1
  6
CONTINUOUS
 62
           3
100
AcDbLine
 10
9275.321970000001
 20
-15965.662829999999
 30
0.0
 11
9275.321970000001
 21
-15858.86283
 31
0.0
  0
LINE
  5
51
102
{ACAD_XDICTIONARY
360
4F4B000000000000
102
}
100
AcDbEntity
  8
1
  6
CONTINUOUS
 62
           3
100
AcDbLine
 10
9383.321970000001
 20
-16037.662829999999
 30
0.0
 11
9383.321970000001
 21
-15965.662829999999
 31
0.0
  0
LINE
  5
52
102
{ACAD_XDICTIONARY
360
4F4B000000000000
102
}
100
AcDbEntity
  8
1
  6
CONTINUOUS
 62
           3
100
AcDbLine
 10
9695.321970000001
 20
-16039.46283
 30
0.0
 11
9695.321970000001
 21
-15966.86283
 31
0.0
  0
TEXT
  5
53
102
{ACAD_XDICTIONARY
360
4F4B000000000000
102
}
100
AcDbEntity
  8
1
  6
CONTINUOUS
 62
           3
100
AcDbText
 10
8229.800080000001
 20
-16013.34829
 30
0.0
 40
24.0
  1
オ ー ク ス 株 式 会 社
 41
0.75
  7
BIGFONT
100
AcDbText
  0
LINE
  5
54
102
{ACAD_XDICTIONARY
360
4F4B000000000000
102
}
100
AcDbEntity
  8
1
  6
CONTINUOUS
 62
           3
100
AcDbLine
 10
8039.32491
 20
-15858.86283
 30
0.0
 11
8039.32491
 21
-16039.46283
 31
0.0
  0
LINE
  5
55
102
{ACAD_XDICTIONARY
360
4F4B000000000000
102
}
100
AcDbEntity
  8
1
  6
CONTINUOUS
 62
           3
100
AcDbLine
 10
8039.32491
 20
-15858.86283
 30
0.0
 11
9997.12197
 21
-15858.86283
 31
0.0
  0
LINE
  5
56
102
{ACAD_XDICTIONARY
360
4F4B000000000000
102
}
100
AcDbEntity
  8
1
  6
CONTINUOUS
 62
           3
100
AcDbLine
 10
7749.52491
 20
-14558.665230000001
 30
0.0
 11
7749.52491
 21
-16039.46283
 31
0.0
  0
LINE
  5
57
102
{ACAD_XDICTIONARY
360
4F4B000000000000
102
}
100
AcDbEntity
  8
1
  6
CONTINUOUS
 62
           3
100
AcDbLine
 10
9997.12197
 20
-14558.665230000001
 30
0.0
 11
7749.52491
 21
-14558.665230000001
 31
0.0
  0
LINE
  5
58
102
{ACAD_XDICTIONARY
360
4F4B000000000000
102
}
100
AcDbEntity
  8
1
  6
CONTINUOUS
 62
           3
100
AcDbLine
 10
9997.12197
 20
-16039.46283
 30
0.0
 11
9997.12197
 21
-14558.665230000001
 31
0.0
  0
LINE
  5
59
102
{ACAD_XDICTIONARY
360
4F4B000000000000
102
}
100
AcDbEntity
  8
1
  6
CONTINUOUS
 62
           3
100
AcDbLine
 10
7749.52491
 20
-16039.46283
 30
0.0
 11
9997.12197
 21
-16039.46283
 31
0.0
  0
LINE
  5
5A
102
{ACAD_XDICTIONARY
360
4F4B000000000000
102
}
100
AcDbEntity
  8
1
  6
CONTINUOUS
 62
           3
100
AcDbLine
 10
8101.40361
 20
-16029.46875
 30
0.0
 11
8218.537770000001
 21
-16029.46875
 31
0.0
  0
LINE
  5
5B
102
{ACAD_XDICTIONARY
360
4F4B000000000000
102
}
100
AcDbEntity
  8
1
  6
CONTINUOUS
 62
           3
100
AcDbLine
 10
8218.537770000001
 20
-15974.198909999999
 30
0.0
 11
8101.40361
 21
-15974.198909999999
 31
0.0
  0
LINE
  5
5C
102
{ACAD_XDICTIONARY
360
4F4B000000000000
102
}
100
AcDbEntity
  8
1
  6
CONTINUOUS
 62
           3
100
AcDbLine
 10
8101.40361
 20
-15974.198909999999
 30
0.0
 11
8101.40361
 21
-16029.46875
 31
0.0
  0
LINE
  5
5D
102
{ACAD_XDICTIONARY
360
4F4B000000000000
102
}
100
AcDbEntity
  8
1
  6
CONTINUOUS
 62
           3
100
AcDbLine
 10
8155.84833
 20
-15996.380010000001
 30
0.0
 11
8155.84833
 21
-16021.845450000001
 31
0.0
  0
LINE
  5
5E
102
{ACAD_XDICTIONARY
360
4F4B000000000000
102
}
100
AcDbEntity
  8
1
  6
CONTINUOUS
 62
           3
100
AcDbLine
 10
8142.97197
 20
-16011.972330000001
 30
0.0
 11
8142.97197
 21
-15988.08561
 31
0.0
  0
LINE
  5
5F
102
{ACAD_XDICTIONARY
360
4F4B000000000000
102
}
100
AcDbEntity
  8
1
  6
CONTINUOUS
 62
           3
100
AcDbLine
 10
8167.69491
 20
-16011.972330000001
 30
0.0
 11
8167.69491
 21
-15988.08561
 31
0.0
  0
LINE
  5
60
102
{ACAD_XDICTIONARY
360
4F4B000000000000
102
}
100
AcDbEntity
  8
1
  6
CONTINUOUS
 62
           3
100
AcDbLine
 10
8147.11917
 20
-16015.209930000001
 30
0.0
 11
8147.11917
 21
-15992.23281
 31
0.0
  0
ARC
  5
61
102
{ACAD_XDICTIONARY
360
4F4B000000000000
102
}
100
AcDbEntity
  8
1
  6
CONTINUOUS
 62
           3
100
AcDbCircle
 10
8155.333437
 20
-16011.972333
 30
0.0
 40
12.361478
100
AcDbArc
 50
180.000006
 51
0.000011
  0
LINE
  5
62
102
{ACAD_XDICTIONARY
360
4F4B000000000000
102
}
100
AcDbEntity
  8
1
  6
CONTINUOUS
 62
           3
100
AcDbLine
 10
8216.377769999999
 20
-15988.08561
 30
0.0
 11
8199.752070000001
 21
-15988.08561
 31
0.0
  0
ARC
  5
63
102
{ACAD_XDICTIONARY
360
4F4B000000000000
102
}
100
AcDbEntity
  8
1
  6
CONTINUOUS
 62
           3
100
AcDbCircle
 10
8142.971959
 20
-15992.232855
 30
0.0
 40
4.1472
100
AcDbArc
 50
0.0
 51
90.000003
  0
LINE
  5
64
102
{ACAD_XDICTIONARY
360
4F4B000000000000
102
}
100
AcDbEntity
  8
1
  6
CONTINUOUS
 62
           3
100
AcDbLine
 10
8153.75469
 20
-16021.845450000001
 30
0.0
 11
8155.84833
 21
-16021.845450000001
 31
0.0
  0
ARC
  5
65
102
{ACAD_XDICTIONARY
360
4F4B000000000000
102
}
100
AcDbEntity
  8
1
  6
CONTINUOUS
 62
           3
100
AcDbCircle
 10
8153.754679
 20
-16015.209971
 30
0.0
 40
6.63552
100
AcDbArc
 50
180.000006
 51
270.000008
  0
ARC
  5
66
102
{ACAD_XDICTIONARY
360
4F4B000000000000
102
}
100
AcDbEntity
  8
1
  6
CONTINUOUS
 62
           3
100
AcDbCircle
 10
8164.142755
 20
-15996.380055
 30
0.0
 40
8.2944
100
AcDbArc
 50
90.000003
 51
180.000006
  0
LINE
  5
67
102
{ACAD_XDICTIONARY
360
4F4B000000000000
102
}
100
AcDbEntity
  8
1
  6
CONTINUOUS
 62
           3
100
AcDbLine
 10
8167.69491
 20
-15988.08561
 30
0.0
 11
8181.73665
 21
-16005.54789
 31
0.0
  0
LINE
  5
68
102
{ACAD_XDICTIONARY
360
4F4B000000000000
102
}
100
AcDbEntity
  8
1
  6
CONTINUOUS
 62
           3
100
AcDbLine
 10
8173.01661
 20
-15988.08561
 30
0.0
 11
8184.39747
 21
-16002.238890000001
 31
0.0
  0
LINE
  5
69
102
{ACAD_XDICTIONARY
360
4F4B000000000000
102
}
100
AcDbEntity
  8
1
  6
CONTINUOUS
 62
           3
100
AcDbLine
 10
8200.21767
 20
-15995.93793
 30
0.0
 11
8195.293830000001
 21
-16002.06129
 31
0.0
  0
LINE
  5
6A
102
{ACAD_XDICTIONARY
360
4F4B000000000000
102
}
100
AcDbEntity
  8
1
  6
CONTINUOUS
 62
           3
100
AcDbLine
 10
8164.14273
 20
-15988.08561
 30
0.0
 11
8173.01661
 21
-15988.08561
 31
0.0
  0
LINE
  5
6B
102
{ACAD_XDICTIONARY
360
4F4B000000000000
102
}
100
AcDbEntity
  8
1
  6
CONTINUOUS
 62
           3
100
AcDbLine
 10
8126.97819
 20
-16016.03937
 30
0.0
 11
8126.97819
 21
-16010.52519
 31
0.0
  0
LINE
  5
6C
102
{ACAD_XDICTIONARY
360
4F4B000000000000
102
}
100
AcDbEntity
  8
1
  6
CONTINUOUS
 62
           3
100
AcDbLine
 10
8114.10183
 20
-15992.15271
 30
0.0
 11
8114.10183
 21
-16000.614149999999
 31
0.0
  0
LINE
  5
6D
102
{ACAD_XDICTIONARY
360
4F4B000000000000
102
}
100
AcDbEntity
  8
1
  6
CONTINUOUS
 62
           3
100
AcDbLine
 10
8138.82477
 20
-15992.15271
 30
0.0
 11
8138.82477
 21
-16020.18657
 31
0.0
  0
LINE
  5
6E
102
{ACAD_XDICTIONARY
360
4F4B000000000000
102
}
100
AcDbEntity
  8
1
  6
CONTINUOUS
 62
           3
100
AcDbLine
 10
8118.24903
 20
-15988.91505
 30
0.0
 11
8118.24903
 21
-16000.05387
 31
0.0
  0
ARC
  5
6F
102
{ACAD_XDICTIONARY
360
4F4B000000000000
102
}
100
AcDbEntity
  8
1
  6
CONTINUOUS
 62
           3
100
AcDbCircle
 10
8126.463281
 20
-15992.152733000001
 30
0.0
 40
12.361478
100
AcDbArc
 50
0.0
 51
180.000006
  0
ARC
  5
70
102
{ACAD_XDICTIONARY
360
4F4B000000000000
102
}
100
AcDbEntity
  8
1
  6
CONTINUOUS
 62
           3
100
AcDbCircle
 10
8114.101803
 20
-16020.186610999999
 30
0.0
 40
4.1472
100
AcDbArc
 50
270.000008
 51
0.000011
  0
LINE
  5
71
102
{ACAD_XDICTIONARY
360
4F4B000000000000
102
}
100
AcDbEntity
  8
1
  6
CONTINUOUS
 62
           3
100
AcDbLine
 10
8124.88455
 20
-15982.27953
 30
0.0
 11
8126.97819
 21
-15982.27953
 31
0.0
  0
ARC
  5
72
102
{ACAD_XDICTIONARY
360
4F4B000000000000
102
}
100
AcDbEntity
  8
1
  6
CONTINUOUS
 62
           3
100
AcDbCircle
 10
8124.884523
 20
-15988.915095
 30
0.0
 40
6.63552
100
AcDbArc
 50
90.000003
 51
180.000006
  0
ARC
  5
73
102
{ACAD_XDICTIONARY
360
4F4B000000000000
102
}
100
AcDbEntity
  8
1
  6
CONTINUOUS
 62
           3
100
AcDbCircle
 10
8135.272599
 20
-16016.039411
 30
0.0
 40
8.2944
100
AcDbArc
 50
180.000006
 51
270.000008
  0
LINE
  5
74
102
{ACAD_XDICTIONARY
360
4F4B000000000000
102
}
100
AcDbEntity
  8
1
  6
CONTINUOUS
 62
           3
100
AcDbLine
 10
8135.27259
 20
-16024.333769999999
 30
0.0
 11
8144.63085
 21
-16024.333769999999
 31
0.0
  0
LINE
  5
75
102
{ACAD_XDICTIONARY
360
4F4B000000000000
102
}
100
AcDbEntity
  8
1
  6
CONTINUOUS
 62
           3
100
AcDbLine
 10
8166.63057
 20
-16024.333769999999
 30
0.0
 11
8175.39723
 21
-16024.333769999999
 31
0.0
  0
LINE
  5
76
102
{ACAD_XDICTIONARY
360
4F4B000000000000
102
}
100
AcDbEntity
  8
1
  6
CONTINUOUS
 62
           3
100
AcDbLine
 10
8196.84267
 20
-16024.333769999999
 30
0.0
 11
8202.16437
 21
-16024.333769999999
 31
0.0
  0
ARC
  5
77
102
{ACAD_XDICTIONARY
360
4F4B000000000000
102
}
100
AcDbEntity
  8
1
  6
CONTINUOUS
 62
           3
100
AcDbCircle
 10
8118.683799
 20
-16010.525186000001
 30
0.0
 40
8.2944
100
AcDbArc
 50
0.0
 51
93.004847
  0
ARC
  5
78
102
{ACAD_XDICTIONARY
360
4F4B000000000000
102
}
100
AcDbEntity
  8
1
  6
CONTINUOUS
 62
           3
100
AcDbCircle
 10
8120.114188
 20
-16029.489143999999
 30
0.0
 40
29.494307
100
AcDbArc
 50
76.542547
 51
93.625739
  0
LINE
  5
79
102
{ACAD_XDICTIONARY
360
4F4B000000000000
102
}
100
AcDbEntity
  8
1
  6
CONTINUOUS
 62
           3
100
AcDbLine
 10
8126.97819
 20
-16000.80465
 30
0.0
 11
8126.97819
 21
-15982.27953
 31
0.0
  0
LINE
  5
7A
102
{ACAD_XDICTIONARY
360
4F4B000000000000
102
}
100
AcDbEntity
  8
1
  6
CONTINUOUS
 62
           3
100
AcDbLine
 10
8118.24903
 20
-16002.242190000001
 30
0.0
 11
8118.24903
 21
-16020.18657
 31
0.0
  0
LINE
  5
7B
102
{ACAD_XDICTIONARY
360
4F4B000000000000
102
}
100
AcDbEntity
  8
1
  6
CONTINUOUS
 62
           3
100
AcDbLine
 10
8114.10183
 20
-16002.640649999999
 30
0.0
 11
8114.10183
 21
-16024.333769999999
 31
0.0
  0
ARC
  5
7C
102
{ACAD_XDICTIONARY
360
4F4B000000000000
102
}
100
AcDbEntity
  8
1
  6
CONTINUOUS
 62
           3
100
AcDbCircle
 10
8120.114188
 20
-16029.489143999999
 30
0.0
 40
29.494307
100
AcDbArc
 50
101.762131
 51
129.37395
  0
ARC
  5
7D
102
{ACAD_XDICTIONARY
360
4F4B000000000000
102
}
100
AcDbEntity
  8
1
  6
CONTINUOUS
 62
           3
100
AcDbCircle
 10
8120.114188
 20
-16043.434848999999
 30
0.0
 40
41.234865
100
AcDbArc
 50
98.384092
 51
116.984931
  0
LINE
  5
7E
102
{ACAD_XDICTIONARY
360
4F4B000000000000
102
}
100
AcDbEntity
  8
1
  6
CONTINUOUS
 62
           3
100
AcDbLine
 10
8193.288210000001
 20
-15991.18233
 30
0.0
 11
8184.39747
 21
-16002.238890000001
 31
0.0
  0
LINE
  5
7F
102
{ACAD_XDICTIONARY
360
4F4B000000000000
102
}
100
AcDbEntity
  8
1
  6
CONTINUOUS
 62
           3
100
AcDbLine
 10
8216.377769999999
 20
-15989.744489999999
 30
0.0
 11
8213.145329999999
 21
-15989.744489999999
 31
0.0
  0
ARC
  5
80
102
{ACAD_XDICTIONARY
360
4F4B000000000000
102
}
100
AcDbEntity
  8
1
  6
CONTINUOUS
 62
           3
100
AcDbCircle
 10
8213.145356000001
 20
-16006.333334999999
 30
0.0
 40
16.5888
100
AcDbArc
 50
90.000003
 51
141.196653
  0
ARC
  5
81
102
{ACAD_XDICTIONARY
360
4F4B000000000000
102
}
100
AcDbEntity
  8
1
  6
CONTINUOUS
 62
           3
100
AcDbCircle
 10
8199.752046
 20
-15996.380055
 30
0.0
 40
8.2944
100
AcDbArc
 50
90.000003
 51
141.196653
  0
LINE
  5
82
102
{ACAD_XDICTIONARY
360
4F4B000000000000
102
}
100
AcDbEntity
  8
1
  6
CONTINUOUS
 62
           3
100
AcDbLine
 10
8192.06193
 20
-16003.60965
 30
0.0
 11
8185.499730000001
 21
-16003.60965
 31
0.0
  0
ARC
  5
83
102
{ACAD_XDICTIONARY
360
4F4B000000000000
102
}
100
AcDbEntity
  8
1
  6
CONTINUOUS
 62
           3
100
AcDbCircle
 10
8192.06191
 20
-15999.462439000001
 30
0.0
 40
4.1472
100
AcDbArc
 50
270.000008
 51
321.196658
  0
LINE
  5
84
102
{ACAD_XDICTIONARY
360
4F4B000000000000
102
}
100
AcDbEntity
  8
1
  6
CONTINUOUS
 62
           3
100
AcDbLine
 10
8187.11337
 20
-16012.234469999999
 30
0.0
 11
8178.62919
 21
-16022.78541
 31
0.0
  0
ARC
  5
85
102
{ACAD_XDICTIONARY
360
4F4B000000000000
102
}
100
AcDbEntity
  8
1
  6
CONTINUOUS
 62
           3
100
AcDbCircle
 10
8175.397252
 20
-16020.186610999999
 30
0.0
 40
4.1472
100
AcDbArc
 50
270.000008
 51
321.196658
  0
LINE
  5
86
102
{ACAD_XDICTIONARY
360
4F4B000000000000
102
}
100
AcDbEntity
  8
1
  6
CONTINUOUS
 62
           3
100
AcDbLine
 10
8187.11337
 20
-16012.234469999999
 30
0.0
 11
8196.84267
 21
-16024.333769999999
 31
0.0
  0
LINE
  5
87
102
{ACAD_XDICTIONARY
360
4F4B000000000000
102
}
100
AcDbEntity
  8
1
  6
CONTINUOUS
 62
           3
100
AcDbLine
 10
8181.73665
 20
-16005.54789
 30
0.0
 11
8166.63057
 21
-16024.333769999999
 31
0.0
  0
LINE
  5
88
102
{ACAD_XDICTIONARY
360
4F4B000000000000
102
}
100
AcDbEntity
  8
1
  6
CONTINUOUS
 62
           3
100
AcDbLine
 10
8185.499730000001
 20
-16003.60965
 30
0.0
 11
8202.16437
 21
-16024.333769999999
 31
0.0
  0
LINE
  5
89
102
{ACAD_XDICTIONARY
360
4F4B000000000000
102
}
100
AcDbEntity
  8
1
  6
CONTINUOUS
 62
           3
100
AcDbLine
 10
8218.537770000001
 20
-16029.46875
 30
0.0
 11
8218.537770000001
 21
-15974.198909999999
 31
0.0
  0
LINE
  5
8A
102
{ACAD_XDICTIONARY
360
4F4B000000000000
102
}
100
AcDbEntity
  8
1
  6
CONTINUOUS
 62
           3
100
AcDbLine
 10
8144.63085
 20
-16022.67489
 30
0.0
 11
8144.63085
 21
-16024.333769999999
 31
0.0
  0
LINE
  5
8B
102
{ACAD_XDICTIONARY
360
4F4B000000000000
102
}
100
AcDbEntity
  8
1
  6
CONTINUOUS
 62
           3
100
AcDbLine
 10
8141.31309
 20
-16022.67489
 30
0.0
 11
8144.63085
 21
-16022.67489
 31
0.0
  0
ARC
  5
8C
102
{ACAD_XDICTIONARY
360
4F4B000000000000
102
}
100
AcDbEntity
  8
1
  6
CONTINUOUS
 62
           3
100
AcDbCircle
 10
8141.313079
 20
-16020.186610999999
 30
0.0
 40
2.48832
100
AcDbArc
 50
180.000006
 51
270.000008
  0
LINE
  5
8D
102
{ACAD_XDICTIONARY
360
4F4B000000000000
102
}
100
AcDbEntity
  8
1
  6
CONTINUOUS
 62
           3
100
AcDbLine
 10
8216.377769999999
 20
-15989.744489999999
 30
0.0
 11
8216.377769999999
 21
-15988.08561
 31
0.0
  0
LINE
  5
8E
102
{ACAD_XDICTIONARY
360
4F4B000000000000
102
}
100
AcDbEntity
  8
1
  6
CONTINUOUS
 62
           3
100
AcDbLine
 10
8921.321970000001
 20
-16001.662829999999
 30
0.0
 11
9383.321970000001
 21
-16001.662829999999
 31
0.0
  0
TEXT
  5
8F
102
{ACAD_XDICTIONARY
360
4F4B000000000000
102
}
100
AcDbEntity
  8
1
  6
CONTINUOUS
 62
           3
100
AcDbText
 10
9140.39122
 20
-15995.66282
 30
0.0
 40
24.0
  1
図　番
 41
0.75
  7
BIGFONT
100
AcDbText
  0
TEXT
  5
91
102
{ACAD_XDICTIONARY
360
4F4B000000000000
102
}
100
AcDbEntity
  8
1
  6
CONTINUOUS
 62
           3
100
AcDbText
 10
9141.345460000001
 20
-16028.66282
 30
0.0
 40
18.0
  1
CAD No
 41
0.5
  7
MONOTXT
100
AcDbText
  0
LINE
  5
92
102
{ACAD_XDICTIONARY
360
4F4B000000000000
102
}
100
AcDbEntity
  8
1
  6
CONTINUOUS
 62
           3
100
AcDbLine
 10
9997.12197
 20
-14560.46523
 30
0.0
 11
7749.52491
 21
-14560.46523
 31
0.0
  0
LINE
  5
93
102
{ACAD_XDICTIONARY
360
4F4B000000000000
102
}
100
AcDbEntity
  8
1
  6
CONTINUOUS
 62
           3
100
AcDbLine
 10
7751.32491
 20
-14558.665230000001
 30
0.0
 11
7751.32491
 21
-16039.46283
 31
0.0
  0
LINE
  5
94
102
{ACAD_XDICTIONARY
360
4F4B000000000000
102
}
100
AcDbEntity
  8
1
  6
CONTINUOUS
 62
           3
100
AcDbLine
 10
9995.321970000001
 20
-16039.46283
 30
0.0
 11
9995.321970000001
 21
-14558.665230000001
 31
0.0
  0
LINE
  5
95
102
{ACAD_XDICTIONARY
360
4F4B000000000000
102
}
100
AcDbEntity
  8
1
  6
CONTINUOUS
 62
           3
100
AcDbLine
 10
7749.52491
 20
-16037.662829999999
 30
0.0
 11
9997.12197
 21
-16037.662829999999
 31
0.0
  0
LINE
  5
96
102
{ACAD_XDICTIONARY
360
4F4B000000000000
102
}
100
AcDbEntity
  8
1
  6
CONTINUOUS
 62
           3
100
AcDbLine
 10
8039.32491
 20
-15963.86283
 30
0.0
 11
9997.12197
 21
-15963.86283
 31
0.0
  0
LINE
  5
97
102
{ACAD_XDICTIONARY
360
4F4B000000000000
102
}
100
AcDbEntity
  8
1
  6
CONTINUOUS
 62
           3
100
AcDbLine
 10
8039.32491
 20
-15860.662829999999
 30
0.0
 11
9997.12197
 21
-15860.662829999999
 31
0.0
  0
LINE
  5
98
102
{ACAD_XDICTIONARY
360
4F4B000000000000
102
}
100
AcDbEntity
  8
1
  6
CONTINUOUS
 62
           3
100
AcDbLine
 10
8041.124910000001
 20
-15858.86283
 30
0.0
 11
8041.124910000001
 21
-16039.46283
 31
0.0
  0
LINE
  5
99
102
{ACAD_XDICTIONARY
360
4F4B000000000000
102
}
100
AcDbEntity
  8
1
  6
CONTINUOUS
 62
           3
100
AcDbLine
 10
8923.12197
 20
-16039.46283
 30
0.0
 11
8923.12197
 21
-15858.86283
 31
0.0
  0
LINE
  5
9A
102
{ACAD_XDICTIONARY
360
4F4B000000000000
102
}
100
AcDbEntity
  8
1
  6
CONTINUOUS
 62
           3
100
AcDbLine
 10
9997.12197
 20
-14559.56523
 30
0.0
 11
7749.52491
 21
-14559.56523
 31
0.0
  0
LINE
  5
9B
102
{ACAD_XDICTIONARY
360
4F4B000000000000
102
}
100
AcDbEntity
  8
1
  6
CONTINUOUS
 62
           3
100
AcDbLine
 10
7750.42491
 20
-14558.665230000001
 30
0.0
 11
7750.42491
 21
-16039.46283
 31
0.0
  0
LINE
  5
9C
102
{ACAD_XDICTIONARY
360
4F4B000000000000
102
}
100
AcDbEntity
  8
1
  6
CONTINUOUS
 62
           3
100
AcDbLine
 10
9996.221970000001
 20
-16039.46283
 30
0.0
 11
9996.221970000001
 21
-14558.665230000001
 31
0.0
  0
LINE
  5
9D
102
{ACAD_XDICTIONARY
360
4F4B000000000000
102
}
100
AcDbEntity
  8
1
  6
CONTINUOUS
 62
           3
100
AcDbLine
 10
7749.52491
 20
-16038.562830000001
 30
0.0
 11
9997.12197
 21
-16038.562830000001
 31
0.0
  0
LINE
  5
9E
102
{ACAD_XDICTIONARY
360
4F4B000000000000
102
}
100
AcDbEntity
  8
1
  6
CONTINUOUS
 62
           3
100
AcDbLine
 10
8039.32491
 20
-15859.76283
 30
0.0
 11
9997.12197
 21
-15859.76283
 31
0.0
  0
LINE
  5
9F
102
{ACAD_XDICTIONARY
360
4F4B000000000000
102
}
100
AcDbEntity
  8
1
  6
CONTINUOUS
 62
           3
100
AcDbLine
 10
8040.22491
 20
-15858.86283
 30
0.0
 11
8040.22491
 21
-16039.46283
 31
0.0
  0
LINE
  5
A0
102
{ACAD_XDICTIONARY
360
4F4B000000000000
102
}
100
AcDbEntity
  8
1
  6
CONTINUOUS
 62
           3
100
AcDbLine
 10
8922.221970000001
 20
-16039.46283
 30
0.0
 11
8922.221970000001
 21
-15858.86283
 31
0.0
  0
LINE
  5
A1
102
{ACAD_XDICTIONARY
360
4F4B000000000000
102
}
100
AcDbEntity
  8
1
  6
CONTINUOUS
 62
           3
100
AcDbLine
 10
8039.32491
 20
-15964.76283
 30
0.0
 11
9997.12197
 21
-15964.76283
 31
0.0
  0
TEXT
  5
A2
102
{ACAD_XDICTIONARY
360
4F4B000000000000
102
}
100
AcDbEntity
  8
1
  6
CONTINUOUS
 62
           3
100
AcDbText
 10
8830.966879
 20
-16030.964889999999
 30
0.0
 40
18.0
  1
Ａ－３図面枠
 41
0.666667
  7
BIGFONT
 72
           4
 11
8872.966899999999
 21
-16021.964889999999
 31
0.0
100
AcDbText
  0
TEXT
  5
A3
102
{ACAD_XDICTIONARY
360
4F4B000000000000
102
}
100
AcDbEntity
  8
1
  6
CONTINUOUS
 62
           2
100
AcDbText
 10
9931.987870000001
 20
-15935.5906
 30
0.0
 40
20.0
  1
FREE
 41
0.75
  7
BIGFONT
 72
           4
 11
9959.512870000001
 21
-15925.5906
 31
0.0
100
AcDbText
  0
TEXT
  5
A4
102
{ACAD_XDICTIONARY
360
4F4B000000000000
102
}
100
AcDbEntity
  8
1
  6
DASHDOT
 62
           2
100
AcDbText
 10
9902.14437
 20
-15954.21572
 30
0.0
 40
20.0
  1
1
 41
0.75
  7
BIGFONT
 72
           4
 11
9904.61937
 21
-15944.21572
 31
0.0
100
AcDbText
  0
TEXT
  5
A5
102
{ACAD_XDICTIONARY
360
4F4B000000000000
102
}
100
AcDbEntity
  8
1
  6
DASHDOT
 62
           2
100
AcDbText
 10
9869.926169999999
 20
-15923.538339999999
 30
0.0
 40
20.0
  1
1
 41
0.75
  7
BIGFONT
 72
           4
 11
9872.401169999999
 21
-15913.538339999999
 31
0.0
100
AcDbText
  0
TEXT
  5
A6
102
{ACAD_XDICTIONARY
360
4F4B000000000000
102
}
100
AcDbEntity
  8
1
  6
DASHDOT
 62
           2
100
AcDbText
 10
9788.979149999999
 20
-15940.86282
 30
0.0
 40
20.0
  1
図中
 41
0.75
  7
BIGFONT
 72
           4
 11
9804.729149999999
 21
-15930.86282
 31
0.0
100
AcDbText
  0
TEXT
  5
A7
102
{ACAD_XDICTIONARY
360
4F4B000000000000
102
}
100
AcDbEntity
  8
1
  6
DASHDOT
 62
           2
100
AcDbText
 10
9693.691919999999
 20
-15940.86282
 30
0.0
 40
20.0
  1
図中
 41
0.75
  7
BIGFONT
 72
           4
 11
9709.441919999999
 21
-15930.86282
 31
0.0
100
AcDbText
  0
TEXT
  5
A8
102
{ACAD_XDICTIONARY
360
4F4B000000000000
102
}
100
AcDbEntity
  8
1
  6
DASHDOT
 62
           2
100
AcDbText
 10
9597.48847
 20
-15940.86282
 30
0.0
 40
20.0
  1
図中
 41
0.75
  7
BIGFONT
 72
           4
 11
9613.23847
 21
-15930.86282
 31
0.0
100
AcDbText
  0
TEXT
  5
A9
102
{ACAD_XDICTIONARY
360
4F4B000000000000
102
}
100
AcDbEntity
  8
1
  6
CONTINUOUS
 62
           2
100
AcDbText
 10
8986.03644
 20
-15941.196153333334
 30
0.0
 40
20.0
  1
外観図及び組立図
 41
0.75
  7
BIGFONT
 72
           4
 11
9056.03644
 21
-15930.86282
 31
0.0
100
AcDbText
  0
TEXT
  5
AB
102
{ACAD_XDICTIONARY
360
4F4B000000000000
102
}
100
AcDbEntity
  8
$$$$$$
  6
CONTINUOUS
 62
           2
100
AcDbText
 10
9501.881867349643
 20
-14876.400425
 30
0.0
 40
20.12011
  1
品質管理ポイント
 41
0.857143
  7
BIGFONT
 72
           4
 11
9581.212600000001
 21
-14866.34037
 31
0.0
100
AcDbText
  0
LINE
  5
AC
102
{ACAD_XDICTIONARY
360
4F4B000000000000
102
}
100
AcDbEntity
  8
$$$$$$
  6
CONTINUOUS
 62
           2
100
AcDbLine
 10
9506.06907
 20
-14920.24545
 30
0.0
 11
9941.90295
 21
-14920.24545
 31
0.0
  0
LINE
  5
AD
102
{ACAD_XDICTIONARY
360
4F4B000000000000
102
}
100
AcDbEntity
  8
$$$$$$
  6
CONTINUOUS
 62
           2
100
AcDbLine
 10
9506.06907
 20
-14885.75455
 30
0.0
 11
9941.90295
 21
-14885.75455
 31
0.0
  0
LINE
  5
AE
102
{ACAD_XDICTIONARY
360
4F4B000000000000
102
}
100
AcDbEntity
  8
$$$$$$
  6
CONTINUOUS
 62
           2
100
AcDbLine
 10
9506.06907
 20
-14954.73828
 30
0.0
 11
9941.90295
 21
-14954.73828
 31
0.0
  0
TEXT
  5
AF
102
{ACAD_XDICTIONARY
360
4F4B000000000000
102
}
100
AcDbEntity
  8
$$$$$$
  6
CONTINUOUS
 62
           2
100
AcDbText
 10
9472.562200188313
 20
-14948.367845333332
 30
0.0
 40
20.12012
  1
２、ダストボックスは変形、ワレ、成形不良なきこと。
 41
0.857133
  7
BIGFONT
 72
           4
 11
9722.911099999999
 21
-14937.972449999999
 31
0.0
100
AcDbText
  0
INSERT
  5
B5
102
{ACAD_XDICTIONARY
360
4F4B000000000000
102
}
100
AcDbEntity
  8
$$$$$$
  6
CONTINUOUS
 62
           3
100
AcDbBlockReference
  2
*U0
 10
8909.345079999999
 20
-15205.480949999999
 30
0.0
  0
INSERT
  5
BB
102
{ACAD_XDICTIONARY
360
4F4B000000000000
102
}
100
AcDbEntity
  8
$$$$$$
  6
CONTINUOUS
 62
           3
100
AcDbBlockReference
  2
*U1
 10
8909.345079999999
 20
-15270.480799999999
 30
0.0
  0
LEADER
  5
BF
102
{ACAD_XDICTIONARY
360
4F4B000000000000
102
}
100
AcDbEntity
  8
$$$$
  6
CONTINUOUS
 62
           2
100
AcDbLeader
  3
MSADIM
 73
           0
 74
           0
 75
           1
 40
0.0
 76
           3
 10
9062.47503
 20
-15285.96479
 30
0.0
 10
8904.607047
 20
-15205.733048
 30
0.0
 10
8919.607047
 20
-15205.733048
 30
0.0
 77
           2
340
393
  0
LEADER
  5
C0
102
{ACAD_XDICTIONARY
360
4F4B000000000000
102
}
100
AcDbEntity
  8
$$$$
  6
CONTINUOUS
 62
           2
100
AcDbLeader
  3
MSADIM
 73
           0
 74
           0
 75
           1
 40
0.0
 76
           3
 10
9061.67503
 20
-15350.054410000001
 30
0.0
 10
8904.607047
 20
-15270.598384999999
 30
0.0
 10
8919.607047
 20
-15270.598384999999
 30
0.0
 77
           2
340
394
  0
LEADER
  5
C1
102
{ACAD_XDICTIONARY
360
4F4B000000000000
102
}
100
AcDbEntity
  8
$$$$
  6
CONTINUOUS
 62
           2
100
AcDbLeader
  3
MSADIM
 73
           0
 74
           0
 75
           1
 40
0.0
 76
           3
 10
9067.596600000001
 20
-15384.7142
 30
0.0
 10
8903.192827000001
 20
-15506.472274
 30
0.0
 10
8918.192827000001
 20
-15506.472274
 30
0.0
 77
           2
340
395
  0
LEADER
  5
C2
102
{ACAD_XDICTIONARY
360
4F4B000000000000
102
}
100
AcDbEntity
  8
$$$$
  6
CONTINUOUS
 62
           2
100
AcDbLeader
  3
MSADIM
 73
           0
 74
           0
 75
           1
 40
0.0
 76
           3
 10
9126.654710000001
 20
-15468.654329999999
 30
0.0
 10
8904.607047
 20
-15584.055092000001
 30
0.0
 10
8919.607047
 20
-15584.055092000001
 30
0.0
 77
           2
340
396
  0
LEADER
  5
C3
102
{ACAD_XDICTIONARY
360
4F4B000000000000
102
}
100
AcDbEntity
  8
$$$$
  6
CONTINUOUS
 62
           2
100
AcDbLeader
  3
MSADIM
 73
           0
 74
           0
 75
           1
 40
0.0
 76
           3
 10
8666.207259999999
 20
-15278.345369999999
 30
0.0
 10
8914.083096
 20
-15205.733048
 30
0.0
 10
8899.083096
 20
-15205.733048
 30
0.0
 77
           2
340
397
211
-1.0
221
0.0
231
0.0
  0
LEADER
  5
C4
102
{ACAD_XDICTIONARY
360
4F4B000000000000
102
}
100
AcDbEntity
  8
$$$$
  6
CONTINUOUS
 62
           2
100
AcDbLeader
  3
MSADIM
 73
           0
 74
           0
 75
           1
 40
0.0
 76
           3
 10
8671.92893
 20
-15418.281230000001
 30
0.0
 10
8914.083097000001
 20
-15270.598384999999
 30
0.0
 10
8899.083097000001
 20
-15270.598384999999
 30
0.0
 77
           2
340
398
211
-1.0
221
0.0
231
0.0
  0
LINE
  5
C5
102
{ACAD_XDICTIONARY
360
4F4B000000000000
102
}
100
AcDbEntity
  8
1
  6
CONTINUOUS
 62
           3
100
AcDbLine
 10
9131.321974
 20
-16037.662829999999
 30
0.0
 11
9131.321974
 21
-15965.662829999999
 31
0.0
  0
TEXT
  5
C6
102
{ACAD_XDICTIONARY
360
4F4B000000000000
102
}
100
AcDbEntity
  8
$$$$$$
  6
CONTINUOUS
 62
           2
100
AcDbText
 10
9484.634129215345
 20
-14912.578589999999
 30
0.0
 40
20.12012
  1
１、パネルの取付のガタツキなきこと。
 41
0.857133
  7
BIGFONT
 72
           4
 11
9662.55143
 21
-14902.518529999999
 31
0.0
100
AcDbText
  0
LINE
  5
C8
102
{ACAD_XDICTIONARY
360
4F4B000000000000
102
}
100
AcDbEntity
  8
$$15$9
  6
CONTINUOUS
 62
           3
100
AcDbLine
 10
9062.475033999999
 20
-15771.565764999999
 30
0.0
 11
9078.375034000001
 21
-15771.565764999999
 31
0.0
  0
ARC
  5
C9
102
{ACAD_XDICTIONARY
360
4F4B000000000000
102
}
100
AcDbEntity
  8
$$15$9
  6
CONTINUOUS
 62
           3
100
AcDbCircle
 10
9070.425034
 20
-15272.015772999999
 30
0.0
 40
7.95
100
AcDbArc
 50
90.0
 51
180.0
  0
ARC
  5
CA
102
{ACAD_XDICTIONARY
360
4F4B000000000000
102
}
100
AcDbEntity
  8
$$15$9
  6
CONTINUOUS
 62
           3
100
AcDbCircle
 10
9070.425034
 20
-15272.015772999999
 30
0.0
 40
7.95
100
AcDbArc
 50
0.0
 51
90.0
  0
LINE
  5
CC
102
{ACAD_XDICTIONARY
360
4F4B000000000000
102
}
100
AcDbEntity
  8
$$12$7
  6
CONTINUOUS
 62
           3
100
AcDbLine
 10
9080.675031000001
 20
-15345.565772
 30
0.0
 11
9436.575025
 21
-15345.565769000001
 31
0.0
  0
LINE
  5
CD
102
{ACAD_XDICTIONARY
360
4F4B000000000000
102
}
100
AcDbEntity
  8
$$12$7
  6
CONTINUOUS
 62
           3
100
AcDbLine
 10
9080.675031000001
 20
-15355.565772
 30
0.0
 11
9436.575025
 21
-15355.565769000001
 31
0.0
  0
LINE
  5
CF
102
{ACAD_XDICTIONARY
360
4F4B000000000000
102
}
100
AcDbEntity
  8
$$$$$$15$9
  6
CONTINUOUS
 62
           6
100
AcDbLine
 10
9062.47503
 20
-15771.56575
 30
0.0
 11
9078.375029999999
 21
-15771.56575
 31
0.0
  0
LINE
  5
D0
102
{ACAD_XDICTIONARY
360
4F4B000000000000
102
}
100
AcDbEntity
  8
$$$$$$15$9
  6
CONTINUOUS
 62
           6
100
AcDbLine
 10
9064.47503
 20
-15776.56575
 30
0.0
 11
9076.375029999999
 21
-15776.56575
 31
0.0
  0
ARC
  5
D1
102
{ACAD_XDICTIONARY
360
4F4B000000000000
102
}
100
AcDbEntity
  8
$$$$$$15$9
  6
CONTINUOUS
 62
           6
100
AcDbCircle
 10
9064.475032
 20
-15774.565772
 30
0.0
 40
2.0
100
AcDbArc
 50
180.0
 51
270.0
  0
ARC
  5
D2
102
{ACAD_XDICTIONARY
360
4F4B000000000000
102
}
100
AcDbEntity
  8
$$$$$$15$9
  6
CONTINUOUS
 62
           6
100
AcDbCircle
 10
9076.375032
 20
-15774.565772
 30
0.0
 40
2.0
100
AcDbArc
 50
270.0
 51
0.0
  0
LINE
  5
D3
102
{ACAD_XDICTIONARY
360
4F4B000000000000
102
}
100
AcDbEntity
  8
$$$$$$15$9
  6
CONTINUOUS
 62
           6
100
AcDbLine
 10
9062.475032
 20
-15771.565772
 30
0.0
 11
9062.475032
 21
-15774.565772
 31
0.0
  0
LINE
  5
D4
102
{ACAD_XDICTIONARY
360
4F4B000000000000
102
}
100
AcDbEntity
  8
$$$$$$15$9
  6
CONTINUOUS
 62
           6
100
AcDbLine
 10
9078.375032
 20
-15771.565772
 30
0.0
 11
9078.375032
 21
-15774.565772
 31
0.0
  0
LINE
  5
D5
102
{ACAD_XDICTIONARY
360
4F4B000000000000
102
}
100
AcDbEntity
  8
$$$$$$15$9
  6
CONTINUOUS
 62
           6
100
AcDbLine
 10
9452.47502
 20
-15771.56575
 30
0.0
 11
9436.57502
 21
-15771.56575
 31
0.0
  0
LINE
  5
D6
102
{ACAD_XDICTIONARY
360
4F4B000000000000
102
}
100
AcDbEntity
  8
$$$$$$15$9
  6
CONTINUOUS
 62
           6
100
AcDbLine
 10
9450.47502
 20
-15776.56575
 30
0.0
 11
9438.57502
 21
-15776.56575
 31
0.0
  0
ARC
  5
D7
102
{ACAD_XDICTIONARY
360
4F4B000000000000
102
}
100
AcDbEntity
  8
$$$$$$15$9
  6
CONTINUOUS
 62
           6
100
AcDbCircle
 10
9450.475022000001
 20
-15774.565766
 30
0.0
 40
2.0
100
AcDbArc
 50
270.0
 51
0.0
  0
ARC
  5
D8
102
{ACAD_XDICTIONARY
360
4F4B000000000000
102
}
100
AcDbEntity
  8
$$$$$$15$9
  6
CONTINUOUS
 62
           6
100
AcDbCircle
 10
9438.575022000001
 20
-15774.565766
 30
0.0
 40
2.0
100
AcDbArc
 50
180.0
 51
270.0
  0
LINE
  5
D9
102
{ACAD_XDICTIONARY
360
4F4B000000000000
102
}
100
AcDbEntity
  8
$$$$$$15$9
  6
CONTINUOUS
 62
           6
100
AcDbLine
 10
9452.475022000001
 20
-15771.565766
 30
0.0
 11
9452.475022000001
 21
-15774.565766
 31
0.0
  0
LINE
  5
DA
102
{ACAD_XDICTIONARY
360
4F4B000000000000
102
}
100
AcDbEntity
  8
$$$$$$15$9
  6
CONTINUOUS
 62
           6
100
AcDbLine
 10
9436.575022000001
 20
-15771.565766
 30
0.0
 11
9436.575022000001
 21
-15774.565766
 31
0.0
  0
LINE
  5
DB
102
{ACAD_XDICTIONARY
360
4F4B000000000000
102
}
100
AcDbEntity
  8
$$$$$$15$9
  6
CONTINUOUS
 62
           6
100
AcDbLine
 10
9436.57502
 20
-15303.86182
 30
0.0
 11
9452.47502
 21
-15303.86182
 31
0.0
  0
LINE
  5
DC
102
{ACAD_XDICTIONARY
360
4F4B000000000000
102
}
100
AcDbEntity
  8
$$$$$$15$9
  6
CONTINUOUS
 62
           6
100
AcDbLine
 10
9438.57502
 20
-15298.86182
 30
0.0
 11
9450.47502
 21
-15298.86182
 31
0.0
  0
ARC
  5
DD
102
{ACAD_XDICTIONARY
360
4F4B000000000000
102
}
100
AcDbEntity
  8
$$$$$$15$9
  6
CONTINUOUS
 62
           6
100
AcDbCircle
 10
9438.57503
 20
-15300.861822000001
 30
0.0
 40
2.0
100
AcDbArc
 50
90.0
 51
180.0
  0
ARC
  5
DE
102
{ACAD_XDICTIONARY
360
4F4B000000000000
102
}
100
AcDbEntity
  8
$$$$$$15$9
  6
CONTINUOUS
 62
           6
100
AcDbCircle
 10
9450.47503
 20
-15300.861822000001
 30
0.0
 40
2.0
100
AcDbArc
 50
0.0
 51
90.0
  0
LINE
  5
DF
102
{ACAD_XDICTIONARY
360
4F4B000000000000
102
}
100
AcDbEntity
  8
$$$$$$15$9
  6
CONTINUOUS
 62
           6
100
AcDbLine
 10
9436.57503
 20
-15303.861822000001
 30
0.0
 11
9436.57503
 21
-15300.861822000001
 31
0.0
  0
LINE
  5
E0
102
{ACAD_XDICTIONARY
360
4F4B000000000000
102
}
100
AcDbEntity
  8
$$$$$$15$9
  6
CONTINUOUS
 62
           6
100
AcDbLine
 10
9452.47503
 20
-15303.861822000001
 30
0.0
 11
9452.47503
 21
-15300.861822000001
 31
0.0
  0
LINE
  5
E1
102
{ACAD_XDICTIONARY
360
4F4B000000000000
102
}
100
AcDbEntity
  8
$$15$9
  6
CONTINUOUS
 62
           3
100
AcDbLine
 10
9436.575025
 20
-15303.86183
 30
0.0
 11
9452.475025
 21
-15303.86183
 31
0.0
  0
LINE
  5
E2
102
{ACAD_XDICTIONARY
360
4F4B000000000000
102
}
100
AcDbEntity
  8
$$15$9
  6
CONTINUOUS
 62
           3
100
AcDbLine
 10
9436.575025
 20
-15771.565758999999
 30
0.0
 11
9452.475025
 21
-15771.565758999999
 31
0.0
  0
LINE
  5
E3
102
{ACAD_XDICTIONARY
360
4F4B000000000000
102
}
100
AcDbEntity
  8
$$12$7
  6
CONTINUOUS
 62
           3
100
AcDbLine
 10
9436.575025
 20
-15303.86183
 30
0.0
 11
9447.975023000001
 21
-15303.86183
 31
0.0
  0
LINE
  5
E4
102
{ACAD_XDICTIONARY
360
4F4B000000000000
102
}
100
AcDbEntity
  8
1
  6
CONTINUOUS
 62
           7
100
AcDbLine
 10
9100.97503
 20
-15762.565759999999
 30
0.0
 11
9113.97503
 21
-15762.565759999999
 31
0.0
  0
ARC
  5
E5
102
{ACAD_XDICTIONARY
360
4F4B000000000000
102
}
100
AcDbEntity
  8
1
  6
CONTINUOUS
 62
           7
100
AcDbCircle
 10
9110.725031
 20
-15754.917769
 30
0.0
 40
7.647994
100
AcDbArc
 50
244.852622
 51
295.147375
  0
ARC
  5
E6
102
{ACAD_XDICTIONARY
360
4F4B000000000000
102
}
100
AcDbEntity
  8
1
  6
CONTINUOUS
 62
           7
100
AcDbCircle
 10
9104.225031
 20
-15754.917769
 30
0.0
 40
7.647994
100
AcDbArc
 50
244.852622
 51
295.147375
  0
CIRCLE
  5
E7
102
{ACAD_XDICTIONARY
360
4F4B000000000000
102
}
100
AcDbEntity
  8
1
  6
CONTINUOUS
 62
           7
100
AcDbCircle
 10
9093.47503
 20
-15793.815766
 30
0.0
 40
20.25
  0
ARC
  5
E8
102
{ACAD_XDICTIONARY
360
4F4B000000000000
102
}
100
AcDbEntity
  8
1
  6
CONTINUOUS
 62
           7
100
AcDbCircle
 10
9093.47503
 20
-15793.815766
 30
0.0
 40
22.250004
100
AcDbArc
 50
0.0
 51
180.0
  0
ARC
  5
E9
102
{ACAD_XDICTIONARY
360
4F4B000000000000
102
}
100
AcDbEntity
  8
1
  6
CONTINUOUS
 62
           7
100
AcDbCircle
 10
9093.47503
 20
-15793.815766
 30
0.0
 40
24.25
100
AcDbArc
 50
0.0
 51
180.0
  0
LINE
  5
EA
102
{ACAD_XDICTIONARY
360
4F4B000000000000
102
}
100
AcDbEntity
  8
1
  6
CONTINUOUS
 62
           7
100
AcDbLine
 10
9069.22503
 20
-15793.815759999999
 30
0.0
 11
9069.22503
 21
-15799.565759999999
 31
0.0
  0
LINE
  5
EB
102
{ACAD_XDICTIONARY
360
4F4B000000000000
102
}
100
AcDbEntity
  8
1
  6
CONTINUOUS
 62
           7
100
AcDbLine
 10
9071.22503
 20
-15793.815759999999
 30
0.0
 11
9071.22503
 21
-15799.565759999999
 31
0.0
  0
LINE
  5
EC
102
{ACAD_XDICTIONARY
360
4F4B000000000000
102
}
100
AcDbEntity
  8
1
  6
CONTINUOUS
 62
           7
100
AcDbLine
 10
9115.72503
 20
-15793.815759999999
 30
0.0
 11
9115.72503
 21
-15799.565759999999
 31
0.0
  0
LINE
  5
ED
102
{ACAD_XDICTIONARY
360
4F4B000000000000
102
}
100
AcDbEntity
  8
1
  6
CONTINUOUS
 62
           7
100
AcDbLine
 10
9117.72503
 20
-15793.815759999999
 30
0.0
 11
9117.72503
 21
-15799.565759999999
 31
0.0
  0
ARC
  5
EE
102
{ACAD_XDICTIONARY
360
4F4B000000000000
102
}
100
AcDbEntity
  8
1
  6
CONTINUOUS
 62
           7
100
AcDbCircle
 10
9070.22503
 20
-15799.565766
 30
0.0
 40
1.0
100
AcDbArc
 50
180.0
 51
360.0
  0
ARC
  5
EF
102
{ACAD_XDICTIONARY
360
4F4B000000000000
102
}
100
AcDbEntity
  8
1
  6
CONTINUOUS
 62
           7
100
AcDbCircle
 10
9116.72503
 20
-15799.565766
 30
0.0
 40
1.0
100
AcDbArc
 50
180.0
 51
360.0
  0
LINE
  5
F0
102
{ACAD_XDICTIONARY
360
4F4B000000000000
102
}
100
AcDbEntity
  8
1
  6
CONTINUOUS
 62
           7
100
AcDbLine
 10
9113.72503
 20
-15780.474099999999
 30
0.0
 11
9113.72503
 21
-15767.565759999999
 31
0.0
  0
LINE
  5
F1
102
{ACAD_XDICTIONARY
360
4F4B000000000000
102
}
100
AcDbEntity
  8
1
  6
CONTINUOUS
 62
           7
100
AcDbLine
 10
9101.22503
 20
-15770.837509999999
 30
0.0
 11
9101.22503
 21
-15767.565759999999
 31
0.0
  0
LINE
  5
F2
102
{ACAD_XDICTIONARY
360
4F4B000000000000
102
}
100
AcDbEntity
  8
1
  6
CONTINUOUS
 62
           7
100
AcDbLine
 10
9107.47503
 20
-15762.565759999999
 30
0.0
 11
9107.47503
 21
-15766.565759999999
 31
0.0
  0
LINE
  5
F3
102
{ACAD_XDICTIONARY
360
4F4B000000000000
102
}
100
AcDbEntity
  8
1
  6
CONTINUOUS
 62
           7
100
AcDbLine
 10
9113.97503
 20
-15766.565759999999
 30
0.0
 11
9113.97503
 21
-15762.565759999999
 31
0.0
  0
LINE
  5
F4
102
{ACAD_XDICTIONARY
360
4F4B000000000000
102
}
100
AcDbEntity
  8
1
  6
CONTINUOUS
 62
           7
100
AcDbLine
 10
9100.97503
 20
-15766.565759999999
 30
0.0
 11
9113.97503
 21
-15766.565759999999
 31
0.0
  0
LINE
  5
F5
102
{ACAD_XDICTIONARY
360
4F4B000000000000
102
}
100
AcDbEntity
  8
1
  6
CONTINUOUS
 62
           7
100
AcDbLine
 10
9100.97503
 20
-15762.565759999999
 30
0.0
 11
9100.97503
 21
-15766.565759999999
 31
0.0
  0
LINE
  5
F6
102
{ACAD_XDICTIONARY
360
4F4B000000000000
102
}
100
AcDbEntity
  8
1
  6
CONTINUOUS
 62
           7
100
AcDbLine
 10
9101.22503
 20
-15767.565759999999
 30
0.0
 11
9113.72503
 21
-15767.565759999999
 31
0.0
  0
LINE
  5
F7
102
{ACAD_XDICTIONARY
360
4F4B000000000000
102
}
100
AcDbEntity
  8
1
  6
CONTINUOUS
 62
           7
100
AcDbLine
 10
9111.47503
 20
-15766.565759999999
 30
0.0
 11
9111.47503
 21
-15767.565759999999
 31
0.0
  0
LINE
  5
F8
102
{ACAD_XDICTIONARY
360
4F4B000000000000
102
}
100
AcDbEntity
  8
1
  6
CONTINUOUS
 62
           7
100
AcDbLine
 10
9103.47503
 20
-15766.565759999999
 30
0.0
 11
9103.47503
 21
-15767.565759999999
 31
0.0
  0
LINE
  5
F9
102
{ACAD_XDICTIONARY
360
4F4B000000000000
102
}
100
AcDbEntity
  8
1
  6
CONTINUOUS
 62
           7
100
AcDbLine
 10
9413.97502
 20
-15762.565759999999
 30
0.0
 11
9400.97502
 21
-15762.565759999999
 31
0.0
  0
ARC
  5
FA
102
{ACAD_XDICTIONARY
360
4F4B000000000000
102
}
100
AcDbEntity
  8
1
  6
CONTINUOUS
 62
           7
100
AcDbCircle
 10
9404.225028000001
 20
-15754.917762999999
 30
0.0
 40
7.647994
100
AcDbArc
 50
244.852625
 51
295.147378
  0
ARC
  5
FB
102
{ACAD_XDICTIONARY
360
4F4B000000000000
102
}
100
AcDbEntity
  8
1
  6
CONTINUOUS
 62
           7
100
AcDbCircle
 10
9410.725028000001
 20
-15754.917762999999
 30
0.0
 40
7.647994
100
AcDbArc
 50
244.852625
 51
295.147378
  0
CIRCLE
  5
FC
102
{ACAD_XDICTIONARY
360
4F4B000000000000
102
}
100
AcDbEntity
  8
1
  6
CONTINUOUS
 62
           7
100
AcDbCircle
 10
9421.475028999999
 20
-15793.815759999999
 30
0.0
 40
20.25
  0
ARC
  5
FD
102
{ACAD_XDICTIONARY
360
4F4B000000000000
102
}
100
AcDbEntity
  8
1
  6
CONTINUOUS
 62
           7
100
AcDbCircle
 10
9421.475028999999
 20
-15793.815759999999
 30
0.0
 40
22.250004
100
AcDbArc
 50
0.0
 51
180.0
  0
ARC
  5
FE
102
{ACAD_XDICTIONARY
360
4F4B000000000000
102
}
100
AcDbEntity
  8
1
  6
CONTINUOUS
 62
           7
100
AcDbCircle
 10
9421.475028999999
 20
-15793.815759999999
 30
0.0
 40
24.25
100
AcDbArc
 50
0.0
 51
180.0
  0
LINE
  5
FF
102
{ACAD_XDICTIONARY
360
4F4B000000000000
102
}
100
AcDbEntity
  8
1
  6
CONTINUOUS
 62
           7
100
AcDbLine
 10
9445.72502
 20
-15793.815759999999
 30
0.0
 11
9445.72502
 21
-15799.565759999999
 31
0.0
  0
LINE
  5
100
102
{ACAD_XDICTIONARY
360
4F4B000000000000
102
}
100
AcDbEntity
  8
1
  6
CONTINUOUS
 62
           7
100
AcDbLine
 10
9443.72502
 20
-15793.815759999999
 30
0.0
 11
9443.72502
 21
-15799.565759999999
 31
0.0
  0
LINE
  5
101
102
{ACAD_XDICTIONARY
360
4F4B000000000000
102
}
100
AcDbEntity
  8
1
  6
CONTINUOUS
 62
           7
100
AcDbLine
 10
9399.22502
 20
-15793.815759999999
 30
0.0
 11
9399.22502
 21
-15799.565759999999
 31
0.0
  0
LINE
  5
102
102
{ACAD_XDICTIONARY
360
4F4B000000000000
102
}
100
AcDbEntity
  8
1
  6
CONTINUOUS
 62
           7
100
AcDbLine
 10
9397.22502
 20
-15793.815759999999
 30
0.0
 11
9397.22502
 21
-15799.565759999999
 31
0.0
  0
ARC
  5
103
102
{ACAD_XDICTIONARY
360
4F4B000000000000
102
}
100
AcDbEntity
  8
1
  6
CONTINUOUS
 62
           7
100
AcDbCircle
 10
9444.725028999999
 20
-15799.565759999999
 30
0.0
 40
1.0
100
AcDbArc
 50
180.0
 51
360.0
  0
ARC
  5
104
102
{ACAD_XDICTIONARY
360
4F4B000000000000
102
}
100
AcDbEntity
  8
1
  6
CONTINUOUS
 62
           7
100
AcDbCircle
 10
9398.225028999999
 20
-15799.565759999999
 30
0.0
 40
1.0
100
AcDbArc
 50
180.0
 51
360.0
  0
LINE
  5
105
102
{ACAD_XDICTIONARY
360
4F4B000000000000
102
}
100
AcDbEntity
  8
1
  6
CONTINUOUS
 62
           7
100
AcDbLine
 10
9401.22502
 20
-15780.474099999999
 30
0.0
 11
9401.22502
 21
-15767.565759999999
 31
0.0
  0
LINE
  5
106
102
{ACAD_XDICTIONARY
360
4F4B000000000000
102
}
100
AcDbEntity
  8
1
  6
CONTINUOUS
 62
           7
100
AcDbLine
 10
9413.72502
 20
-15770.837509999999
 30
0.0
 11
9413.72502
 21
-15767.565759999999
 31
0.0
  0
LINE
  5
107
102
{ACAD_XDICTIONARY
360
4F4B000000000000
102
}
100
AcDbEntity
  8
1
  6
CONTINUOUS
 62
           7
100
AcDbLine
 10
9407.47502
 20
-15762.565759999999
 30
0.0
 11
9407.47502
 21
-15766.565759999999
 31
0.0
  0
LINE
  5
108
102
{ACAD_XDICTIONARY
360
4F4B000000000000
102
}
100
AcDbEntity
  8
1
  6
CONTINUOUS
 62
           7
100
AcDbLine
 10
9400.97502
 20
-15766.565759999999
 30
0.0
 11
9400.97502
 21
-15762.565759999999
 31
0.0
  0
LINE
  5
109
102
{ACAD_XDICTIONARY
360
4F4B000000000000
102
}
100
AcDbEntity
  8
1
  6
CONTINUOUS
 62
           7
100
AcDbLine
 10
9413.97502
 20
-15766.565759999999
 30
0.0
 11
9400.97502
 21
-15766.565759999999
 31
0.0
  0
LINE
  5
10A
102
{ACAD_XDICTIONARY
360
4F4B000000000000
102
}
100
AcDbEntity
  8
1
  6
CONTINUOUS
 62
           7
100
AcDbLine
 10
9413.97502
 20
-15762.565759999999
 30
0.0
 11
9413.97502
 21
-15766.565759999999
 31
0.0
  0
LINE
  5
10B
102
{ACAD_XDICTIONARY
360
4F4B000000000000
102
}
100
AcDbEntity
  8
1
  6
CONTINUOUS
 62
           7
100
AcDbLine
 10
9413.72502
 20
-15767.565759999999
 30
0.0
 11
9401.22502
 21
-15767.565759999999
 31
0.0
  0
LINE
  5
10C
102
{ACAD_XDICTIONARY
360
4F4B000000000000
102
}
100
AcDbEntity
  8
1
  6
CONTINUOUS
 62
           7
100
AcDbLine
 10
9403.47502
 20
-15766.565759999999
 30
0.0
 11
9403.47502
 21
-15767.565759999999
 31
0.0
  0
LINE
  5
10D
102
{ACAD_XDICTIONARY
360
4F4B000000000000
102
}
100
AcDbEntity
  8
1
  6
CONTINUOUS
 62
           7
100
AcDbLine
 10
9411.47502
 20
-15766.565759999999
 30
0.0
 11
9411.47502
 21
-15767.565759999999
 31
0.0
  0
LINE
  5
10E
102
{ACAD_XDICTIONARY
360
4F4B000000000000
102
}
100
AcDbEntity
  8
1
  6
CONTINUOUS
 62
           7
100
AcDbLine
 10
9400.975025
 20
-15762.565759999999
 30
0.0
 11
9400.975025
 21
-15758.565769999999
 31
0.0
  0
LINE
  5
10F
102
{ACAD_XDICTIONARY
360
4F4B000000000000
102
}
100
AcDbEntity
  8
1
  6
CONTINUOUS
 62
           7
100
AcDbLine
 10
9413.975025
 20
-15758.565769999999
 30
0.0
 11
9413.975025
 21
-15762.565759999999
 31
0.0
  0
LINE
  5
110
102
{ACAD_XDICTIONARY
360
4F4B000000000000
102
}
100
AcDbEntity
  8
1
  6
CONTINUOUS
 62
           7
100
AcDbLine
 10
9407.475025
 20
-15761.84086
 30
0.0
 11
9407.475025
 21
-15758.565769999999
 31
0.0
  0
LINE
  5
111
102
{ACAD_XDICTIONARY
360
4F4B000000000000
102
}
100
AcDbEntity
  8
$$$$
  6
CONTINUOUS
 62
           3
100
AcDbLine
 10
9080.675028
 20
-15743.565774000001
 30
0.0
 11
9436.575025
 21
-15743.565769999999
 31
0.0
  0
LINE
  5
112
102
{ACAD_XDICTIONARY
360
4F4B000000000000
102
}
100
AcDbEntity
  8
$$$$
  6
CONTINUOUS
 62
           3
100
AcDbLine
 10
9080.568329
 20
-15758.565774000001
 30
0.0
 11
9436.575025
 21
-15758.565769999999
 31
0.0
  0
LINE
  5
113
102
{ACAD_XDICTIONARY
360
4F4B000000000000
102
}
100
AcDbEntity
  8
1
  6
CONTINUOUS
 62
           7
100
AcDbLine
 10
9100.975033999999
 20
-15758.565774000001
 30
0.0
 11
9100.975033999999
 21
-15762.565766
 31
0.0
  0
LINE
  5
114
102
{ACAD_XDICTIONARY
360
4F4B000000000000
102
}
100
AcDbEntity
  8
1
  6
CONTINUOUS
 62
           7
100
AcDbLine
 10
9113.975033999999
 20
-15762.565766
 30
0.0
 11
9113.975033999999
 21
-15758.565774000001
 31
0.0
  0
LINE
  5
115
102
{ACAD_XDICTIONARY
360
4F4B000000000000
102
}
100
AcDbEntity
  8
1
  6
CONTINUOUS
 62
           7
100
AcDbLine
 10
9107.475033999999
 20
-15761.840866
 30
0.0
 11
9107.475033999999
 21
-15758.565774000001
 31
0.0
  0
LINE
  5
116
102
{ACAD_XDICTIONARY
360
4F4B000000000000
102
}
100
AcDbEntity
  8
$$15$9
  6
CONTINUOUS
 62
           3
100
AcDbLine
 10
9062.475033999999
 20
-15771.386828999999
 30
0.0
 11
9062.475033999999
 21
-15771.565764999999
 31
0.0
  0
LINE
  5
117
102
{ACAD_XDICTIONARY
360
4F4B000000000000
102
}
100
AcDbEntity
  8
$$15$9
  6
CONTINUOUS
 62
           3
100
AcDbLine
 10
9078.375034000001
 20
-15770.595151
 30
0.0
 11
9078.375034000001
 21
-15771.565764999999
 31
0.0
  0
LINE
  5
118
102
{ACAD_XDICTIONARY
360
4F4B000000000000
102
}
100
AcDbEntity
  8
$$15$9
  6
CONTINUOUS
 62
           3
100
AcDbLine
 10
9062.475033999999
 20
-15272.015702999999
 30
0.0
 11
9062.475033999999
 21
-15304.390728
 31
0.0
  0
LINE
  5
119
102
{ACAD_XDICTIONARY
360
4F4B000000000000
102
}
100
AcDbEntity
  8
$$15$9
  6
CONTINUOUS
 62
           3
100
AcDbLine
 10
9078.375034000001
 20
-15272.015772999999
 30
0.0
 11
9078.375034000001
 21
-15305.182408000001
 31
0.0
  0
LINE
  5
11B
102
{ACAD_XDICTIONARY
360
4F4B000000000000
102
}
100
AcDbEntity
  8
$_$X$$$$$$$N$X
  6
CONTINUOUS
 62
           4
100
AcDbLine
 10
9258.475039999999
 20
-15303.565769999999
 30
0.0
 11
9161.475
 21
-15303.565769999999
 31
0.0
  0
ARC
  5
11C
102
{ACAD_XDICTIONARY
360
4F4B000000000000
102
}
100
AcDbEntity
  8
$_$X$$$$$$$N$X
  6
CONTINUOUS
 62
           4
100
AcDbCircle
 10
9161.475006000001
 20
-15564.208629000001
 30
0.0
 40
260.642857
100
AcDbArc
 50
90.000003
 51
103.30885
  0
LINE
  5
11D
102
{ACAD_XDICTIONARY
360
4F4B000000000000
102
}
100
AcDbEntity
  8
$_$X$$$$$$$N$X
  6
CONTINUOUS
 62
           4
100
AcDbLine
 10
9258.475039999999
 20
-15303.565769999999
 30
0.0
 11
9355.47508
 21
-15303.565769999999
 31
0.0
  0
ARC
  5
11E
102
{ACAD_XDICTIONARY
360
4F4B000000000000
102
}
100
AcDbEntity
  8
$_$X$$$$$$$N$X
  6
CONTINUOUS
 62
           4
100
AcDbCircle
 10
9355.475066000001
 20
-15564.208629000001
 30
0.0
 40
260.642857
100
AcDbArc
 50
76.69115
 51
89.999997
  0
LINE
  5
11F
102
{ACAD_XDICTIONARY
360
4F4B000000000000
102
}
100
AcDbEntity
  8
$_$X$$$$$$$N$X
  6
CONTINUOUS
 62
           4
100
AcDbLine
 10
9100.475039999999
 20
-15743.565769999999
 30
0.0
 11
9416.475039999999
 21
-15743.565769999999
 31
0.0
  0
LINE
  5
120
102
{ACAD_XDICTIONARY
360
4F4B000000000000
102
}
100
AcDbEntity
  8
$_$X$$$$$$$N$X
  6
DIVIDE
 62
           4
100
AcDbLine
 10
9399.230149999999
 20
-15175.09042
 30
0.0
 11
9399.230149999999
 21
-15078.09038
 31
0.0
  0
ARC
  5
121
102
{ACAD_XDICTIONARY
360
4F4B000000000000
102
}
100
AcDbEntity
  8
$_$X$$$$$$$N$X
  6
DIVIDE
 62
           4
100
AcDbCircle
 10
9138.587286
 20
-15078.090391
 30
0.0
 40
260.642857
100
AcDbArc
 50
0.000003
 51
13.30885
  0
LINE
  5
122
102
{ACAD_XDICTIONARY
360
4F4B000000000000
102
}
100
AcDbEntity
  8
$_$X$$$$$$$N$X
  6
DIVIDE
 62
           4
100
AcDbLine
 10
9399.230149999999
 20
-15175.09042
 30
0.0
 11
9399.230149999999
 21
-15272.090459999999
 31
0.0
  0
ARC
  5
123
102
{ACAD_XDICTIONARY
360
4F4B000000000000
102
}
100
AcDbEntity
  8
$_$X$$$$$$$N$X
  6
DIVIDE
 62
           4
100
AcDbCircle
 10
9138.587286
 20
-15272.090451
 30
0.0
 40
260.642857
100
AcDbArc
 50
352.329847
 51
359.999997
  0
LINE
  5
124
102
{ACAD_XDICTIONARY
360
4F4B000000000000
102
}
100
AcDbEntity
  8
$_$X$$$$$$$N$X
  6
DIVIDE
 62
           4
100
AcDbLine
 10
9392.230149999999
 20
-15018.090389999999
 30
0.0
 11
9382.230149999999
 21
-15018.090389999999
 31
0.0
  0
LINE
  5
125
102
{ACAD_XDICTIONARY
360
4F4B000000000000
102
}
100
AcDbEntity
  8
$_$X$$$$$$$N$X
  6
DIVIDE
 62
           4
100
AcDbLine
 10
9382.230149999999
 20
-15304.94262
 30
0.0
 11
9382.230149999999
 21
-15018.090389999999
 31
0.0
  0
ARC
  5
126
102
{ACAD_XDICTIONARY
360
4F4B000000000000
102
}
100
AcDbEntity
  8
$_$X$$$$$$$N$X
  6
DIVIDE
 62
           4
100
AcDbCircle
 10
9398.226773
 20
-15305.152101
 30
0.0
 40
266.967581
100
AcDbArc
 50
96.629231
 51
172.654489
  0
LINE
  5
127
102
{ACAD_XDICTIONARY
360
4F4B000000000000
102
}
100
AcDbEntity
  8
$$$$$$
  6
CONTINUOUS
 62
           5
100
AcDbLine
 10
9075.675028
 20
-15304.390722
 30
0.0
 11
9061.67503
 21
-15304.390721
 31
0.0
  0
LINE
  5
128
102
{ACAD_XDICTIONARY
360
4F4B000000000000
102
}
100
AcDbEntity
  8
$$$$$$
  6
CONTINUOUS
 62
           5
100
AcDbLine
 10
9062.47503
 20
-15314.390719999999
 30
0.0
 11
9062.475031
 21
-15314.390723
 31
0.0
  0
ARC
  5
129
102
{ACAD_XDICTIONARY
360
4F4B000000000000
102
}
100
AcDbEntity
  8
$$$$$$
  6
CONTINUOUS
 62
           5
100
AcDbCircle
 10
9075.675026999999
 20
-15309.390722
 30
0.0
 40
5.0
100
AcDbArc
 50
360.0
 51
89.999993
  0
LINE
  5
12A
102
{ACAD_XDICTIONARY
360
4F4B000000000000
102
}
100
AcDbEntity
  8
$$$$$$
  6
CONTINUOUS
 62
           5
100
AcDbLine
 10
9075.675037000001
 20
-15771.390734000001
 30
0.0
 11
9061.675039
 21
-15771.390735999999
 31
0.0
  0
ARC
  5
12B
102
{ACAD_XDICTIONARY
360
4F4B000000000000
102
}
100
AcDbEntity
  8
$$$$$$
  6
CONTINUOUS
 62
           5
100
AcDbCircle
 10
9075.675037000001
 20
-15766.390734000001
 30
0.0
 40
5.0
100
AcDbArc
 50
270.000007
 51
0.0
  0
LINE
  5
12C
102
{ACAD_XDICTIONARY
360
4F4B000000000000
102
}
100
AcDbEntity
  8
$$$$$$
  6
CONTINUOUS
 62
           5
100
AcDbLine
 10
9061.675035
 20
-15771.390735999999
 30
0.0
 11
9061.67503
 21
-15304.390721
 31
0.0
  0
CIRCLE
  5
12D
102
{ACAD_XDICTIONARY
360
4F4B000000000000
102
}
100
AcDbEntity
  8
$$$$$$
  6
CONTINUOUS
 62
           5
100
AcDbCircle
 10
9070.425042999999
 20
-15693.885783
 30
0.0
 40
2.25
  0
LINE
  5
12E
102
{ACAD_XDICTIONARY
360
4F4B000000000000
102
}
100
AcDbEntity
  8
$$$$$$
  6
CONTINUOUS
 62
           5
100
AcDbLine
 10
9080.675033
 20
-15766.396827
 30
0.0
 11
9080.675026999999
 21
-15309.390722
 31
0.0
  0
CIRCLE
  5
12F
102
{ACAD_XDICTIONARY
360
4F4B000000000000
102
}
100
AcDbEntity
  8
$$$$$$
  6
CONTINUOUS
 62
           5
100
AcDbCircle
 10
9070.425031000001
 20
-15381.885774
 30
0.0
 40
2.25
  0
LINE
  5
130
102
{ACAD_XDICTIONARY
360
4F4B000000000000
102
}
100
AcDbEntity
  8
$$$$$$
  6
CONTINUOUS
 62
           5
100
AcDbLine
 10
9062.47503
 20
-15761.380811999999
 30
0.0
 11
9062.475031
 21
-15761.380808
 31
0.0
  0
LINE
  5
132
102
{ACAD_XDICTIONARY
360
4F4B000000000000
102
}
100
AcDbEntity
  8
$J$$$$$$15$9
  6
CONTINUOUS
 62
           6
100
AcDbLine
 10
9433.525019999999
 20
-15377.565769999999
 30
0.0
 11
9433.525019999999
 21
-15405.565769999999
 31
0.0
  0
LINE
  5
133
102
{ACAD_XDICTIONARY
360
4F4B000000000000
102
}
100
AcDbEntity
  8
$J$$$$$$15$9
  6
CONTINUOUS
 62
           6
100
AcDbLine
 10
9455.525019999999
 20
-15377.565769999999
 30
0.0
 11
9455.525019999999
 21
-15405.565769999999
 31
0.0
  0
LINE
  5
134
102
{ACAD_XDICTIONARY
360
4F4B000000000000
102
}
100
AcDbEntity
  8
$J$$$$$$15$9
  6
CONTINUOUS
 62
           6
100
AcDbLine
 10
9454.525019999999
 20
-15376.565769999999
 30
0.0
 11
9434.525019999999
 21
-15376.565769999999
 31
0.0
  0
LINE
  5
135
102
{ACAD_XDICTIONARY
360
4F4B000000000000
102
}
100
AcDbEntity
  8
$J$$$$$$15$9
  6
CONTINUOUS
 62
           6
100
AcDbLine
 10
9454.525019999999
 20
-15406.565769999999
 30
0.0
 11
9434.525019999999
 21
-15406.565769999999
 31
0.0
  0
ARC
  5
136
102
{ACAD_XDICTIONARY
360
4F4B000000000000
102
}
100
AcDbEntity
  8
$J$$$$$$15$9
  6
CONTINUOUS
 62
           6
100
AcDbCircle
 10
9454.525014999999
 20
-15377.565767
 30
0.0
 40
1.0
100
AcDbArc
 50
0.0
 51
90.0
  0
ARC
  5
137
102
{ACAD_XDICTIONARY
360
4F4B000000000000
102
}
100
AcDbEntity
  8
$J$$$$$$15$9
  6
CONTINUOUS
 62
           6
100
AcDbCircle
 10
9434.525014999999
 20
-15377.565767
 30
0.0
 40
1.0
100
AcDbArc
 50
90.0
 51
180.0
  0
ARC
  5
138
102
{ACAD_XDICTIONARY
360
4F4B000000000000
102
}
100
AcDbEntity
  8
$J$$$$$$15$9
  6
CONTINUOUS
 62
           6
100
AcDbCircle
 10
9434.525014999999
 20
-15405.565767
 30
0.0
 40
1.0
100
AcDbArc
 50
180.0
 51
270.0
  0
ARC
  5
139
102
{ACAD_XDICTIONARY
360
4F4B000000000000
102
}
100
AcDbEntity
  8
$J$$$$$$15$9
  6
CONTINUOUS
 62
           6
100
AcDbCircle
 10
9454.525014999999
 20
-15405.565767
 30
0.0
 40
1.0
100
AcDbArc
 50
270.0
 51
360.0
  0
LINE
  5
13A
102
{ACAD_XDICTIONARY
360
4F4B000000000000
102
}
100
AcDbEntity
  8
$J$$$$$$15$9
  6
CONTINUOUS
 62
           6
100
AcDbLine
 10
9433.525019999999
 20
-15669.565769999999
 30
0.0
 11
9433.525019999999
 21
-15697.565769999999
 31
0.0
  0
LINE
  5
13B
102
{ACAD_XDICTIONARY
360
4F4B000000000000
102
}
100
AcDbEntity
  8
$J$$$$$$15$9
  6
CONTINUOUS
 62
           6
100
AcDbLine
 10
9455.525019999999
 20
-15669.565769999999
 30
0.0
 11
9455.525019999999
 21
-15697.565769999999
 31
0.0
  0
LINE
  5
13C
102
{ACAD_XDICTIONARY
360
4F4B000000000000
102
}
100
AcDbEntity
  8
$J$$$$$$15$9
  6
CONTINUOUS
 62
           6
100
AcDbLine
 10
9454.525019999999
 20
-15668.565769999999
 30
0.0
 11
9434.525019999999
 21
-15668.565769999999
 31
0.0
  0
LINE
  5
13D
102
{ACAD_XDICTIONARY
360
4F4B000000000000
102
}
100
AcDbEntity
  8
$J$$$$$$15$9
  6
CONTINUOUS
 62
           6
100
AcDbLine
 10
9454.525019999999
 20
-15698.565769999999
 30
0.0
 11
9434.525019999999
 21
-15698.565769999999
 31
0.0
  0
ARC
  5
13E
102
{ACAD_XDICTIONARY
360
4F4B000000000000
102
}
100
AcDbEntity
  8
$J$$$$$$15$9
  6
CONTINUOUS
 62
           6
100
AcDbCircle
 10
9454.525014999999
 20
-15669.565767
 30
0.0
 40
1.0
100
AcDbArc
 50
0.0
 51
90.0
  0
ARC
  5
13F
102
{ACAD_XDICTIONARY
360
4F4B000000000000
102
}
100
AcDbEntity
  8
$J$$$$$$15$9
  6
CONTINUOUS
 62
           6
100
AcDbCircle
 10
9434.525014999999
 20
-15669.565767
 30
0.0
 40
1.0
100
AcDbArc
 50
90.0
 51
180.0
  0
ARC
  5
140
102
{ACAD_XDICTIONARY
360
4F4B000000000000
102
}
100
AcDbEntity
  8
$J$$$$$$15$9
  6
CONTINUOUS
 62
           6
100
AcDbCircle
 10
9434.525014999999
 20
-15697.565767
 30
0.0
 40
1.0
100
AcDbArc
 50
180.0
 51
270.0
  0
ARC
  5
141
102
{ACAD_XDICTIONARY
360
4F4B000000000000
102
}
100
AcDbEntity
  8
$J$$$$$$15$9
  6
CONTINUOUS
 62
           6
100
AcDbCircle
 10
9454.525014999999
 20
-15697.565767
 30
0.0
 40
1.0
100
AcDbArc
 50
270.0
 51
360.0
  0
CIRCLE
  5
142
102
{ACAD_XDICTIONARY
360
4F4B000000000000
102
}
100
AcDbEntity
  8
$$$$$$
  6
CONTINUOUS
 62
           6
100
AcDbCircle
 10
9070.42503
 20
-15381.885770999999
 30
0.0
 40
4.0
  0
CIRCLE
  5
143
102
{ACAD_XDICTIONARY
360
4F4B000000000000
102
}
100
AcDbEntity
  8
$$$$$$
  6
CONTINUOUS
 62
           6
100
AcDbCircle
 10
9070.42504
 20
-15693.885781000001
 30
0.0
 40
4.0
  0
ARC
  5
144
102
{ACAD_XDICTIONARY
360
4F4B000000000000
102
}
100
AcDbEntity
  8
$_$X$$$$$$$N$X
  6
CONTINUOUS
 62
           4
100
AcDbCircle
 10
9432.475037
 20
-15320.565774999999
 30
0.0
 40
10.0
100
AcDbArc
 50
65.795236
 51
90.0
  0
LINE
  5
145
102
{ACAD_XDICTIONARY
360
4F4B000000000000
102
}
100
AcDbEntity
  8
$_$X$$$$$$$N$X
  6
CONTINUOUS
 62
           4
100
AcDbLine
 10
9426.652260000001
 20
-15341.565769999999
 30
0.0
 11
9426.551
 21
-15345.565769999999
 31
0.0
  0
LINE
  5
146
102
{ACAD_XDICTIONARY
360
4F4B000000000000
102
}
100
AcDbEntity
  8
$_$X$$$$$$$N$X
  6
CONTINUOUS
 62
           4
100
AcDbLine
 10
9426.29783
 20
-15355.565769999999
 30
0.0
 11
9416.475039999999
 21
-15743.565769999999
 31
0.0
  0
LINE
  5
147
102
{ACAD_XDICTIONARY
360
4F4B000000000000
102
}
100
AcDbEntity
  8
$$15$9
  6
CONTINUOUS
 62
           3
100
AcDbLine
 10
9436.575025
 20
-15303.86183
 30
0.0
 11
9436.575025
 21
-15376.565771
 31
0.0
  0
LINE
  5
148
102
{ACAD_XDICTIONARY
360
4F4B000000000000
102
}
100
AcDbEntity
  8
$$15$9
  6
CONTINUOUS
 62
           3
100
AcDbLine
 10
9452.47503
 20
-15303.861822000001
 30
0.0
 11
9452.47503
 21
-15376.565771
 31
0.0
  0
LINE
  5
149
102
{ACAD_XDICTIONARY
360
4F4B000000000000
102
}
100
AcDbEntity
  8
$$15$9
  6
CONTINUOUS
 62
           3
100
AcDbLine
 10
9436.575025
 20
-15406.565771
 30
0.0
 11
9436.575025
 21
-15668.565771
 31
0.0
  0
LINE
  5
14A
102
{ACAD_XDICTIONARY
360
4F4B000000000000
102
}
100
AcDbEntity
  8
$$15$9
  6
CONTINUOUS
 62
           3
100
AcDbLine
 10
9436.575025
 20
-15698.565771
 30
0.0
 11
9436.575025
 21
-15771.565748000001
 31
0.0
  0
LINE
  5
14B
102
{ACAD_XDICTIONARY
360
4F4B000000000000
102
}
100
AcDbEntity
  8
$$15$9
  6
CONTINUOUS
 62
           3
100
AcDbLine
 10
9452.47503
 20
-15406.565771
 30
0.0
 11
9452.47503
 21
-15668.565771
 31
0.0
  0
LINE
  5
14C
102
{ACAD_XDICTIONARY
360
4F4B000000000000
102
}
100
AcDbEntity
  8
$$15$9
  6
CONTINUOUS
 62
           3
100
AcDbLine
 10
9452.47503
 20
-15698.565771
 30
0.0
 11
9452.47503
 21
-15771.565739
 31
0.0
  0
LINE
  5
14D
102
{ACAD_XDICTIONARY
360
4F4B000000000000
102
}
100
AcDbEntity
  8
$_$X$$$$$$$N$X
  6
CONTINUOUS
 62
           4
100
AcDbLine
 10
9090.29782
 20
-15341.565769999999
 30
0.0
 11
9090.399090000001
 21
-15345.565769999999
 31
0.0
  0
LINE
  5
14E
102
{ACAD_XDICTIONARY
360
4F4B000000000000
102
}
100
AcDbEntity
  8
$_$X$$$$$$$N$X
  6
CONTINUOUS
 62
           4
100
AcDbLine
 10
9090.652249999999
 20
-15355.565769999999
 30
0.0
 11
9100.475039999999
 21
-15743.565769999999
 31
0.0
  0
LINE
  5
14F
102
{ACAD_XDICTIONARY
360
4F4B000000000000
102
}
100
AcDbEntity
  8
$_$X$$$$$$$N$X
  6
CONTINUOUS
 62
           4
100
AcDbLine
 10
9080.67503
 20
-15310.565769999999
 30
0.0
 11
9432.475039999999
 21
-15310.565769999999
 31
0.0
  0
ARC
  5
150
102
{ACAD_XDICTIONARY
360
4F4B000000000000
102
}
100
AcDbEntity
  8
$_$X$$$$$$$N$X
  6
CONTINUOUS
 62
           4
100
AcDbCircle
 10
9084.475039999999
 20
-15320.565768
 30
0.0
 40
10.0
100
AcDbArc
 50
90.0
 51
112.333761
  0
LINE
  5
151
102
{ACAD_XDICTIONARY
360
4F4B000000000000
102
}
100
AcDbEntity
  8
$_$X$$$$$$$N$X
  6
CONTINUOUS
 62
           4
100
AcDbLine
 10
9080.67503
 20
-15336.565769999999
 30
0.0
 11
9436.57503
 21
-15336.565769999999
 31
0.0
  0
LINE
  5
152
102
{ACAD_XDICTIONARY
360
4F4B000000000000
102
}
100
AcDbEntity
  8
$_$X$$$$$$$N$X
  6
CONTINUOUS
 62
           4
100
AcDbLine
 10
9080.67503
 20
-15341.565769999999
 30
0.0
 11
9436.57503
 21
-15341.565769999999
 31
0.0
  0
LINE
  5
153
102
{ACAD_XDICTIONARY
360
4F4B000000000000
102
}
100
AcDbEntity
  8
1
  6
CONTINUOUS
 62
           7
100
AcDbLine
 10
8628.085660000001
 20
-15800.565769999999
 30
0.0
 11
8655.38566
 21
-15800.565769999999
 31
0.0
  0
ARC
  5
154
102
{ACAD_XDICTIONARY
360
4F4B000000000000
102
}
100
AcDbEntity
  8
1
  6
CONTINUOUS
 62
           7
100
AcDbCircle
 10
8628.085676999999
 20
-15797.565774999999
 30
0.0
 40
3.0
100
AcDbArc
 50
180.0
 51
270.0
  0
ARC
  5
155
102
{ACAD_XDICTIONARY
360
4F4B000000000000
102
}
100
AcDbEntity
  8
1
  6
CONTINUOUS
 62
           7
100
AcDbCircle
 10
8655.385677
 20
-15797.565774999999
 30
0.0
 40
3.0
100
AcDbArc
 50
270.0
 51
360.0
  0
LINE
  5
156
102
{ACAD_XDICTIONARY
360
4F4B000000000000
102
}
100
AcDbEntity
  8
1
  6
CONTINUOUS
 62
           7
100
AcDbLine
 10
8624.98566
 20
-15814.065769999999
 30
0.0
 11
8634.98566
 21
-15814.065769999999
 31
0.0
  0
LINE
  5
157
102
{ACAD_XDICTIONARY
360
4F4B000000000000
102
}
100
AcDbEntity
  8
1
  6
CONTINUOUS
 62
           7
100
AcDbLine
 10
8648.48566
 20
-15814.065769999999
 30
0.0
 11
8658.48566
 21
-15814.065769999999
 31
0.0
  0
LINE
  5
158
102
{ACAD_XDICTIONARY
360
4F4B000000000000
102
}
100
AcDbEntity
  8
1
  6
CONTINUOUS
 62
           7
100
AcDbLine
 10
8634.98566
 20
-15800.565769999999
 30
0.0
 11
8634.98566
 21
-15814.065769999999
 31
0.0
  0
LINE
  5
159
102
{ACAD_XDICTIONARY
360
4F4B000000000000
102
}
100
AcDbEntity
  8
1
  6
CONTINUOUS
 62
           7
100
AcDbLine
 10
8648.48566
 20
-15800.565769999999
 30
0.0
 11
8648.48566
 21
-15814.065769999999
 31
0.0
  0
ARC
  5
15A
102
{ACAD_XDICTIONARY
360
4F4B000000000000
102
}
100
AcDbEntity
  8
1
  6
CONTINUOUS
 62
           7
100
AcDbCircle
 10
8686.447216000001
 20
-15793.815774999999
 30
0.0
 40
64.711538
100
AcDbArc
 50
161.764275
 51
198.235725
  0
ARC
  5
15B
102
{ACAD_XDICTIONARY
360
4F4B000000000000
102
}
100
AcDbEntity
  8
1
  6
CONTINUOUS
 62
           7
100
AcDbCircle
 10
8597.024138999999
 20
-15793.815774999999
 30
0.0
 40
64.711538
100
AcDbArc
 50
341.764275
 51
18.235725
  0
LINE
  5
15C
102
{ACAD_XDICTIONARY
360
4F4B000000000000
102
}
100
AcDbEntity
  8
$$15$9
  6
CONTINUOUS
 62
           3
100
AcDbLine
 10
8454.235667000001
 20
-15264.065782
 30
0.0
 11
8632.336858000001
 21
-15264.065783
 31
0.0
  0
LINE
  5
15D
102
{ACAD_XDICTIONARY
360
4F4B000000000000
102
}
100
AcDbEntity
  8
$$15$9
  6
CONTINUOUS
 62
           3
100
AcDbLine
 10
8454.235667000001
 20
-15279.965781999999
 30
0.0
 11
8632.336674
 21
-15279.965783
 31
0.0
  0
LINE
  5
15E
102
{ACAD_XDICTIONARY
360
4F4B000000000000
102
}
100
AcDbEntity
  8
1
  6
CONTINUOUS
 62
           7
100
AcDbLine
 10
8624.985667000001
 20
-15772.540756
 30
0.0
 11
8624.985667000001
 21
-15814.065784
 31
0.0
  0
LINE
  5
15F
102
{ACAD_XDICTIONARY
360
4F4B000000000000
102
}
100
AcDbEntity
  8
1
  6
CONTINUOUS
 62
           7
100
AcDbLine
 10
8658.485667000001
 20
-15772.540756
 30
0.0
 11
8658.485667000001
 21
-15814.065784
 31
0.0
  0
LINE
  5
160
102
{ACAD_XDICTIONARY
360
4F4B000000000000
102
}
100
AcDbEntity
  8
$$15$9
  6
CONTINUOUS
 62
           3
100
AcDbLine
 10
8454.235665
 20
-15279.965781999999
 30
0.0
 11
8041.13567
 21
-15279.965778
 31
0.0
  0
ELLIPSE
  5
161
102
{ACAD_XDICTIONARY
360
4F4B000000000000
102
}
100
AcDbEntity
  8
$_$X$$$$$$$N$X
  6
CONTINUOUS
 62
           4
100
AcDbEllipse
 10
3919.035727
 20
-14858.651457
 30
0.0
 11
0.0000000000002651
 21
4329.6086036008282
 31
0.0
210
0.0
220
0.0
230
1.0
 40
0.993034
 41
4.6792248641960787
 42
4.7455530965733006
  0
ELLIPSE
  5
162
102
{ACAD_XDICTIONARY
360
4F4B000000000000
102
}
100
AcDbEntity
  8
$_$X$$$$$$$N$X
  6
CONTINUOUS
 62
           4
100
AcDbEllipse
 10
8102.485703
 20
-16231.651394
 30
0.0
 11
-1567.367945427857
 21
0.0000000000001919
 31
0.0
210
0.0
220
0.0
230
1.0
 40
0.993385
 41
4.6641449285706402
 42
4.7606330321987409
  0
ELLIPSE
  5
163
102
{ACAD_XDICTIONARY
360
4F4B000000000000
102
}
100
AcDbEntity
  8
$_$X$$$$$$$N$X
  6
CONTINUOUS
 62
           4
100
AcDbEllipse
 10
12285.935663
 20
-14858.651494
 30
0.0
 11
0.0000000000002651
 21
4329.6086036008282
 31
0.0
210
0.0
220
0.0
230
1.0
 40
0.993034
 41
1.5376322106062859
 42
1.6039604429835075
  0
ARC
  5
164
102
{ACAD_XDICTIONARY
360
4F4B000000000000
102
}
100
AcDbEntity
  8
$_$X$$$$$$$N$X
  6
CONTINUOUS
 62
           4
100
AcDbCircle
 10
8028.827858
 20
-14716.416453
 30
0.0
 40
40.0
100
AcDbArc
 50
92.764181
 51
178.099839
  0
ARC
  5
165
102
{ACAD_XDICTIONARY
360
4F4B000000000000
102
}
100
AcDbEntity
  8
$_$X$$$$$$$N$X
  6
CONTINUOUS
 62
           4
100
AcDbCircle
 10
8176.14354
 20
-14716.416450000001
 30
0.0
 40
40.0
100
AcDbArc
 50
1.900161
 51
87.235819
  0
ELLIPSE
  5
166
102
{ACAD_XDICTIONARY
360
4F4B000000000000
102
}
100
AcDbEntity
  8
$_$X$$$$$$$N$X
  6
CONTINUOUS
 62
           4
100
AcDbEllipse
 10
8102.4857
 20
-16231.651388
 30
0.0
 11
-1541.3679457568815
 21
0.0000000000001888
 31
0.0
210
0.0
220
0.0
230
1.0
 40
0.993274
 41
4.6641449285706402
 42
4.7606330321987409
  0
ELLIPSE
  5
167
102
{ACAD_XDICTIONARY
360
4F4B000000000000
102
}
100
AcDbEntity
  8
$_$X$$$$$$$N$X
  6
CONTINUOUS
 62
           4
100
AcDbEllipse
 10
12285.939842
 20
-14858.651454999999
 30
0.0
 11
-0.0000000000007905
 21
-4303.608732741146
 31
0.0
210
0.0
220
0.0
230
1.0
 40
0.992993
 41
4.6792248641960787
 42
4.7123889803846897
  0
ELLIPSE
  5
168
102
{ACAD_XDICTIONARY
360
4F4B000000000000
102
}
100
AcDbEntity
  8
$_$X$$$$$$$N$X
  6
CONTINUOUS
 62
           4
100
AcDbEllipse
 10
3919.039922
 20
-14858.651465999999
 30
0.0
 11
-0.0000000000007905
 21
-4303.6087327691812
 31
0.0
210
0.0
220
0.0
230
1.0
 40
0.992991
 41
1.5707963267948968
 42
1.6039604429835075
  0
ARC
  5
169
102
{ACAD_XDICTIONARY
360
4F4B000000000000
102
}
100
AcDbEntity
  8
$_$X$$$$$$$N$X
  6
CONTINUOUS
 62
           4
100
AcDbCircle
 10
8028.827856
 20
-14716.416456999999
 30
0.0
 40
14.000013
100
AcDbArc
 50
92.764181
 51
178.099839
  0
ARC
  5
16A
102
{ACAD_XDICTIONARY
360
4F4B000000000000
102
}
100
AcDbEntity
  8
$_$X$$$$$$$N$X
  6
CONTINUOUS
 62
           4
100
AcDbCircle
 10
8176.14354
 20
-14716.416448
 30
0.0
 40
14.000003
100
AcDbArc
 50
1.900164
 51
87.235822
  0
ELLIPSE
  5
16B
102
{ACAD_XDICTIONARY
360
4F4B000000000000
102
}
100
AcDbEntity
  8
$_$X$$$$$$$N$X
  6
CONTINUOUS
 62
           4
100
AcDbEllipse
 10
8102.485706
 20
-16231.651390999999
 30
0.0
 11
-1543.3679486772082
 21
0.000000000000189
 31
0.0
210
0.0
220
0.0
230
1.0
 40
0.993282
 41
4.6641449285706402
 42
4.7606330321987409
  0
ELLIPSE
  5
16C
102
{ACAD_XDICTIONARY
360
4F4B000000000000
102
}
100
AcDbEntity
  8
$_$X$$$$$$$N$X
  6
CONTINUOUS
 62
           4
100
AcDbEllipse
 10
12285.939838
 20
-14858.651453
 30
0.0
 11
-0.0000000000007909
 21
-4305.6087278293198
 31
0.0
210
0.0
220
0.0
230
1.0
 40
0.992996
 41
4.6792248641960787
 42
4.7123889803846897
  0
ELLIPSE
  5
16D
102
{ACAD_XDICTIONARY
360
4F4B000000000000
102
}
100
AcDbEntity
  8
$_$X$$$$$$$N$X
  6
CONTINUOUS
 62
           4
100
AcDbEllipse
 10
3919.039924
 20
-14858.651468
 30
0.0
 11
-0.0000000000007909
 21
-4305.6087288890712
 31
0.0
210
0.0
220
0.0
230
1.0
 40
0.992995
 41
1.5707963267948968
 42
1.6039604429835075
  0
ARC
  5
16E
102
{ACAD_XDICTIONARY
360
4F4B000000000000
102
}
100
AcDbEntity
  8
$_$X$$$$$$$N$X
  6
CONTINUOUS
 62
           4
100
AcDbCircle
 10
8028.827851
 20
-14716.416454
 30
0.0
 40
16.000008
100
AcDbArc
 50
92.764181
 51
178.099839
  0
ARC
  5
16F
102
{ACAD_XDICTIONARY
360
4F4B000000000000
102
}
100
AcDbEntity
  8
$_$X$$$$$$$N$X
  6
CONTINUOUS
 62
           4
100
AcDbCircle
 10
8176.143537
 20
-14716.416456000001
 30
0.0
 40
16.000004
100
AcDbArc
 50
1.900164
 51
87.235822
  0
ELLIPSE
  5
170
102
{ACAD_XDICTIONARY
360
4F4B000000000000
102
}
100
AcDbEntity
  8
$_$X$$$$$$$N$X
  6
CONTINUOUS
 62
           4
100
AcDbEllipse
 10
8102.485703
 20
-13485.651513000001
 30
0.0
 11
-1541.3679457568815
 21
0.0000000000001888
 31
0.0
210
0.0
220
0.0
230
1.0
 40
0.993274
 41
1.5225522749808462
 42
1.6190403786089471
  0
ELLIPSE
  5
171
102
{ACAD_XDICTIONARY
360
4F4B000000000000
102
}
100
AcDbEntity
  8
$_$X$$$$$$$N$X
  6
CONTINUOUS
 62
           4
100
AcDbEllipse
 10
12285.941177999999
 20
-14858.651448000001
 30
0.0
 11
0.0000000000002635
 21
4303.6084666868246
 31
0.0
210
0.0
220
0.0
230
1.0
 40
0.992994
 41
1.5707963267948968
 42
1.6039604429835075
  0
ELLIPSE
  5
172
102
{ACAD_XDICTIONARY
360
4F4B000000000000
102
}
100
AcDbEntity
  8
$_$X$$$$$$$N$X
  6
CONTINUOUS
 62
           4
100
AcDbEllipse
 10
3919.041248
 20
-14858.651460999999
 30
0.0
 11
0.0000000000002635
 21
4303.6084667148598
 31
0.0
210
0.0
220
0.0
230
1.0
 40
0.992991
 41
4.6792248641960787
 42
4.7123889803846897
  0
ARC
  5
173
102
{ACAD_XDICTIONARY
360
4F4B000000000000
102
}
100
AcDbEntity
  8
$_$X$$$$$$$N$X
  6
CONTINUOUS
 62
           4
100
AcDbCircle
 10
8028.827868
 20
-15000.886447000001
 30
0.0
 40
14.000013
100
AcDbArc
 50
181.900161
 51
267.235819
  0
ARC
  5
174
102
{ACAD_XDICTIONARY
360
4F4B000000000000
102
}
100
AcDbEntity
  8
$_$X$$$$$$$N$X
  6
CONTINUOUS
 62
           4
100
AcDbCircle
 10
8176.14354
 20
-15000.886458000001
 30
0.0
 40
14.000003
100
AcDbArc
 50
272.764178
 51
358.099836
  0
ELLIPSE
  5
175
102
{ACAD_XDICTIONARY
360
4F4B000000000000
102
}
100
AcDbEntity
  8
$_$X$$$$$$$N$X
  6
CONTINUOUS
 62
           4
100
AcDbEllipse
 10
12285.941176
 20
-14858.651448000001
 30
0.0
 11
0.0000000000002636
 21
4305.6084617749984
 31
0.0
210
0.0
220
0.0
230
1.0
 40
0.992997
 41
1.5707963267948968
 42
1.6039604429835075
  0
ELLIPSE
  5
176
102
{ACAD_XDICTIONARY
360
4F4B000000000000
102
}
100
AcDbEntity
  8
$_$X$$$$$$$N$X
  6
CONTINUOUS
 62
           4
100
AcDbEllipse
 10
3919.017242
 20
-14859.382145
 30
0.0
 11
0.0000000000002636
 21
4305.6084628347498
 31
0.0
210
0.0
220
0.0
230
1.0
 40
0.992994
 41
4.6792248641960787
 42
4.7123889803846897
  0
ARC
  5
177
102
{ACAD_XDICTIONARY
360
4F4B000000000000
102
}
100
AcDbEntity
  8
$_$X$$$$$$$N$X
  6
CONTINUOUS
 62
           4
100
AcDbCircle
 10
8028.827867
 20
-15000.886441000001
 30
0.0
 40
16.000008
100
AcDbArc
 50
181.900161
 51
267.235819
  0
ARC
  5
178
102
{ACAD_XDICTIONARY
360
4F4B000000000000
102
}
100
AcDbEntity
  8
$_$X$$$$$$$N$X
  6
CONTINUOUS
 62
           4
100
AcDbCircle
 10
8176.14354
 20
-15000.886458000001
 30
0.0
 40
16.000004
100
AcDbArc
 50
272.764178
 51
358.099836
  0
LINE
  5
179
102
{ACAD_XDICTIONARY
360
4F4B000000000000
102
}
100
AcDbEntity
  8
$_$X$$$$$$$N$X
  6
CONTINUOUS
 62
           4
100
AcDbLine
 10
8063.9857
 20
-15018.16797
 30
0.0
 11
8063.9857
 21
-15036.65149
 31
0.0
  0
LINE
  5
17A
102
{ACAD_XDICTIONARY
360
4F4B000000000000
102
}
100
AcDbEntity
  8
$_$X$$$$$$$N$X
  6
CONTINUOUS
 62
           4
100
AcDbLine
 10
8140.9857
 20
-15018.16797
 30
0.0
 11
8140.9857
 21
-15036.65149
 31
0.0
  0
LINE
  5
17B
102
{ACAD_XDICTIONARY
360
4F4B000000000000
102
}
100
AcDbEntity
  8
$_$X$$$$$$$N$X
  6
CONTINUOUS
 62
           2
100
AcDbLine
 10
8140.90178
 20
-15037.65149
 30
0.0
 11
8064.06962
 21
-15037.65149
 31
0.0
  0
LINE
  5
17C
102
{ACAD_XDICTIONARY
360
4F4B000000000000
102
}
100
AcDbEntity
  8
$_$X$$$$$$$N$X
  6
CONTINUOUS
 62
           2
100
AcDbLine
 10
8140.9857
 20
-15027.65149
 30
0.0
 11
8063.9857
 21
-15027.65149
 31
0.0
  0
ELLIPSE
  5
17D
102
{ACAD_XDICTIONARY
360
4F4B000000000000
102
}
100
AcDbEntity
  8
$_$X$$$$$$$N$X
  6
CONTINUOUS
 62
           4
100
AcDbEllipse
 10
8103.091454
 20
-13485.647704000001
 30
0.0
 11
-1555.9288076932617
 21
0.0000000000001905
 31
0.0
210
0.0
220
0.0
230
1.0
 40
0.985266
 41
1.5225522749808462
 42
1.544374465988108
  0
ARC
  5
17E
102
{ACAD_XDICTIONARY
360
4F4B000000000000
102
}
100
AcDbEntity
  8
$_$X$$$$$$$N$X
  6
CONTINUOUS
 62
           4
100
AcDbCircle
 10
8102.485703
 20
-13485.651513000001
 30
0.0
 40
1533.000003
100
AcDbArc
 50
268.560914
 51
271.439086
  0
ELLIPSE
  5
17F
102
{ACAD_XDICTIONARY
360
4F4B000000000000
102
}
100
AcDbEntity
  8
$_$X$$$$$$$N$X
  6
CONTINUOUS
 62
           4
100
AcDbEllipse
 10
8101.879953
 20
-13485.654052
 30
0.0
 11
-1555.9287621789942
 21
0.0000000000001905
 31
0.0
210
0.0
220
0.0
230
1.0
 40
0.985262
 41
1.5972181876016853
 42
1.6190403786089471
  0
TEXT
  5
181
102
{ACAD_XDICTIONARY
360
4F4B000000000000
102
}
100
AcDbEntity
  8
$_$X$$$$$$$N$X
  6
CONTINUOUS
 62
           4
100
AcDbText
 10
8091.475728165
 20
-15036.08381
 30
0.0
 40
7.0
  1
PUSH
 41
0.857143
  7
txt
 72
           4
 11
8102.48573
 21
-15032.58381
 31
0.0
100
AcDbText
  0
LINE
  5
182
102
{ACAD_XDICTIONARY
360
4F4B000000000000
102
}
100
AcDbEntity
  8
$_$X$$$$$$$N$X
  6
CONTINUOUS
 62
           2
100
AcDbLine
 10
8140.9857
 20
-15029.65149
 30
0.0
 11
8116.4857
 21
-15029.65149
 31
0.0
  0
LINE
  5
183
102
{ACAD_XDICTIONARY
360
4F4B000000000000
102
}
100
AcDbEntity
  8
$_$X$$$$$$$N$X
  6
CONTINUOUS
 62
           2
100
AcDbLine
 10
8088.4857
 20
-15029.65149
 30
0.0
 11
8063.9857
 21
-15029.65149
 31
0.0
  0
LINE
  5
184
102
{ACAD_XDICTIONARY
360
4F4B000000000000
102
}
100
AcDbEntity
  8
$_$X$$$$$$$N$X
  6
CONTINUOUS
 62
           2
100
AcDbLine
 10
8140.9857
 20
-15031.65149
 30
0.0
 11
8116.4857
 21
-15031.65149
 31
0.0
  0
LINE
  5
185
102
{ACAD_XDICTIONARY
360
4F4B000000000000
102
}
100
AcDbEntity
  8
$_$X$$$$$$$N$X
  6
CONTINUOUS
 62
           2
100
AcDbLine
 10
8088.4857
 20
-15031.65149
 30
0.0
 11
8063.9857
 21
-15031.65149
 31
0.0
  0
LINE
  5
186
102
{ACAD_XDICTIONARY
360
4F4B000000000000
102
}
100
AcDbEntity
  8
$_$X$$$$$$$N$X
  6
CONTINUOUS
 62
           2
100
AcDbLine
 10
8140.9857
 20
-15033.65149
 30
0.0
 11
8116.4857
 21
-15033.65149
 31
0.0
  0
LINE
  5
187
102
{ACAD_XDICTIONARY
360
4F4B000000000000
102
}
100
AcDbEntity
  8
$_$X$$$$$$$N$X
  6
CONTINUOUS
 62
           2
100
AcDbLine
 10
8088.4857
 20
-15033.65149
 30
0.0
 11
8063.9857
 21
-15033.65149
 31
0.0
  0
LINE
  5
188
102
{ACAD_XDICTIONARY
360
4F4B000000000000
102
}
100
AcDbEntity
  8
$_$X$$$$$$$N$X
  6
CONTINUOUS
 62
           2
100
AcDbLine
 10
8140.9857
 20
-15035.65149
 30
0.0
 11
8116.4857
 21
-15035.65149
 31
0.0
  0
LINE
  5
189
102
{ACAD_XDICTIONARY
360
4F4B000000000000
102
}
100
AcDbEntity
  8
$_$X$$$$$$$N$X
  6
CONTINUOUS
 62
           2
100
AcDbLine
 10
8088.4857
 20
-15035.65149
 30
0.0
 11
8063.9857
 21
-15035.65149
 31
0.0
  0
LINE
  5
18A
102
{ACAD_XDICTIONARY
360
4F4B000000000000
102
}
100
AcDbEntity
  8
$_$X$$$$$$$N$X
  6
CONTINUOUS
 62
           2
100
AcDbLine
 10
8088.4857
 20
-15029.65149
 30
0.0
 11
8088.4857
 21
-15031.65149
 31
0.0
  0
LINE
  5
18B
102
{ACAD_XDICTIONARY
360
4F4B000000000000
102
}
100
AcDbEntity
  8
$_$X$$$$$$$N$X
  6
CONTINUOUS
 62
           2
100
AcDbLine
 10
8088.4857
 20
-15033.65149
 30
0.0
 11
8088.4857
 21
-15035.65149
 31
0.0
  0
LINE
  5
18C
102
{ACAD_XDICTIONARY
360
4F4B000000000000
102
}
100
AcDbEntity
  8
$_$X$$$$$$$N$X
  6
CONTINUOUS
 62
           2
100
AcDbLine
 10
8116.4857
 20
-15029.65149
 30
0.0
 11
8116.4857
 21
-15031.65149
 31
0.0
  0
LINE
  5
18D
102
{ACAD_XDICTIONARY
360
4F4B000000000000
102
}
100
AcDbEntity
  8
$_$X$$$$$$$N$X
  6
CONTINUOUS
 62
           2
100
AcDbLine
 10
8116.4857
 20
-15033.65149
 30
0.0
 11
8116.4857
 21
-15035.65149
 31
0.0
  0
ELLIPSE
  5
18E
102
{ACAD_XDICTIONARY
360
4F4B000000000000
102
}
100
AcDbEntity
  8
$_$X$$$$$$$N$X
  6
CONTINUOUS
 62
           4
100
AcDbEllipse
 10
12754.435635
 20
-14858.651429
 30
0.0
 11
0.0000000000002651
 21
4329.6086036008282
 31
0.0
210
0.0
220
0.0
230
1.0
 40
0.993034
 41
1.5376322106062859
 42
1.6039604429835075
  0
ELLIPSE
  5
18F
102
{ACAD_XDICTIONARY
360
4F4B000000000000
102
}
100
AcDbEntity
  8
$_$X$$$$$$$N$X
  6
CONTINUOUS
 62
           4
100
AcDbEllipse
 10
8570.985656000001
 20
-16231.651379999999
 30
0.0
 11
1567.367945427857
 21
0.0
 31
0.0
210
0.0
220
0.0
230
1.0
 40
0.993385
 41
1.5225522749808462
 42
1.6190403786089471
  0
ELLIPSE
  5
190
102
{ACAD_XDICTIONARY
360
4F4B000000000000
102
}
100
AcDbEntity
  8
$_$X$$$$$$$N$X
  6
CONTINUOUS
 62
           4
100
AcDbEllipse
 10
4387.535677
 20
-14858.651416999999
 30
0.0
 11
0.0000000000002651
 21
4329.6086036008282
 31
0.0
210
0.0
220
0.0
230
1.0
 40
0.993034
 41
4.6792248641960787
 42
4.7455530965733006
  0
ARC
  5
191
102
{ACAD_XDICTIONARY
360
4F4B000000000000
102
}
100
AcDbEntity
  8
$_$X$$$$$$$N$X
  6
CONTINUOUS
 62
           4
100
AcDbCircle
 10
8644.643494
 20
-14716.416434999999
 30
0.0
 40
40.0
100
AcDbArc
 50
1.900161
 51
87.235819
  0
ARC
  5
192
102
{ACAD_XDICTIONARY
360
4F4B000000000000
102
}
100
AcDbEntity
  8
$_$X$$$$$$$N$X
  6
CONTINUOUS
 62
           4
100
AcDbCircle
 10
8497.32782
 20
-14716.416433
 30
0.0
 40
40.0
100
AcDbArc
 50
92.764181
 51
178.099839
  0
ELLIPSE
  5
193
102
{ACAD_XDICTIONARY
360
4F4B000000000000
102
}
100
AcDbEntity
  8
$_$X$$$$$$$N$X
  6
CONTINUOUS
 62
           4
100
AcDbEllipse
 10
8570.985656999999
 20
-16231.651377
 30
0.0
 11
1541.3679457568815
 21
0.0
 31
0.0
210
0.0
220
0.0
230
1.0
 40
0.993274
 41
1.5225522749808462
 42
1.6190403786089471
  0
ELLIPSE
  5
194
102
{ACAD_XDICTIONARY
360
4F4B000000000000
102
}
100
AcDbEntity
  8
$_$X$$$$$$$N$X
  6
CONTINUOUS
 62
           4
100
AcDbEllipse
 10
4387.53149
 20
-14858.651421
 30
0.0
 11
-0.0000000000007905
 21
-4303.608732741146
 31
0.0
210
0.0
220
0.0
230
1.0
 40
0.992993
 41
1.5707963267948968
 42
1.6039604429835075
  0
ELLIPSE
  5
195
102
{ACAD_XDICTIONARY
360
4F4B000000000000
102
}
100
AcDbEntity
  8
$_$X$$$$$$$N$X
  6
CONTINUOUS
 62
           4
100
AcDbEllipse
 10
12754.431436999999
 20
-14858.651433999999
 30
0.0
 11
-0.0000000000007905
 21
-4303.6087327691812
 31
0.0
210
0.0
220
0.0
230
1.0
 40
0.992991
 41
4.6792248641960787
 42
4.7123889803846897
  0
ARC
  5
196
102
{ACAD_XDICTIONARY
360
4F4B000000000000
102
}
100
AcDbEntity
  8
$_$X$$$$$$$N$X
  6
CONTINUOUS
 62
           4
100
AcDbCircle
 10
8644.643491999999
 20
-14716.416434000001
 30
0.0
 40
14.000013
100
AcDbArc
 50
1.900161
 51
87.235819
  0
ARC
  5
197
102
{ACAD_XDICTIONARY
360
4F4B000000000000
102
}
100
AcDbEntity
  8
$_$X$$$$$$$N$X
  6
CONTINUOUS
 62
           4
100
AcDbCircle
 10
8497.327813
 20
-14716.416434999999
 30
0.0
 40
14.000003
100
AcDbArc
 50
92.764178
 51
178.099836
  0
ELLIPSE
  5
198
102
{ACAD_XDICTIONARY
360
4F4B000000000000
102
}
100
AcDbEntity
  8
$_$X$$$$$$$N$X
  6
CONTINUOUS
 62
           4
100
AcDbEllipse
 10
8570.985654
 20
-16231.651381
 30
0.0
 11
1543.3679486772082
 21
0.0
 31
0.0
210
0.0
220
0.0
230
1.0
 40
0.993282
 41
1.5225522749808462
 42
1.6190403786089471
  0
ELLIPSE
  5
199
102
{ACAD_XDICTIONARY
360
4F4B000000000000
102
}
100
AcDbEntity
  8
$_$X$$$$$$$N$X
  6
CONTINUOUS
 62
           4
100
AcDbEllipse
 10
4387.531485
 20
-14858.651422000001
 30
0.0
 11
-0.0000000000007909
 21
-4305.6087278293198
 31
0.0
210
0.0
220
0.0
230
1.0
 40
0.992996
 41
1.5707963267948968
 42
1.6039604429835075
  0
ELLIPSE
  5
19A
102
{ACAD_XDICTIONARY
360
4F4B000000000000
102
}
100
AcDbEntity
  8
$_$X$$$$$$$N$X
  6
CONTINUOUS
 62
           4
100
AcDbEllipse
 10
12754.431439
 20
-14858.651431
 30
0.0
 11
-0.0000000000007909
 21
-4305.6087288890712
 31
0.0
210
0.0
220
0.0
230
1.0
 40
0.992995
 41
4.6792248641960787
 42
4.7123889803846897
  0
ARC
  5
19B
102
{ACAD_XDICTIONARY
360
4F4B000000000000
102
}
100
AcDbEntity
  8
$_$X$$$$$$$N$X
  6
CONTINUOUS
 62
           4
100
AcDbCircle
 10
8644.643493
 20
-14716.416429999999
 30
0.0
 40
16.000008
100
AcDbArc
 50
1.900161
 51
87.235819
  0
ARC
  5
19C
102
{ACAD_XDICTIONARY
360
4F4B000000000000
102
}
100
AcDbEntity
  8
$_$X$$$$$$$N$X
  6
CONTINUOUS
 62
           4
100
AcDbCircle
 10
8497.327814
 20
-14716.416436
 30
0.0
 40
16.000004
100
AcDbArc
 50
92.764178
 51
178.099836
  0
ELLIPSE
  5
19D
102
{ACAD_XDICTIONARY
360
4F4B000000000000
102
}
100
AcDbEntity
  8
$_$X$$$$$$$N$X
  6
CONTINUOUS
 62
           4
100
AcDbEllipse
 10
8570.985634999999
 20
-13485.651486999999
 30
0.0
 11
1541.3679457568815
 21
0.0
 31
0.0
210
0.0
220
0.0
230
1.0
 40
0.993274
 41
4.6641449285706402
 42
4.7606330321987409
  0
ELLIPSE
  5
19E
102
{ACAD_XDICTIONARY
360
4F4B000000000000
102
}
100
AcDbEntity
  8
$_$X$$$$$$$N$X
  6
CONTINUOUS
 62
           4
100
AcDbEllipse
 10
12754.430109000001
 20
-14858.651431
 30
0.0
 11
0.0000000000002635
 21
4303.6084667148598
 31
0.0
210
0.0
220
0.0
230
1.0
 40
0.992991
 41
1.5707963267948968
 42
1.6039604429835075
  0
ARC
  5
19F
102
{ACAD_XDICTIONARY
360
4F4B000000000000
102
}
100
AcDbEntity
  8
$_$X$$$$$$$N$X
  6
CONTINUOUS
 62
           4
100
AcDbCircle
 10
8644.643473
 20
-15000.886418
 30
0.0
 40
14.000013
100
AcDbArc
 50
272.764181
 51
358.099839
  0
ARC
  5
1A0
102
{ACAD_XDICTIONARY
360
4F4B000000000000
102
}
100
AcDbEntity
  8
$_$X$$$$$$$N$X
  6
CONTINUOUS
 62
           4
100
AcDbCircle
 10
8497.327816999999
 20
-15000.886433
 30
0.0
 40
14.000003
100
AcDbArc
 50
181.900164
 51
267.235822
  0
ELLIPSE
  5
1A1
102
{ACAD_XDICTIONARY
360
4F4B000000000000
102
}
100
AcDbEntity
  8
$_$X$$$$$$$N$X
  6
CONTINUOUS
 62
           4
100
AcDbEllipse
 10
4387.530159
 20
-14858.651421
 30
0.0
 11
0.0000000000002635
 21
4303.6084646325453
 31
0.0
210
0.0
220
0.0
230
1.0
 40
0.992994
 41
4.6792248641960787
 42
4.7123889803846897
  0
ELLIPSE
  5
1A2
102
{ACAD_XDICTIONARY
360
4F4B000000000000
102
}
100
AcDbEntity
  8
$_$X$$$$$$$N$X
  6
CONTINUOUS
 62
           4
100
AcDbEllipse
 10
4387.530152
 20
-14858.651421
 30
0.0
 11
0.0000000000002636
 21
4305.6084617749984
 31
0.0
210
0.0
220
0.0
230
1.0
 40
0.992997
 41
4.6792248641960787
 42
4.7123889803846897
  0
ELLIPSE
  5
1A3
102
{ACAD_XDICTIONARY
360
4F4B000000000000
102
}
100
AcDbEntity
  8
$_$X$$$$$$$N$X
  6
CONTINUOUS
 62
           4
100
AcDbEllipse
 10
12754.429995
 20
-14857.632452
 30
0.0
 11
0.0000000000002636
 21
4305.6084628347498
 31
0.0
210
0.0
220
0.0
230
1.0
 40
0.992994
 41
1.5707963267948968
 42
1.6039604429835075
  0
ARC
  5
1A4
102
{ACAD_XDICTIONARY
360
4F4B000000000000
102
}
100
AcDbEntity
  8
$_$X$$$$$$$N$X
  6
CONTINUOUS
 62
           4
100
AcDbCircle
 10
8644.643473
 20
-15000.886418
 30
0.0
 40
16.000008
100
AcDbArc
 50
272.764181
 51
358.099839
  0
ARC
  5
1A5
102
{ACAD_XDICTIONARY
360
4F4B000000000000
102
}
100
AcDbEntity
  8
$_$X$$$$$$$N$X
  6
CONTINUOUS
 62
           4
100
AcDbCircle
 10
8497.327816999999
 20
-15000.886433
 30
0.0
 40
16.000004
100
AcDbArc
 50
181.900164
 51
267.235822
  0
LINE
  5
1A6
102
{ACAD_XDICTIONARY
360
4F4B000000000000
102
}
100
AcDbEntity
  8
$_$X$$$$$$$N$X
  6
CONTINUOUS
 62
           4
100
AcDbLine
 10
8609.485629999999
 20
-15018.16797
 30
0.0
 11
8609.485629999999
 21
-15036.65149
 31
0.0
  0
LINE
  5
1A7
102
{ACAD_XDICTIONARY
360
4F4B000000000000
102
}
100
AcDbEntity
  8
$_$X$$$$$$$N$X
  6
CONTINUOUS
 62
           4
100
AcDbLine
 10
8532.485629999999
 20
-15018.16797
 30
0.0
 11
8532.485629999999
 21
-15036.65149
 31
0.0
  0
LINE
  5
1A8
102
{ACAD_XDICTIONARY
360
4F4B000000000000
102
}
100
AcDbEntity
  8
$_$X$$$$$$$N$X
  6
CONTINUOUS
 62
           2
100
AcDbLine
 10
8532.56955
 20
-15037.65149
 30
0.0
 11
8609.40171
 21
-15037.65149
 31
0.0
  0
LINE
  5
1A9
102
{ACAD_XDICTIONARY
360
4F4B000000000000
102
}
100
AcDbEntity
  8
$_$X$$$$$$$N$X
  6
CONTINUOUS
 62
           2
100
AcDbLine
 10
8532.485629999999
 20
-15027.65149
 30
0.0
 11
8609.485629999999
 21
-15027.65149
 31
0.0
  0
ELLIPSE
  5
1AA
102
{ACAD_XDICTIONARY
360
4F4B000000000000
102
}
100
AcDbEntity
  8
$_$X$$$$$$$N$X
  6
CONTINUOUS
 62
           4
100
AcDbEllipse
 10
8570.379884
 20
-13485.647677999999
 30
0.0
 11
1555.9288076932617
 21
0.0
 31
0.0
210
0.0
220
0.0
230
1.0
 40
0.985266
 41
4.7388108411914791
 42
4.7606330321987409
  0
ARC
  5
1AB
102
{ACAD_XDICTIONARY
360
4F4B000000000000
102
}
100
AcDbEntity
  8
$_$X$$$$$$$N$X
  6
CONTINUOUS
 62
           4
100
AcDbCircle
 10
8570.985645000001
 20
-13485.651517
 30
0.0
 40
1533.000003
100
AcDbArc
 50
268.560914
 51
271.439086
  0
ELLIPSE
  5
1AC
102
{ACAD_XDICTIONARY
360
4F4B000000000000
102
}
100
AcDbEntity
  8
$_$X$$$$$$$N$X
  6
CONTINUOUS
 62
           4
100
AcDbEllipse
 10
8571.591385
 20
-13485.654027
 30
0.0
 11
1555.9287621789942
 21
0.0
 31
0.0
210
0.0
220
0.0
230
1.0
 40
0.985262
 41
4.6641449285706393
 42
4.6859671195779011
  0
TEXT
  5
1AD
102
{ACAD_XDICTIONARY
360
4F4B000000000000
102
}
100
AcDbEntity
  8
$_$X$$$$$$$N$X
  6
CONTINUOUS
 62
           4
100
AcDbText
 10
8559.975638165
 20
-15036.08383
 30
0.0
 40
7.0
  1
PUSH
 41
0.857143
  7
txt
 72
           4
 11
8570.985640000001
 21
-15032.58383
 31
0.0
100
AcDbText
  0
LINE
  5
1AE
102
{ACAD_XDICTIONARY
360
4F4B000000000000
102
}
100
AcDbEntity
  8
$_$X$$$$$$$N$X
  6
CONTINUOUS
 62
           2
100
AcDbLine
 10
8532.485629999999
 20
-15029.65149
 30
0.0
 11
8556.985629999999
 21
-15029.65149
 31
0.0
  0
LINE
  5
1AF
102
{ACAD_XDICTIONARY
360
4F4B000000000000
102
}
100
AcDbEntity
  8
$_$X$$$$$$$N$X
  6
CONTINUOUS
 62
           2
100
AcDbLine
 10
8584.985629999999
 20
-15029.65149
 30
0.0
 11
8609.485629999999
 21
-15029.65149
 31
0.0
  0
LINE
  5
1B0
102
{ACAD_XDICTIONARY
360
4F4B000000000000
102
}
100
AcDbEntity
  8
$_$X$$$$$$$N$X
  6
CONTINUOUS
 62
           2
100
AcDbLine
 10
8532.485629999999
 20
-15031.65149
 30
0.0
 11
8556.985629999999
 21
-15031.65149
 31
0.0
  0
LINE
  5
1B1
102
{ACAD_XDICTIONARY
360
4F4B000000000000
102
}
100
AcDbEntity
  8
$_$X$$$$$$$N$X
  6
CONTINUOUS
 62
           2
100
AcDbLine
 10
8584.985629999999
 20
-15031.65149
 30
0.0
 11
8609.485629999999
 21
-15031.65149
 31
0.0
  0
LINE
  5
1B2
102
{ACAD_XDICTIONARY
360
4F4B000000000000
102
}
100
AcDbEntity
  8
$_$X$$$$$$$N$X
  6
CONTINUOUS
 62
           2
100
AcDbLine
 10
8532.485629999999
 20
-15033.65149
 30
0.0
 11
8556.985629999999
 21
-15033.65149
 31
0.0
  0
LINE
  5
1B3
102
{ACAD_XDICTIONARY
360
4F4B000000000000
102
}
100
AcDbEntity
  8
$_$X$$$$$$$N$X
  6
CONTINUOUS
 62
           2
100
AcDbLine
 10
8584.985629999999
 20
-15033.65149
 30
0.0
 11
8609.485629999999
 21
-15033.65149
 31
0.0
  0
LINE
  5
1B4
102
{ACAD_XDICTIONARY
360
4F4B000000000000
102
}
100
AcDbEntity
  8
$_$X$$$$$$$N$X
  6
CONTINUOUS
 62
           2
100
AcDbLine
 10
8532.485629999999
 20
-15035.65149
 30
0.0
 11
8556.985629999999
 21
-15035.65149
 31
0.0
  0
LINE
  5
1B5
102
{ACAD_XDICTIONARY
360
4F4B000000000000
102
}
100
AcDbEntity
  8
$_$X$$$$$$$N$X
  6
CONTINUOUS
 62
           2
100
AcDbLine
 10
8584.985629999999
 20
-15035.65149
 30
0.0
 11
8609.485629999999
 21
-15035.65149
 31
0.0
  0
LINE
  5
1B6
102
{ACAD_XDICTIONARY
360
4F4B000000000000
102
}
100
AcDbEntity
  8
$_$X$$$$$$$N$X
  6
CONTINUOUS
 62
           2
100
AcDbLine
 10
8584.985629999999
 20
-15029.65149
 30
0.0
 11
8584.985629999999
 21
-15031.65149
 31
0.0
  0
LINE
  5
1B7
102
{ACAD_XDICTIONARY
360
4F4B000000000000
102
}
100
AcDbEntity
  8
$_$X$$$$$$$N$X
  6
CONTINUOUS
 62
           2
100
AcDbLine
 10
8584.985629999999
 20
-15033.65149
 30
0.0
 11
8584.985629999999
 21
-15035.65149
 31
0.0
  0
LINE
  5
1B8
102
{ACAD_XDICTIONARY
360
4F4B000000000000
102
}
100
AcDbEntity
  8
$_$X$$$$$$$N$X
  6
CONTINUOUS
 62
           2
100
AcDbLine
 10
8556.985629999999
 20
-15029.65149
 30
0.0
 11
8556.985629999999
 21
-15031.65149
 31
0.0
  0
LINE
  5
1B9
102
{ACAD_XDICTIONARY
360
4F4B000000000000
102
}
100
AcDbEntity
  8
$_$X$$$$$$$N$X
  6
CONTINUOUS
 62
           2
100
AcDbLine
 10
8556.985629999999
 20
-15033.65149
 30
0.0
 11
8556.985629999999
 21
-15035.65149
 31
0.0
  0
ARC
  5
1BA
102
{ACAD_XDICTIONARY
360
4F4B000000000000
102
}
100
AcDbEntity
  8
$$15$9
  6
CONTINUOUS
 62
           3
100
AcDbCircle
 10
8632.335663
 20
-15319.965783
 30
0.0
 40
55.9
100
AcDbArc
 50
16.188428
 51
90.0
  0
ARC
  5
1BB
102
{ACAD_XDICTIONARY
360
4F4B000000000000
102
}
100
AcDbEntity
  8
$$15$9
  6
CONTINUOUS
 62
           3
100
AcDbCircle
 10
8632.335663
 20
-15319.965783
 30
0.0
 40
40.0
100
AcDbArc
 50
22.926313
 51
90.0
  0
LINE
  5
1BC
102
{ACAD_XDICTIONARY
360
4F4B000000000000
102
}
100
AcDbEntity
  8
$$15$9
  6
CONTINUOUS
 62
           3
100
AcDbLine
 10
8670.835666999999
 20
-15771.565774999999
 30
0.0
 11
8686.735667000001
 21
-15771.565774999999
 31
0.0
  0
LINE
  5
1BD
102
{ACAD_XDICTIONARY
360
4F4B000000000000
102
}
100
AcDbEntity
  8
$$$$$$15$9
  6
CONTINUOUS
 62
           6
100
AcDbLine
 10
8670.835660000001
 20
-15771.565759999999
 30
0.0
 11
8686.73566
 21
-15771.565759999999
 31
0.0
  0
LINE
  5
1BE
102
{ACAD_XDICTIONARY
360
4F4B000000000000
102
}
100
AcDbEntity
  8
$$$$$$15$9
  6
CONTINUOUS
 62
           6
100
AcDbLine
 10
8672.835660000001
 20
-15776.565759999999
 30
0.0
 11
8684.73566
 21
-15776.565759999999
 31
0.0
  0
ARC
  5
1BF
102
{ACAD_XDICTIONARY
360
4F4B000000000000
102
}
100
AcDbEntity
  8
$$$$$$15$9
  6
CONTINUOUS
 62
           6
100
AcDbCircle
 10
8672.835664
 20
-15774.565782
 30
0.0
 40
2.0
100
AcDbArc
 50
180.0
 51
270.0
  0
ARC
  5
1C0
102
{ACAD_XDICTIONARY
360
4F4B000000000000
102
}
100
AcDbEntity
  8
$$$$$$15$9
  6
CONTINUOUS
 62
           6
100
AcDbCircle
 10
8684.735664
 20
-15774.565782
 30
0.0
 40
2.0
100
AcDbArc
 50
270.0
 51
0.0
  0
LINE
  5
1C1
102
{ACAD_XDICTIONARY
360
4F4B000000000000
102
}
100
AcDbEntity
  8
$$$$$$15$9
  6
CONTINUOUS
 62
           6
100
AcDbLine
 10
8670.835664
 20
-15771.565782
 30
0.0
 11
8670.835664
 21
-15774.565782
 31
0.0
  0
LINE
  5
1C2
102
{ACAD_XDICTIONARY
360
4F4B000000000000
102
}
100
AcDbEntity
  8
$$$$$$15$9
  6
CONTINUOUS
 62
           6
100
AcDbLine
 10
8686.735664
 20
-15771.565782
 30
0.0
 11
8686.735664
 21
-15774.565782
 31
0.0
  0
LINE
  5
1C3
102
{ACAD_XDICTIONARY
360
4F4B000000000000
102
}
100
AcDbEntity
  8
$$15$9
  6
CONTINUOUS
 62
           3
100
AcDbLine
 10
8670.835664
 20
-15771.390754
 30
0.0
 11
8670.835664
 21
-15771.565774999999
 31
0.0
  0
LINE
  5
1C4
102
{ACAD_XDICTIONARY
360
4F4B000000000000
102
}
100
AcDbEntity
  8
$$15$9
  6
CONTINUOUS
 62
           3
100
AcDbLine
 10
8686.735664
 20
-15771.390755
 30
0.0
 11
8686.735664
 21
-15771.565774999999
 31
0.0
  0
ARC
  5
1C5
102
{ACAD_XDICTIONARY
360
4F4B000000000000
102
}
100
AcDbEntity
  8
$$15$9
  6
CONTINUOUS
 62
           3
100
AcDbCircle
 10
8041.135669
 20
-15319.965783
 30
0.0
 40
55.9
100
AcDbArc
 50
90.0
 51
163.811572
  0
ARC
  5
1C6
102
{ACAD_XDICTIONARY
360
4F4B000000000000
102
}
100
AcDbEntity
  8
$$15$9
  6
CONTINUOUS
 62
           3
100
AcDbCircle
 10
8041.135669
 20
-15319.965783
 30
0.0
 40
40.0
100
AcDbArc
 50
90.0
 51
157.073687
  0
LINE
  5
1C7
102
{ACAD_XDICTIONARY
360
4F4B000000000000
102
}
100
AcDbEntity
  8
$$15$9
  6
CONTINUOUS
 62
           3
100
AcDbLine
 10
8454.235665
 20
-15264.065782
 30
0.0
 11
8041.135669
 21
-15264.065778
 31
0.0
  0
ARC
  5
1C8
102
{ACAD_XDICTIONARY
360
4F4B000000000000
102
}
100
AcDbEntity
  8
$$$$$$15$9
  6
CONTINUOUS
 62
           6
100
AcDbCircle
 10
8684.735669
 20
-15291.390756000001
 30
0.0
 40
2.0
100
AcDbArc
 50
0.0
 51
90.0
  0
LINE
  5
1C9
102
{ACAD_XDICTIONARY
360
4F4B000000000000
102
}
100
AcDbEntity
  8
$$$$$$15$9
  6
CONTINUOUS
 62
           6
100
AcDbLine
 10
8686.735669
 20
-15294.390756000001
 30
0.0
 11
8686.735669
 21
-15291.390756000001
 31
0.0
  0
LINE
  5
1CA
102
{ACAD_XDICTIONARY
360
4F4B000000000000
102
}
100
AcDbEntity
  8
$$15$9
  6
CONTINUOUS
 62
           3
100
AcDbLine
 10
8686.735664
 20
-15304.390740999999
 30
0.0
 11
8686.735664
 21
-15294.390764
 31
0.0
  0
LINE
  5
1CB
102
{ACAD_XDICTIONARY
360
4F4B000000000000
102
}
100
AcDbEntity
  8
$$$$$$15$9
  6
CONTINUOUS
 62
           6
100
AcDbLine
 10
8679.132857000001
 20
-15289.390751000001
 30
0.0
 11
8684.73566
 21
-15289.390751000001
 31
0.0
  0
LINE
  5
1CC
102
{ACAD_XDICTIONARY
360
4F4B000000000000
102
}
100
AcDbEntity
  8
$$$$$$15$9
  6
CONTINUOUS
 62
           6
100
AcDbLine
 10
8682.042078
 20
-15294.390751000001
 30
0.0
 11
8686.73566
 21
-15294.390751000001
 31
0.0
  0
ARC
  5
1CD
102
{ACAD_XDICTIONARY
360
4F4B000000000000
102
}
100
AcDbEntity
  8
$$$$$$15$9
  6
CONTINUOUS
 62
           6
100
AcDbCircle
 10
7988.735661
 20
-15291.390756000001
 30
0.0
 40
2.0
100
AcDbArc
 50
90.0
 51
180.0
  0
LINE
  5
1CE
102
{ACAD_XDICTIONARY
360
4F4B000000000000
102
}
100
AcDbEntity
  8
$$$$$$15$9
  6
CONTINUOUS
 62
           6
100
AcDbLine
 10
7986.735661
 20
-15294.390756000001
 30
0.0
 11
7986.735661
 21
-15291.390756000001
 31
0.0
  0
LINE
  5
1CF
102
{ACAD_XDICTIONARY
360
4F4B000000000000
102
}
100
AcDbEntity
  8
$$15$9
  6
CONTINUOUS
 62
           3
100
AcDbLine
 10
7986.735666
 20
-15304.390740999999
 30
0.0
 11
7986.735666
 21
-15294.390764
 31
0.0
  0
LINE
  5
1D0
102
{ACAD_XDICTIONARY
360
4F4B000000000000
102
}
100
AcDbEntity
  8
$$$$$$15$9
  6
CONTINUOUS
 62
           6
100
AcDbLine
 10
7994.338473
 20
-15289.390751000001
 30
0.0
 11
7988.73567
 21
-15289.390751000001
 31
0.0
  0
LINE
  5
1D1
102
{ACAD_XDICTIONARY
360
4F4B000000000000
102
}
100
AcDbEntity
  8
$$$$$$15$9
  6
CONTINUOUS
 62
           6
100
AcDbLine
 10
7991.429252
 20
-15294.390751000001
 30
0.0
 11
7986.73567
 21
-15294.390751000001
 31
0.0
  0
LINE
  5
1D2
102
{ACAD_XDICTIONARY
360
4F4B000000000000
102
}
100
AcDbEntity
  8
$$12$7
  6
CONTINUOUS
 62
           3
100
AcDbLine
 10
8336.73566
 20
-14666.251490000001
 30
0.0
 11
8670.835666999999
 21
-14666.251490000001
 31
0.0
  0
ARC
  5
1D3
102
{ACAD_XDICTIONARY
360
4F4B000000000000
102
}
100
AcDbEntity
  8
$J$$$$$$15$9
  6
CONTINUOUS
 62
           6
100
AcDbCircle
 10
8001.015097
 20
-14678.527507999999
 30
0.0
 40
0.720588
100
AcDbArc
 50
322.701442
 51
136.885256
  0
ARC
  5
1D4
102
{ACAD_XDICTIONARY
360
4F4B000000000000
102
}
100
AcDbEntity
  8
$J$$$$$$15$9
  6
CONTINUOUS
 62
           6
100
AcDbCircle
 10
7994.685685
 20
-14672.601494
 30
0.0
 40
7.95
100
AcDbArc
 50
180.0
 51
316.885257
  0
ARC
  5
1D5
102
{ACAD_XDICTIONARY
360
4F4B000000000000
102
}
100
AcDbEntity
  8
$J$$$$$$15$9
  6
CONTINUOUS
 62
           6
100
AcDbCircle
 10
7994.685685
 20
-14672.601494
 30
0.0
 40
7.95
100
AcDbArc
 50
43.114743
 51
180.0
  0
ARC
  5
1D6
102
{ACAD_XDICTIONARY
360
4F4B000000000000
102
}
100
AcDbEntity
  8
$J$$$$$$15$9
  6
CONTINUOUS
 62
           6
100
AcDbCircle
 10
8001.015097
 20
-14666.675479
 30
0.0
 40
0.720588
100
AcDbArc
 50
223.114744
 51
37.298558
  0
ARC
  5
1D7
102
{ACAD_XDICTIONARY
360
4F4B000000000000
102
}
100
AcDbEntity
  8
$J$$$$$$15$9
  6
CONTINUOUS
 62
           6
100
AcDbCircle
 10
7993.235685
 20
-14672.601494
 30
0.0
 40
10.5
100
AcDbArc
 50
37.298558
 51
180.0
  0
ARC
  5
1D8
102
{ACAD_XDICTIONARY
360
4F4B000000000000
102
}
100
AcDbEntity
  8
$$15$9
  6
CONTINUOUS
 62
           3
100
AcDbCircle
 10
7994.685682
 20
-14672.601500999999
 30
0.0
 40
7.95
100
AcDbArc
 50
180.0
 51
360.0
  0
LINE
  5
1D9
102
{ACAD_XDICTIONARY
360
4F4B000000000000
102
}
100
AcDbEntity
  8
$$12$7
  6
CONTINUOUS
 62
           3
100
AcDbLine
 10
8002.635682
 20
-14681.951491
 30
0.0
 11
8002.635682
 21
-14666.251494
 31
0.0
  0
ARC
  5
1DA
102
{ACAD_XDICTIONARY
360
4F4B000000000000
102
}
100
AcDbEntity
  8
$$15$9
  6
CONTINUOUS
 62
           3
100
AcDbCircle
 10
7994.685682
 20
-14672.601494
 30
0.0
 40
7.95
100
AcDbArc
 50
360.0
 51
180.0
  0
LINE
  5
1DB
102
{ACAD_XDICTIONARY
360
4F4B000000000000
102
}
100
AcDbEntity
  8
$$12$7
  6
CONTINUOUS
 62
           3
100
AcDbLine
 10
8336.73566
 20
-14666.251494
 30
0.0
 11
8002.635682
 21
-14666.251494
 31
0.0
  0
LINE
  5
1DC
102
{ACAD_XDICTIONARY
360
4F4B000000000000
102
}
100
AcDbEntity
  8
$$12$7
  6
CONTINUOUS
 62
           3
100
AcDbLine
 10
7988.335679
 20
-14680.551496
 30
0.0
 11
8001.035679
 21
-14680.551496
 31
0.0
  0
LINE
  5
1DD
102
{ACAD_XDICTIONARY
360
4F4B000000000000
102
}
100
AcDbEntity
  8
$$12$7
  6
CONTINUOUS
 62
           3
100
AcDbLine
 10
7988.335672
 20
-15038.751495
 30
0.0
 11
7994.685675
 21
-15038.751495
 31
0.0
  0
ARC
  5
1DE
102
{ACAD_XDICTIONARY
360
4F4B000000000000
102
}
100
AcDbEntity
  8
$$12$7
  6
CONTINUOUS
 62
           3
100
AcDbCircle
 10
7994.685675
 20
-15046.701494999999
 30
0.0
 40
7.95
100
AcDbArc
 50
180.0
 51
270.035206
  0
ARC
  5
1DF
102
{ACAD_XDICTIONARY
360
4F4B000000000000
102
}
100
AcDbEntity
  8
$$12$7
  6
CONTINUOUS
 62
           3
100
AcDbCircle
 10
7994.685675
 20
-15046.701486
 30
0.0
 40
7.95
100
AcDbArc
 50
89.964794
 51
180.0
  0
ARC
  5
1E0
102
{ACAD_XDICTIONARY
360
4F4B000000000000
102
}
100
AcDbEntity
  8
$J$$$$$$15$9
  6
CONTINUOUS
 62
           6
100
AcDbCircle
 10
7993.235685
 20
-14672.601494
 30
0.0
 40
10.5
100
AcDbArc
 50
180.0
 51
242.181826
  0
ARC
  5
1E1
102
{ACAD_XDICTIONARY
360
4F4B000000000000
102
}
100
AcDbEntity
  8
$J$$$$$$15$9
  6
CONTINUOUS
 62
           6
100
AcDbCircle
 10
7993.235685
 20
-14672.601494
 30
0.0
 40
10.5
100
AcDbArc
 50
310.787027
 51
322.701442
  0
ARC
  5
1E2
102
{ACAD_XDICTIONARY
360
4F4B000000000000
102
}
100
AcDbEntity
  8
$J$$$$$$15$9
  6
CONTINUOUS
 62
           6
100
AcDbCircle
 10
8672.456252
 20
-14678.527507999999
 30
0.0
 40
0.720588
100
AcDbArc
 50
43.114744
 51
217.298558
  0
ARC
  5
1E3
102
{ACAD_XDICTIONARY
360
4F4B000000000000
102
}
100
AcDbEntity
  8
$J$$$$$$15$9
  6
CONTINUOUS
 62
           6
100
AcDbCircle
 10
8678.785664000001
 20
-14672.601494
 30
0.0
 40
7.95
100
AcDbArc
 50
223.114743
 51
360.0
  0
ARC
  5
1E4
102
{ACAD_XDICTIONARY
360
4F4B000000000000
102
}
100
AcDbEntity
  8
$J$$$$$$15$9
  6
CONTINUOUS
 62
           6
100
AcDbCircle
 10
8678.785664000001
 20
-14672.601494
 30
0.0
 40
7.95
100
AcDbArc
 50
0.0
 51
136.885257
  0
ARC
  5
1E5
102
{ACAD_XDICTIONARY
360
4F4B000000000000
102
}
100
AcDbEntity
  8
$J$$$$$$15$9
  6
CONTINUOUS
 62
           6
100
AcDbCircle
 10
8672.456252
 20
-14666.675479
 30
0.0
 40
0.720588
100
AcDbArc
 50
142.701442
 51
316.885256
  0
ARC
  5
1E6
102
{ACAD_XDICTIONARY
360
4F4B000000000000
102
}
100
AcDbEntity
  8
$J$$$$$$15$9
  6
CONTINUOUS
 62
           6
100
AcDbCircle
 10
8680.235664
 20
-14672.601494
 30
0.0
 40
10.5
100
AcDbArc
 50
0.0
 51
142.701442
  0
ARC
  5
1E7
102
{ACAD_XDICTIONARY
360
4F4B000000000000
102
}
100
AcDbEntity
  8
$$15$9
  6
CONTINUOUS
 62
           3
100
AcDbCircle
 10
8678.785666
 20
-14672.601500999999
 30
0.0
 40
7.95
100
AcDbArc
 50
180.0
 51
360.0
  0
LINE
  5
1E8
102
{ACAD_XDICTIONARY
360
4F4B000000000000
102
}
100
AcDbEntity
  8
$$12$7
  6
CONTINUOUS
 62
           3
100
AcDbLine
 10
8670.835666999999
 20
-14681.951491
 30
0.0
 11
8670.835666999999
 21
-14666.251494
 31
0.0
  0
ARC
  5
1E9
102
{ACAD_XDICTIONARY
360
4F4B000000000000
102
}
100
AcDbEntity
  8
$$15$9
  6
CONTINUOUS
 62
           3
100
AcDbCircle
 10
8678.785666
 20
-14672.601494
 30
0.0
 40
7.95
100
AcDbArc
 50
0.0
 51
180.0
  0
LINE
  5
1EA
102
{ACAD_XDICTIONARY
360
4F4B000000000000
102
}
100
AcDbEntity
  8
$$12$7
  6
CONTINUOUS
 62
           3
100
AcDbLine
 10
8685.135668999999
 20
-14680.551496
 30
0.0
 11
8672.435669
 21
-14680.551496
 31
0.0
  0
LINE
  5
1EB
102
{ACAD_XDICTIONARY
360
4F4B000000000000
102
}
100
AcDbEntity
  8
$$12$7
  6
CONTINUOUS
 62
           3
100
AcDbLine
 10
8685.135662000001
 20
-15038.751495
 30
0.0
 11
8678.785658999999
 21
-15038.751495
 31
0.0
  0
ARC
  5
1EC
102
{ACAD_XDICTIONARY
360
4F4B000000000000
102
}
100
AcDbEntity
  8
$$12$7
  6
CONTINUOUS
 62
           3
100
AcDbCircle
 10
8678.785658999999
 20
-15046.701494999999
 30
0.0
 40
7.95
100
AcDbArc
 50
269.964794
 51
360.0
  0
ARC
  5
1ED
102
{ACAD_XDICTIONARY
360
4F4B000000000000
102
}
100
AcDbEntity
  8
$$12$7
  6
CONTINUOUS
 62
           3
100
AcDbCircle
 10
8678.785658999999
 20
-15046.701486
 30
0.0
 40
7.95
100
AcDbArc
 50
0.0
 51
90.035206
  0
ARC
  5
1EE
102
{ACAD_XDICTIONARY
360
4F4B000000000000
102
}
100
AcDbEntity
  8
$J$$$$$$15$9
  6
CONTINUOUS
 62
           6
100
AcDbCircle
 10
8680.235664
 20
-14672.601494
 30
0.0
 40
10.5
100
AcDbArc
 50
297.818174
 51
360.0
  0
ARC
  5
1EF
102
{ACAD_XDICTIONARY
360
4F4B000000000000
102
}
100
AcDbEntity
  8
$J$$$$$$15$9
  6
CONTINUOUS
 62
           6
100
AcDbCircle
 10
8680.235664
 20
-14672.601494
 30
0.0
 40
10.5
100
AcDbArc
 50
217.298558
 51
229.212973
  0
LINE
  5
1F0
102
{ACAD_XDICTIONARY
360
4F4B000000000000
102
}
100
AcDbEntity
  8
$$15$9
  6
CONTINUOUS
 62
           3
100
AcDbLine
 10
8670.835660000001
 20
-15037.35151
 30
0.0
 11
8670.835660000001
 21
-15038.751490000001
 31
0.0
  0
LINE
  5
1F1
102
{ACAD_XDICTIONARY
360
4F4B000000000000
102
}
100
AcDbEntity
  8
$$15$9
  6
CONTINUOUS
 62
           3
100
AcDbLine
 10
8002.63567
 20
-15037.35151
 30
0.0
 11
8002.63567
 21
-15038.751490000001
 31
0.0
  0
LINE
  5
1F2
102
{ACAD_XDICTIONARY
360
4F4B000000000000
102
}
100
AcDbEntity
  8
$$12$7
  6
CONTINUOUS
 62
           3
100
AcDbLine
 10
8665.73566
 20
-15034.87349
 30
0.0
 11
8665.73566
 21
-15038.751490000001
 31
0.0
  0
LINE
  5
1F3
102
{ACAD_XDICTIONARY
360
4F4B000000000000
102
}
100
AcDbEntity
  8
$$12$7
  6
CONTINUOUS
 62
           3
100
AcDbLine
 10
8007.73567
 20
-15034.8735
 30
0.0
 11
8007.73567
 21
-15038.751490000001
 31
0.0
  0
LINE
  5
1F4
102
{ACAD_XDICTIONARY
360
4F4B000000000000
102
}
100
AcDbEntity
  8
$$12$7
  6
CONTINUOUS
 62
           3
100
AcDbLine
 10
8665.73566
 20
-14681.951491
 30
0.0
 11
8670.835662
 21
-14681.951491
 31
0.0
  0
LINE
  5
1F5
102
{ACAD_XDICTIONARY
360
4F4B000000000000
102
}
100
AcDbEntity
  8
$$12$7
  6
CONTINUOUS
 62
           3
100
AcDbLine
 10
8007.73567
 20
-14681.951491
 30
0.0
 11
8002.635672
 21
-14681.951491
 31
0.0
  0
LINE
  5
1F6
102
{ACAD_XDICTIONARY
360
4F4B000000000000
102
}
100
AcDbEntity
  8
$$15$9
  6
CONTINUOUS
 62
           3
100
AcDbLine
 10
8665.73566
 20
-15037.351511000001
 30
0.0
 11
8670.835660000001
 21
-15037.351511000001
 31
0.0
  0
LINE
  5
1F7
102
{ACAD_XDICTIONARY
360
4F4B000000000000
102
}
100
AcDbEntity
  8
$$15$9
  6
CONTINUOUS
 62
           3
100
AcDbLine
 10
8007.73567
 20
-15037.351511000001
 30
0.0
 11
8002.63567
 21
-15037.351511000001
 31
0.0
  0
LINE
  5
1F8
102
{ACAD_XDICTIONARY
360
4F4B000000000000
102
}
100
AcDbEntity
  8
$$$$$$
  6
CONTINUOUS
 62
           5
100
AcDbLine
 10
8687.735656999999
 20
-15304.390748
 30
0.0
 11
8667.735658
 21
-15304.39075
 31
0.0
  0
LINE
  5
1F9
102
{ACAD_XDICTIONARY
360
4F4B000000000000
102
}
100
AcDbEntity
  8
$$$$$$
  6
CONTINUOUS
 62
           5
100
AcDbLine
 10
8687.735683000001
 20
-15771.390758
 30
0.0
 11
8687.735656000001
 21
-15304.390748
 31
0.0
  0
LINE
  5
1FA
102
{ACAD_XDICTIONARY
360
4F4B000000000000
102
}
100
AcDbEntity
  8
$$$$$$
  6
CONTINUOUS
 62
           5
100
AcDbLine
 10
7985.735659
 20
-15771.390756999999
 30
0.0
 11
7985.735659
 21
-15304.390746999999
 31
0.0
  0
CIRCLE
  5
1FB
102
{ACAD_XDICTIONARY
360
4F4B000000000000
102
}
100
AcDbEntity
  8
$$$$$$
  6
CONTINUOUS
 62
           5
100
AcDbCircle
 10
8306.735661000001
 20
-15417.885757
 30
0.0
 40
5.0
  0
CIRCLE
  5
1FC
102
{ACAD_XDICTIONARY
360
4F4B000000000000
102
}
100
AcDbEntity
  8
$$$$$$
  6
CONTINUOUS
 62
           5
100
AcDbCircle
 10
8306.735661000001
 20
-15477.885757
 30
0.0
 40
5.0
  0
CIRCLE
  5
1FD
102
{ACAD_XDICTIONARY
360
4F4B000000000000
102
}
100
AcDbEntity
  8
$$$$$$
  6
CONTINUOUS
 62
           5
100
AcDbCircle
 10
8306.735661000001
 20
-15537.885757
 30
0.0
 40
5.0
  0
CIRCLE
  5
1FE
102
{ACAD_XDICTIONARY
360
4F4B000000000000
102
}
100
AcDbEntity
  8
$$$$$$
  6
CONTINUOUS
 62
           5
100
AcDbCircle
 10
8306.735661000001
 20
-15597.885757
 30
0.0
 40
5.0
  0
CIRCLE
  5
1FF
102
{ACAD_XDICTIONARY
360
4F4B000000000000
102
}
100
AcDbEntity
  8
$$$$$$
  6
CONTINUOUS
 62
           5
100
AcDbCircle
 10
8306.735661000001
 20
-15657.885757
 30
0.0
 40
5.0
  0
CIRCLE
  5
200
102
{ACAD_XDICTIONARY
360
4F4B000000000000
102
}
100
AcDbEntity
  8
$$$$$$
  6
CONTINUOUS
 62
           5
100
AcDbCircle
 10
8366.735661000001
 20
-15417.885757
 30
0.0
 40
5.0
  0
CIRCLE
  5
201
102
{ACAD_XDICTIONARY
360
4F4B000000000000
102
}
100
AcDbEntity
  8
$$$$$$
  6
CONTINUOUS
 62
           5
100
AcDbCircle
 10
8366.735661000001
 20
-15477.885757
 30
0.0
 40
5.0
  0
CIRCLE
  5
202
102
{ACAD_XDICTIONARY
360
4F4B000000000000
102
}
100
AcDbEntity
  8
$$$$$$
  6
CONTINUOUS
 62
           5
100
AcDbCircle
 10
8366.735661000001
 20
-15537.885757
 30
0.0
 40
5.0
  0
CIRCLE
  5
203
102
{ACAD_XDICTIONARY
360
4F4B000000000000
102
}
100
AcDbEntity
  8
$$$$$$
  6
CONTINUOUS
 62
           5
100
AcDbCircle
 10
8366.735661000001
 20
-15597.885757
 30
0.0
 40
5.0
  0
CIRCLE
  5
204
102
{ACAD_XDICTIONARY
360
4F4B000000000000
102
}
100
AcDbEntity
  8
$$$$$$
  6
CONTINUOUS
 62
           5
100
AcDbCircle
 10
8366.735661000001
 20
-15657.885757
 30
0.0
 40
5.0
  0
CIRCLE
  5
205
102
{ACAD_XDICTIONARY
360
4F4B000000000000
102
}
100
AcDbEntity
  8
$$$$$$
  6
CONTINUOUS
 62
           5
100
AcDbCircle
 10
8426.735661000001
 20
-15417.885757
 30
0.0
 40
5.0
  0
CIRCLE
  5
206
102
{ACAD_XDICTIONARY
360
4F4B000000000000
102
}
100
AcDbEntity
  8
$$$$$$
  6
CONTINUOUS
 62
           5
100
AcDbCircle
 10
8426.735661000001
 20
-15477.885757
 30
0.0
 40
5.0
  0
CIRCLE
  5
207
102
{ACAD_XDICTIONARY
360
4F4B000000000000
102
}
100
AcDbEntity
  8
$$$$$$
  6
CONTINUOUS
 62
           5
100
AcDbCircle
 10
8426.735661000001
 20
-15537.885757
 30
0.0
 40
5.0
  0
CIRCLE
  5
208
102
{ACAD_XDICTIONARY
360
4F4B000000000000
102
}
100
AcDbEntity
  8
$$$$$$
  6
CONTINUOUS
 62
           5
100
AcDbCircle
 10
8426.735661000001
 20
-15597.885757
 30
0.0
 40
5.0
  0
CIRCLE
  5
209
102
{ACAD_XDICTIONARY
360
4F4B000000000000
102
}
100
AcDbEntity
  8
$$$$$$
  6
CONTINUOUS
 62
           5
100
AcDbCircle
 10
8426.735661000001
 20
-15657.885757
 30
0.0
 40
5.0
  0
LINE
  5
20A
102
{ACAD_XDICTIONARY
360
4F4B000000000000
102
}
100
AcDbEntity
  8
$$$$$$
  6
CONTINUOUS
 62
           5
100
AcDbLine
 10
8667.735675
 20
-15304.390745999999
 30
0.0
 11
8336.735656999999
 21
-15304.390738
 31
0.0
  0
LINE
  5
20B
102
{ACAD_XDICTIONARY
360
4F4B000000000000
102
}
100
AcDbEntity
  8
$$$$$$
  6
CONTINUOUS
 62
           5
100
AcDbLine
 10
7985.735682000001
 20
-15304.390743
 30
0.0
 11
8005.73568
 21
-15304.390745000001
 31
0.0
  0
LINE
  5
20C
102
{ACAD_XDICTIONARY
360
4F4B000000000000
102
}
100
AcDbEntity
  8
$$$$$$
  6
CONTINUOUS
 62
           5
100
AcDbLine
 10
8005.735663
 20
-15304.390740999999
 30
0.0
 11
8336.73566
 21
-15304.390740000001
 31
0.0
  0
LINE
  5
20D
102
{ACAD_XDICTIONARY
360
4F4B000000000000
102
}
100
AcDbEntity
  8
$$$$$$
  6
CONTINUOUS
 62
           5
100
AcDbLine
 10
8687.735656999999
 20
-15771.380827000001
 30
0.0
 11
8667.735658
 21
-15771.380825
 31
0.0
  0
LINE
  5
20E
102
{ACAD_XDICTIONARY
360
4F4B000000000000
102
}
100
AcDbEntity
  8
$$$$$$
  6
CONTINUOUS
 62
           5
100
AcDbLine
 10
8667.735675
 20
-15771.380829
 30
0.0
 11
8336.735664
 21
-15771.380831
 31
0.0
  0
LINE
  5
20F
102
{ACAD_XDICTIONARY
360
4F4B000000000000
102
}
100
AcDbEntity
  8
$$$$$$
  6
CONTINUOUS
 62
           5
100
AcDbLine
 10
7985.735682000001
 20
-15771.380821999999
 30
0.0
 11
8005.73568
 21
-15771.38082
 31
0.0
  0
LINE
  5
210
102
{ACAD_XDICTIONARY
360
4F4B000000000000
102
}
100
AcDbEntity
  8
$$$$$$
  6
CONTINUOUS
 62
           5
100
AcDbLine
 10
8005.735663
 20
-15771.380824
 30
0.0
 11
8336.735642
 21
-15771.380834
 31
0.0
  0
LINE
  5
211
102
{ACAD_XDICTIONARY
360
4F4B000000000000
102
}
100
AcDbEntity
  8
$$$$$$
  6
CONTINUOUS
 62
           5
100
AcDbLine
 10
8686.13566
 20
-15037.251491999999
 30
0.0
 11
8686.135657999999
 21
-15041.451493
 31
0.0
  0
LINE
  5
212
102
{ACAD_XDICTIONARY
360
4F4B000000000000
102
}
100
AcDbEntity
  8
$$$$$$
  6
CONTINUOUS
 62
           5
100
AcDbLine
 10
8686.935659999999
 20
-15037.251491999999
 30
0.0
 11
8686.935663
 21
-15045.101487
 31
0.0
  0
ARC
  5
213
102
{ACAD_XDICTIONARY
360
4F4B000000000000
102
}
100
AcDbEntity
  8
$$$$$$
  6
CONTINUOUS
 62
           5
100
AcDbCircle
 10
8686.935659999999
 20
-15037.251491999999
 30
0.0
 40
0.8
100
AcDbArc
 50
90.0
 51
180.0
  0
ARC
  5
214
102
{ACAD_XDICTIONARY
360
4F4B000000000000
102
}
100
AcDbEntity
  8
$$$$$$
  6
CONTINUOUS
 62
           5
100
AcDbCircle
 10
8686.935659999999
 20
-15037.251491999999
 30
0.0
 40
0.8
100
AcDbArc
 50
0.0
 51
90.0
  0
LINE
  5
215
102
{ACAD_XDICTIONARY
360
4F4B000000000000
102
}
100
AcDbEntity
  8
$$$$$$
  6
CONTINUOUS
 62
           5
100
AcDbLine
 10
8686.935658
 20
-15041.451493
 30
0.0
 11
8686.135657999999
 21
-15041.451493
 31
0.0
  0
ARC
  5
216
102
{ACAD_XDICTIONARY
360
4F4B000000000000
102
}
100
AcDbEntity
  8
$$$$$$
  6
CONTINUOUS
 62
           5
100
AcDbCircle
 10
8677.385898000001
 20
-15045.101490999999
 30
0.0
 40
10.35
100
AcDbArc
 50
270.0
 51
0.00002
  0
LINE
  5
217
102
{ACAD_XDICTIONARY
360
4F4B000000000000
102
}
100
AcDbEntity
  8
$$$$$$
  6
CONTINUOUS
 62
           5
100
AcDbLine
 10
8687.73566
 20
-15037.251491999999
 30
0.0
 11
8687.735663
 21
-15045.101516999999
 31
0.0
  0
ARC
  5
218
102
{ACAD_XDICTIONARY
360
4F4B000000000000
102
}
100
AcDbEntity
  8
$$$$$$
  6
CONTINUOUS
 62
           5
100
AcDbCircle
 10
8677.385662999999
 20
-15045.101490999999
 30
0.0
 40
9.55
100
AcDbArc
 50
270.0
 51
0.00002
  0
LINE
  5
219
102
{ACAD_XDICTIONARY
360
4F4B000000000000
102
}
100
AcDbEntity
  8
$$$$$$
  6
CONTINUOUS
 62
           5
100
AcDbLine
 10
8677.38618
 20
-15055.451491
 30
0.0
 11
8341.560665000001
 21
-15055.451491
 31
0.0
  0
LINE
  5
21A
102
{ACAD_XDICTIONARY
360
4F4B000000000000
102
}
100
AcDbEntity
  8
$$$$$$
  6
CONTINUOUS
 62
           5
100
AcDbLine
 10
8667.388676000001
 20
-15054.651492000001
 30
0.0
 11
8667.385667000001
 21
-15054.651492000001
 31
0.0
  0
LINE
  5
21B
102
{ACAD_XDICTIONARY
360
4F4B000000000000
102
}
100
AcDbEntity
  8
$$$$$$
  6
CONTINUOUS
 62
           5
100
AcDbLine
 10
8677.385662999999
 20
-15054.651488
 30
0.0
 11
8667.735672000001
 21
-15054.65149
 31
0.0
  0
LINE
  5
21C
102
{ACAD_XDICTIONARY
360
4F4B000000000000
102
}
100
AcDbEntity
  8
$$$$$$
  6
CONTINUOUS
 62
           5
100
AcDbLine
 10
7987.33568
 20
-15037.251487
 30
0.0
 11
7987.335681
 21
-15041.451488000001
 31
0.0
  0
LINE
  5
21D
102
{ACAD_XDICTIONARY
360
4F4B000000000000
102
}
100
AcDbEntity
  8
$$$$$$
  6
CONTINUOUS
 62
           5
100
AcDbLine
 10
7986.53568
 20
-15037.251487
 30
0.0
 11
7986.535677
 21
-15045.101482
 31
0.0
  0
ARC
  5
21E
102
{ACAD_XDICTIONARY
360
4F4B000000000000
102
}
100
AcDbEntity
  8
$$$$$$
  6
CONTINUOUS
 62
           5
100
AcDbCircle
 10
7986.53568
 20
-15037.251487
 30
0.0
 40
0.8
100
AcDbArc
 50
0.0
 51
90.0
  0
ARC
  5
21F
102
{ACAD_XDICTIONARY
360
4F4B000000000000
102
}
100
AcDbEntity
  8
$$$$$$
  6
CONTINUOUS
 62
           5
100
AcDbCircle
 10
7986.53568
 20
-15037.251487
 30
0.0
 40
0.8
100
AcDbArc
 50
90.0
 51
180.0
  0
LINE
  5
220
102
{ACAD_XDICTIONARY
360
4F4B000000000000
102
}
100
AcDbEntity
  8
$$$$$$
  6
CONTINUOUS
 62
           5
100
AcDbLine
 10
7986.535681
 20
-15041.451488000001
 30
0.0
 11
7987.335681
 21
-15041.451488000001
 31
0.0
  0
ARC
  5
221
102
{ACAD_XDICTIONARY
360
4F4B000000000000
102
}
100
AcDbEntity
  8
$$$$$$
  6
CONTINUOUS
 62
           5
100
AcDbCircle
 10
7996.085441
 20
-15045.101486
 30
0.0
 40
10.35
100
AcDbArc
 50
179.99998
 51
270.0
  0
LINE
  5
222
102
{ACAD_XDICTIONARY
360
4F4B000000000000
102
}
100
AcDbEntity
  8
$$$$$$
  6
CONTINUOUS
 62
           5
100
AcDbLine
 10
7985.73568
 20
-15037.251487
 30
0.0
 11
7985.735677
 21
-15045.101511999999
 31
0.0
  0
ARC
  5
223
102
{ACAD_XDICTIONARY
360
4F4B000000000000
102
}
100
AcDbEntity
  8
$$$$$$
  6
CONTINUOUS
 62
           5
100
AcDbCircle
 10
7996.085677
 20
-15045.101486
 30
0.0
 40
9.55
100
AcDbArc
 50
179.99998
 51
270.0
  0
LINE
  5
224
102
{ACAD_XDICTIONARY
360
4F4B000000000000
102
}
100
AcDbEntity
  8
$$$$$$
  6
CONTINUOUS
 62
           5
100
AcDbLine
 10
7996.08516
 20
-15055.451486
 30
0.0
 11
8341.560665000001
 21
-15055.451494000001
 31
0.0
  0
LINE
  5
225
102
{ACAD_XDICTIONARY
360
4F4B000000000000
102
}
100
AcDbEntity
  8
$$$$$$
  6
CONTINUOUS
 62
           5
100
AcDbLine
 10
8006.082664
 20
-15054.651486999999
 30
0.0
 11
8006.085673
 21
-15054.651486999999
 31
0.0
  0
LINE
  5
226
102
{ACAD_XDICTIONARY
360
4F4B000000000000
102
}
100
AcDbEntity
  8
$$$$$$
  6
CONTINUOUS
 62
           5
100
AcDbLine
 10
7996.085677
 20
-15054.651483
 30
0.0
 11
8005.735667
 21
-15054.651485
 31
0.0
  0
LINE
  5
227
102
{ACAD_XDICTIONARY
360
4F4B000000000000
102
}
100
AcDbEntity
  8
$J$$$$$$15$9
  6
CONTINUOUS
 62
           6
100
AcDbLine
 10
8690.73566
 20
-15377.565780000001
 30
0.0
 11
8690.73566
 21
-15405.565780000001
 31
0.0
  0
ARC
  5
228
102
{ACAD_XDICTIONARY
360
4F4B000000000000
102
}
100
AcDbEntity
  8
$J$$$$$$15$9
  6
CONTINUOUS
 62
           6
100
AcDbCircle
 10
8689.735656999999
 20
-15377.565791000001
 30
0.0
 40
1.0
100
AcDbArc
 50
0.0
 51
90.0
  0
ARC
  5
229
102
{ACAD_XDICTIONARY
360
4F4B000000000000
102
}
100
AcDbEntity
  8
$J$$$$$$15$9
  6
CONTINUOUS
 62
           6
100
AcDbCircle
 10
8689.735656999999
 20
-15405.565791000001
 30
0.0
 40
1.0
100
AcDbArc
 50
270.0
 51
0.0
  0
LINE
  5
22A
102
{ACAD_XDICTIONARY
360
4F4B000000000000
102
}
100
AcDbEntity
  8
$J$$$$$$15$9
  6
CONTINUOUS
 62
           6
100
AcDbLine
 10
8689.73566
 20
-15376.565791000001
 30
0.0
 11
8687.735661000001
 21
-15376.565791000001
 31
0.0
  0
LINE
  5
22B
102
{ACAD_XDICTIONARY
360
4F4B000000000000
102
}
100
AcDbEntity
  8
$J$$$$$$15$9
  6
CONTINUOUS
 62
           6
100
AcDbLine
 10
8689.73566
 20
-15406.565780999999
 30
0.0
 11
8687.735661999999
 21
-15406.565780999999
 31
0.0
  0
LINE
  5
22C
102
{ACAD_XDICTIONARY
360
4F4B000000000000
102
}
100
AcDbEntity
  8
$J$$$$$$15$9
  6
CONTINUOUS
 62
           6
100
AcDbLine
 10
8690.73566
 20
-15669.565780000001
 30
0.0
 11
8690.73566
 21
-15697.565780000001
 31
0.0
  0
ARC
  5
22D
102
{ACAD_XDICTIONARY
360
4F4B000000000000
102
}
100
AcDbEntity
  8
$J$$$$$$15$9
  6
CONTINUOUS
 62
           6
100
AcDbCircle
 10
8689.735656999999
 20
-15669.565789
 30
0.0
 40
1.0
100
AcDbArc
 50
0.0
 51
90.0
  0
ARC
  5
22E
102
{ACAD_XDICTIONARY
360
4F4B000000000000
102
}
100
AcDbEntity
  8
$J$$$$$$15$9
  6
CONTINUOUS
 62
           6
100
AcDbCircle
 10
8689.735656999999
 20
-15697.565789
 30
0.0
 40
1.0
100
AcDbArc
 50
270.0
 51
0.0
  0
LINE
  5
22F
102
{ACAD_XDICTIONARY
360
4F4B000000000000
102
}
100
AcDbEntity
  8
$J$$$$$$15$9
  6
CONTINUOUS
 62
           6
100
AcDbLine
 10
8689.73566
 20
-15668.565788
 30
0.0
 11
8687.735677000001
 21
-15668.565788
 31
0.0
  0
LINE
  5
230
102
{ACAD_XDICTIONARY
360
4F4B000000000000
102
}
100
AcDbEntity
  8
$J$$$$$$15$9
  6
CONTINUOUS
 62
           6
100
AcDbLine
 10
8689.73566
 20
-15698.565778
 30
0.0
 11
8687.735678999999
 21
-15698.565778
 31
0.0
  0
LINE
  5
231
102
{ACAD_XDICTIONARY
360
4F4B000000000000
102
}
100
AcDbEntity
  8
$$$$$$
  6
CONTINUOUS
 62
           6
100
AcDbLine
 10
8687.73566
 20
-15377.885780000001
 30
0.0
 11
8687.73566
 21
-15385.885780000001
 31
0.0
  0
ARC
  5
232
102
{ACAD_XDICTIONARY
360
4F4B000000000000
102
}
100
AcDbEntity
  8
$$$$$$
  6
CONTINUOUS
 62
           6
100
AcDbCircle
 10
8684.73566
 20
-15381.885781000001
 30
0.0
 40
5.0
100
AcDbArc
 50
306.869897
 51
53.130103
  0
LINE
  5
233
102
{ACAD_XDICTIONARY
360
4F4B000000000000
102
}
100
AcDbEntity
  8
$$$$$$
  6
CONTINUOUS
 62
           6
100
AcDbLine
 10
8687.73566
 20
-15042.701489999999
 30
0.0
 11
8687.73566
 21
-15050.701489999999
 31
0.0
  0
ARC
  5
234
102
{ACAD_XDICTIONARY
360
4F4B000000000000
102
}
100
AcDbEntity
  8
$$$$$$
  6
CONTINUOUS
 62
           6
100
AcDbCircle
 10
8684.73566
 20
-15046.701491
 30
0.0
 40
5.0
100
AcDbArc
 50
306.869897
 51
53.130103
  0
LINE
  5
235
102
{ACAD_XDICTIONARY
360
4F4B000000000000
102
}
100
AcDbEntity
  8
$$$$$$
  6
CONTINUOUS
 62
           6
100
AcDbLine
 10
8687.73566
 20
-15689.88579
 30
0.0
 11
8687.73566
 21
-15697.88579
 31
0.0
  0
ARC
  5
236
102
{ACAD_XDICTIONARY
360
4F4B000000000000
102
}
100
AcDbEntity
  8
$$$$$$
  6
CONTINUOUS
 62
           6
100
AcDbCircle
 10
8684.73566
 20
-15693.885791000001
 30
0.0
 40
5.0
100
AcDbArc
 50
306.869897
 51
53.130103
  0
LINE
  5
237
102
{ACAD_XDICTIONARY
360
4F4B000000000000
102
}
100
AcDbEntity
  8
1
  6
CONTINUOUS
 62
           7
100
AcDbLine
 10
8045.38567
 20
-15800.565769999999
 30
0.0
 11
8018.08567
 21
-15800.565769999999
 31
0.0
  0
ARC
  5
238
102
{ACAD_XDICTIONARY
360
4F4B000000000000
102
}
100
AcDbEntity
  8
1
  6
CONTINUOUS
 62
           7
100
AcDbCircle
 10
8045.385653
 20
-15797.565774999999
 30
0.0
 40
3.0
100
AcDbArc
 50
270.0
 51
0.0
  0
ARC
  5
239
102
{ACAD_XDICTIONARY
360
4F4B000000000000
102
}
100
AcDbEntity
  8
1
  6
CONTINUOUS
 62
           7
100
AcDbCircle
 10
8018.085653
 20
-15797.565774999999
 30
0.0
 40
3.0
100
AcDbArc
 50
180.0
 51
270.0
  0
LINE
  5
23A
102
{ACAD_XDICTIONARY
360
4F4B000000000000
102
}
100
AcDbEntity
  8
1
  6
CONTINUOUS
 62
           7
100
AcDbLine
 10
8048.48567
 20
-15814.065769999999
 30
0.0
 11
8038.48567
 21
-15814.065769999999
 31
0.0
  0
LINE
  5
23B
102
{ACAD_XDICTIONARY
360
4F4B000000000000
102
}
100
AcDbEntity
  8
1
  6
CONTINUOUS
 62
           7
100
AcDbLine
 10
8024.98567
 20
-15814.065769999999
 30
0.0
 11
8014.98567
 21
-15814.065769999999
 31
0.0
  0
LINE
  5
23C
102
{ACAD_XDICTIONARY
360
4F4B000000000000
102
}
100
AcDbEntity
  8
1
  6
CONTINUOUS
 62
           7
100
AcDbLine
 10
8038.48567
 20
-15800.565769999999
 30
0.0
 11
8038.48567
 21
-15814.065769999999
 31
0.0
  0
LINE
  5
23D
102
{ACAD_XDICTIONARY
360
4F4B000000000000
102
}
100
AcDbEntity
  8
1
  6
CONTINUOUS
 62
           7
100
AcDbLine
 10
8024.98567
 20
-15800.565769999999
 30
0.0
 11
8024.98567
 21
-15814.065769999999
 31
0.0
  0
ARC
  5
23E
102
{ACAD_XDICTIONARY
360
4F4B000000000000
102
}
100
AcDbEntity
  8
1
  6
CONTINUOUS
 62
           7
100
AcDbCircle
 10
7987.024114
 20
-15793.815774999999
 30
0.0
 40
64.711538
100
AcDbArc
 50
341.764275
 51
18.235725
  0
ARC
  5
23F
102
{ACAD_XDICTIONARY
360
4F4B000000000000
102
}
100
AcDbEntity
  8
1
  6
CONTINUOUS
 62
           7
100
AcDbCircle
 10
8076.447191
 20
-15793.815774999999
 30
0.0
 40
64.711538
100
AcDbArc
 50
161.764275
 51
198.235725
  0
LINE
  5
240
102
{ACAD_XDICTIONARY
360
4F4B000000000000
102
}
100
AcDbEntity
  8
1
  6
CONTINUOUS
 62
           7
100
AcDbLine
 10
8048.485663
 20
-15772.540756
 30
0.0
 11
8048.485663
 21
-15814.065784
 31
0.0
  0
LINE
  5
241
102
{ACAD_XDICTIONARY
360
4F4B000000000000
102
}
100
AcDbEntity
  8
1
  6
CONTINUOUS
 62
           7
100
AcDbLine
 10
8014.985663
 20
-15772.540756
 30
0.0
 11
8014.985663
 21
-15814.065784
 31
0.0
  0
LINE
  5
242
102
{ACAD_XDICTIONARY
360
4F4B000000000000
102
}
100
AcDbEntity
  8
$$15$9
  6
CONTINUOUS
 62
           3
100
AcDbLine
 10
8002.635663
 20
-15771.565774999999
 30
0.0
 11
7986.735663
 21
-15771.565774999999
 31
0.0
  0
LINE
  5
243
102
{ACAD_XDICTIONARY
360
4F4B000000000000
102
}
100
AcDbEntity
  8
$$$$$$15$9
  6
CONTINUOUS
 62
           6
100
AcDbLine
 10
8002.63567
 20
-15771.565759999999
 30
0.0
 11
7986.73567
 21
-15771.565759999999
 31
0.0
  0
LINE
  5
244
102
{ACAD_XDICTIONARY
360
4F4B000000000000
102
}
100
AcDbEntity
  8
$$$$$$15$9
  6
CONTINUOUS
 62
           6
100
AcDbLine
 10
8000.63567
 20
-15776.565759999999
 30
0.0
 11
7988.73567
 21
-15776.565759999999
 31
0.0
  0
ARC
  5
245
102
{ACAD_XDICTIONARY
360
4F4B000000000000
102
}
100
AcDbEntity
  8
$$$$$$15$9
  6
CONTINUOUS
 62
           6
100
AcDbCircle
 10
8000.635666
 20
-15774.565782
 30
0.0
 40
2.0
100
AcDbArc
 50
270.0
 51
0.0
  0
ARC
  5
246
102
{ACAD_XDICTIONARY
360
4F4B000000000000
102
}
100
AcDbEntity
  8
$$$$$$15$9
  6
CONTINUOUS
 62
           6
100
AcDbCircle
 10
7988.735666
 20
-15774.565782
 30
0.0
 40
2.0
100
AcDbArc
 50
180.0
 51
270.0
  0
LINE
  5
247
102
{ACAD_XDICTIONARY
360
4F4B000000000000
102
}
100
AcDbEntity
  8
$$$$$$15$9
  6
CONTINUOUS
 62
           6
100
AcDbLine
 10
8002.635666
 20
-15771.565782
 30
0.0
 11
8002.635666
 21
-15774.565782
 31
0.0
  0
LINE
  5
248
102
{ACAD_XDICTIONARY
360
4F4B000000000000
102
}
100
AcDbEntity
  8
$$$$$$15$9
  6
CONTINUOUS
 62
           6
100
AcDbLine
 10
7986.735666
 20
-15771.565782
 30
0.0
 11
7986.735666
 21
-15774.565782
 31
0.0
  0
LINE
  5
249
102
{ACAD_XDICTIONARY
360
4F4B000000000000
102
}
100
AcDbEntity
  8
$$15$9
  6
CONTINUOUS
 62
           3
100
AcDbLine
 10
8002.635666
 20
-15771.390754
 30
0.0
 11
8002.635666
 21
-15771.565774999999
 31
0.0
  0
LINE
  5
24A
102
{ACAD_XDICTIONARY
360
4F4B000000000000
102
}
100
AcDbEntity
  8
$$15$9
  6
CONTINUOUS
 62
           3
100
AcDbLine
 10
7986.735666
 20
-15771.390755
 30
0.0
 11
7986.735666
 21
-15771.565774999999
 31
0.0
  0
LINE
  5
24B
102
{ACAD_XDICTIONARY
360
4F4B000000000000
102
}
100
AcDbEntity
  8
$J$$$$$$15$9
  6
CONTINUOUS
 62
           6
100
AcDbLine
 10
7982.73567
 20
-15669.565780000001
 30
0.0
 11
7982.73567
 21
-15697.565780000001
 31
0.0
  0
ARC
  5
24C
102
{ACAD_XDICTIONARY
360
4F4B000000000000
102
}
100
AcDbEntity
  8
$J$$$$$$15$9
  6
CONTINUOUS
 62
           6
100
AcDbCircle
 10
7983.735673
 20
-15669.565789
 30
0.0
 40
1.0
100
AcDbArc
 50
90.0
 51
180.0
  0
ARC
  5
24D
102
{ACAD_XDICTIONARY
360
4F4B000000000000
102
}
100
AcDbEntity
  8
$J$$$$$$15$9
  6
CONTINUOUS
 62
           6
100
AcDbCircle
 10
7983.735673
 20
-15697.565789
 30
0.0
 40
1.0
100
AcDbArc
 50
180.0
 51
270.0
  0
LINE
  5
24E
102
{ACAD_XDICTIONARY
360
4F4B000000000000
102
}
100
AcDbEntity
  8
$J$$$$$$15$9
  6
CONTINUOUS
 62
           6
100
AcDbLine
 10
7983.73567
 20
-15668.565788
 30
0.0
 11
7985.735653
 21
-15668.565788
 31
0.0
  0
LINE
  5
24F
102
{ACAD_XDICTIONARY
360
4F4B000000000000
102
}
100
AcDbEntity
  8
$J$$$$$$15$9
  6
CONTINUOUS
 62
           6
100
AcDbLine
 10
7983.73567
 20
-15698.565778
 30
0.0
 11
7985.735651
 21
-15698.565778
 31
0.0
  0
LINE
  5
250
102
{ACAD_XDICTIONARY
360
4F4B000000000000
102
}
100
AcDbEntity
  8
$$$$$$
  6
CONTINUOUS
 62
           6
100
AcDbLine
 10
7985.73567
 20
-15689.88579
 30
0.0
 11
7985.73567
 21
-15697.88579
 31
0.0
  0
ARC
  5
251
102
{ACAD_XDICTIONARY
360
4F4B000000000000
102
}
100
AcDbEntity
  8
$$$$$$
  6
CONTINUOUS
 62
           6
100
AcDbCircle
 10
7988.73567
 20
-15693.885791000001
 30
0.0
 40
5.0
100
AcDbArc
 50
126.869897
 51
233.130103
  0
LINE
  5
252
102
{ACAD_XDICTIONARY
360
4F4B000000000000
102
}
100
AcDbEntity
  8
$J$$$$$$15$9
  6
CONTINUOUS
 62
           6
100
AcDbLine
 10
7982.73567
 20
-15377.565780000001
 30
0.0
 11
7982.73567
 21
-15405.565780000001
 31
0.0
  0
ARC
  5
253
102
{ACAD_XDICTIONARY
360
4F4B000000000000
102
}
100
AcDbEntity
  8
$J$$$$$$15$9
  6
CONTINUOUS
 62
           6
100
AcDbCircle
 10
7983.735673
 20
-15377.565791000001
 30
0.0
 40
1.0
100
AcDbArc
 50
90.0
 51
180.0
  0
ARC
  5
254
102
{ACAD_XDICTIONARY
360
4F4B000000000000
102
}
100
AcDbEntity
  8
$J$$$$$$15$9
  6
CONTINUOUS
 62
           6
100
AcDbCircle
 10
7983.735673
 20
-15405.565791000001
 30
0.0
 40
1.0
100
AcDbArc
 50
180.0
 51
270.0
  0
LINE
  5
255
102
{ACAD_XDICTIONARY
360
4F4B000000000000
102
}
100
AcDbEntity
  8
$J$$$$$$15$9
  6
CONTINUOUS
 62
           6
100
AcDbLine
 10
7983.73567
 20
-15376.565791000001
 30
0.0
 11
7985.735669
 21
-15376.565791000001
 31
0.0
  0
LINE
  5
256
102
{ACAD_XDICTIONARY
360
4F4B000000000000
102
}
100
AcDbEntity
  8
$J$$$$$$15$9
  6
CONTINUOUS
 62
           6
100
AcDbLine
 10
7983.73567
 20
-15406.565780999999
 30
0.0
 11
7985.735668
 21
-15406.565780999999
 31
0.0
  0
LINE
  5
257
102
{ACAD_XDICTIONARY
360
4F4B000000000000
102
}
100
AcDbEntity
  8
$$$$$$
  6
CONTINUOUS
 62
           6
100
AcDbLine
 10
7985.73567
 20
-15377.885780000001
 30
0.0
 11
7985.73567
 21
-15385.885780000001
 31
0.0
  0
ARC
  5
258
102
{ACAD_XDICTIONARY
360
4F4B000000000000
102
}
100
AcDbEntity
  8
$$$$$$
  6
CONTINUOUS
 62
           6
100
AcDbCircle
 10
7988.73567
 20
-15381.885781000001
 30
0.0
 40
5.0
100
AcDbArc
 50
126.869897
 51
233.130103
  0
LINE
  5
259
102
{ACAD_XDICTIONARY
360
4F4B000000000000
102
}
100
AcDbEntity
  8
$$15$9
  6
CONTINUOUS
 62
           3
100
AcDbLine
 10
8005.735667
 20
-15054.651491000001
 30
0.0
 11
8677.385662999999
 21
-15054.65149
 31
0.0
  0
LINE
  5
25A
102
{ACAD_XDICTIONARY
360
4F4B000000000000
102
}
100
AcDbEntity
  8
$$15$9
  6
CONTINUOUS
 62
           3
100
AcDbLine
 10
8667.735672000001
 20
-15054.65149
 30
0.0
 11
8678.794834
 21
-15054.65149
 31
0.0
  0
LINE
  5
25B
102
{ACAD_XDICTIONARY
360
4F4B000000000000
102
}
100
AcDbEntity
  8
$$12$7
  6
CONTINUOUS
 62
           3
100
AcDbLine
 10
8685.135662000001
 20
-15038.751495
 30
0.0
 11
8685.135662999999
 21
-14985.649722
 31
0.0
  0
LINE
  5
25C
102
{ACAD_XDICTIONARY
360
4F4B000000000000
102
}
100
AcDbEntity
  8
$$12$7
  6
CONTINUOUS
 62
           3
100
AcDbLine
 10
8685.135668999999
 20
-14680.551496
 30
0.0
 11
8685.135668000001
 21
-14731.653283
 31
0.0
  0
LINE
  5
25D
102
{ACAD_XDICTIONARY
360
4F4B000000000000
102
}
100
AcDbEntity
  8
$$12$7
  6
CONTINUOUS
 62
           3
100
AcDbLine
 10
8672.435662
 20
-15038.751489
 30
0.0
 11
8672.435662
 21
-15029.654381
 31
0.0
  0
LINE
  5
25E
102
{ACAD_XDICTIONARY
360
4F4B000000000000
102
}
100
AcDbEntity
  8
$$15$9
  6
CONTINUOUS
 62
           3
100
AcDbLine
 10
8668.822344
 20
-15032.751501000001
 30
0.0
 11
8672.435662
 21
-15032.751501000001
 31
0.0
  0
LINE
  5
25F
102
{ACAD_XDICTIONARY
360
4F4B000000000000
102
}
100
AcDbEntity
  8
$$15$9
  6
CONTINUOUS
 62
           3
100
AcDbLine
 10
8678.780774000001
 20
-15038.751489
 30
0.0
 11
7991.510674
 21
-15038.751495
 31
0.0
  0
LINE
  5
260
102
{ACAD_XDICTIONARY
360
4F4B000000000000
102
}
100
AcDbEntity
  8
$$15$9
  6
CONTINUOUS
 62
           3
100
AcDbLine
 10
8004.648979
 20
-15032.751503
 30
0.0
 11
8001.035674
 21
-15032.751504
 31
0.0
  0
LINE
  5
261
102
{ACAD_XDICTIONARY
360
4F4B000000000000
102
}
100
AcDbEntity
  8
$$12$7
  6
CONTINUOUS
 62
           3
100
AcDbLine
 10
8001.035672
 20
-15038.751489
 30
0.0
 11
8001.035672
 21
-15029.654387
 31
0.0
  0
LINE
  5
262
102
{ACAD_XDICTIONARY
360
4F4B000000000000
102
}
100
AcDbEntity
  8
$$15$9
  6
CONTINUOUS
 62
           3
100
AcDbLine
 10
8005.735667
 20
-15054.651492999999
 30
0.0
 11
7994.680757
 21
-15054.651492999999
 31
0.0
  0
LINE
  5
263
102
{ACAD_XDICTIONARY
360
4F4B000000000000
102
}
100
AcDbEntity
  8
$$12$7
  6
CONTINUOUS
 62
           3
100
AcDbLine
 10
8654.30783
 20
-14677.601479999999
 30
0.0
 11
8670.835660000001
 21
-14677.601479999999
 31
0.0
  0
LINE
  5
264
102
{ACAD_XDICTIONARY
360
4F4B000000000000
102
}
100
AcDbEntity
  8
$$12$7
  6
CONTINUOUS
 62
           3
100
AcDbLine
 10
8665.73566
 20
-14677.601479999999
 30
0.0
 11
8665.73566
 21
-14682.42937
 31
0.0
  0
LINE
  5
265
102
{ACAD_XDICTIONARY
360
4F4B000000000000
102
}
100
AcDbEntity
  8
$$12$7
  6
CONTINUOUS
 62
           3
100
AcDbLine
 10
8672.435669
 20
-14680.551496
 30
0.0
 11
8672.435669
 21
-14687.648483999999
 31
0.0
  0
LINE
  5
266
102
{ACAD_XDICTIONARY
360
4F4B000000000000
102
}
100
AcDbEntity
  8
$$12$7
  6
CONTINUOUS
 62
           3
100
AcDbLine
 10
8219.23567
 20
-14677.601479999999
 30
0.0
 11
8185.80781
 21
-14677.601479999999
 31
0.0
  0
LINE
  5
267
102
{ACAD_XDICTIONARY
360
4F4B000000000000
102
}
100
AcDbEntity
  8
$$12$7
  6
CONTINUOUS
 62
           3
100
AcDbLine
 10
8007.73567
 20
-14677.601479999999
 30
0.0
 11
8007.73567
 21
-14682.429400000001
 31
0.0
  0
LINE
  5
268
102
{ACAD_XDICTIONARY
360
4F4B000000000000
102
}
100
AcDbEntity
  8
$$12$7
  6
CONTINUOUS
 62
           3
100
AcDbLine
 10
8001.035679
 20
-14680.551496
 30
0.0
 11
8001.035679
 21
-14687.648506
 31
0.0
  0
LINE
  5
269
102
{ACAD_XDICTIONARY
360
4F4B000000000000
102
}
100
AcDbEntity
  8
$$12$7
  6
CONTINUOUS
 62
           3
100
AcDbLine
 10
8019.1636
 20
-14677.601479999999
 30
0.0
 11
8002.63567
 21
-14677.601479999999
 31
0.0
  0
LINE
  5
26A
102
{ACAD_XDICTIONARY
360
4F4B000000000000
102
}
100
AcDbEntity
  8
$$12$7
  6
CONTINUOUS
 62
           3
100
AcDbLine
 10
7988.335679
 20
-14680.551496
 30
0.0
 11
7988.335678
 21
-14731.653141000001
 31
0.0
  0
LINE
  5
26B
102
{ACAD_XDICTIONARY
360
4F4B000000000000
102
}
100
AcDbEntity
  8
$$12$7
  6
CONTINUOUS
 62
           3
100
AcDbLine
 10
7988.335672
 20
-15038.751495
 30
0.0
 11
7988.335673
 21
-14985.649676000001
 31
0.0
  0
LINE
  5
26C
102
{ACAD_XDICTIONARY
360
4F4B000000000000
102
}
100
AcDbEntity
  8
$$$$$$
  6
CONTINUOUS
 62
           5
100
AcDbLine
 10
8667.735672000001
 20
-15055.451492
 30
0.0
 11
8667.735672000001
 21
-15054.65149
 31
0.0
  0
LINE
  5
26D
102
{ACAD_XDICTIONARY
360
4F4B000000000000
102
}
100
AcDbEntity
  8
$$$$$$
  6
CONTINUOUS
 62
           5
100
AcDbLine
 10
8005.735667
 20
-15055.451487
 30
0.0
 11
8005.735667
 21
-15054.651485
 31
0.0
  0
ARC
  5
26E
102
{ACAD_XDICTIONARY
360
4F4B000000000000
102
}
100
AcDbEntity
  8
$_$X$$$$$$$N$X
  6
CONTINUOUS
 62
           4
100
AcDbCircle
 10
8644.643496000001
 20
-15000.886420999999
 30
0.0
 40
40.0
100
AcDbArc
 50
288.804014
 51
358.099839
  0
ARC
  5
26F
102
{ACAD_XDICTIONARY
360
4F4B000000000000
102
}
100
AcDbEntity
  8
$_$X$$$$$$$N$X
  6
CONTINUOUS
 62
           4
100
AcDbCircle
 10
8603.485645000001
 20
-15036.651517
 30
0.0
 40
6.0
100
AcDbArc
 50
339.512969
 51
0.0
  0
LINE
  5
270
102
{ACAD_XDICTIONARY
360
4F4B000000000000
102
}
100
AcDbEntity
  8
$_$X$$$$$$$N$X
  6
CONTINUOUS
 62
           4
100
AcDbLine
 10
8611.485629999999
 20
-15018.11642
 30
0.0
 11
8611.485629999999
 21
-15038.751490000001
 31
0.0
  0
ARC
  5
271
102
{ACAD_XDICTIONARY
360
4F4B000000000000
102
}
100
AcDbEntity
  8
$_$X$$$$$$$N$X
  6
CONTINUOUS
 62
           4
100
AcDbCircle
 10
8538.485645000001
 20
-15036.651517
 30
0.0
 40
6.0
100
AcDbArc
 50
180.0
 51
200.487042
  0
LINE
  5
272
102
{ACAD_XDICTIONARY
360
4F4B000000000000
102
}
100
AcDbEntity
  8
$_$X$$$$$$$N$X
  6
CONTINUOUS
 62
           4
100
AcDbLine
 10
8530.485629999999
 20
-15018.11642
 30
0.0
 11
8530.485629999999
 21
-15038.751490000001
 31
0.0
  0
ARC
  5
273
102
{ACAD_XDICTIONARY
360
4F4B000000000000
102
}
100
AcDbEntity
  8
$_$X$$$$$$$N$X
  6
CONTINUOUS
 62
           4
100
AcDbCircle
 10
8497.327815000001
 20
-15000.886431000001
 30
0.0
 40
40.0
100
AcDbArc
 50
181.900161
 51
251.195986
  0
ARC
  5
274
102
{ACAD_XDICTIONARY
360
4F4B000000000000
102
}
100
AcDbEntity
  8
$_$X$$$$$$$N$X
  6
CONTINUOUS
 62
           4
100
AcDbCircle
 10
8028.827864
 20
-15000.886451
 30
0.0
 40
40.0
100
AcDbArc
 50
181.900161
 51
251.195881
  0
LINE
  5
275
102
{ACAD_XDICTIONARY
360
4F4B000000000000
102
}
100
AcDbEntity
  8
$_$X$$$$$$$N$X
  6
CONTINUOUS
 62
           4
100
AcDbLine
 10
8061.9857
 20
-15018.11642
 30
0.0
 11
8061.9857
 21
-15038.751490000001
 31
0.0
  0
ARC
  5
276
102
{ACAD_XDICTIONARY
360
4F4B000000000000
102
}
100
AcDbEntity
  8
$_$X$$$$$$$N$X
  6
CONTINUOUS
 62
           4
100
AcDbCircle
 10
8069.985703
 20
-15036.651513000001
 30
0.0
 40
6.0
100
AcDbArc
 50
180.0
 51
200.487125
  0
ARC
  5
277
102
{ACAD_XDICTIONARY
360
4F4B000000000000
102
}
100
AcDbEntity
  8
$_$X$$$$$$$N$X
  6
CONTINUOUS
 62
           4
100
AcDbCircle
 10
8134.985703
 20
-15036.651513000001
 30
0.0
 40
6.0
100
AcDbArc
 50
339.512886
 51
0.0
  0
LINE
  5
278
102
{ACAD_XDICTIONARY
360
4F4B000000000000
102
}
100
AcDbEntity
  8
$_$X$$$$$$$N$X
  6
CONTINUOUS
 62
           4
100
AcDbLine
 10
8142.9857
 20
-15018.11642
 30
0.0
 11
8142.9857
 21
-15038.751490000001
 31
0.0
  0
ARC
  5
279
102
{ACAD_XDICTIONARY
360
4F4B000000000000
102
}
100
AcDbEntity
  8
$_$X$$$$$$$N$X
  6
CONTINUOUS
 62
           4
100
AcDbCircle
 10
8176.143545
 20
-15000.886461
 30
0.0
 40
40.0
100
AcDbArc
 50
288.804014
 51
358.099839
  0
LINE
  5
27A
102
{ACAD_XDICTIONARY
360
4F4B000000000000
102
}
100
AcDbEntity
  8
$$$$$$
  6
CONTINUOUS
 62
           6
100
AcDbLine
 10
7985.73572
 20
-15042.701489999999
 30
0.0
 11
7985.73572
 21
-15050.701489999999
 31
0.0
  0
ARC
  5
27B
102
{ACAD_XDICTIONARY
360
4F4B000000000000
102
}
100
AcDbEntity
  8
$$$$$$
  6
CONTINUOUS
 62
           6
100
AcDbCircle
 10
7988.735719
 20
-15046.701491
 30
0.0
 40
5.0
100
AcDbArc
 50
126.869897
 51
233.130103
  0
ELLIPSE
  5
27C
102
{ACAD_XDICTIONARY
360
4F4B000000000000
102
}
100
AcDbEntity
  8
$_$X$$$$$$$N$X
  6
CONTINUOUS
 62
           4
100
AcDbEllipse
 10
12520.185635
 20
-14858.651429
 30
0.0
 11
0.0000000000002651
 21
4329.6086036008282
 31
0.0
210
0.0
220
0.0
230
1.0
 40
0.993034
 41
1.5376322106062859
 42
1.6039604429835075
  0
ELLIPSE
  5
27D
102
{ACAD_XDICTIONARY
360
4F4B000000000000
102
}
100
AcDbEntity
  8
$_$X$$$$$$$N$X
  6
CONTINUOUS
 62
           4
100
AcDbEllipse
 10
8336.735656000001
 20
-16231.651379999999
 30
0.0
 11
1567.367945427857
 21
0.0
 31
0.0
210
0.0
220
0.0
230
1.0
 40
0.993385
 41
1.5225522749808462
 42
1.6190403786089471
  0
ELLIPSE
  5
27E
102
{ACAD_XDICTIONARY
360
4F4B000000000000
102
}
100
AcDbEntity
  8
$_$X$$$$$$$N$X
  6
CONTINUOUS
 62
           4
100
AcDbEllipse
 10
4153.285677
 20
-14858.651416999999
 30
0.0
 11
0.0000000000002651
 21
4329.6086036008282
 31
0.0
210
0.0
220
0.0
230
1.0
 40
0.993034
 41
4.6792248641960787
 42
4.7455530965733006
  0
ARC
  5
27F
102
{ACAD_XDICTIONARY
360
4F4B000000000000
102
}
100
AcDbEntity
  8
$_$X$$$$$$$N$X
  6
CONTINUOUS
 62
           4
100
AcDbCircle
 10
8410.393494
 20
-14716.416434999999
 30
0.0
 40
40.0
100
AcDbArc
 50
1.900161
 51
87.235819
  0
ARC
  5
280
102
{ACAD_XDICTIONARY
360
4F4B000000000000
102
}
100
AcDbEntity
  8
$_$X$$$$$$$N$X
  6
CONTINUOUS
 62
           4
100
AcDbCircle
 10
8263.07782
 20
-14716.416433
 30
0.0
 40
40.0
100
AcDbArc
 50
92.764181
 51
178.099839
  0
ELLIPSE
  5
281
102
{ACAD_XDICTIONARY
360
4F4B000000000000
102
}
100
AcDbEntity
  8
$_$X$$$$$$$N$X
  6
CONTINUOUS
 62
           4
100
AcDbEllipse
 10
8336.735656999999
 20
-16231.651377
 30
0.0
 11
1541.3679457568815
 21
0.0
 31
0.0
210
0.0
220
0.0
230
1.0
 40
0.993274
 41
1.5225522749808462
 42
1.6190403786089471
  0
ELLIPSE
  5
282
102
{ACAD_XDICTIONARY
360
4F4B000000000000
102
}
100
AcDbEntity
  8
$_$X$$$$$$$N$X
  6
CONTINUOUS
 62
           4
100
AcDbEllipse
 10
4153.28149
 20
-14858.651421
 30
0.0
 11
-0.0000000000007905
 21
-4303.608732741146
 31
0.0
210
0.0
220
0.0
230
1.0
 40
0.992993
 41
1.5707963267948968
 42
1.6039604429835075
  0
ELLIPSE
  5
283
102
{ACAD_XDICTIONARY
360
4F4B000000000000
102
}
100
AcDbEntity
  8
$_$X$$$$$$$N$X
  6
CONTINUOUS
 62
           4
100
AcDbEllipse
 10
12520.181436999999
 20
-14858.651433999999
 30
0.0
 11
-0.0000000000007905
 21
-4303.6087327691812
 31
0.0
210
0.0
220
0.0
230
1.0
 40
0.992991
 41
4.6792248641960787
 42
4.7123889803846897
  0
ARC
  5
284
102
{ACAD_XDICTIONARY
360
4F4B000000000000
102
}
100
AcDbEntity
  8
$_$X$$$$$$$N$X
  6
CONTINUOUS
 62
           4
100
AcDbCircle
 10
8410.393491999999
 20
-14716.416434000001
 30
0.0
 40
14.000013
100
AcDbArc
 50
1.900161
 51
87.235819
  0
ARC
  5
285
102
{ACAD_XDICTIONARY
360
4F4B000000000000
102
}
100
AcDbEntity
  8
$_$X$$$$$$$N$X
  6
CONTINUOUS
 62
           4
100
AcDbCircle
 10
8263.077813
 20
-14716.416434999999
 30
0.0
 40
14.000003
100
AcDbArc
 50
92.764178
 51
178.099836
  0
ELLIPSE
  5
286
102
{ACAD_XDICTIONARY
360
4F4B000000000000
102
}
100
AcDbEntity
  8
$_$X$$$$$$$N$X
  6
CONTINUOUS
 62
           4
100
AcDbEllipse
 10
8336.735654
 20
-16231.651381
 30
0.0
 11
1543.3679486772082
 21
0.0
 31
0.0
210
0.0
220
0.0
230
1.0
 40
0.993282
 41
1.5225522749808462
 42
1.6190403786089471
  0
ELLIPSE
  5
287
102
{ACAD_XDICTIONARY
360
4F4B000000000000
102
}
100
AcDbEntity
  8
$_$X$$$$$$$N$X
  6
CONTINUOUS
 62
           4
100
AcDbEllipse
 10
4153.281485
 20
-14858.651422000001
 30
0.0
 11
-0.0000000000007909
 21
-4305.6087278293198
 31
0.0
210
0.0
220
0.0
230
1.0
 40
0.992996
 41
1.5707963267948968
 42
1.6039604429835075
  0
ELLIPSE
  5
288
102
{ACAD_XDICTIONARY
360
4F4B000000000000
102
}
100
AcDbEntity
  8
$_$X$$$$$$$N$X
  6
CONTINUOUS
 62
           4
100
AcDbEllipse
 10
12520.181439
 20
-14858.651431
 30
0.0
 11
-0.0000000000007909
 21
-4305.6087288890712
 31
0.0
210
0.0
220
0.0
230
1.0
 40
0.992995
 41
4.6792248641960787
 42
4.7123889803846897
  0
ARC
  5
289
102
{ACAD_XDICTIONARY
360
4F4B000000000000
102
}
100
AcDbEntity
  8
$_$X$$$$$$$N$X
  6
CONTINUOUS
 62
           4
100
AcDbCircle
 10
8410.393493
 20
-14716.416429999999
 30
0.0
 40
16.000008
100
AcDbArc
 50
1.900161
 51
87.235819
  0
ARC
  5
28A
102
{ACAD_XDICTIONARY
360
4F4B000000000000
102
}
100
AcDbEntity
  8
$_$X$$$$$$$N$X
  6
CONTINUOUS
 62
           4
100
AcDbCircle
 10
8263.077814
 20
-14716.416436
 30
0.0
 40
16.000004
100
AcDbArc
 50
92.764178
 51
178.099836
  0
ELLIPSE
  5
28B
102
{ACAD_XDICTIONARY
360
4F4B000000000000
102
}
100
AcDbEntity
  8
$_$X$$$$$$$N$X
  6
CONTINUOUS
 62
           4
100
AcDbEllipse
 10
8336.735634999999
 20
-13485.651486999999
 30
0.0
 11
1541.3679457568815
 21
0.0
 31
0.0
210
0.0
220
0.0
230
1.0
 40
0.993274
 41
4.6641449285706402
 42
4.7606330321987409
  0
ELLIPSE
  5
28C
102
{ACAD_XDICTIONARY
360
4F4B000000000000
102
}
100
AcDbEntity
  8
$_$X$$$$$$$N$X
  6
CONTINUOUS
 62
           4
100
AcDbEllipse
 10
12520.180109000001
 20
-14858.651431
 30
0.0
 11
0.0000000000002635
 21
4303.6084667148598
 31
0.0
210
0.0
220
0.0
230
1.0
 40
0.992991
 41
1.5707963267948968
 42
1.6039604429835075
  0
ARC
  5
28D
102
{ACAD_XDICTIONARY
360
4F4B000000000000
102
}
100
AcDbEntity
  8
$_$X$$$$$$$N$X
  6
CONTINUOUS
 62
           4
100
AcDbCircle
 10
8410.393473
 20
-15000.886418
 30
0.0
 40
14.000013
100
AcDbArc
 50
272.764181
 51
358.099839
  0
ARC
  5
28E
102
{ACAD_XDICTIONARY
360
4F4B000000000000
102
}
100
AcDbEntity
  8
$_$X$$$$$$$N$X
  6
CONTINUOUS
 62
           4
100
AcDbCircle
 10
8263.077816999999
 20
-15000.886433
 30
0.0
 40
14.000003
100
AcDbArc
 50
181.900164
 51
267.235822
  0
ELLIPSE
  5
28F
102
{ACAD_XDICTIONARY
360
4F4B000000000000
102
}
100
AcDbEntity
  8
$_$X$$$$$$$N$X
  6
CONTINUOUS
 62
           4
100
AcDbEllipse
 10
4153.280159
 20
-14858.651421
 30
0.0
 11
0.0000000000002635
 21
4303.6084646325453
 31
0.0
210
0.0
220
0.0
230
1.0
 40
0.992994
 41
4.6792248641960787
 42
4.7123889803846897
  0
ELLIPSE
  5
290
102
{ACAD_XDICTIONARY
360
4F4B000000000000
102
}
100
AcDbEntity
  8
$_$X$$$$$$$N$X
  6
CONTINUOUS
 62
           4
100
AcDbEllipse
 10
4153.280152
 20
-14858.651421
 30
0.0
 11
0.0000000000002636
 21
4305.6084617749984
 31
0.0
210
0.0
220
0.0
230
1.0
 40
0.992997
 41
4.6792248641960787
 42
4.7123889803846897
  0
ELLIPSE
  5
291
102
{ACAD_XDICTIONARY
360
4F4B000000000000
102
}
100
AcDbEntity
  8
$_$X$$$$$$$N$X
  6
CONTINUOUS
 62
           4
100
AcDbEllipse
 10
12520.179995
 20
-14857.632452
 30
0.0
 11
0.0000000000002636
 21
4305.6084628347498
 31
0.0
210
0.0
220
0.0
230
1.0
 40
0.992994
 41
1.5707963267948968
 42
1.6039604429835075
  0
ARC
  5
292
102
{ACAD_XDICTIONARY
360
4F4B000000000000
102
}
100
AcDbEntity
  8
$_$X$$$$$$$N$X
  6
CONTINUOUS
 62
           4
100
AcDbCircle
 10
8410.393473
 20
-15000.886418
 30
0.0
 40
16.000008
100
AcDbArc
 50
272.764181
 51
358.099839
  0
ARC
  5
293
102
{ACAD_XDICTIONARY
360
4F4B000000000000
102
}
100
AcDbEntity
  8
$_$X$$$$$$$N$X
  6
CONTINUOUS
 62
           4
100
AcDbCircle
 10
8263.077816999999
 20
-15000.886433
 30
0.0
 40
16.000004
100
AcDbArc
 50
181.900164
 51
267.235822
  0
LINE
  5
294
102
{ACAD_XDICTIONARY
360
4F4B000000000000
102
}
100
AcDbEntity
  8
$_$X$$$$$$$N$X
  6
CONTINUOUS
 62
           4
100
AcDbLine
 10
8375.235629999999
 20
-15018.16797
 30
0.0
 11
8375.235629999999
 21
-15036.65149
 31
0.0
  0
LINE
  5
295
102
{ACAD_XDICTIONARY
360
4F4B000000000000
102
}
100
AcDbEntity
  8
$_$X$$$$$$$N$X
  6
CONTINUOUS
 62
           4
100
AcDbLine
 10
8298.235629999999
 20
-15018.16797
 30
0.0
 11
8298.235629999999
 21
-15036.65149
 31
0.0
  0
LINE
  5
296
102
{ACAD_XDICTIONARY
360
4F4B000000000000
102
}
100
AcDbEntity
  8
$_$X$$$$$$$N$X
  6
CONTINUOUS
 62
           2
100
AcDbLine
 10
8298.31955
 20
-15037.65149
 30
0.0
 11
8375.15171
 21
-15037.65149
 31
0.0
  0
LINE
  5
297
102
{ACAD_XDICTIONARY
360
4F4B000000000000
102
}
100
AcDbEntity
  8
$_$X$$$$$$$N$X
  6
CONTINUOUS
 62
           2
100
AcDbLine
 10
8298.235629999999
 20
-15027.65149
 30
0.0
 11
8375.235629999999
 21
-15027.65149
 31
0.0
  0
ELLIPSE
  5
298
102
{ACAD_XDICTIONARY
360
4F4B000000000000
102
}
100
AcDbEntity
  8
$_$X$$$$$$$N$X
  6
CONTINUOUS
 62
           4
100
AcDbEllipse
 10
8336.129884
 20
-13485.647677999999
 30
0.0
 11
1555.9288076932617
 21
0.0
 31
0.0
210
0.0
220
0.0
230
1.0
 40
0.985266
 41
4.7388108411914791
 42
4.7606330321987409
  0
ARC
  5
299
102
{ACAD_XDICTIONARY
360
4F4B000000000000
102
}
100
AcDbEntity
  8
$_$X$$$$$$$N$X
  6
CONTINUOUS
 62
           4
100
AcDbCircle
 10
8336.735645000001
 20
-13485.651517
 30
0.0
 40
1533.000003
100
AcDbArc
 50
268.560914
 51
271.439086
  0
ELLIPSE
  5
29A
102
{ACAD_XDICTIONARY
360
4F4B000000000000
102
}
100
AcDbEntity
  8
$_$X$$$$$$$N$X
  6
CONTINUOUS
 62
           4
100
AcDbEllipse
 10
8337.341385
 20
-13485.654027
 30
0.0
 11
1555.9287621789942
 21
0.0
 31
0.0
210
0.0
220
0.0
230
1.0
 40
0.985262
 41
4.6641449285706393
 42
4.6859671195779011
  0
TEXT
  5
29B
102
{ACAD_XDICTIONARY
360
4F4B000000000000
102
}
100
AcDbEntity
  8
$_$X$$$$$$$N$X
  6
CONTINUOUS
 62
           4
100
AcDbText
 10
8325.725638165
 20
-15036.08383
 30
0.0
 40
7.0
  1
PUSH
 41
0.857143
  7
txt
 72
           4
 11
8336.735640000001
 21
-15032.58383
 31
0.0
100
AcDbText
  0
LINE
  5
29C
102
{ACAD_XDICTIONARY
360
4F4B000000000000
102
}
100
AcDbEntity
  8
$_$X$$$$$$$N$X
  6
CONTINUOUS
 62
           2
100
AcDbLine
 10
8298.235629999999
 20
-15029.65149
 30
0.0
 11
8322.735629999999
 21
-15029.65149
 31
0.0
  0
LINE
  5
29D
102
{ACAD_XDICTIONARY
360
4F4B000000000000
102
}
100
AcDbEntity
  8
$_$X$$$$$$$N$X
  6
CONTINUOUS
 62
           2
100
AcDbLine
 10
8350.735629999999
 20
-15029.65149
 30
0.0
 11
8375.235629999999
 21
-15029.65149
 31
0.0
  0
LINE
  5
29E
102
{ACAD_XDICTIONARY
360
4F4B000000000000
102
}
100
AcDbEntity
  8
$_$X$$$$$$$N$X
  6
CONTINUOUS
 62
           2
100
AcDbLine
 10
8298.235629999999
 20
-15031.65149
 30
0.0
 11
8322.735629999999
 21
-15031.65149
 31
0.0
  0
LINE
  5
29F
102
{ACAD_XDICTIONARY
360
4F4B000000000000
102
}
100
AcDbEntity
  8
$_$X$$$$$$$N$X
  6
CONTINUOUS
 62
           2
100
AcDbLine
 10
8350.735629999999
 20
-15031.65149
 30
0.0
 11
8375.235629999999
 21
-15031.65149
 31
0.0
  0
LINE
  5
2A0
102
{ACAD_XDICTIONARY
360
4F4B000000000000
102
}
100
AcDbEntity
  8
$_$X$$$$$$$N$X
  6
CONTINUOUS
 62
           2
100
AcDbLine
 10
8298.235629999999
 20
-15033.65149
 30
0.0
 11
8322.735629999999
 21
-15033.65149
 31
0.0
  0
LINE
  5
2A1
102
{ACAD_XDICTIONARY
360
4F4B000000000000
102
}
100
AcDbEntity
  8
$_$X$$$$$$$N$X
  6
CONTINUOUS
 62
           2
100
AcDbLine
 10
8350.735629999999
 20
-15033.65149
 30
0.0
 11
8375.235629999999
 21
-15033.65149
 31
0.0
  0
LINE
  5
2A2
102
{ACAD_XDICTIONARY
360
4F4B000000000000
102
}
100
AcDbEntity
  8
$_$X$$$$$$$N$X
  6
CONTINUOUS
 62
           2
100
AcDbLine
 10
8298.235629999999
 20
-15035.65149
 30
0.0
 11
8322.735629999999
 21
-15035.65149
 31
0.0
  0
LINE
  5
2A3
102
{ACAD_XDICTIONARY
360
4F4B000000000000
102
}
100
AcDbEntity
  8
$_$X$$$$$$$N$X
  6
CONTINUOUS
 62
           2
100
AcDbLine
 10
8350.735629999999
 20
-15035.65149
 30
0.0
 11
8375.235629999999
 21
-15035.65149
 31
0.0
  0
LINE
  5
2A4
102
{ACAD_XDICTIONARY
360
4F4B000000000000
102
}
100
AcDbEntity
  8
$_$X$$$$$$$N$X
  6
CONTINUOUS
 62
           2
100
AcDbLine
 10
8350.735629999999
 20
-15029.65149
 30
0.0
 11
8350.735629999999
 21
-15031.65149
 31
0.0
  0
LINE
  5
2A5
102
{ACAD_XDICTIONARY
360
4F4B000000000000
102
}
100
AcDbEntity
  8
$_$X$$$$$$$N$X
  6
CONTINUOUS
 62
           2
100
AcDbLine
 10
8350.735629999999
 20
-15033.65149
 30
0.0
 11
8350.735629999999
 21
-15035.65149
 31
0.0
  0
LINE
  5
2A6
102
{ACAD_XDICTIONARY
360
4F4B000000000000
102
}
100
AcDbEntity
  8
$_$X$$$$$$$N$X
  6
CONTINUOUS
 62
           2
100
AcDbLine
 10
8322.735629999999
 20
-15029.65149
 30
0.0
 11
8322.735629999999
 21
-15031.65149
 31
0.0
  0
LINE
  5
2A7
102
{ACAD_XDICTIONARY
360
4F4B000000000000
102
}
100
AcDbEntity
  8
$_$X$$$$$$$N$X
  6
CONTINUOUS
 62
           2
100
AcDbLine
 10
8322.735629999999
 20
-15033.65149
 30
0.0
 11
8322.735629999999
 21
-15035.65149
 31
0.0
  0
ARC
  5
2A8
102
{ACAD_XDICTIONARY
360
4F4B000000000000
102
}
100
AcDbEntity
  8
$_$X$$$$$$$N$X
  6
CONTINUOUS
 62
           4
100
AcDbCircle
 10
8410.393496000001
 20
-15000.886420999999
 30
0.0
 40
40.0
100
AcDbArc
 50
288.804014
 51
358.099839
  0
ARC
  5
2A9
102
{ACAD_XDICTIONARY
360
4F4B000000000000
102
}
100
AcDbEntity
  8
$_$X$$$$$$$N$X
  6
CONTINUOUS
 62
           4
100
AcDbCircle
 10
8369.235645000001
 20
-15036.651517
 30
0.0
 40
6.0
100
AcDbArc
 50
339.512969
 51
0.0
  0
LINE
  5
2AA
102
{ACAD_XDICTIONARY
360
4F4B000000000000
102
}
100
AcDbEntity
  8
$_$X$$$$$$$N$X
  6
CONTINUOUS
 62
           4
100
AcDbLine
 10
8377.235629999999
 20
-15018.11642
 30
0.0
 11
8377.235629999999
 21
-15038.751490000001
 31
0.0
  0
ARC
  5
2AB
102
{ACAD_XDICTIONARY
360
4F4B000000000000
102
}
100
AcDbEntity
  8
$_$X$$$$$$$N$X
  6
CONTINUOUS
 62
           4
100
AcDbCircle
 10
8304.235645000001
 20
-15036.651517
 30
0.0
 40
6.0
100
AcDbArc
 50
180.0
 51
200.487042
  0
LINE
  5
2AC
102
{ACAD_XDICTIONARY
360
4F4B000000000000
102
}
100
AcDbEntity
  8
$_$X$$$$$$$N$X
  6
CONTINUOUS
 62
           4
100
AcDbLine
 10
8296.235629999999
 20
-15018.11642
 30
0.0
 11
8296.235629999999
 21
-15038.751490000001
 31
0.0
  0
ARC
  5
2AD
102
{ACAD_XDICTIONARY
360
4F4B000000000000
102
}
100
AcDbEntity
  8
$_$X$$$$$$$N$X
  6
CONTINUOUS
 62
           4
100
AcDbCircle
 10
8263.077815000001
 20
-15000.886431000001
 30
0.0
 40
40.0
100
AcDbArc
 50
181.900161
 51
251.195986
  0
LINE
  5
2AE
102
{ACAD_XDICTIONARY
360
4F4B000000000000
102
}
100
AcDbEntity
  8
$$12$7
  6
CONTINUOUS
 62
           3
100
AcDbLine
 10
8219.23567
 20
-14677.601479999999
 30
0.0
 11
8253.413479999999
 21
-14677.601479999999
 31
0.0
  0
LINE
  5
2AF
102
{ACAD_XDICTIONARY
360
4F4B000000000000
102
}
100
AcDbEntity
  8
$$12$7
  6
CONTINUOUS
 62
           3
100
AcDbLine
 10
8420.05783
 20
-14677.601479999999
 30
0.0
 11
8487.663479999999
 21
-14677.601479999999
 31
0.0
  0
LINE
  5
2B0
102
{ACAD_XDICTIONARY
360
4F4B000000000000
102
}
100
AcDbEntity
  8
$$15$9
  6
CONTINUOUS
 62
           3
100
AcDbLine
 10
8466.815553
 20
-15026.7515
 30
0.0
 11
8440.905751
 21
-15026.7515
 31
0.0
  0
LINE
  5
2B1
102
{ACAD_XDICTIONARY
360
4F4B000000000000
102
}
100
AcDbEntity
  8
$$15$9
  6
CONTINUOUS
 62
           3
100
AcDbLine
 10
8232.565552
 20
-15026.751501000001
 30
0.0
 11
8206.655826
 21
-15026.751501000001
 31
0.0
  0
LINE
  5
2B2
102
{ACAD_XDICTIONARY
360
4F4B000000000000
102
}
100
AcDbEntity
  8
$$15$9
  6
CONTINUOUS
 62
           3
100
AcDbLine
 10
8473.148953
 20
-15032.7515
 30
0.0
 11
8434.572346000001
 21
-15032.7515
 31
0.0
  0
LINE
  5
2B3
102
{ACAD_XDICTIONARY
360
4F4B000000000000
102
}
100
AcDbEntity
  8
$$15$9
  6
CONTINUOUS
 62
           3
100
AcDbLine
 10
8238.898953
 20
-15032.751501000001
 30
0.0
 11
8200.322437000001
 21
-15032.751501000001
 31
0.0
  0
CIRCLE
  5
2B4
102
{ACAD_XDICTIONARY
360
4F4B000000000000
102
}
100
AcDbEntity
  8
$$$$$$
  6
CONTINUOUS
 62
           5
100
AcDbCircle
 10
8486.735661000001
 20
-15417.885757
 30
0.0
 40
5.0
  0
CIRCLE
  5
2B5
102
{ACAD_XDICTIONARY
360
4F4B000000000000
102
}
100
AcDbEntity
  8
$$$$$$
  6
CONTINUOUS
 62
           5
100
AcDbCircle
 10
8486.735661000001
 20
-15477.885757
 30
0.0
 40
5.0
  0
CIRCLE
  5
2B6
102
{ACAD_XDICTIONARY
360
4F4B000000000000
102
}
100
AcDbEntity
  8
$$$$$$
  6
CONTINUOUS
 62
           5
100
AcDbCircle
 10
8486.735661000001
 20
-15537.885757
 30
0.0
 40
5.0
  0
CIRCLE
  5
2B7
102
{ACAD_XDICTIONARY
360
4F4B000000000000
102
}
100
AcDbEntity
  8
$$$$$$
  6
CONTINUOUS
 62
           5
100
AcDbCircle
 10
8486.735661000001
 20
-15597.885757
 30
0.0
 40
5.0
  0
CIRCLE
  5
2B8
102
{ACAD_XDICTIONARY
360
4F4B000000000000
102
}
100
AcDbEntity
  8
$$$$$$
  6
CONTINUOUS
 62
           5
100
AcDbCircle
 10
8486.735661000001
 20
-15657.885757
 30
0.0
 40
5.0
  0
CIRCLE
  5
2B9
102
{ACAD_XDICTIONARY
360
4F4B000000000000
102
}
100
AcDbEntity
  8
$$$$$$
  6
CONTINUOUS
 62
           5
100
AcDbCircle
 10
8546.735661000001
 20
-15417.885757
 30
0.0
 40
5.0
  0
CIRCLE
  5
2BA
102
{ACAD_XDICTIONARY
360
4F4B000000000000
102
}
100
AcDbEntity
  8
$$$$$$
  6
CONTINUOUS
 62
           5
100
AcDbCircle
 10
8546.735661000001
 20
-15477.885757
 30
0.0
 40
5.0
  0
CIRCLE
  5
2BB
102
{ACAD_XDICTIONARY
360
4F4B000000000000
102
}
100
AcDbEntity
  8
$$$$$$
  6
CONTINUOUS
 62
           5
100
AcDbCircle
 10
8546.735661000001
 20
-15537.885757
 30
0.0
 40
5.0
  0
CIRCLE
  5
2BC
102
{ACAD_XDICTIONARY
360
4F4B000000000000
102
}
100
AcDbEntity
  8
$$$$$$
  6
CONTINUOUS
 62
           5
100
AcDbCircle
 10
8546.735661000001
 20
-15597.885757
 30
0.0
 40
5.0
  0
CIRCLE
  5
2BD
102
{ACAD_XDICTIONARY
360
4F4B000000000000
102
}
100
AcDbEntity
  8
$$$$$$
  6
CONTINUOUS
 62
           5
100
AcDbCircle
 10
8546.735661000001
 20
-15657.885757
 30
0.0
 40
5.0
  0
CIRCLE
  5
2BE
102
{ACAD_XDICTIONARY
360
4F4B000000000000
102
}
100
AcDbEntity
  8
$$$$$$
  6
CONTINUOUS
 62
           5
100
AcDbCircle
 10
8606.735661000001
 20
-15417.885757
 30
0.0
 40
5.0
  0
CIRCLE
  5
2BF
102
{ACAD_XDICTIONARY
360
4F4B000000000000
102
}
100
AcDbEntity
  8
$$$$$$
  6
CONTINUOUS
 62
           5
100
AcDbCircle
 10
8606.735661000001
 20
-15477.885757
 30
0.0
 40
5.0
  0
CIRCLE
  5
2C0
102
{ACAD_XDICTIONARY
360
4F4B000000000000
102
}
100
AcDbEntity
  8
$$$$$$
  6
CONTINUOUS
 62
           5
100
AcDbCircle
 10
8606.735661000001
 20
-15537.885757
 30
0.0
 40
5.0
  0
CIRCLE
  5
2C1
102
{ACAD_XDICTIONARY
360
4F4B000000000000
102
}
100
AcDbEntity
  8
$$$$$$
  6
CONTINUOUS
 62
           5
100
AcDbCircle
 10
8606.735661000001
 20
-15597.885757
 30
0.0
 40
5.0
  0
CIRCLE
  5
2C2
102
{ACAD_XDICTIONARY
360
4F4B000000000000
102
}
100
AcDbEntity
  8
$$$$$$
  6
CONTINUOUS
 62
           5
100
AcDbCircle
 10
8606.735661000001
 20
-15657.885757
 30
0.0
 40
5.0
  0
CIRCLE
  5
2C3
102
{ACAD_XDICTIONARY
360
4F4B000000000000
102
}
100
AcDbEntity
  8
$$$$$$
  6
CONTINUOUS
 62
           5
100
AcDbCircle
 10
8246.735661000001
 20
-15417.885757
 30
0.0
 40
5.0
  0
CIRCLE
  5
2C4
102
{ACAD_XDICTIONARY
360
4F4B000000000000
102
}
100
AcDbEntity
  8
$$$$$$
  6
CONTINUOUS
 62
           5
100
AcDbCircle
 10
8246.735661000001
 20
-15477.885757
 30
0.0
 40
5.0
  0
CIRCLE
  5
2C5
102
{ACAD_XDICTIONARY
360
4F4B000000000000
102
}
100
AcDbEntity
  8
$$$$$$
  6
CONTINUOUS
 62
           5
100
AcDbCircle
 10
8246.735661000001
 20
-15537.885757
 30
0.0
 40
5.0
  0
CIRCLE
  5
2C6
102
{ACAD_XDICTIONARY
360
4F4B000000000000
102
}
100
AcDbEntity
  8
$$$$$$
  6
CONTINUOUS
 62
           5
100
AcDbCircle
 10
8246.735661000001
 20
-15597.885757
 30
0.0
 40
5.0
  0
CIRCLE
  5
2C7
102
{ACAD_XDICTIONARY
360
4F4B000000000000
102
}
100
AcDbEntity
  8
$$$$$$
  6
CONTINUOUS
 62
           5
100
AcDbCircle
 10
8246.735661000001
 20
-15657.885757
 30
0.0
 40
5.0
  0
CIRCLE
  5
2C8
102
{ACAD_XDICTIONARY
360
4F4B000000000000
102
}
100
AcDbEntity
  8
$$$$$$
  6
CONTINUOUS
 62
           5
100
AcDbCircle
 10
8186.735661
 20
-15417.885757
 30
0.0
 40
5.0
  0
CIRCLE
  5
2C9
102
{ACAD_XDICTIONARY
360
4F4B000000000000
102
}
100
AcDbEntity
  8
$$$$$$
  6
CONTINUOUS
 62
           5
100
AcDbCircle
 10
8186.735661
 20
-15477.885757
 30
0.0
 40
5.0
  0
CIRCLE
  5
2CA
102
{ACAD_XDICTIONARY
360
4F4B000000000000
102
}
100
AcDbEntity
  8
$$$$$$
  6
CONTINUOUS
 62
           5
100
AcDbCircle
 10
8186.735661
 20
-15537.885757
 30
0.0
 40
5.0
  0
CIRCLE
  5
2CB
102
{ACAD_XDICTIONARY
360
4F4B000000000000
102
}
100
AcDbEntity
  8
$$$$$$
  6
CONTINUOUS
 62
           5
100
AcDbCircle
 10
8186.735661
 20
-15597.885757
 30
0.0
 40
5.0
  0
CIRCLE
  5
2CC
102
{ACAD_XDICTIONARY
360
4F4B000000000000
102
}
100
AcDbEntity
  8
$$$$$$
  6
CONTINUOUS
 62
           5
100
AcDbCircle
 10
8186.735661
 20
-15657.885757
 30
0.0
 40
5.0
  0
CIRCLE
  5
2CD
102
{ACAD_XDICTIONARY
360
4F4B000000000000
102
}
100
AcDbEntity
  8
$$$$$$
  6
CONTINUOUS
 62
           5
100
AcDbCircle
 10
8126.735661
 20
-15417.885757
 30
0.0
 40
5.0
  0
CIRCLE
  5
2CE
102
{ACAD_XDICTIONARY
360
4F4B000000000000
102
}
100
AcDbEntity
  8
$$$$$$
  6
CONTINUOUS
 62
           5
100
AcDbCircle
 10
8126.735661
 20
-15477.885757
 30
0.0
 40
5.0
  0
CIRCLE
  5
2CF
102
{ACAD_XDICTIONARY
360
4F4B000000000000
102
}
100
AcDbEntity
  8
$$$$$$
  6
CONTINUOUS
 62
           5
100
AcDbCircle
 10
8126.735661
 20
-15537.885757
 30
0.0
 40
5.0
  0
CIRCLE
  5
2D0
102
{ACAD_XDICTIONARY
360
4F4B000000000000
102
}
100
AcDbEntity
  8
$$$$$$
  6
CONTINUOUS
 62
           5
100
AcDbCircle
 10
8126.735661
 20
-15597.885757
 30
0.0
 40
5.0
  0
CIRCLE
  5
2D1
102
{ACAD_XDICTIONARY
360
4F4B000000000000
102
}
100
AcDbEntity
  8
$$$$$$
  6
CONTINUOUS
 62
           5
100
AcDbCircle
 10
8126.735661
 20
-15657.885757
 30
0.0
 40
5.0
  0
CIRCLE
  5
2D2
102
{ACAD_XDICTIONARY
360
4F4B000000000000
102
}
100
AcDbEntity
  8
$$$$$$
  6
CONTINUOUS
 62
           5
100
AcDbCircle
 10
8066.735661
 20
-15417.885757
 30
0.0
 40
5.0
  0
CIRCLE
  5
2D3
102
{ACAD_XDICTIONARY
360
4F4B000000000000
102
}
100
AcDbEntity
  8
$$$$$$
  6
CONTINUOUS
 62
           5
100
AcDbCircle
 10
8066.735661
 20
-15477.885757
 30
0.0
 40
5.0
  0
CIRCLE
  5
2D4
102
{ACAD_XDICTIONARY
360
4F4B000000000000
102
}
100
AcDbEntity
  8
$$$$$$
  6
CONTINUOUS
 62
           5
100
AcDbCircle
 10
8066.735661
 20
-15537.885757
 30
0.0
 40
5.0
  0
CIRCLE
  5
2D5
102
{ACAD_XDICTIONARY
360
4F4B000000000000
102
}
100
AcDbEntity
  8
$$$$$$
  6
CONTINUOUS
 62
           5
100
AcDbCircle
 10
8066.735661
 20
-15597.885757
 30
0.0
 40
5.0
  0
CIRCLE
  5
2D6
102
{ACAD_XDICTIONARY
360
4F4B000000000000
102
}
100
AcDbEntity
  8
$$$$$$
  6
CONTINUOUS
 62
           5
100
AcDbCircle
 10
8066.735661
 20
-15657.885757
 30
0.0
 40
5.0
  0
DIMENSION
  5
2E4
102
{ACAD_XDICTIONARY
360
4F4B000000000000
102
}
100
AcDbEntity
  8
$$$$
  6
CONTINUOUS
 62
           2
100
AcDbDimension
  2
*D2
 10
7982.73567
 20
-15181.626581
 30
0.0
 11
8337.331394999999
 21
-15174.12658
 31
0.0
 70
         160
 71
           5
 72
           1
 41
1.0
 42
0.0
  3
MSADIM
100
AcDbAlignedDimension
 13
8690.73566
 23
-15377.565780999999
 33
0.0
 14
7982.73567
 24
-15377.565780999999
 34
0.0
100
AcDbRotatedDimension
  0
DIMENSION
  5
2F2
102
{ACAD_XDICTIONARY
360
4F4B000000000000
102
}
100
AcDbEntity
  8
$$$$
  6
CONTINUOUS
 62
           2
100
AcDbDimension
  2
*D3
 10
9061.67503
 20
-15181.626571000001
 30
0.0
 11
9270.7798
 21
-15174.12657
 31
0.0
 70
         160
 71
           5
 72
           1
 41
1.0
 42
0.0
  3
MSADIM
100
AcDbAlignedDimension
 13
9455.525019999999
 23
-15377.565771
 33
0.0
 14
9061.67503
 24
-15304.390721
 34
0.0
100
AcDbRotatedDimension
  0
TEXT
  5
2F3
102
{ACAD_XDICTIONARY
360
4F4B000000000000
102
}
100
AcDbEntity
  8
$$$$$$
  6
CONTINUOUS
 62
           2
100
AcDbText
 10
9264.05694
 20
-14586.75267
 30
0.0
 40
18.32914
  1
図　番
 41
0.75
  7
BIGFONT
100
AcDbText
  0
TEXT
  5
2F4
102
{ACAD_XDICTIONARY
360
4F4B000000000000
102
}
100
AcDbEntity
  8
$$$$$$
  6
CONTINUOUS
 62
           2
100
AcDbText
 10
9180.013709999999
 20
-14586.75267
 30
0.0
 40
18.32914
  1
番号
 41
0.75
  7
BIGFONT
100
AcDbText
  0
TEXT
  5
2F5
102
{ACAD_XDICTIONARY
360
4F4B000000000000
102
}
100
AcDbEntity
  8
$$$$$$
  6
CONTINUOUS
 62
           2
100
AcDbText
 10
9395.329900000001
 20
-14586.75267
 30
0.0
 40
18.32914
  1
部品名／図名
 41
0.75
  7
BIGFONT
100
AcDbText
  0
LINE
  5
2F6
102
{ACAD_XDICTIONARY
360
4F4B000000000000
102
}
100
AcDbEntity
  8
1
  6
CONTINUOUS
 62
           3
100
AcDbLine
 10
9216.333283
 20
-14560.465227999999
 30
0.0
 11
9216.333283
 21
-14732.300950000001
 31
0.0
  0
LINE
  5
2F7
102
{ACAD_XDICTIONARY
360
4F4B000000000000
102
}
100
AcDbEntity
  8
1
  6
CONTINUOUS
 62
           3
100
AcDbLine
 10
9353.801861
 20
-14560.465227999999
 30
0.0
 11
9353.801861
 21
-14732.300950000001
 31
0.0
  0
LINE
  5
2F8
102
{ACAD_XDICTIONARY
360
4F4B000000000000
102
}
100
AcDbEntity
  8
1
  6
CONTINUOUS
 62
           3
100
AcDbLine
 10
9170.510424
 20
-14594.832372000001
 30
0.0
 11
9995.321975999999
 21
-14594.832372000001
 31
0.0
  0
LINE
  5
2F9
102
{ACAD_XDICTIONARY
360
4F4B000000000000
102
}
100
AcDbEntity
  8
1
  6
CONTINUOUS
 62
           3
100
AcDbLine
 10
9170.510424
 20
-14629.199516999999
 30
0.0
 11
9995.321975999999
 21
-14629.199516999999
 31
0.0
  0
LINE
  5
2FA
102
{ACAD_XDICTIONARY
360
4F4B000000000000
102
}
100
AcDbEntity
  8
1
  6
CONTINUOUS
 62
           3
100
AcDbLine
 10
9170.510424
 20
-14663.566661000001
 30
0.0
 11
9995.321975999999
 21
-14663.566661000001
 31
0.0
  0
LINE
  5
2FB
102
{ACAD_XDICTIONARY
360
4F4B000000000000
102
}
100
AcDbEntity
  8
1
  6
CONTINUOUS
 62
           3
100
AcDbLine
 10
9170.510424
 20
-14697.933805999999
 30
0.0
 11
9995.321975999999
 21
-14697.933805999999
 31
0.0
  0
LINE
  5
2FC
102
{ACAD_XDICTIONARY
360
4F4B000000000000
102
}
100
AcDbEntity
  8
1
  6
CONTINUOUS
 62
           3
100
AcDbLine
 10
9170.510424
 20
-14732.300950000001
 30
0.0
 11
9995.321975999999
 21
-14732.300950000001
 31
0.0
  0
LINE
  5
2FD
102
{ACAD_XDICTIONARY
360
4F4B000000000000
102
}
100
AcDbEntity
  8
1
  6
CONTINUOUS
 62
           3
100
AcDbLine
 10
9216.333283
 20
-14594.832372000001
 30
0.0
 11
9674.561876
 21
-14594.832372000001
 31
0.0
  0
LINE
  5
2FE
102
{ACAD_XDICTIONARY
360
4F4B000000000000
102
}
100
AcDbEntity
  8
1
  6
CONTINUOUS
 62
           3
100
AcDbLine
 10
9216.333283
 20
-14629.199516999999
 30
0.0
 11
9674.561876
 21
-14629.199516999999
 31
0.0
  0
LINE
  5
2FF
102
{ACAD_XDICTIONARY
360
4F4B000000000000
102
}
100
AcDbEntity
  8
1
  6
CONTINUOUS
 62
           3
100
AcDbLine
 10
9216.333283
 20
-14663.566661000001
 30
0.0
 11
9674.561876
 21
-14663.566661000001
 31
0.0
  0
LINE
  5
300
102
{ACAD_XDICTIONARY
360
4F4B000000000000
102
}
100
AcDbEntity
  8
1
  6
CONTINUOUS
 62
           3
100
AcDbLine
 10
9216.333283
 20
-14697.933805999999
 30
0.0
 11
9674.561876
 21
-14697.933805999999
 31
0.0
  0
LINE
  5
301
102
{ACAD_XDICTIONARY
360
4F4B000000000000
102
}
100
AcDbEntity
  8
1
  6
CONTINUOUS
 62
           3
100
AcDbLine
 10
9216.333283
 20
-14732.300950000001
 30
0.0
 11
9674.561876
 21
-14732.300950000001
 31
0.0
  0
TEXT
  5
302
102
{ACAD_XDICTIONARY
360
4F4B000000000000
102
}
100
AcDbEntity
  8
$$$$$$
  6
CONTINUOUS
 62
           2
100
AcDbText
 10
9895.39084
 20
-14586.75267
 30
0.0
 40
18.32914
  1
摘要／備考
 41
0.75
  7
BIGFONT
100
AcDbText
  0
TEXT
  5
303
102
{ACAD_XDICTIONARY
360
4F4B000000000000
102
}
100
AcDbEntity
  8
$$$$$$
  6
CONTINUOUS
 62
           2
100
AcDbText
 10
9822.124400000001
 20
-14586.75267
 30
0.0
 40
18.32914
  1
個数
 41
0.75
  7
BIGFONT
100
AcDbText
  0
TEXT
  5
304
102
{ACAD_XDICTIONARY
360
4F4B000000000000
102
}
100
AcDbEntity
  8
$$$$$$
  6
CONTINUOUS
 62
           2
100
AcDbText
 10
9832.13797
 20
-14621.119919999999
 30
0.0
 40
18.32923
  1
1
 41
0.749995
  7
BIGFONT
100
AcDbText
  0
TEXT
  5
305
102
{ACAD_XDICTIONARY
360
4F4B000000000000
102
}
100
AcDbEntity
  8
$$$$$$
  6
CONTINUOUS
 62
           2
100
AcDbText
 10
9832.13797
 20
-14655.48698
 30
0.0
 40
18.32923
  1
1
 41
0.749995
  7
BIGFONT
100
AcDbText
  0
TEXT
  5
306
102
{ACAD_XDICTIONARY
360
4F4B000000000000
102
}
100
AcDbEntity
  8
$$$$$$
  6
CONTINUOUS
 62
           2
100
AcDbText
 10
9863.7431
 20
-14621.119919999999
 30
0.0
 40
18.32923
  1
シルバーメタリック
 41
0.749995
  7
BIGFONT
100
AcDbText
  0
TEXT
  5
307
102
{ACAD_XDICTIONARY
360
4F4B000000000000
102
}
100
AcDbEntity
  8
$$$$$$
  6
CONTINUOUS
 62
           2
100
AcDbText
 10
9863.7431
 20
-14655.48702
 30
0.0
 40
18.32923
  1
シルバーメタリック
 41
0.749995
  7
BIGFONT
100
AcDbText
  0
INSERT
  5
30D
102
{ACAD_XDICTIONARY
360
4F4B000000000000
102
}
100
AcDbEntity
  8
$$$$$$
  6
CONTINUOUS
 62
           3
100
AcDbBlockReference
  2
*U4
 10
9193.493469999999
 20
-14611.24329
 30
0.0
  0
INSERT
  5
313
102
{ACAD_XDICTIONARY
360
4F4B000000000000
102
}
100
AcDbEntity
  8
$$$$$$
  6
CONTINUOUS
 62
           3
100
AcDbBlockReference
  2
*U5
 10
9193.493469999999
 20
-14646.20513
 30
0.0
  0
INSERT
  5
319
102
{ACAD_XDICTIONARY
360
4F4B000000000000
102
}
100
AcDbEntity
  8
$$$$$$
  6
CONTINUOUS
 62
           3
100
AcDbBlockReference
  2
*U6
 10
9193.493469999999
 20
-14680.57238
 30
0.0
  0
TEXT
  5
31A
102
{ACAD_XDICTIONARY
360
4F4B000000000000
102
}
100
AcDbEntity
  8
$$$$$$
  6
CONTINUOUS
 62
           2
100
AcDbText
 10
9829.810750000001
 20
-14724.342909999999
 30
0.0
 40
18.32923
  1
2
 41
0.749995
  7
BIGFONT
100
AcDbText
  0
TEXT
  5
31B
102
{ACAD_XDICTIONARY
360
4F4B000000000000
102
}
100
AcDbEntity
  8
$$$$$$
  6
CONTINUOUS
 62
           2
100
AcDbText
 10
9360.575080000001
 20
-14724.342909999999
 30
0.0
 40
18.32923
  1
ダストボックス
 41
0.749995
  7
BIGFONT
100
AcDbText
  0
TEXT
  5
31C
102
{ACAD_XDICTIONARY
360
4F4B000000000000
102
}
100
AcDbEntity
  8
$$$$$$
  6
CONTINUOUS
 62
           2
100
AcDbText
 10
9544.45947
 20
-14655.48702
 30
0.0
 40
18.32923
  1
SPCC t0.8
 41
0.749995
  7
BIGFONT
100
AcDbText
  0
TEXT
  5
31D
102
{ACAD_XDICTIONARY
360
4F4B000000000000
102
}
100
AcDbEntity
  8
$$$$$$
  6
CONTINUOUS
 62
           2
100
AcDbText
 10
9360.575080000001
 20
-14621.119919999999
 30
0.0
 40
18.32923
  1
ワゴン本体
 41
0.749995
  7
BIGFONT
100
AcDbText
  0
TEXT
  5
31E
102
{ACAD_XDICTIONARY
360
4F4B000000000000
102
}
100
AcDbEntity
  8
$$$$$$
  6
CONTINUOUS
 62
           2
100
AcDbText
 10
9360.575080000001
 20
-14655.48698
 30
0.0
 40
18.32923
  1
パネル
 41
0.749995
  7
BIGFONT
100
AcDbText
  0
TEXT
  5
31F
102
{ACAD_XDICTIONARY
360
4F4B000000000000
102
}
100
AcDbEntity
  8
$$$$$$
  6
CONTINUOUS
 62
           2
100
AcDbText
 10
9544.45947
 20
-14621.119919999999
 30
0.0
 40
18.32923
  1
STKM,SPCC
 41
0.749995
  7
BIGFONT
100
AcDbText
  0
INSERT
  5
325
102
{ACAD_XDICTIONARY
360
4F4B000000000000
102
}
100
AcDbEntity
  8
$$$$$$
  6
CONTINUOUS
 62
           3
100
AcDbBlockReference
  2
*U7
 10
9193.493479999999
 20
-14714.939420000001
 30
0.0
  0
TEXT
  5
326
102
{ACAD_XDICTIONARY
360
4F4B000000000000
102
}
100
AcDbEntity
  8
$$$$$$
  6
CONTINUOUS
 62
           2
100
AcDbText
 10
9682.89237
 20
-14724.342909999999
 30
0.0
 40
18.32923
  1
ブルー
 41
0.749995
  7
BIGFONT
100
AcDbText
  0
TEXT
  5
327
102
{ACAD_XDICTIONARY
360
4F4B000000000000
102
}
100
AcDbEntity
  8
$$$$$$
  6
CONTINUOUS
 62
           2
100
AcDbText
 10
9863.7431
 20
-14723.13689
 30
0.0
 40
18.32923
  1
サンコー
 41
0.749995
  7
BIGFONT
100
AcDbText
  0
TEXT
  5
328
102
{ACAD_XDICTIONARY
360
4F4B000000000000
102
}
100
AcDbEntity
  8
$$$$$$
  6
CONTINUOUS
 62
           2
100
AcDbText
 10
9680.81263
 20
-14620.6301
 30
0.0
 40
16.49631
  1
アクリル塗装
 41
0.749995
  7
BIGFONT
100
AcDbText
  0
TEXT
  5
329
102
{ACAD_XDICTIONARY
360
4F4B000000000000
102
}
100
AcDbEntity
  8
$$$$$$
  6
CONTINUOUS
 62
           2
100
AcDbText
 10
9680.81263
 20
-14654.265170000001
 30
0.0
 40
16.49631
  1
アクリル塗装
 41
0.749995
  7
BIGFONT
100
AcDbText
  0
TEXT
  5
32A
102
{ACAD_XDICTIONARY
360
4F4B000000000000
102
}
100
AcDbEntity
  8
$$$$$$
  6
CONTINUOUS
 62
           2
100
AcDbText
 10
9226.63688
 20
-14621.1201
 30
0.0
 40
18.32923
  1
J55-K01
 41
0.749995
  7
BIGFONT
100
AcDbText
  0
TEXT
  5
32B
102
{ACAD_XDICTIONARY
360
4F4B000000000000
102
}
100
AcDbEntity
  8
$$$$$$
  6
CONTINUOUS
 62
           2
100
AcDbText
 10
9226.63688
 20
-14655.48717
 30
0.0
 40
18.32923
  1
J55-K02
 41
0.749995
  7
BIGFONT
100
AcDbText
  0
TEXT
  5
32C
102
{ACAD_XDICTIONARY
360
4F4B000000000000
102
}
100
AcDbEntity
  8
$$$$$$
  6
CONTINUOUS
 62
           2
100
AcDbText
 10
9829.810750000001
 20
-14689.97572
 30
0.0
 40
18.32923
  1
4
 41
0.749995
  7
BIGFONT
100
AcDbText
  0
LINE
  5
32D
102
{ACAD_XDICTIONARY
360
4F4B000000000000
102
}
100
AcDbEntity
  8
1
  6
CONTINUOUS
 62
           3
100
AcDbLine
 10
9170.510424
 20
-14560.465227999999
 30
0.0
 11
9170.510424
 21
-14732.300950000001
 31
0.0
  0
LINE
  5
32E
102
{ACAD_XDICTIONARY
360
4F4B000000000000
102
}
100
AcDbEntity
  8
1
  6
CONTINUOUS
 62
           3
100
AcDbLine
 10
9537.093298
 20
-14560.465227999999
 30
0.0
 11
9537.093298
 21
-14732.300950000001
 31
0.0
  0
LINE
  5
32F
102
{ACAD_XDICTIONARY
360
4F4B000000000000
102
}
100
AcDbEntity
  8
1
  6
CONTINUOUS
 62
           3
100
AcDbLine
 10
9812.030498
 20
-14560.465227999999
 30
0.0
 11
9812.030498
 21
-14732.300950000001
 31
0.0
  0
LINE
  5
330
102
{ACAD_XDICTIONARY
360
4F4B000000000000
102
}
100
AcDbEntity
  8
1
  6
CONTINUOUS
 62
           3
100
AcDbLine
 10
9857.853397999999
 20
-14560.465227999999
 30
0.0
 11
9857.853397999999
 21
-14732.300950000001
 31
0.0
  0
TEXT
  5
331
102
{ACAD_XDICTIONARY
360
4F4B000000000000
102
}
100
AcDbEntity
  8
$$$$$$
  6
CONTINUOUS
 62
           2
100
AcDbText
 10
9543.15525
 20
-14719.306119999999
 30
0.0
 40
12.02581
  1
PP/スリムプッシュ26.5L
 41
0.749994
  7
BIGFONT
100
AcDbText
  0
TEXT
  5
332
102
{ACAD_XDICTIONARY
360
4F4B000000000000
102
}
100
AcDbEntity
  8
$$$$$$
  6
CONTINUOUS
 62
           2
100
AcDbText
 10
9360.575080000001
 20
-14689.97572
 30
0.0
 40
18.32923
  1
パネル取付ねじ
 41
0.749995
  7
BIGFONT
100
AcDbText
  0
TEXT
  5
333
102
{ACAD_XDICTIONARY
360
4F4B000000000000
102
}
100
AcDbEntity
  8
$$$$$$
  6
CONTINUOUS
 62
           2
100
AcDbText
 10
9570.719950000001
 20
-14586.75267
 30
0.0
 40
18.32914
  1
材質／規格／処理
 41
0.75
  7
BIGFONT
100
AcDbText
  0
TEXT
  5
334
102
{ACAD_XDICTIONARY
360
4F4B000000000000
102
}
100
AcDbEntity
  8
$$$$$$
  6
CONTINUOUS
 62
           2
100
AcDbText
 10
9544.45947
 20
-14689.97572
 30
0.0
 40
18.32923
  1
トラス3.5×10タ ッピング/黒めっき
 41
0.749995
  7
BIGFONT
100
AcDbText
  0
TEXT
  5
335
102
{ACAD_XDICTIONARY
360
4F4B000000000000
102
}
100
AcDbEntity
  8
1
  6
CONTINUOUS
 62
           2
100
AcDbText
 10
9685.30183
 20
-15993.996163333333
 30
0.0
 40
20.0
  1
パネル付ダストボックスワゴン　Ｊ５５
 41
0.75
  7
BIGFONT
 72
           4
 11
9844.30183
 21
-15983.662829999999
 31
0.0
100
AcDbText
  0
TEXT
  5
336
102
{ACAD_XDICTIONARY
360
4F4B000000000000
102
}
100
AcDbEntity
  8
1
  6
CONTINUOUS
 62
           2
100
AcDbText
 10
9800.80183
 20
-16029.662829999999
 30
0.0
 40
20.0
  1
３連タイプ
 41
0.75
  7
BIGFONT
 72
           4
 11
9844.30183
 21
-16019.662829999999
 31
0.0
100
AcDbText
  0
TEXT
  5
337
102
{ACAD_XDICTIONARY
360
4F4B000000000000
102
}
100
AcDbEntity
  8
1
  6
CONTINUOUS
 62
           2
100
AcDbText
 10
9449.43902
 20
-15993.996163333333
 30
0.0
 40
20.0
  1
ダストボックスワゴン
 41
0.75
  7
BIGFONT
 72
           4
 11
9537.68902
 21
-15983.662829999999
 31
0.0
100
AcDbText
  0
TEXT
  5
338
102
{ACAD_XDICTIONARY
360
4F4B000000000000
102
}
100
AcDbEntity
  8
1
  6
CONTINUOUS
 62
           2
100
AcDbText
 10
9494.18903
 20
-16029.662829999999
 30
0.0
 40
20.0
  1
３連タイプ
 41
0.75
  7
BIGFONT
 72
           4
 11
9537.68903
 21
-16019.662829999999
 31
0.0
100
AcDbText
  0
TEXT
  5
339
102
{ACAD_XDICTIONARY
360
4F4B000000000000
102
}
100
AcDbEntity
  8
1
  6
CONTINUOUS
 62
           2
100
AcDbText
 10
9223.497140000001
 20
-15993.66282
 30
0.0
 40
20.0
  1
J55-GAIKAN
 41
0.75
  7
BIGFONT
 72
           4
 11
9293.547140000001
 21
-15983.66282
 31
0.0
100
AcDbText
  0
TEXT
  5
33A
102
{ACAD_XDICTIONARY
360
4F4B000000000000
102
}
100
AcDbEntity
  8
1
  6
CONTINUOUS
 62
           2
100
AcDbText
 10
8989.873439999999
 20
-16029.66282
 30
0.0
 40
20.0
  1
05.8.10
 41
0.75
  7
BIGFONT
 72
           4
 11
9024.82344
 21
-16019.66282
 31
0.0
100
AcDbText
  0
INSERT
  5
340
102
{ACAD_XDICTIONARY
360
4F4B000000000000
102
}
100
AcDbEntity
  8
$$$$$$
  6
CONTINUOUS
 62
           3
100
AcDbBlockReference
  2
*U8
 10
8907.930850000001
 20
-15506.35468
 30
0.0
  0
INSERT
  5
346
102
{ACAD_XDICTIONARY
360
4F4B000000000000
102
}
100
AcDbEntity
  8
$$$$$$
  6
CONTINUOUS
 62
           3
100
AcDbBlockReference
  2
*U9
 10
8909.345069999999
 20
-15584.05582
 30
0.0
  0
TEXT
  5
347
102
{ACAD_XDICTIONARY
360
4F4B000000000000
102
}
100
AcDbEntity
  8
1
  6
CONTINUOUS
 62
           3
100
AcDbText
 10
9671.123743100001
 20
-16057.514209999999
 30
0.0
 40
15.0
  1
設計課‐文書　様式－Ｄ－０１０（０３.１１.７　改訂１版）
 41
0.666667
  7
BIGFONT
 72
           4
 11
9831.590490000001
 21
-16050.014209999999
 31
0.0
100
AcDbText
  0
TEXT
  5
348
102
{ACAD_XDICTIONARY
360
4F4B000000000000
102
}
100
AcDbEntity
  8
$$$$$$
  6
CONTINUOUS
 62
           2
100
AcDbText
 10
9477.274114057043
 20
-14981.56417
 30
0.0
 40
20.12012
  1
３、取付ねじ周りに、バリ、メクレ等なきこと。
 41
0.857133
  7
BIGFONT
 72
           4
 11
9696.580900000001
 21
-14971.50411
 31
0.0
100
AcDbText
  0
LINE
  5
349
102
{ACAD_XDICTIONARY
360
4F4B000000000000
102
}
100
AcDbEntity
  8
$$$$$$
  6
CONTINUOUS
 62
           2
100
AcDbLine
 10
9506.06907
 20
-14989.231110000001
 30
0.0
 11
9941.90295
 21
-14989.231110000001
 31
0.0
  0
DIMENSION
  5
358
102
{ACAD_XDICTIONARY
360
4F4B000000000000
102
}
100
AcDbEntity
  8
$$$S$$
  6
CONTINUOUS
 62
           2
100
AcDbDimension
  2
*D10
 10
8802.493630000001
 20
-15264.065791000001
 30
0.0
 11
8794.993630000001
 21
-15534.602709999999
 31
0.0
 70
         160
 71
           5
 72
           1
 41
1.0
 42
0.0
 51
90.0
  3
MSADIM
100
AcDbAlignedDimension
 13
8658.485663
 23
-15814.065789
 33
0.0
 14
8630.835660000001
 24
-15264.065791000001
 34
0.0
 50
90.0
100
AcDbRotatedDimension
  0
DIMENSION
  5
366
102
{ACAD_XDICTIONARY
360
4F4B000000000000
102
}
100
AcDbEntity
  8
$$$$
  6
CONTINUOUS
 62
           2
100
AcDbDimension
  2
*D11
 10
7985.73566
 20
-15231.42138
 30
0.0
 11
8332.966175
 21
-15223.92138
 31
0.0
 70
         160
 71
           5
 72
           1
 41
1.0
 42
0.0
  3
MSADIM
100
AcDbAlignedDimension
 13
8687.73566
 23
-15304.39075
 33
0.0
 14
7985.73566
 24
-15304.39075
 34
0.0
100
AcDbRotatedDimension
  0
DIMENSION
  5
374
102
{ACAD_XDICTIONARY
360
4F4B000000000000
102
}
100
AcDbEntity
  8
$$$$
  6
CONTINUOUS
 62
           2
100
AcDbDimension
  2
*D12
 10
9061.67503
 20
-15231.42138
 30
0.0
 11
9262.510415000001
 21
-15223.92138
 31
0.0
 70
         160
 71
           5
 72
           1
 41
1.0
 42
0.0
  3
MSADIM
100
AcDbAlignedDimension
 13
9452.47503
 23
-15303.86182
 33
0.0
 14
9061.67503
 24
-15304.390719999999
 34
0.0
100
AcDbRotatedDimension
  0
INSERT
  5
382
102
{ACAD_XDICTIONARY
360
4F4B000000000000
102
}
100
AcDbEntity
  8
1
  6
CONTINUOUS
 62
           7
100
AcDbBlockReference
  2
*U13
 10
4319.52721
 20
-11139.16034
 30
0.0
  0
INSERT
  5
389
102
{ACAD_XDICTIONARY
360
4F4B000000000000
102
}
100
AcDbEntity
  8
1
  6
CONTINUOUS
 62
           7
100
AcDbBlockReference
  2
*U14
 10
4205.24291
 20
-10867.517980000001
 30
0.0
  0
ENDSEC
  0
SECTION
  2
OBJECTS
  0
DICTIONARY
  5
19
100
AcDbDictionary
280
           0
281
           1
  3
ACAD_GROUP
350
1A
  3
ACAD_MLINESTYLE
350
1B
  3
ACAD_LAYOUT
350
38C
  3
ACAD_PLOTSETTINGS
350
390
  3
ACAD_PLOTSTYLENAME
350
38D
  3
ACAD_WIPEOUT_VARS
350
391
  0
DICTIONARY
  5
1A
102
{ACAD_REACTORS
330
19
102
}
100
AcDbDictionary
280
           0
281
           1
  0
DICTIONARY
  5
1B
102
{ACAD_REACTORS
330
19
102
}
100
AcDbDictionary
280
           0
281
           1
  3
STANDARD
350
1C
  0
MLINESTYLE
  5
1C
102
{ACAD_REACTORS
330
1B
102
}
100
AcDbMlineStyle
  2
Standard
 70
           0
  3

 62
           0
 51
90.0
 52
90.0
 71
           2
 49
0.5
 62
         256
  6
ByLayer
 49
-0.5
 62
         256
  6
ByLayer
  0
ACDBDICTIONARYWDFLT
  5
38D
102
{ACAD_REACTORS
330
19
102
}
100
AcDbDictionary
281
           1
  3
NORMAL
350
38B
100
AcDbDictionaryWithDefault
340
38B
  0
ACDBPLACEHOLDER
  5
38B
102
{ACAD_REACTORS
330
38D
102
}
  0
LAYOUT
  5
38E
102
{ACAD_REACTORS
330
38C
102
}
100
AcDbPlotSettings
  1

  2

  4

  6

 40
0.0
 41
0.0
 42
0.0
 43
0.0
 44
0.0
 45
0.0
 46
0.0
 47
0.0
 48
0.0
 49
0.0
140
0.0
141
0.0
142
1.0
143
1.0
 70
        1024
 72
           0
 73
           0
 74
           0
  7

 75
           0
147
1.0
148
0.0
149
0.0
100
AcDbLayout
  1
MODEL
 70
           0
 71
           0
 10
0.0
 20
0.0
 11
0.0
 21
0.0
 12
0.0
 22
0.0
 32
0.0
 14
0.0
 24
0.0
 34
0.0
 15
0.0
 25
0.0
 35
0.0
146
0.0
 13
0.0
 23
0.0
 33
0.0
 16
0.0
 26
0.0
 36
0.0
 17
0.0
 27
0.0
 37
0.0
 76
           0
330
A
331
0
345
0
346
0
  0
LAYOUT
  5
38F
102
{ACAD_REACTORS
330
38C
102
}
100
AcDbPlotSettings
  1

  2

  4

  6

 40
0.0
 41
0.0
 42
0.0
 43
0.0
 44
0.0
 45
0.0
 46
0.0
 47
0.0
 48
0.0
 49
0.0
140
0.0
141
0.0
142
1.0
143
1.0
 70
           0
 72
           0
 73
           0
 74
           0
  7

 75
           0
147
1.0
148
0.0
149
0.0
100
AcDbLayout
  1
LAYOUT1
 70
           0
 71
           0
 10
0.0
 20
0.0
 11
0.0
 21
0.0
 12
0.0
 22
0.0
 32
0.0
 14
0.0
 24
0.0
 34
0.0
 15
0.0
 25
0.0
 35
0.0
146
0.0
 13
0.0
 23
0.0
 33
0.0
 16
0.0
 26
0.0
 36
0.0
 17
0.0
 27
0.0
 37
0.0
 76
           0
330
B
331
0
345
0
346
0
  0
DICTIONARY
  5
38C
102
{ACAD_REACTORS
330
19
102
}
100
AcDbDictionary
280
           0
281
           1
  3
MODEL
350
38E
  3
LAYOUT1
350
38F
  0
DICTIONARY
  5
390
102
{ACAD_REACTORS
330
19
102
}
100
AcDbDictionary
280
           0
281
           1
  0
WIPEOUTVARIABLES
  5
391
100
AcDbWipeoutVariables
 70
           1
  0
ENDSEC
  0
EOF
