  0
SECTION
  2
HEADER
  9
$ACADVER
  1
AC1027
  9
$ACADMAINTVER
 70
   105
  9
$DWGCODEPAGE
  3
ANSI_932
  9
$REQUIREDVERSIONS
160
                 0
  9
$LASTSAVEDBY
  1
otat
  9
$INSBASE
 10
0.0
 20
0.0
 30
0.0
  9
$EXTMIN
 10
0.0
 20
-8079.999999966384
 30
0.0
  9
$EXTMAX
 10
8315.991515179601
 20
-2199.999999946521
 30
0.0
  9
$LIMMIN
 10
0.0
 20
0.0
  9
$LIMMAX
 10
2969.996969696967
 20
2100.0
  9
$ORTHOMODE
 70
     1
  9
$REGENMODE
 70
     1
  9
$FILLMODE
 70
     1
  9
$QTEXTMODE
 70
     0
  9
$MIRRTEXT
 70
     0
  9
$LTSCALE
 40
50.0
  9
$ATTMODE
 70
     1
  9
$TEXTSIZE
 40
0.2
  9
$TRACEWID
 40
0.05
  9
$TEXTSTYLE
  7
スタイル1
  9
$CLAYER
  8
DEFPOINTS
  9
$CELTYPE
  6
BYLAYER
  9
$CECOLOR
 62
   256
  9
$CELTSCALE
 40
1.0
  9
$DISPSILH
 70
     0
  9
$DIMSCALE
 40
20.0
  9
$DIMASZ
 40
0.6
  9
$DIMEXO
 40
1.2
  9
$DIMDLI
 40
5.0
  9
$DIMRND
 40
0.0
  9
$DIMDLE
 40
1.0
  9
$DIMEXE
 40
0.3
  9
$DIMTP
 40
0.0
  9
$DIMTM
 40
0.0
  9
$DIMTXT
 40
2.0
  9
$DIMCEN
 40
1.0
  9
$DIMTSZ
 40
0.0
  9
$DIMTOL
 70
     0
  9
$DIMLIM
 70
     0
  9
$DIMTIH
 70
     0
  9
$DIMTOH
 70
     0
  9
$DIMSE1
 70
     0
  9
$DIMSE2
 70
     0
  9
$DIMTAD
 70
     3
  9
$DIMZIN
 70
     8
  9
$DIMBLK
  1
Dot
  9
$DIMASO
 70
     1
  9
$DIMSHO
 70
     1
  9
$DIMPOST
  1

  9
$DIMAPOST
  1

  9
$DIMALT
 70
     0
  9
$DIMALTD
 70
     2
  9
$DIMALTF
 40
25.4
  9
$DIMLFAC
 40
1.0
  9
$DIMTOFL
 70
     1
  9
$DIMTVP
 40
0.0
  9
$DIMTIX
 70
     1
  9
$DIMSOXD
 70
     0
  9
$DIMSAH
 70
     0
  9
$DIMBLK1
  1

  9
$DIMBLK2
  1

  9
$DIMSTYLE
  2
KH1xx020
  9
$DIMCLRD
 70
   256
  9
$DIMCLRE
 70
   256
  9
$DIMCLRT
 70
   256
  9
$DIMTFAC
 40
1.0
  9
$DIMGAP
 40
0.5
  9
$DIMJUST
 70
     0
  9
$DIMSD1
 70
     0
  9
$DIMSD2
 70
     0
  9
$DIMTOLJ
 70
     1
  9
$DIMTZIN
 70
     0
  9
$DIMALTZ
 70
     0
  9
$DIMALTTZ
 70
     0
  9
$DIMUPT
 70
     0
  9
$DIMDEC
 70
     1
  9
$DIMTDEC
 70
     1
  9
$DIMALTU
 70
     2
  9
$DIMALTTD
 70
     2
  9
$DIMTXSTY
  7
KH001
  9
$DIMAUNIT
 70
     0
  9
$DIMADEC
 70
     0
  9
$DIMALTRND
 40
0.0
  9
$DIMAZIN
 70
     0
  9
$DIMDSEP
 70
    46
  9
$DIMATFIT
 70
     3
  9
$DIMFRAC
 70
     0
  9
$DIMLDRBLK
  1
ClosedBlank
  9
$DIMLUNIT
 70
     6
  9
$DIMLWD
 70
    -1
  9
$DIMLWE
 70
    -1
  9
$DIMTMOVE
 70
     2
  9
$DIMFXL
 40
1.0
  9
$DIMFXLON
 70
     0
  9
$DIMJOGANG
 40
0.7853981633974483
  9
$DIMTFILL
 70
     0
  9
$DIMTFILLCLR
 70
     0
  9
$DIMARCSYM
 70
     0
  9
$DIMLTYPE
  6

  9
$DIMLTEX1
  6

  9
$DIMLTEX2
  6

  9
$DIMTXTDIRECTION
 70
     0
  9
$LUNITS
 70
     2
  9
$LUPREC
 70
     1
  9
$SKETCHINC
 40
0.1
  9
$FILLETRAD
 40
0.0
  9
$AUNITS
 70
     0
  9
$AUPREC
 70
     0
  9
$MENU
  1
WAVES
  9
$ELEVATION
 40
0.0
  9
$PELEVATION
 40
0.0
  9
$THICKNESS
 40
0.0
  9
$LIMCHECK
 70
     0
  9
$CHAMFERA
 40
0.0
  9
$CHAMFERB
 40
0.0
  9
$CHAMFERC
 40
0.0
  9
$CHAMFERD
 40
0.0
  9
$SKPOLY
 70
     0
  9
$TDCREATE
 40
2450631.675926724
  9
$TDUCREATE
 40
2450631.300926724
  9
$TDUPDATE
 40
2459444.779079641
  9
$TDUUPDATE
 40
2459444.404079641
  9
$TDINDWG
 40
0.0068761227
  9
$TDUSRTIMER
 40
0.0068758681
  9
$USRTIMER
 70
     1
  9
$ANGBASE
 50
0.0
  9
$ANGDIR
 70
     0
  9
$PDMODE
 70
     0
  9
$PDSIZE
 40
0.0
  9
$PLINEWID
 40
0.0
  9
$SPLFRAME
 70
     0
  9
$SPLINETYPE
 70
     6
  9
$SPLINESEGS
 70
     8
  9
$HANDSEED
  5
36C
  9
$SURFTAB1
 70
     6
  9
$SURFTAB2
 70
     6
  9
$SURFTYPE
 70
     6
  9
$SURFU
 70
     6
  9
$SURFV
 70
     6
  9
$UCSBASE
  2

  9
$UCSNAME
  2

  9
$UCSORG
 10
0.0
 20
0.0
 30
0.0
  9
$UCSXDIR
 10
1.0
 20
0.0
 30
0.0
  9
$UCSYDIR
 10
0.0
 20
1.0
 30
0.0
  9
$UCSORTHOREF
  2

  9
$UCSORTHOVIEW
 70
     0
  9
$UCSORGTOP
 10
0.0
 20
0.0
 30
0.0
  9
$UCSORGBOTTOM
 10
0.0
 20
0.0
 30
0.0
  9
$UCSORGLEFT
 10
0.0
 20
0.0
 30
0.0
  9
$UCSORGRIGHT
 10
0.0
 20
0.0
 30
0.0
  9
$UCSORGFRONT
 10
0.0
 20
0.0
 30
0.0
  9
$UCSORGBACK
 10
0.0
 20
0.0
 30
0.0
  9
$PUCSBASE
  2

  9
$PUCSNAME
  2

  9
$PUCSORG
 10
0.0
 20
0.0
 30
0.0
  9
$PUCSXDIR
 10
1.0
 20
0.0
 30
0.0
  9
$PUCSYDIR
 10
0.0
 20
1.0
 30
0.0
  9
$PUCSORTHOREF
  2

  9
$PUCSORTHOVIEW
 70
     0
  9
$PUCSORGTOP
 10
0.0
 20
0.0
 30
0.0
  9
$PUCSORGBOTTOM
 10
0.0
 20
0.0
 30
0.0
  9
$PUCSORGLEFT
 10
0.0
 20
0.0
 30
0.0
  9
$PUCSORGRIGHT
 10
0.0
 20
0.0
 30
0.0
  9
$PUCSORGFRONT
 10
0.0
 20
0.0
 30
0.0
  9
$PUCSORGBACK
 10
0.0
 20
0.0
 30
0.0
  9
$USERI1
 70
     0
  9
$USERI2
 70
     0
  9
$USERI3
 70
     0
  9
$USERI4
 70
     0
  9
$USERI5
 70
     0
  9
$USERR1
 40
0.0
  9
$USERR2
 40
0.0
  9
$USERR3
 40
0.0
  9
$USERR4
 40
0.0
  9
$USERR5
 40
0.0
  9
$WORLDVIEW
 70
     1
  9
$SHADEDGE
 70
     3
  9
$SHADEDIF
 70
    70
  9
$TILEMODE
 70
     1
  9
$MAXACTVP
 70
    16
  9
$PINSBASE
 10
0.0
 20
0.0
 30
0.0
  9
$PLIMCHECK
 70
     0
  9
$PEXTMIN
 10
1.000000000000000E+20
 20
1.000000000000000E+20
 30
1.000000000000000E+20
  9
$PEXTMAX
 10
-1.000000000000000E+20
 20
-1.000000000000000E+20
 30
-1.000000000000000E+20
  9
$PLIMMIN
 10
-5.365753173828125
 20
-5.365749835968018
  9
$PLIMMAX
 10
414.750244140625
 20
291.5602450370789
  9
$UNITMODE
 70
     0
  9
$VISRETAIN
 70
     0
  9
$PLINEGEN
 70
     0
  9
$PSLTSCALE
 70
     0
  9
$TREEDEPTH
 70
  3020
  9
$CMLSTYLE
  2
STANDARD
  9
$CMLJUST
 70
     0
  9
$CMLSCALE
 40
1.0
  9
$PROXYGRAPHICS
 70
     1
  9
$MEASUREMENT
 70
     0
  9
$CELWEIGHT
370
    -1
  9
$ENDCAPS
280
     0
  9
$JOINSTYLE
280
     0
  9
$LWDISPLAY
290
     0
  9
$INSUNITS
 70
     0
  9
$HYPERLINKBASE
  1

  9
$STYLESHEET
  1
KH1xx.ctb
  9
$XEDIT
290
     1
  9
$CEPSNTYPE
380
     0
  9
$PSTYLEMODE
290
     1
  9
$FINGERPRINTGUID
  2
{3A219652-3426-4B31-A692-0CE8BD366F52}
  9
$VERSIONGUID
  2
{B2213255-F310-48B1-959D-F6D8FB2B0099}
  9
$EXTNAMES
290
     1
  9
$PSVPSCALE
 40
0.0
  9
$OLESTARTUP
290
     0
  9
$SORTENTS
280
   127
  9
$INDEXCTL
280
     0
  9
$HIDETEXT
280
     0
  9
$XCLIPFRAME
280
     0
  9
$HALOGAP
280
     0
  9
$OBSCOLOR
 70
   257
  9
$OBSLTYPE
280
     0
  9
$INTERSECTIONDISPLAY
280
     0
  9
$INTERSECTIONCOLOR
 70
   257
  9
$DIMASSOC
280
     1
  9
$PROJECTNAME
  1

  9
$CAMERADISPLAY
290
     0
  9
$LENSLENGTH
 40
50.0
  9
$CAMERAHEIGHT
 40
0.0
  9
$STEPSPERSEC
 40
2.0
  9
$STEPSIZE
 40
6.0
  9
$3DDWFPREC
 40
2.0
  9
$PSOLWIDTH
 40
0.25
  9
$PSOLHEIGHT
 40
4.0
  9
$LOFTANG1
 40
1.570796326794897
  9
$LOFTANG2
 40
1.570796326794897
  9
$LOFTMAG1
 40
0.0
  9
$LOFTMAG2
 40
0.0
  9
$LOFTPARAM
 70
     7
  9
$LOFTNORMALS
280
     1
  9
$LATITUDE
 40
37.795
  9
$LONGITUDE
 40
-122.394
  9
$NORTHDIRECTION
 40
0.0
  9
$TIMEZONE
 70
 -8000
  9
$LIGHTGLYPHDISPLAY
280
     1
  9
$TILEMODELIGHTSYNCH
280
     1
  9
$CMATERIAL
347
17
  9
$SOLIDHIST
280
     1
  9
$SHOWHIST
280
     1
  9
$DWFFRAME
280
     2
  9
$DGNFRAME
280
     0
  9
$REALWORLDSCALE
290
     1
  9
$INTERFERECOLOR
 62
   256
  9
$INTERFEREOBJVS
345
34F
  9
$INTERFEREVPVS
346
34C
  9
$CSHADOW
280
     0
  9
$SHADOWPLANELOCATION
 40
0.0
  0
ENDSEC
  0
SECTION
  2
CLASSES
  0
CLASS
  1
ACDBDICTIONARYWDFLT
  2
AcDbDictionaryWithDefault
  3
ObjectDBX Classes
 90
        0
 91
        4
280
     0
281
     0
  0
CLASS
  1
MATERIAL
  2
AcDbMaterial
  3
ObjectDBX Classes
 90
     1153
 91
        4
280
     0
281
     0
  0
CLASS
  1
SORTENTSTABLE
  2
AcDbSortentsTable
  3
ObjectDBX Classes
 90
        0
 91
        4
280
     0
281
     0
  0
CLASS
  1
VISUALSTYLE
  2
AcDbVisualStyle
  3
ObjectDBX Classes
 90
     4095
 91
        4
280
     0
281
     0
  0
CLASS
  1
SUN
  2
AcDbSun
  3
SCENEOE
 90
     1024
 91
        4
280
     0
281
     0
  0
CLASS
  1
SCALE
  2
AcDbScale
  3
ObjectDBX Classes
 90
     1153
 91
        4
280
     0
281
     0
  0
CLASS
  1
WIPEOUT
  2
AcDbWipeout
  3
WipeOut|AutoCAD Express Tool|expresstools@autodesk.com
 90
      127
 91
        4
280
     0
281
     1
  0
CLASS
  1
DICTIONARYVAR
  2
AcDbDictionaryVar
  3
ObjectDBX Classes
 90
        0
 91
        4
280
     0
281
     0
  0
CLASS
  1
TABLESTYLE
  2
AcDbTableStyle
  3
ObjectDBX Classes
 90
     4095
 91
        4
280
     0
281
     0
  0
CLASS
  1
MLEADERSTYLE
  2
AcDbMLeaderStyle
  3
ACDB_MLEADERSTYLE_CLASS
 90
     4095
 91
        4
280
     0
281
     0
  0
CLASS
  1
CELLSTYLEMAP
  2
AcDbCellStyleMap
  3
ObjectDBX Classes
 90
     1152
 91
        4
280
     0
281
     0
  0
ENDSEC
  0
SECTION
  2
TABLES
  0
TABLE
  2
VPORT
  5
3C
102
{ACAD_XDICTIONARY
360
3D
102
}
330
0
100
AcDbSymbolTable
 70
     1
  0
VPORT
  5
44
330
3C
100
AcDbSymbolTableRecord
100
AcDbViewportTableRecord
  2
*Active
 70
     0
 10
0.0
 20
0.0
 11
1.0
 21
1.0
 12
4714.186228948952
 22
-4847.621911271019
 13
0.0
 23
0.0
 14
45.0
 24
45.0
 15
40.0
 25
40.0
 16
0.0
 26
0.0
 36
1.0
 17
0.0
 27
0.0
 37
0.0
 40
7056.000000023835
 41
1.758045292014303
 42
50.0
 43
0.0
 44
0.0
 50
0.0
 51
0.0
 71
    16
 72
   100
 73
     1
 74
     0
 75
     0
 76
     0
 77
     0
 78
     1
281
     0
 65
     1
110
0.0
120
0.0
130
0.0
111
1.0
121
0.0
131
0.0
112
0.0
122
1.0
132
0.0
 79
     0
146
0.0
348
34B
 60
     3
 61
     5
292
     1
282
     1
141
0.0
142
0.0
 63
   250
1001
ACAD_NAV_VCDISPLAY
1070
     3
  0
ENDTAB
  0
TABLE
  2
LTYPE
  5
12
330
0
100
AcDbSymbolTable
 70
     3
  0
LTYPE
  5
13
330
12
100
AcDbSymbolTableRecord
100
AcDbLinetypeTableRecord
  2
BYBLOCK
 70
     0
  3

 72
    65
 73
     0
 40
0.0
  0
LTYPE
  5
14
330
12
100
AcDbSymbolTableRecord
100
AcDbLinetypeTableRecord
  2
BYLAYER
 70
     0
  3

 72
    65
 73
     0
 40
0.0
  0
LTYPE
  5
11
330
12
100
AcDbSymbolTableRecord
100
AcDbLinetypeTableRecord
  2
CONTINUOUS
 70
     0
  3
Solid line
 72
    65
 73
     0
 40
0.0
  0
LTYPE
  5
100
330
12
100
AcDbSymbolTableRecord
100
AcDbLinetypeTableRecord
  2
HIDDEN
 70
     0
  3
Hidden __ __ __ __ __ __ __ __ __ __ __ __ __ _
 72
    65
 73
     2
 40
0.375
 49
0.25
 74
     0
 49
-0.125
 74
     0
  0
LTYPE
  5
113
330
12
100
AcDbSymbolTableRecord
100
AcDbLinetypeTableRecord
  2
HIDDENX2
 70
     0
  3
Hidden (2x) ____ ____ ____ ____ ____ ____ ____
 72
    65
 73
     2
 40
0.75
 49
0.5
 74
     0
 49
-0.25
 74
     0
  0
ENDTAB
  0
TABLE
  2
LAYER
  5
2
102
{ACAD_XDICTIONARY
360
3
102
}
330
0
100
AcDbSymbolTable
 70
    12
  0
LAYER
  5
21
102
{ACAD_XDICTIONARY
360
22
102
}
330
2
100
AcDbSymbolTableRecord
100
AcDbLayerTableRecord
  2
0
 70
     0
 62
     7
  6
CONTINUOUS
370
    -3
390
A
347
D
348
0
  0
LAYER
  5
82
102
{ACAD_XDICTIONARY
360
83
102
}
330
2
100
AcDbSymbolTableRecord
100
AcDbLayerTableRecord
  2
160-文字
 70
     0
 62
   254
  6
CONTINUOUS
370
    -3
390
A
347
D
348
0
  0
LAYER
  5
6E
102
{ACAD_XDICTIONARY
360
6F
102
}
330
2
100
AcDbSymbolTableRecord
100
AcDbLayerTableRecord
  2
190-図面外枠
 70
     0
 62
     5
  6
CONTINUOUS
370
    -3
390
A
347
D
348
0
  0
LAYER
  5
7C
102
{ACAD_XDICTIONARY
360
7D
102
}
330
2
100
AcDbSymbolTableRecord
100
AcDbLayerTableRecord
  2
191-図面内枠
 70
     0
 62
     4
  6
CONTINUOUS
370
    -3
390
A
347
D
348
0
  0
LAYER
  5
D9
102
{ACAD_XDICTIONARY
360
DA
102
}
330
2
100
AcDbSymbolTableRecord
100
AcDbLayerTableRecord
  2
120-キャビネット（外）
 70
     0
 62
     7
  6
CONTINUOUS
370
    -3
390
A
347
D
348
0
  0
LAYER
  5
FD
102
{ACAD_XDICTIONARY
360
FE
102
}
330
2
100
AcDbSymbolTableRecord
100
AcDbLayerTableRecord
  2
121-キャビネット（中）
 70
     0
 62
   253
  6
HIDDEN
370
    -3
390
A
347
D
348
0
  0
LAYER
  5
170
102
{ACAD_XDICTIONARY
360
171
102
}
330
2
100
AcDbSymbolTableRecord
100
AcDbLayerTableRecord
  2
111-壁仕上
 70
     0
 62
     3
  6
CONTINUOUS
370
    -3
390
A
347
D
348
0
  0
LAYER
  5
1
330
2
100
AcDbSymbolTableRecord
100
AcDbLayerTableRecord
  2
DEFPOINTS
 70
     0
 62
   146
  6
CONTINUOUS
290
     0
370
    -3
390
A
347
D
348
0
  0
LAYER
  5
163
102
{ACAD_XDICTIONARY
360
164
102
}
330
2
100
AcDbSymbolTableRecord
100
AcDbLayerTableRecord
  2
141-パーツ
 70
     0
 62
    31
  6
CONTINUOUS
370
    -3
390
A
347
D
348
0
  0
LAYER
  5
174
102
{ACAD_XDICTIONARY
360
175
102
}
330
2
100
AcDbSymbolTableRecord
100
AcDbLayerTableRecord
  2
166-寸法B
 70
     0
 62
    11
  6
CONTINUOUS
370
    -3
390
A
347
D
348
0
1001
AcAecLayerStandard
1000

1000

  0
LAYER
  5
121
102
{ACAD_XDICTIONARY
360
122
102
}
330
2
100
AcDbSymbolTableRecord
100
AcDbLayerTableRecord
  2
180-補助
 70
     0
 62
   161
  6
CONTINUOUS
370
    -3
390
A
347
D
348
0
1001
AcAecLayerStandard
1000

1000

  0
LAYER
  5
311
102
{ACAD_XDICTIONARY
360
312
102
}
330
2
100
AcDbSymbolTableRecord
100
AcDbLayerTableRecord
  2
161-番号
 70
     0
 62
   110
  6
CONTINUOUS
370
    -3
390
A
347
D
348
0
1001
AcAecLayerStandard
1000

1000

  0
ENDTAB
  0
TABLE
  2
STYLE
  5
16
330
0
100
AcDbSymbolTable
 70
     3
  0
STYLE
  5
1A
330
16
100
AcDbSymbolTableRecord
100
AcDbTextStyleTableRecord
  2
KH001
 70
     0
 40
0.0
 41
1.0
 50
0.0
 71
     0
 42
0.2
  3

  4

1001
ACAD
1000
MS Gothic
1071
    32817
  0
STYLE
  5
15
330
16
100
AcDbSymbolTableRecord
100
AcDbTextStyleTableRecord
  2
スタイル1
 70
     0
 40
0.0
 41
0.8
 50
0.0
 71
     0
 42
0.2
  3

  4

1001
ACAD
1000
HGSGothicE
1071
    32818
  0
STYLE
  5
345
330
16
100
AcDbSymbolTableRecord
100
AcDbTextStyleTableRecord
  2
Standard
 70
     0
 40
0.0
 41
1.0
 50
0.0
 71
     0
 42
0.2
  3
txt
  4

  0
ENDTAB
  0
TABLE
  2
VIEW
  5
3A
330
0
100
AcDbSymbolTable
 70
     0
  0
ENDTAB
  0
TABLE
  2
UCS
  5
3B
330
0
100
AcDbSymbolTable
 70
     0
  0
ENDTAB
  0
TABLE
  2
APPID
  5
8
330
0
100
AcDbSymbolTable
 70
     9
  0
APPID
  5
7
330
8
100
AcDbSymbolTableRecord
100
AcDbRegAppTableRecord
  2
ACAD
 70
     0
  0
APPID
  5
28
330
8
100
AcDbSymbolTableRecord
100
AcDbRegAppTableRecord
  2
ACAD_PSEXT
 70
     0
  0
APPID
  5
124
330
8
100
AcDbSymbolTableRecord
100
AcDbRegAppTableRecord
  2
AcAecLayerStandard
 70
     0
  0
APPID
  5
DE
330
8
100
AcDbSymbolTableRecord
100
AcDbRegAppTableRecord
  2
GENIUS_GENODEF_13
 70
     0
  0
APPID
  5
DC
330
8
100
AcDbSymbolTableRecord
100
AcDbRegAppTableRecord
  2
GENIUS_GENFIL_13
 70
     0
  0
APPID
  5
DD
330
8
100
AcDbSymbolTableRecord
100
AcDbRegAppTableRecord
  2
GENIUS_GENOBJ-N-CHA_13
 70
     0
  0
APPID
  5
47
330
8
100
AcDbSymbolTableRecord
100
AcDbRegAppTableRecord
  2
ACAD_NAV_VCDISPLAY
 70
     0
  0
APPID
  5
361
330
8
100
AcDbSymbolTableRecord
100
AcDbRegAppTableRecord
  2
ACAD_MLEADERVER
 70
     0
  0
APPID
  5
362
330
8
100
AcDbSymbolTableRecord
100
AcDbRegAppTableRecord
  2
PLOTTRANSPARENCY
 70
     0
  0
ENDTAB
  0
TABLE
  2
DIMSTYLE
  5
19
330
0
100
AcDbSymbolTable
 70
     2
100
AcDbDimStyleTable
  0
DIMSTYLE
105
315
102
{ACAD_REACTORS
330
314
330
317
330
319
330
31B
102
}
330
19
100
AcDbSymbolTableRecord
100
AcDbDimStyleTableRecord
  2
KH1xx030
 70
     0
 40
30.0
 41
0.6
 42
1.2
 43
4.5
 44
0.3
 46
1.0
 73
     0
 74
     0
 77
     3
 78
     8
140
2.0
141
1.0
147
0.5
172
     1
174
     1
176
   256
177
   256
271
     1
178
   256
271
     1
272
     1
277
     6
279
     2
340
1A
341
1B
342
33
371
    -1
372
    -1
  0
DIMSTYLE
105
18
102
{ACAD_REACTORS
330
173
330
183
330
190
330
19D
330
1AD
330
1BA
330
1CA
330
1D8
330
1E5
330
1F5
330
202
330
212
330
21F
330
22E
330
23B
330
24A
330
257
330
264
330
274
330
281
330
291
330
29E
330
2AD
330
2BA
330
2C9
330
2D9
330
2E6
330
2F6
330
303
102
}
330
19
100
AcDbSymbolTableRecord
100
AcDbDimStyleTableRecord
  2
KH1xx020
 70
     0
 40
20.0
 41
0.6
 42
1.2
 43
5.0
 44
0.3
 46
1.0
 73
     0
 74
     0
 77
     3
 78
     8
140
2.0
141
1.0
147
0.5
172
     1
174
     1
176
   256
177
   256
271
     1
178
   256
271
     1
272
     1
277
     6
279
     2
340
1A
341
1B
342
33
371
    -1
372
    -1
  0
ENDTAB
  0
TABLE
  2
BLOCK_RECORD
  5
1C
330
0
100
AcDbSymbolTable
 70
    32
  0
BLOCK_RECORD
  5
1D
102
{ACAD_XDICTIONARY
360
1E
102
}
330
1C
100
AcDbSymbolTableRecord
100
AcDbBlockTableRecord
  2
*MODEL_SPACE
340
25
 70
     0
280
     1
281
     0
  0
BLOCK_RECORD
  5
29
330
1C
100
AcDbSymbolTableRecord
100
AcDbBlockTableRecord
  2
*PAPER_SPACE
340
2C
 70
     0
280
     1
281
     0
  0
BLOCK_RECORD
  5
1B
330
1C
100
AcDbSymbolTableRecord
100
AcDbBlockTableRecord
  2
_ClosedBlank
340
0
310
2800000020000000200000000100080000000000000400000000000000000000000000000000000000000000000080000080000000808000800000008000800080800000C0C0C000C0DCC000F0CAA6000020400000206000002080000020A0000020C0000020E00000400000004020000040400000406000004080000040A0
310
000040C0000040E00000600000006020000060400000606000006080000060A0000060C0000060E00000800000008020000080400000806000008080000080A0000080C0000080E00000A0000000A0200000A0400000A0600000A0800000A0A00000A0C00000A0E00000C0000000C0200000C0400000C0600000C0800000C0
310
A00000C0C00000C0E00000E0000000E0200000E0400000E0600000E0800000E0A00000E0C00000E0E00040000000400020004000400040006000400080004000A0004000C0004000E00040200000402020004020400040206000402080004020A0004020C0004020E000404000004040200040404000404060004040800040
310
40A0004040C0004040E00040600000406020004060400040606000406080004060A0004060C0004060E00040800000408020004080400040806000408080004080A0004080C0004080E00040A0000040A0200040A0400040A0600040A0800040A0A00040A0C00040A0E00040C0000040C0200040C0400040C0600040C08000
310
40C0A00040C0C00040C0E00040E0000040E0200040E0400040E0600040E0800040E0A00040E0C00040E0E00080000000800020008000400080006000800080008000A0008000C0008000E00080200000802020008020400080206000802080008020A0008020C0008020E00080400000804020008040400080406000804080
310
008040A0008040C0008040E00080600000806020008060400080606000806080008060A0008060C0008060E00080800000808020008080400080806000808080008080A0008080C0008080E00080A0000080A0200080A0400080A0600080A0800080A0A00080A0C00080A0E00080C0000080C0200080C0400080C0600080C0
310
800080C0A00080C0C00080C0E00080E0000080E0200080E0400080E0600080E0800080E0A00080E0C00080E0E000C0000000C0002000C0004000C0006000C0008000C000A000C000C000C000E000C0200000C0202000C0204000C0206000C0208000C020A000C020C000C020E000C0400000C0402000C0404000C0406000C0
310
408000C040A000C040C000C040E000C0600000C0602000C0604000C0606000C0608000C060A000C060C000C060E000C0800000C0802000C0804000C0806000C0808000C080A000C080C000C080E000C0A00000C0A02000C0A04000C0A06000C0A08000C0A0A000C0A0C000C0A0E000C0C00000C0C02000C0C04000C0C06000
310
C0C08000C0C0A000F0FBFF00A4A0A000808080000000FF0000FF000000FFFF00FF000000FF00FF00FFFF0000FFFFFF0000000000000000000000000000000000000000000000000000000000000000000000000000000000000000000000000000000000000000000000000000000000000000000000000000000000000000
310
00000000000000000000000000000000000000000000000000000000000000000000000000000000000000000000000000000000000000000000000000000000000000000000000000000000000000000000000000000000000000000000000000000000000000000000000000000000000000000000000000000000000000
310
00000000000000000000000000000000000000000000000000000000000000000000000000000000000000000000000000000000000000000000000000000000000000000000000000000000000000000000000000000000000000000000000000000000000000000000000000000000000000000000000000000000000000
310
0000000000000000000000000000000000000000FFFFFF0000000000000000000000000000000000000000000000000000000000FF0000FFFFFFFFFFFF0000000000000000000000000000000000000000000000FF0000000000000000FFFFFFFFFFFF0000000000000000000000000000000000FF00000000000000000000
310
00000000FFFFFFFFFFFF0000000000000000000000FF0000000000000000000000000000000000000000FFFFFFFFFFFF0000000000FF00000000000000000000000000000000000000000000000000FFFFFFFF0000FF000000000000000000000000000000000000FFFFFFFFFFFFFF000000000000FF000000000000000000
310
00FFFFFFFFFFFFFFFF00000000000000000000000000FF000000FFFFFFFFFFFFFF000000000000000000000000000000000000000000FFFFFFFF000000000000000000000000000000000000000000000000000000000000000000000000000000000000000000000000000000000000000000000000000000000000000000
310
00000000000000000000000000000000000000000000000000000000000000000000000000000000000000000000000000000000000000000000000000000000000000000000000000000000000000000000000000000000000000000000000000000000000000000000000000000000000000000000000000000000000000
310
00000000000000000000000000000000000000000000000000000000000000000000000000000000000000000000000000000000000000000000000000000000000000000000000000000000000000000000000000000000000000000000000000000000000000000000000000000000000000000000000000000000000000
310
0000000000000000000000000000000000000000000000000000000000000000000000000000000000000000000000000000000000000000
 70
     0
280
     1
281
     0
  0
BLOCK_RECORD
  5
33
330
1C
100
AcDbSymbolTableRecord
100
AcDbBlockTableRecord
  2
_Dot
340
0
310
2800000020000000200000000100080000000000000400000000000000000000000000000000000000000000000080000080000000808000800000008000800080800000C0C0C000C0DCC000F0CAA6000020400000206000002080000020A0000020C0000020E00000400000004020000040400000406000004080000040A0
310
000040C0000040E00000600000006020000060400000606000006080000060A0000060C0000060E00000800000008020000080400000806000008080000080A0000080C0000080E00000A0000000A0200000A0400000A0600000A0800000A0A00000A0C00000A0E00000C0000000C0200000C0400000C0600000C0800000C0
310
A00000C0C00000C0E00000E0000000E0200000E0400000E0600000E0800000E0A00000E0C00000E0E00040000000400020004000400040006000400080004000A0004000C0004000E00040200000402020004020400040206000402080004020A0004020C0004020E000404000004040200040404000404060004040800040
310
40A0004040C0004040E00040600000406020004060400040606000406080004060A0004060C0004060E00040800000408020004080400040806000408080004080A0004080C0004080E00040A0000040A0200040A0400040A0600040A0800040A0A00040A0C00040A0E00040C0000040C0200040C0400040C0600040C08000
310
40C0A00040C0C00040C0E00040E0000040E0200040E0400040E0600040E0800040E0A00040E0C00040E0E00080000000800020008000400080006000800080008000A0008000C0008000E00080200000802020008020400080206000802080008020A0008020C0008020E00080400000804020008040400080406000804080
310
008040A0008040C0008040E00080600000806020008060400080606000806080008060A0008060C0008060E00080800000808020008080400080806000808080008080A0008080C0008080E00080A0000080A0200080A0400080A0600080A0800080A0A00080A0C00080A0E00080C0000080C0200080C0400080C0600080C0
310
800080C0A00080C0C00080C0E00080E0000080E0200080E0400080E0600080E0800080E0A00080E0C00080E0E000C0000000C0002000C0004000C0006000C0008000C000A000C000C000C000E000C0200000C0202000C0204000C0206000C0208000C020A000C020C000C020E000C0400000C0402000C0404000C0406000C0
310
408000C040A000C040C000C040E000C0600000C0602000C0604000C0606000C0608000C060A000C060C000C060E000C0800000C0802000C0804000C0806000C0808000C080A000C080C000C080E000C0A00000C0A02000C0A04000C0A06000C0A08000C0A0A000C0A0C000C0A0E000C0C00000C0C02000C0C04000C0C06000
310
C0C08000C0C0A000F0FBFF00A4A0A000808080000000FF0000FF000000FFFF00FF000000FF00FF00FFFF0000FFFFFF0000000000000000000000000000000000000000000000000000000000000000000000000000000000000000000000000000000000000000000000000000000000000000000000000000000000000000
310
000000000000000000FF000000000000000000000000000000000000000000000000000000000000FFFFFF00000000000000000000000000000000000000000000000000000000FF00FF00FF0000000000000000000000000000000000000000000000000000FF0000FF0000FF000000000000000000000000000000000000
310
000000000000FF000000FF000000FF00000000000000000000000000000000000000000000FF00000000FF00000000FF0000000000000000000000000000000000000000FF0000000000FF0000000000FF000000000000000000000000000000000000FF000000000000FF000000000000FF00000000000000000000000000
310
000000FF00000000000000FF00000000000000000000000000000000000000000000FF0000000000000000FF000000000000000000000000000000000000000000FF000000000000000000FF0000000000000000000000000000000000000000FF00000000000000000000FF00000000000000000000000000000000000000
310
FF00000000000000000000FFFFFF0000000000000000000000000000000000FF00000000000000000000FFFFFFFFFFFFFFFFFFFF00FFFFFFFFFFFFFFFFFFFFFFFFFFFFFFFFFFFFFFFFFFFFFFFFFFFF00000000000000000000000000000000FF0000000000000000000000FFFFFF0000000000000000000000000000000000
310
00FF0000000000000000000000FF0000000000000000000000000000000000000000FF00000000000000000000FF000000000000000000000000000000000000000000FF000000000000000000FF00000000000000000000000000000000000000000000FF0000000000000000FF0000000000000000000000000000000000
310
000000000000FFFF000000000000FF000000000000FF000000000000000000000000000000000000FF0000000000FF0000000000FF0000000000000000000000000000000000000000FF00000000FF00000000FF00000000000000000000000000000000000000000000FF000000FF000000FF000000000000000000000000
310
000000000000000000000000FF0000FF0000FF0000000000000000000000000000000000000000000000000000FF00FF00FF00000000000000000000000000000000000000000000000000000000FFFFFF000000000000000000000000000000000000000000000000000000000000FF000000000000000000000000000000
310
0000000000000000000000000000000000000000000000000000000000000000000000000000000000000000000000000000000000000000
102
{BLKREFS
331
17C
331
17D
331
189
331
18A
331
196
331
197
331
1A6
331
1A7
331
1B3
331
1B4
331
1C3
331
1C4
331
1D1
331
1D2
331
1DE
331
1DF
331
1EE
331
1EF
331
1FB
331
1FC
331
20B
331
20C
331
218
331
219
331
227
331
228
331
234
331
235
331
243
331
244
331
250
331
251
331
25D
331
25E
331
26D
331
26E
331
27A
331
27B
331
28A
331
28B
331
297
331
298
331
2A6
331
2A7
331
2B3
331
2B4
331
2C2
331
2C3
331
2D2
331
2D3
331
2DF
331
2E0
331
2EF
331
2F0
331
2FC
331
2FD
331
309
331
30A
331
17C
331
17D
331
189
331
18A
331
196
331
197
331
1A6
331
1A7
331
1B3
331
1B4
331
1C3
331
1C4
331
1D1
331
1D2
331
1DE
331
1DF
331
1EE
331
1EF
331
1FB
331
1FC
331
20B
331
20C
331
218
331
219
331
227
331
228
331
234
331
235
331
243
331
244
331
250
331
251
331
25D
331
25E
331
26D
331
26E
331
27A
331
27B
331
28A
331
28B
331
297
331
298
331
2A6
331
2A7
331
2B3
331
2B4
331
2C2
331
2C3
331
2D2
331
2D3
331
2DF
331
2E0
331
2EF
331
2F0
331
2FC
331
2FD
331
309
331
30A
102
}
 70
     0
280
     1
281
     0
  0
BLOCK_RECORD
  5
71
102
{ACAD_XDICTIONARY
360
72
102
}
330
1C
100
AcDbSymbolTableRecord
100
AcDbBlockTableRecord
  2
A$C5D946DDC
340
0
310
2800000020000000200000000100080000000000000400000000000000000000000000000000000000000000000080000080000000808000800000008000800080800000C0C0C000C0DCC000F0CAA6000020400000206000002080000020A0000020C0000020E00000400000004020000040400000406000004080000040A0
310
000040C0000040E00000600000006020000060400000606000006080000060A0000060C0000060E00000800000008020000080400000806000008080000080A0000080C0000080E00000A0000000A0200000A0400000A0600000A0800000A0A00000A0C00000A0E00000C0000000C0200000C0400000C0600000C0800000C0
310
A00000C0C00000C0E00000E0000000E0200000E0400000E0600000E0800000E0A00000E0C00000E0E00040000000400020004000400040006000400080004000A0004000C0004000E00040200000402020004020400040206000402080004020A0004020C0004020E000404000004040200040404000404060004040800040
310
40A0004040C0004040E00040600000406020004060400040606000406080004060A0004060C0004060E00040800000408020004080400040806000408080004080A0004080C0004080E00040A0000040A0200040A0400040A0600040A0800040A0A00040A0C00040A0E00040C0000040C0200040C0400040C0600040C08000
310
40C0A00040C0C00040C0E00040E0000040E0200040E0400040E0600040E0800040E0A00040E0C00040E0E00080000000800020008000400080006000800080008000A0008000C0008000E00080200000802020008020400080206000802080008020A0008020C0008020E00080400000804020008040400080406000804080
310
008040A0008040C0008040E00080600000806020008060400080606000806080008060A0008060C0008060E00080800000808020008080400080806000808080008080A0008080C0008080E00080A0000080A0200080A0400080A0600080A0800080A0A00080A0C00080A0E00080C0000080C0200080C0400080C0600080C0
310
800080C0A00080C0C00080C0E00080E0000080E0200080E0400080E0600080E0800080E0A00080E0C00080E0E000C0000000C0002000C0004000C0006000C0008000C000A000C000C000C000E000C0200000C0202000C0204000C0206000C0208000C020A000C020C000C020E000C0400000C0402000C0404000C0406000C0
310
408000C040A000C040C000C040E000C0600000C0602000C0604000C0606000C0608000C060A000C060C000C060E000C0800000C0802000C0804000C0806000C0808000C080A000C080C000C080E000C0A00000C0A02000C0A04000C0A06000C0A08000C0A0A000C0A0C000C0A0E000C0C00000C0C02000C0C04000C0C06000
310
C0C08000C0C0A000F0FBFF00A4A0A000808080000000FF0000FF000000FFFF00FF000000FF00FF00FFFF0000FFFFFF0000000000000000000000000000000000000000000000000000000000000000000000000000000000000000000000000000000000000000000000000000000000000000000000000000000000000000
310
00000000000000000000000000000000000000000000000000000000000000000000000000000000000000000000000000000000000000000000000000000000000000000000000000000000000000000000000000000000000000000000000000000000000000000000000000000000000098FCFCFCFCFCFCFCFCFCFCFCFC
310
FCFCFCFCFCFCFCFCFCFCFCFCFCFCFCFC98000098FC0000000000000000000000000000000000000000000000000000FC98000098FC0000000000000000000000000000000000000000000000000000FC98000098FC0000000000000000000000000000000000000000000000000000FC98000098FC00000000000000000000
310
00000000000000000000000000000000FC98000098FC0000000000000000000000000000000000000000000000000000FC98000098FC0000000000000000000000000000000000000000000000000000FC98000098FC0000000000000000000000000000000000000000000000000000FC98000098FC000000000000000000
310
0000000000000000000000000000000000FC98000098FC0000000000000000000000000000000000000000000000000000FC98000098FC0000000000000000000000000000000000000000000000000000FC98000098FC0000000000000000000000000000000000000000000000000000FC98000098FC0000000000000000
310
000000000000000000000000000000000000FC98000098FC0000000000000000000000000000000000000000000000000000FC98000098FC0000000000000000000000000000000000000000000000000000FC98000098FC0000000000000000000000000000000000000000000000000000FC98000098FC00000000000000
310
00000000000000000000000000000000000000FC98000098FC0000000000000000000000000000000000000000000000000000FC98000098FC0000000000000000000000000000000000000000000000000000FC98000098FCFCFCFCFCFCFCFCFCFCFCFCFCFCFCFCFCFCFCFCFCFCFCFCFCFCFCFC9800000000000000000000
310
00000000000000000000000000000000000000000000000000000000000000000000000000000000000000000000000000000000000000000000000000000000000000000000000000000000000000000000000000000000000000000000000000000000000000000000000000000000000000000000000000000000000000
310
0000000000000000000000000000000000000000000000000000000000000000000000000000000000000000000000000000000000000000
102
{BLKREFS
331
6D
331
6D
102
}
 70
     0
280
     1
281
     0
  0
BLOCK_RECORD
  5
177
330
1C
100
AcDbSymbolTableRecord
100
AcDbBlockTableRecord
  2
*D3
340
0
 70
     0
280
     1
281
     0
  0
BLOCK_RECORD
  5
184
330
1C
100
AcDbSymbolTableRecord
100
AcDbBlockTableRecord
  2
*D4
340
0
 70
     0
280
     1
281
     0
  0
BLOCK_RECORD
  5
191
330
1C
100
AcDbSymbolTableRecord
100
AcDbBlockTableRecord
  2
*D5
340
0
 70
     0
280
     1
281
     0
  0
BLOCK_RECORD
  5
19E
330
1C
100
AcDbSymbolTableRecord
100
AcDbBlockTableRecord
  2
*D6
340
0
 70
     0
280
     1
281
     0
  0
BLOCK_RECORD
  5
1AE
330
1C
100
AcDbSymbolTableRecord
100
AcDbBlockTableRecord
  2
*D7
340
0
 70
     0
280
     1
281
     0
  0
BLOCK_RECORD
  5
1BB
330
1C
100
AcDbSymbolTableRecord
100
AcDbBlockTableRecord
  2
*D8
340
0
 70
     0
280
     1
281
     0
  0
BLOCK_RECORD
  5
1CB
330
1C
100
AcDbSymbolTableRecord
100
AcDbBlockTableRecord
  2
*D9
340
0
 70
     0
280
     1
281
     0
  0
BLOCK_RECORD
  5
1D9
330
1C
100
AcDbSymbolTableRecord
100
AcDbBlockTableRecord
  2
*D10
340
0
 70
     0
280
     1
281
     0
  0
BLOCK_RECORD
  5
1E6
330
1C
100
AcDbSymbolTableRecord
100
AcDbBlockTableRecord
  2
*D11
340
0
 70
     0
280
     1
281
     0
  0
BLOCK_RECORD
  5
1F6
330
1C
100
AcDbSymbolTableRecord
100
AcDbBlockTableRecord
  2
*D12
340
0
 70
     0
280
     1
281
     0
  0
BLOCK_RECORD
  5
203
330
1C
100
AcDbSymbolTableRecord
100
AcDbBlockTableRecord
  2
*D13
340
0
 70
     0
280
     1
281
     0
  0
BLOCK_RECORD
  5
213
330
1C
100
AcDbSymbolTableRecord
100
AcDbBlockTableRecord
  2
*D14
340
0
 70
     0
280
     1
281
     0
  0
BLOCK_RECORD
  5
220
330
1C
100
AcDbSymbolTableRecord
100
AcDbBlockTableRecord
  2
*D15
340
0
 70
     0
280
     1
281
     0
  0
BLOCK_RECORD
  5
22F
330
1C
100
AcDbSymbolTableRecord
100
AcDbBlockTableRecord
  2
*D16
340
0
 70
     0
280
     1
281
     0
  0
BLOCK_RECORD
  5
23C
330
1C
100
AcDbSymbolTableRecord
100
AcDbBlockTableRecord
  2
*D17
340
0
 70
     0
280
     1
281
     0
  0
BLOCK_RECORD
  5
24B
330
1C
100
AcDbSymbolTableRecord
100
AcDbBlockTableRecord
  2
*D18
340
0
 70
     0
280
     1
281
     0
  0
BLOCK_RECORD
  5
258
330
1C
100
AcDbSymbolTableRecord
100
AcDbBlockTableRecord
  2
*D19
340
0
 70
     0
280
     1
281
     0
  0
BLOCK_RECORD
  5
265
330
1C
100
AcDbSymbolTableRecord
100
AcDbBlockTableRecord
  2
*D20
340
0
 70
     0
280
     1
281
     0
  0
BLOCK_RECORD
  5
275
330
1C
100
AcDbSymbolTableRecord
100
AcDbBlockTableRecord
  2
*D21
340
0
 70
     0
280
     1
281
     0
  0
BLOCK_RECORD
  5
282
330
1C
100
AcDbSymbolTableRecord
100
AcDbBlockTableRecord
  2
*D22
340
0
 70
     0
280
     1
281
     0
  0
BLOCK_RECORD
  5
292
330
1C
100
AcDbSymbolTableRecord
100
AcDbBlockTableRecord
  2
*D23
340
0
 70
     0
280
     1
281
     0
  0
BLOCK_RECORD
  5
29F
330
1C
100
AcDbSymbolTableRecord
100
AcDbBlockTableRecord
  2
*D24
340
0
 70
     0
280
     1
281
     0
  0
BLOCK_RECORD
  5
2AE
330
1C
100
AcDbSymbolTableRecord
100
AcDbBlockTableRecord
  2
*D25
340
0
 70
     0
280
     1
281
     0
  0
BLOCK_RECORD
  5
2BB
330
1C
100
AcDbSymbolTableRecord
100
AcDbBlockTableRecord
  2
*D26
340
0
 70
     0
280
     1
281
     0
  0
BLOCK_RECORD
  5
2CA
330
1C
100
AcDbSymbolTableRecord
100
AcDbBlockTableRecord
  2
*D27
340
0
 70
     0
280
     1
281
     0
  0
BLOCK_RECORD
  5
2DA
330
1C
100
AcDbSymbolTableRecord
100
AcDbBlockTableRecord
  2
*D28
340
0
 70
     0
280
     1
281
     0
  0
BLOCK_RECORD
  5
2E7
330
1C
100
AcDbSymbolTableRecord
100
AcDbBlockTableRecord
  2
*D29
340
0
 70
     0
280
     1
281
     0
  0
BLOCK_RECORD
  5
2F7
330
1C
100
AcDbSymbolTableRecord
100
AcDbBlockTableRecord
  2
*D30
340
0
 70
     0
280
     1
281
     0
  0
BLOCK_RECORD
  5
304
330
1C
100
AcDbSymbolTableRecord
100
AcDbBlockTableRecord
  2
*D31
340
0
 70
     0
280
     1
281
     0
  0
ENDTAB
  0
ENDSEC
  0
SECTION
  2
BLOCKS
  0
BLOCK
  5
20
330
1D
100
AcDbEntity
  8
0
100
AcDbBlockBegin
  2
*MODEL_SPACE
 70
     0
 10
0.0
 20
0.0
 30
0.0
  3
*MODEL_SPACE
  1
*MODEL_SPACE
  0
ENDBLK
  5
24
330
1D
100
AcDbEntity
  8
0
100
AcDbBlockEnd
  0
BLOCK
  5
2A
330
29
100
AcDbEntity
 67
     1
  8
0
100
AcDbBlockBegin
  2
*PAPER_SPACE
 70
     0
 10
0.0
 20
0.0
 30
0.0
  3
*PAPER_SPACE
  1
*PAPER_SPACE
  0
ENDBLK
  5
2B
330
29
100
AcDbEntity
 67
     1
  8
0
100
AcDbBlockEnd
  0
BLOCK
  5
2E
330
1B
100
AcDbEntity
  8
0
100
AcDbBlockBegin
  2
_ClosedBlank
 70
     0
 10
0.0
 20
0.0
 30
0.0
  3
_ClosedBlank
  1
_ClosedBlank
  0
LINE
  5
2F
330
1B
100
AcDbEntity
  8
0
  6
ByBlock
 62
     0
370
    -2
100
AcDbLine
 10
-1.0
 20
0.1666666666666667
 30
0.0
 11
0.0
 21
0.0
 31
0.0
  0
LINE
  5
30
330
1B
100
AcDbEntity
  8
0
  6
ByBlock
 62
     0
370
    -2
100
AcDbLine
 10
0.0
 20
0.0
 30
0.0
 11
-1.0
 21
-0.1666666666666667
 31
0.0
  0
LINE
  5
31
330
1B
100
AcDbEntity
  8
0
  6
ByBlock
 62
     0
370
    -2
100
AcDbLine
 10
-1.0
 20
0.1666666666666667
 30
0.0
 11
-1.0
 21
-0.1666666666666667
 31
0.0
  0
ENDBLK
  5
32
330
1B
100
AcDbEntity
  8
0
100
AcDbBlockEnd
  0
BLOCK
  5
34
330
33
100
AcDbEntity
  8
0
100
AcDbBlockBegin
  2
_Dot
 70
     0
 10
0.0
 20
0.0
 30
0.0
  3
_Dot
  1
_Dot
  0
LWPOLYLINE
  5
35
330
33
100
AcDbEntity
  8
0
  6
ByBlock
 62
     0
100
AcDbPolyline
 90
        2
 70
     1
 43
0.5
 10
-0.25
 20
0.0
 42
1.0
 10
0.25
 20
0.0
 42
1.0
  0
LINE
  5
36
330
33
100
AcDbEntity
  8
0
  6
ByBlock
 62
     0
370
    -2
100
AcDbLine
 10
-0.5
 20
0.0
 30
0.0
 11
-1.0
 21
0.0
 31
0.0
  0
ENDBLK
  5
37
330
33
100
AcDbEntity
  8
0
100
AcDbBlockEnd
  0
BLOCK
  5
74
330
71
100
AcDbEntity
  8
0
100
AcDbBlockBegin
  2
A$C5D946DDC
 70
     0
 10
0.0
 20
0.0
 30
0.0
  3
A$C5D946DDC
  1
A$C5D946DDC
  0
LWPOLYLINE
  5
75
330
71
100
AcDbEntity
  8
DEFPOINTS
100
AcDbPolyline
 90
        4
 70
     1
 43
0.0
 10
0.0
 20
0.0
 10
20789.97878787337
 20
0.0
 10
20789.97878787337
 20
14699.99999999618
 10
0.0
 20
14699.99999999618
  0
LINE
  5
76
330
71
100
AcDbEntity
  8
190-図面外枠
100
AcDbLine
 10
270.9727272700184
 20
14349.33333333142
 30
0.0
 11
20519.00606060335
 21
14349.33333333142
 31
0.0
  0
LINE
  5
77
330
71
100
AcDbEntity
  8
190-図面外枠
100
AcDbLine
 10
20519.00606060335
 20
14349.33333333142
 30
0.0
 11
20519.00606060335
 21
350.6666666647579
 31
0.0
  0
LINE
  5
78
330
71
100
AcDbEntity
  8
190-図面外枠
100
AcDbLine
 10
20519.00606060335
 20
350.6666666647579
 30
0.0
 11
270.9727272700184
 21
350.6666666647579
 31
0.0
  0
LINE
  5
79
330
71
100
AcDbEntity
  8
190-図面外枠
100
AcDbLine
 10
270.9727272700184
 20
350.6666666647579
 30
0.0
 11
270.9727272700184
 21
14349.33333333142
 31
0.0
  0
ENDBLK
  5
7A
330
71
100
AcDbEntity
  8
0
100
AcDbBlockEnd
  0
BLOCK
  5
178
330
177
100
AcDbEntity
  8
0
100
AcDbBlockBegin
  2
*D3
 70
     1
 10
0.0
 20
0.0
 30
0.0
  3
*D3
  1
*D176
  0
LINE
  5
179
330
177
100
AcDbEntity
  8
166-寸法B
440
 16777216
100
AcDbLine
 10
2511.026168463402
 20
-4577.716172786828
 30
0.0
 11
2145.864443357568
 21
-4577.716172786828
 31
0.0
  0
LINE
  5
17A
330
177
100
AcDbEntity
  8
166-寸法B
440
 16777216
100
AcDbLine
 10
2511.026168463402
 20
-3977.716172786828
 30
0.0
 11
2145.864443357568
 21
-3977.716172786828
 31
0.0
  0
LINE
  5
17B
330
177
100
AcDbEntity
  8
166-寸法B
440
 16777216
100
AcDbLine
 10
2151.864443357568
 20
-4565.716172786828
 30
0.0
 11
2151.864443357568
 21
-3989.716172786828
 31
0.0
  0
INSERT
  5
17C
330
177
100
AcDbEntity
  8
166-寸法B
440
 16777216
100
AcDbBlockReference
  2
_Dot
 10
2151.864443357568
 20
-4577.716172786828
 30
0.0
 41
12.0
 42
12.0
 43
12.0
 50
270.0
  0
INSERT
  5
17D
330
177
100
AcDbEntity
  8
166-寸法B
440
 16777216
100
AcDbBlockReference
  2
_Dot
 10
2151.864443357568
 20
-3977.716172786828
 30
0.0
 41
12.0
 42
12.0
 43
12.0
 50
90.0
  0
MTEXT
  5
17E
330
177
100
AcDbEntity
  8
166-寸法B
440
 16777216
100
AcDbMText
 10
2121.864443357568
 20
-4277.716172786828
 30
0.0
 40
40.0
 41
0.0
 46
0.0
 71
     5
 72
     1
  1
\A1;600
 11
0.0
 21
1.0
 31
0.0
 73
     1
 44
1.0
  0
POINT
  5
17F
330
177
100
AcDbEntity
  8
DEFPOINTS
 62
     0
100
AcDbPoint
 10
2535.026168463402
 20
-4577.716172786828
 30
0.0
  0
POINT
  5
180
330
177
100
AcDbEntity
  8
DEFPOINTS
 62
     0
100
AcDbPoint
 10
2535.026168463402
 20
-3977.716172786828
 30
0.0
  0
POINT
  5
181
330
177
100
AcDbEntity
  8
DEFPOINTS
 62
     0
100
AcDbPoint
 10
2151.864443357568
 20
-3977.716172786828
 30
0.0
  0
ENDBLK
  5
182
330
177
100
AcDbEntity
  8
0
100
AcDbBlockEnd
  0
BLOCK
  5
185
330
184
100
AcDbEntity
  8
0
100
AcDbBlockBegin
  2
*D4
 70
     1
 10
0.0
 20
0.0
 30
0.0
  3
*D4
  1
*D177
  0
LINE
  5
186
330
184
100
AcDbEntity
  8
166-寸法B
440
 16777216
100
AcDbLine
 10
2535.026168463402
 20
-3953.716172786828
 30
0.0
 11
2535.026168463402
 21
-3615.364697951822
 31
0.0
  0
LINE
  5
187
330
184
100
AcDbEntity
  8
166-寸法B
440
 16777216
100
AcDbLine
 10
3435.026168463402
 20
-3953.716172786828
 30
0.0
 11
3435.026168463402
 21
-3615.364697951822
 31
0.0
  0
LINE
  5
188
330
184
100
AcDbEntity
  8
166-寸法B
440
 16777216
100
AcDbLine
 10
2547.026168463402
 20
-3621.364697951822
 30
0.0
 11
3423.026168463402
 21
-3621.364697951822
 31
0.0
  0
INSERT
  5
189
330
184
100
AcDbEntity
  8
166-寸法B
440
 16777216
100
AcDbBlockReference
  2
_Dot
 10
2535.026168463402
 20
-3621.364697951822
 30
0.0
 41
12.0
 42
12.0
 43
12.0
 50
180.0
  0
INSERT
  5
18A
330
184
100
AcDbEntity
  8
166-寸法B
440
 16777216
100
AcDbBlockReference
  2
_Dot
 10
3435.026168463402
 20
-3621.364697951822
 30
0.0
 41
12.0
 42
12.0
 43
12.0
  0
MTEXT
  5
18B
330
184
100
AcDbEntity
  8
166-寸法B
440
 16777216
100
AcDbMText
 10
2985.026168463402
 20
-3591.364697951822
 30
0.0
 40
40.0
 41
0.0
 46
0.0
 71
     5
 72
     1
  1
\A1;900
 73
     1
 44
1.0
  0
POINT
  5
18C
330
184
100
AcDbEntity
  8
DEFPOINTS
 62
     0
100
AcDbPoint
 10
2535.026168463402
 20
-3977.716172786828
 30
0.0
  0
POINT
  5
18D
330
184
100
AcDbEntity
  8
DEFPOINTS
 62
     0
100
AcDbPoint
 10
3435.026168463402
 20
-3977.716172786828
 30
0.0
  0
POINT
  5
18E
330
184
100
AcDbEntity
  8
DEFPOINTS
 62
     0
100
AcDbPoint
 10
3435.026168463402
 20
-3621.364697951822
 30
0.0
  0
ENDBLK
  5
18F
330
184
100
AcDbEntity
  8
0
100
AcDbBlockEnd
  0
BLOCK
  5
192
330
191
100
AcDbEntity
  8
0
100
AcDbBlockBegin
  2
*D5
 70
     1
 10
0.0
 20
0.0
 30
0.0
  3
*D5
  1
*D178
  0
LINE
  5
193
330
191
100
AcDbEntity
  8
166-寸法B
440
 16777216
100
AcDbLine
 10
2511.026168463402
 20
-6605.238763773623
 30
0.0
 11
2145.864443357568
 21
-6605.238763773623
 31
0.0
  0
LINE
  5
194
330
191
100
AcDbEntity
  8
166-寸法B
440
 16777216
100
AcDbLine
 10
2509.526168463402
 20
-6225.638763773621
 30
0.0
 11
2145.864443357568
 21
-6225.638763773621
 31
0.0
  0
LINE
  5
195
330
191
100
AcDbEntity
  8
166-寸法B
440
 16777216
100
AcDbLine
 10
2151.864443357568
 20
-6593.238763773623
 30
0.0
 11
2151.864443357568
 21
-6237.638763773621
 31
0.0
  0
INSERT
  5
196
330
191
100
AcDbEntity
  8
166-寸法B
440
 16777216
100
AcDbBlockReference
  2
_Dot
 10
2151.864443357568
 20
-6605.238763773623
 30
0.0
 41
12.0
 42
12.0
 43
12.0
 50
270.0
  0
INSERT
  5
197
330
191
100
AcDbEntity
  8
166-寸法B
440
 16777216
100
AcDbBlockReference
  2
_Dot
 10
2151.864443357568
 20
-6225.638763773621
 30
0.0
 41
12.0
 42
12.0
 43
12.0
 50
90.0
  0
MTEXT
  5
198
330
191
100
AcDbEntity
  8
166-寸法B
440
 16777216
100
AcDbMText
 10
2121.864443357568
 20
-6415.438763773622
 30
0.0
 40
40.0
 41
0.0
 46
0.0
 71
     5
 72
     1
  1
\A1;380
 11
0.0
 21
1.0
 31
0.0
 73
     1
 44
1.0
  0
POINT
  5
199
330
191
100
AcDbEntity
  8
DEFPOINTS
 62
     0
100
AcDbPoint
 10
2535.026168463402
 20
-6605.238763773623
 30
0.0
  0
POINT
  5
19A
330
191
100
AcDbEntity
  8
DEFPOINTS
 62
     0
100
AcDbPoint
 10
2533.526168463402
 20
-6225.638763773621
 30
0.0
  0
POINT
  5
19B
330
191
100
AcDbEntity
  8
DEFPOINTS
 62
     0
100
AcDbPoint
 10
2151.864443357568
 20
-6225.638763773621
 30
0.0
  0
ENDBLK
  5
19C
330
191
100
AcDbEntity
  8
0
100
AcDbBlockEnd
  0
BLOCK
  5
19F
330
19E
100
AcDbEntity
  8
0
100
AcDbBlockBegin
  2
*D6
 70
     1
 10
0.0
 20
0.0
 30
0.0
  3
*D6
  1
*D179
  0
LINE
  5
1A0
330
19E
100
AcDbEntity
  8
166-寸法B
440
 16777216
100
AcDbLine
 10
2511.026168463402
 20
-6605.238763773623
 30
0.0
 11
2245.864443357568
 21
-6605.238763773623
 31
0.0
  0
LINE
  5
1A1
330
19E
100
AcDbEntity
  8
166-寸法B
440
 16777216
100
AcDbLine
 10
2511.026168463402
 20
-6603.238763773623
 30
0.0
 11
2245.864443357568
 21
-6603.238763773623
 31
0.0
  0
LINE
  5
1A2
330
19E
100
AcDbEntity
  8
166-寸法B
440
 16777216
100
AcDbLine
 10
2251.864443357568
 20
-6605.238763773623
 30
0.0
 11
2251.864443357568
 21
-6673.030895948034
 31
0.0
  0
LINE
  5
1A3
330
19E
100
AcDbEntity
  8
166-寸法B
440
 16777216
100
AcDbLine
 10
2251.864443357568
 20
-6605.238763773623
 30
0.0
 11
2251.864443357568
 21
-6603.238763773623
 31
0.0
  0
LINE
  5
1A4
330
19E
100
AcDbEntity
  8
166-寸法B
440
 16777216
100
AcDbLine
 10
2251.864443357568
 20
-6617.238763773623
 30
0.0
 11
2251.864443357568
 21
-6629.238763773623
 31
0.0
  0
LINE
  5
1A5
330
19E
100
AcDbEntity
  8
166-寸法B
440
 16777216
100
AcDbLine
 10
2251.864443357568
 20
-6591.238763773623
 30
0.0
 11
2251.864443357568
 21
-6579.238763773623
 31
0.0
  0
INSERT
  5
1A6
330
19E
100
AcDbEntity
  8
166-寸法B
440
 16777216
100
AcDbBlockReference
  2
_Dot
 10
2251.864443357568
 20
-6605.238763773623
 30
0.0
 41
12.0
 42
12.0
 43
12.0
 50
90.0
  0
INSERT
  5
1A7
330
19E
100
AcDbEntity
  8
166-寸法B
440
 16777216
100
AcDbBlockReference
  2
_Dot
 10
2251.864443357568
 20
-6603.238763773623
 30
0.0
 41
12.0
 42
12.0
 43
12.0
 50
270.0
  0
MTEXT
  5
1A8
330
19E
100
AcDbEntity
  8
166-寸法B
440
 16777216
100
AcDbMText
 10
2221.864443357568
 20
-6652.690895948033
 30
0.0
 40
40.0
 41
0.0
 46
0.0
 71
     5
 72
     1
  1
\A1;2
 11
0.0
 21
1.0
 31
0.0
 73
     1
 44
1.0
  0
POINT
  5
1A9
330
19E
100
AcDbEntity
  8
DEFPOINTS
 62
     0
100
AcDbPoint
 10
2535.026168463402
 20
-6605.238763773623
 30
0.0
  0
POINT
  5
1AA
330
19E
100
AcDbEntity
  8
DEFPOINTS
 62
     0
100
AcDbPoint
 10
2535.026168463402
 20
-6603.238763773623
 30
0.0
  0
POINT
  5
1AB
330
19E
100
AcDbEntity
  8
DEFPOINTS
 62
     0
100
AcDbPoint
 10
2251.864443357568
 20
-6603.238763773623
 30
0.0
  0
ENDBLK
  5
1AC
330
19E
100
AcDbEntity
  8
0
100
AcDbBlockEnd
  0
BLOCK
  5
1AF
330
1AE
100
AcDbEntity
  8
0
100
AcDbBlockBegin
  2
*D7
 70
     1
 10
0.0
 20
0.0
 30
0.0
  3
*D7
  1
*D180
  0
LINE
  5
1B0
330
1AE
100
AcDbEntity
  8
166-寸法B
440
 16777216
100
AcDbLine
 10
2511.026168463402
 20
-6603.238763773623
 30
0.0
 11
2245.864443357568
 21
-6603.238763773623
 31
0.0
  0
LINE
  5
1B1
330
1AE
100
AcDbEntity
  8
166-寸法B
440
 16777216
100
AcDbLine
 10
2509.526168463402
 20
-6265.238763562646
 30
0.0
 11
2245.864443357568
 21
-6265.238763562646
 31
0.0
  0
LINE
  5
1B2
330
1AE
100
AcDbEntity
  8
166-寸法B
440
 16777216
100
AcDbLine
 10
2251.864443357568
 20
-6591.238763773623
 30
0.0
 11
2251.864443357568
 21
-6277.238763562646
 31
0.0
  0
INSERT
  5
1B3
330
1AE
100
AcDbEntity
  8
166-寸法B
440
 16777216
100
AcDbBlockReference
  2
_Dot
 10
2251.864443357568
 20
-6603.238763773623
 30
0.0
 41
12.0
 42
12.0
 43
12.0
 50
270.0
  0
INSERT
  5
1B4
330
1AE
100
AcDbEntity
  8
166-寸法B
440
 16777216
100
AcDbBlockReference
  2
_Dot
 10
2251.864443357568
 20
-6265.238763562646
 30
0.0
 41
12.0
 42
12.0
 43
12.0
 50
90.0
  0
MTEXT
  5
1B5
330
1AE
100
AcDbEntity
  8
166-寸法B
440
 16777216
100
AcDbMText
 10
2221.864443357568
 20
-6434.238763668134
 30
0.0
 40
40.0
 41
0.0
 46
0.0
 71
     5
 72
     1
  1
\A1;338
 11
0.0
 21
1.0
 31
0.0
 73
     1
 44
1.0
  0
POINT
  5
1B6
330
1AE
100
AcDbEntity
  8
DEFPOINTS
 62
     0
100
AcDbPoint
 10
2535.026168463402
 20
-6603.238763773623
 30
0.0
  0
POINT
  5
1B7
330
1AE
100
AcDbEntity
  8
DEFPOINTS
 62
     0
100
AcDbPoint
 10
2533.526168463402
 20
-6265.238763562646
 30
0.0
  0
POINT
  5
1B8
330
1AE
100
AcDbEntity
  8
DEFPOINTS
 62
     0
100
AcDbPoint
 10
2251.864443357568
 20
-6265.238763562646
 30
0.0
  0
ENDBLK
  5
1B9
330
1AE
100
AcDbEntity
  8
0
100
AcDbBlockEnd
  0
BLOCK
  5
1BC
330
1BB
100
AcDbEntity
  8
0
100
AcDbBlockBegin
  2
*D8
 70
     1
 10
0.0
 20
0.0
 30
0.0
  3
*D8
  1
*D181
  0
LINE
  5
1BD
330
1BB
100
AcDbEntity
  8
166-寸法B
440
 16777216
100
AcDbLine
 10
2509.526168463402
 20
-6265.238763562646
 30
0.0
 11
2245.864443357568
 21
-6265.238763562646
 31
0.0
  0
LINE
  5
1BE
330
1BB
100
AcDbEntity
  8
166-寸法B
440
 16777216
100
AcDbLine
 10
2509.526168463402
 20
-6225.638763773621
 30
0.0
 11
2245.864443357568
 21
-6225.638763773621
 31
0.0
  0
LINE
  5
1BF
330
1BB
100
AcDbEntity
  8
166-寸法B
440
 16777216
100
AcDbLine
 10
2251.864443357568
 20
-6225.638763773621
 30
0.0
 11
2251.864443357568
 21
-6132.064231797676
 31
0.0
  0
LINE
  5
1C0
330
1BB
100
AcDbEntity
  8
166-寸法B
440
 16777216
100
AcDbLine
 10
2251.864443357568
 20
-6265.238763562646
 30
0.0
 11
2251.864443357568
 21
-6225.638763773621
 31
0.0
  0
LINE
  5
1C1
330
1BB
100
AcDbEntity
  8
166-寸法B
440
 16777216
100
AcDbLine
 10
2251.864443357568
 20
-6277.238763562646
 30
0.0
 11
2251.864443357568
 21
-6289.238763562646
 31
0.0
  0
LINE
  5
1C2
330
1BB
100
AcDbEntity
  8
166-寸法B
440
 16777216
100
AcDbLine
 10
2251.864443357568
 20
-6213.638763773621
 30
0.0
 11
2251.864443357568
 21
-6201.638763773621
 31
0.0
  0
INSERT
  5
1C3
330
1BB
100
AcDbEntity
  8
166-寸法B
440
 16777216
100
AcDbBlockReference
  2
_Dot
 10
2251.864443357568
 20
-6265.238763562646
 30
0.0
 41
12.0
 42
12.0
 43
12.0
 50
90.0
  0
INSERT
  5
1C4
330
1BB
100
AcDbEntity
  8
166-寸法B
440
 16777216
100
AcDbBlockReference
  2
_Dot
 10
2251.864443357568
 20
-6225.638763773621
 30
0.0
 41
12.0
 42
12.0
 43
12.0
 50
270.0
  0
MTEXT
  5
1C5
330
1BB
100
AcDbEntity
  8
166-寸法B
440
 16777216
100
AcDbMText
 10
2221.864443357568
 20
-6166.224231797676
 30
0.0
 40
40.0
 41
0.0
 46
0.0
 71
     5
 72
     1
  1
\A1;40
 11
0.0
 21
1.0
 31
0.0
 73
     1
 44
1.0
  0
POINT
  5
1C6
330
1BB
100
AcDbEntity
  8
DEFPOINTS
 62
     0
100
AcDbPoint
 10
2533.526168463402
 20
-6265.238763562646
 30
0.0
  0
POINT
  5
1C7
330
1BB
100
AcDbEntity
  8
DEFPOINTS
 62
     0
100
AcDbPoint
 10
2533.526168463402
 20
-6225.638763773621
 30
0.0
  0
POINT
  5
1C8
330
1BB
100
AcDbEntity
  8
DEFPOINTS
 62
     0
100
AcDbPoint
 10
2251.864443357568
 20
-6225.638763773621
 30
0.0
  0
ENDBLK
  5
1C9
330
1BB
100
AcDbEntity
  8
0
100
AcDbBlockEnd
  0
BLOCK
  5
1CC
330
1CB
100
AcDbEntity
  8
0
100
AcDbBlockBegin
  2
*D9
 70
     1
 10
0.0
 20
0.0
 30
0.0
  3
*D9
  1
*D182
  0
LINE
  5
1CD
330
1CB
100
AcDbEntity
  8
166-寸法B
440
 16777216
100
AcDbLine
 10
2774.790828375146
 20
-6370.238763773619
 30
0.0
 11
2832.293554535601
 21
-6370.238763773619
 31
0.0
  0
LINE
  5
1CE
330
1CB
100
AcDbEntity
  8
166-寸法B
440
 16777216
100
AcDbLine
 10
2749.02647754387
 20
-6265.238763773619
 30
0.0
 11
2832.293554535601
 21
-6265.238763773619
 31
0.0
  0
LINE
  5
1CF
330
1CB
100
AcDbEntity
  8
166-寸法B
440
 16777216
100
AcDbLine
 10
2826.293554535601
 20
-6370.238763773619
 30
0.0
 11
2826.293554535601
 21
-6478.201111591279
 31
0.0
  0
LINE
  5
1D0
330
1CB
100
AcDbEntity
  8
166-寸法B
440
 16777216
100
AcDbLine
 10
2826.293554535601
 20
-6358.238763773619
 30
0.0
 11
2826.293554535601
 21
-6277.238763773619
 31
0.0
  0
INSERT
  5
1D1
330
1CB
100
AcDbEntity
  8
166-寸法B
440
 16777216
100
AcDbBlockReference
  2
_Dot
 10
2826.293554535601
 20
-6370.238763773619
 30
0.0
 41
12.0
 42
12.0
 43
12.0
 50
270.0
  0
INSERT
  5
1D2
330
1CB
100
AcDbEntity
  8
166-寸法B
440
 16777216
100
AcDbBlockReference
  2
_Dot
 10
2826.293554535601
 20
-6265.238763773619
 30
0.0
 41
12.0
 42
12.0
 43
12.0
 50
90.0
  0
MTEXT
  5
1D3
330
1CB
100
AcDbEntity
  8
166-寸法B
440
 16777216
100
AcDbMText
 10
2796.293554535601
 20
-6433.281111591279
 30
0.0
 40
40.0
 41
0.0
 46
0.0
 71
     5
 72
     1
  1
\A1;105
 11
0.0
 21
1.0
 31
0.0
 73
     1
 44
1.0
  0
POINT
  5
1D4
330
1CB
100
AcDbEntity
  8
DEFPOINTS
 62
     0
100
AcDbPoint
 10
2750.790828375146
 20
-6370.238763773619
 30
0.0
  0
POINT
  5
1D5
330
1CB
100
AcDbEntity
  8
DEFPOINTS
 62
     0
100
AcDbPoint
 10
2725.02647754387
 20
-6265.238763773619
 30
0.0
  0
POINT
  5
1D6
330
1CB
100
AcDbEntity
  8
DEFPOINTS
 62
     0
100
AcDbPoint
 10
2826.293554535601
 20
-6265.238763773619
 30
0.0
  0
ENDBLK
  5
1D7
330
1CB
100
AcDbEntity
  8
0
100
AcDbBlockEnd
  0
BLOCK
  5
1DA
330
1D9
100
AcDbEntity
  8
0
100
AcDbBlockBegin
  2
*D10
 70
     1
 10
0.0
 20
0.0
 30
0.0
  3
*D10
  1
*D183
  0
LINE
  5
1DB
330
1D9
100
AcDbEntity
  8
166-寸法B
440
 16777216
100
AcDbLine
 10
5364.129191268003
 20
-6605.238763782616
 30
0.0
 11
4998.967466162168
 21
-6605.238763782616
 31
0.0
  0
LINE
  5
1DC
330
1D9
100
AcDbEntity
  8
166-寸法B
440
 16777216
100
AcDbLine
 10
5362.629191268003
 20
-6225.638763782617
 30
0.0
 11
4998.967466162168
 21
-6225.638763782617
 31
0.0
  0
LINE
  5
1DD
330
1D9
100
AcDbEntity
  8
166-寸法B
440
 16777216
100
AcDbLine
 10
5004.967466162168
 20
-6593.238763782616
 30
0.0
 11
5004.967466162168
 21
-6237.638763782617
 31
0.0
  0
INSERT
  5
1DE
330
1D9
100
AcDbEntity
  8
166-寸法B
440
 16777216
100
AcDbBlockReference
  2
_Dot
 10
5004.967466162168
 20
-6605.238763782616
 30
0.0
 41
12.0
 42
12.0
 43
12.0
 50
270.0
  0
INSERT
  5
1DF
330
1D9
100
AcDbEntity
  8
166-寸法B
440
 16777216
100
AcDbBlockReference
  2
_Dot
 10
5004.967466162168
 20
-6225.638763782617
 30
0.0
 41
12.0
 42
12.0
 43
12.0
 50
90.0
  0
MTEXT
  5
1E0
330
1D9
100
AcDbEntity
  8
166-寸法B
440
 16777216
100
AcDbMText
 10
4974.967466162168
 20
-6415.438763782617
 30
0.0
 40
40.0
 41
0.0
 46
0.0
 71
     5
 72
     1
  1
\A1;380
 11
0.0
 21
1.0
 31
0.0
 73
     1
 44
1.0
  0
POINT
  5
1E1
330
1D9
100
AcDbEntity
  8
DEFPOINTS
 62
     0
100
AcDbPoint
 10
5388.129191268003
 20
-6605.238763782616
 30
0.0
  0
POINT
  5
1E2
330
1D9
100
AcDbEntity
  8
DEFPOINTS
 62
     0
100
AcDbPoint
 10
5386.629191268003
 20
-6225.638763782617
 30
0.0
  0
POINT
  5
1E3
330
1D9
100
AcDbEntity
  8
DEFPOINTS
 62
     0
100
AcDbPoint
 10
5004.967466162168
 20
-6225.638763782617
 30
0.0
  0
ENDBLK
  5
1E4
330
1D9
100
AcDbEntity
  8
0
100
AcDbBlockEnd
  0
BLOCK
  5
1E7
330
1E6
100
AcDbEntity
  8
0
100
AcDbBlockBegin
  2
*D11
 70
     1
 10
0.0
 20
0.0
 30
0.0
  3
*D11
  1
*D184
  0
LINE
  5
1E8
330
1E6
100
AcDbEntity
  8
166-寸法B
440
 16777216
100
AcDbLine
 10
5364.129191268003
 20
-6605.238763782616
 30
0.0
 11
5098.967466162168
 21
-6605.238763782616
 31
0.0
  0
LINE
  5
1E9
330
1E6
100
AcDbEntity
  8
166-寸法B
440
 16777216
100
AcDbLine
 10
5364.129191268003
 20
-6603.238763782616
 30
0.0
 11
5098.967466162168
 21
-6603.238763782616
 31
0.0
  0
LINE
  5
1EA
330
1E6
100
AcDbEntity
  8
166-寸法B
440
 16777216
100
AcDbLine
 10
5104.967466162168
 20
-6605.238763782616
 30
0.0
 11
5104.967466162168
 21
-6673.030895957027
 31
0.0
  0
LINE
  5
1EB
330
1E6
100
AcDbEntity
  8
166-寸法B
440
 16777216
100
AcDbLine
 10
5104.967466162168
 20
-6605.238763782616
 30
0.0
 11
5104.967466162168
 21
-6603.238763782616
 31
0.0
  0
LINE
  5
1EC
330
1E6
100
AcDbEntity
  8
166-寸法B
440
 16777216
100
AcDbLine
 10
5104.967466162168
 20
-6617.238763782616
 30
0.0
 11
5104.967466162168
 21
-6629.238763782616
 31
0.0
  0
LINE
  5
1ED
330
1E6
100
AcDbEntity
  8
166-寸法B
440
 16777216
100
AcDbLine
 10
5104.967466162168
 20
-6591.238763782616
 30
0.0
 11
5104.967466162168
 21
-6579.238763782616
 31
0.0
  0
INSERT
  5
1EE
330
1E6
100
AcDbEntity
  8
166-寸法B
440
 16777216
100
AcDbBlockReference
  2
_Dot
 10
5104.967466162168
 20
-6605.238763782616
 30
0.0
 41
12.0
 42
12.0
 43
12.0
 50
90.0
  0
INSERT
  5
1EF
330
1E6
100
AcDbEntity
  8
166-寸法B
440
 16777216
100
AcDbBlockReference
  2
_Dot
 10
5104.967466162168
 20
-6603.238763782616
 30
0.0
 41
12.0
 42
12.0
 43
12.0
 50
270.0
  0
MTEXT
  5
1F0
330
1E6
100
AcDbEntity
  8
166-寸法B
440
 16777216
100
AcDbMText
 10
5074.967466162168
 20
-6652.690895957026
 30
0.0
 40
40.0
 41
0.0
 46
0.0
 71
     5
 72
     1
  1
\A1;2
 11
0.0
 21
1.0
 31
0.0
 73
     1
 44
1.0
  0
POINT
  5
1F1
330
1E6
100
AcDbEntity
  8
DEFPOINTS
 62
     0
100
AcDbPoint
 10
5388.129191268003
 20
-6605.238763782616
 30
0.0
  0
POINT
  5
1F2
330
1E6
100
AcDbEntity
  8
DEFPOINTS
 62
     0
100
AcDbPoint
 10
5388.129191268003
 20
-6603.238763782616
 30
0.0
  0
POINT
  5
1F3
330
1E6
100
AcDbEntity
  8
DEFPOINTS
 62
     0
100
AcDbPoint
 10
5104.967466162168
 20
-6603.238763782616
 30
0.0
  0
ENDBLK
  5
1F4
330
1E6
100
AcDbEntity
  8
0
100
AcDbBlockEnd
  0
BLOCK
  5
1F7
330
1F6
100
AcDbEntity
  8
0
100
AcDbBlockBegin
  2
*D12
 70
     1
 10
0.0
 20
0.0
 30
0.0
  3
*D12
  1
*D185
  0
LINE
  5
1F8
330
1F6
100
AcDbEntity
  8
166-寸法B
440
 16777216
100
AcDbLine
 10
5364.129191268003
 20
-6603.238763782616
 30
0.0
 11
5098.967466162168
 21
-6603.238763782616
 31
0.0
  0
LINE
  5
1F9
330
1F6
100
AcDbEntity
  8
166-寸法B
440
 16777216
100
AcDbLine
 10
5362.629191268003
 20
-6265.238763571639
 30
0.0
 11
5098.967466162168
 21
-6265.238763571639
 31
0.0
  0
LINE
  5
1FA
330
1F6
100
AcDbEntity
  8
166-寸法B
440
 16777216
100
AcDbLine
 10
5104.967466162168
 20
-6591.238763782616
 30
0.0
 11
5104.967466162168
 21
-6277.238763571639
 31
0.0
  0
INSERT
  5
1FB
330
1F6
100
AcDbEntity
  8
166-寸法B
440
 16777216
100
AcDbBlockReference
  2
_Dot
 10
5104.967466162168
 20
-6603.238763782616
 30
0.0
 41
12.0
 42
12.0
 43
12.0
 50
270.0
  0
INSERT
  5
1FC
330
1F6
100
AcDbEntity
  8
166-寸法B
440
 16777216
100
AcDbBlockReference
  2
_Dot
 10
5104.967466162168
 20
-6265.238763571639
 30
0.0
 41
12.0
 42
12.0
 43
12.0
 50
90.0
  0
MTEXT
  5
1FD
330
1F6
100
AcDbEntity
  8
166-寸法B
440
 16777216
100
AcDbMText
 10
5074.967466162168
 20
-6434.238763677127
 30
0.0
 40
40.0
 41
0.0
 46
0.0
 71
     5
 72
     1
  1
\A1;338
 11
0.0
 21
1.0
 31
0.0
 73
     1
 44
1.0
  0
POINT
  5
1FE
330
1F6
100
AcDbEntity
  8
DEFPOINTS
 62
     0
100
AcDbPoint
 10
5388.129191268003
 20
-6603.238763782616
 30
0.0
  0
POINT
  5
1FF
330
1F6
100
AcDbEntity
  8
DEFPOINTS
 62
     0
100
AcDbPoint
 10
5386.629191268003
 20
-6265.238763571639
 30
0.0
  0
POINT
  5
200
330
1F6
100
AcDbEntity
  8
DEFPOINTS
 62
     0
100
AcDbPoint
 10
5104.967466162168
 20
-6265.238763571639
 30
0.0
  0
ENDBLK
  5
201
330
1F6
100
AcDbEntity
  8
0
100
AcDbBlockEnd
  0
BLOCK
  5
204
330
203
100
AcDbEntity
  8
0
100
AcDbBlockBegin
  2
*D13
 70
     1
 10
0.0
 20
0.0
 30
0.0
  3
*D13
  1
*D186
  0
LINE
  5
205
330
203
100
AcDbEntity
  8
166-寸法B
440
 16777216
100
AcDbLine
 10
5362.629191268003
 20
-6265.238763571639
 30
0.0
 11
5098.967466162168
 21
-6265.238763571639
 31
0.0
  0
LINE
  5
206
330
203
100
AcDbEntity
  8
166-寸法B
440
 16777216
100
AcDbLine
 10
5362.629191268003
 20
-6225.638763782617
 30
0.0
 11
5098.967466162168
 21
-6225.638763782617
 31
0.0
  0
LINE
  5
207
330
203
100
AcDbEntity
  8
166-寸法B
440
 16777216
100
AcDbLine
 10
5104.967466162168
 20
-6225.638763782617
 30
0.0
 11
5104.967466162168
 21
-6132.064231806669
 31
0.0
  0
LINE
  5
208
330
203
100
AcDbEntity
  8
166-寸法B
440
 16777216
100
AcDbLine
 10
5104.967466162168
 20
-6265.238763571639
 30
0.0
 11
5104.967466162168
 21
-6225.638763782617
 31
0.0
  0
LINE
  5
209
330
203
100
AcDbEntity
  8
166-寸法B
440
 16777216
100
AcDbLine
 10
5104.967466162168
 20
-6277.238763571639
 30
0.0
 11
5104.967466162168
 21
-6289.238763571639
 31
0.0
  0
LINE
  5
20A
330
203
100
AcDbEntity
  8
166-寸法B
440
 16777216
100
AcDbLine
 10
5104.967466162168
 20
-6213.638763782617
 30
0.0
 11
5104.967466162168
 21
-6201.638763782617
 31
0.0
  0
INSERT
  5
20B
330
203
100
AcDbEntity
  8
166-寸法B
440
 16777216
100
AcDbBlockReference
  2
_Dot
 10
5104.967466162168
 20
-6265.238763571639
 30
0.0
 41
12.0
 42
12.0
 43
12.0
 50
90.0
  0
INSERT
  5
20C
330
203
100
AcDbEntity
  8
166-寸法B
440
 16777216
100
AcDbBlockReference
  2
_Dot
 10
5104.967466162168
 20
-6225.638763782617
 30
0.0
 41
12.0
 42
12.0
 43
12.0
 50
270.0
  0
MTEXT
  5
20D
330
203
100
AcDbEntity
  8
166-寸法B
440
 16777216
100
AcDbMText
 10
5074.967466162168
 20
-6166.224231806669
 30
0.0
 40
40.0
 41
0.0
 46
0.0
 71
     5
 72
     1
  1
\A1;40
 11
0.0
 21
1.0
 31
0.0
 73
     1
 44
1.0
  0
POINT
  5
20E
330
203
100
AcDbEntity
  8
DEFPOINTS
 62
     0
100
AcDbPoint
 10
5386.629191268003
 20
-6265.238763571639
 30
0.0
  0
POINT
  5
20F
330
203
100
AcDbEntity
  8
DEFPOINTS
 62
     0
100
AcDbPoint
 10
5386.629191268003
 20
-6225.638763782617
 30
0.0
  0
POINT
  5
210
330
203
100
AcDbEntity
  8
DEFPOINTS
 62
     0
100
AcDbPoint
 10
5104.967466162168
 20
-6225.638763782617
 30
0.0
  0
ENDBLK
  5
211
330
203
100
AcDbEntity
  8
0
100
AcDbBlockEnd
  0
BLOCK
  5
214
330
213
100
AcDbEntity
  8
0
100
AcDbBlockBegin
  2
*D14
 70
     1
 10
0.0
 20
0.0
 30
0.0
  3
*D14
  1
*D187
  0
LINE
  5
215
330
213
100
AcDbEntity
  8
166-寸法B
440
 16777216
100
AcDbLine
 10
5386.629191268003
 20
-6201.638750723929
 30
0.0
 11
5386.629191268003
 21
-6041.092016708395
 31
0.0
  0
LINE
  5
216
330
213
100
AcDbEntity
  8
166-寸法B
440
 16777216
100
AcDbLine
 10
5522.029191268026
 20
-6201.638750723929
 30
0.0
 11
5522.029191268026
 21
-6041.092016708395
 31
0.0
  0
LINE
  5
217
330
213
100
AcDbEntity
  8
166-寸法B
440
 16777216
100
AcDbLine
 10
5398.629191268003
 20
-6047.092016708395
 30
0.0
 11
5510.029191268026
 21
-6047.092016708395
 31
0.0
  0
INSERT
  5
218
330
213
100
AcDbEntity
  8
166-寸法B
440
 16777216
100
AcDbBlockReference
  2
_Dot
 10
5386.629191268003
 20
-6047.092016708395
 30
0.0
 41
12.0
 42
12.0
 43
12.0
 50
180.0
  0
INSERT
  5
219
330
213
100
AcDbEntity
  8
166-寸法B
440
 16777216
100
AcDbBlockReference
  2
_Dot
 10
5522.029191268026
 20
-6047.092016708395
 30
0.0
 41
12.0
 42
12.0
 43
12.0
  0
MTEXT
  5
21A
330
213
100
AcDbEntity
  8
166-寸法B
440
 16777216
100
AcDbMText
 10
5454.329191268014
 20
-6017.092016708395
 30
0.0
 40
40.0
 41
0.0
 46
0.0
 71
     5
 72
     1
  1
\A1;135
 73
     1
 44
1.0
  0
POINT
  5
21B
330
213
100
AcDbEntity
  8
DEFPOINTS
 62
     0
100
AcDbPoint
 10
5386.629191268003
 20
-6225.638750723929
 30
0.0
  0
POINT
  5
21C
330
213
100
AcDbEntity
  8
DEFPOINTS
 62
     0
100
AcDbPoint
 10
5522.029191268026
 20
-6225.638750723929
 30
0.0
  0
POINT
  5
21D
330
213
100
AcDbEntity
  8
DEFPOINTS
 62
     0
100
AcDbPoint
 10
5522.029191268026
 20
-6047.092016708395
 30
0.0
  0
ENDBLK
  5
21E
330
213
100
AcDbEntity
  8
0
100
AcDbBlockEnd
  0
BLOCK
  5
221
330
220
100
AcDbEntity
  8
0
100
AcDbBlockBegin
  2
*D15
 70
     1
 10
0.0
 20
0.0
 30
0.0
  3
*D15
  1
*D188
  0
LINE
  5
222
330
220
100
AcDbEntity
  8
166-寸法B
440
 16777216
100
AcDbLine
 10
5522.029191268026
 20
-6201.638750723929
 30
0.0
 11
5522.029191268026
 21
-6041.092016708395
 31
0.0
  0
LINE
  5
223
330
220
100
AcDbEntity
  8
166-寸法B
440
 16777216
100
AcDbLine
 10
5561.629191268003
 20
-6201.638750723929
 30
0.0
 11
5561.629191268003
 21
-6041.092016708395
 31
0.0
  0
LINE
  5
224
330
220
100
AcDbEntity
  8
166-寸法B
440
 16777216
100
AcDbLine
 10
5522.029191268026
 20
-6047.092016708395
 30
0.0
 11
5561.629191268003
 21
-6047.092016708395
 31
0.0
  0
LINE
  5
225
330
220
100
AcDbEntity
  8
166-寸法B
440
 16777216
100
AcDbLine
 10
5510.029191268026
 20
-6047.092016708395
 30
0.0
 11
5498.029191268026
 21
-6047.092016708395
 31
0.0
  0
LINE
  5
226
330
220
100
AcDbEntity
  8
166-寸法B
440
 16777216
100
AcDbLine
 10
5573.629191268003
 20
-6047.092016708395
 30
0.0
 11
5585.629191268003
 21
-6047.092016708395
 31
0.0
  0
INSERT
  5
227
330
220
100
AcDbEntity
  8
166-寸法B
440
 16777216
100
AcDbBlockReference
  2
_Dot
 10
5522.029191268026
 20
-6047.092016708395
 30
0.0
 41
12.0
 42
12.0
 43
12.0
  0
INSERT
  5
228
330
220
100
AcDbEntity
  8
166-寸法B
440
 16777216
100
AcDbBlockReference
  2
_Dot
 10
5561.629191268003
 20
-6047.092016708395
 30
0.0
 41
12.0
 42
12.0
 43
12.0
 50
180.0
  0
MTEXT
  5
229
330
220
100
AcDbEntity
  8
166-寸法B
440
 16777216
100
AcDbMText
 10
5541.829191268014
 20
-6017.092016708395
 30
0.0
 40
40.0
 41
0.0
 46
0.0
 71
     5
 72
     1
  1
\A1;40
 73
     1
 44
1.0
  0
POINT
  5
22A
330
220
100
AcDbEntity
  8
DEFPOINTS
 62
     0
100
AcDbPoint
 10
5522.029191268026
 20
-6225.638750723929
 30
0.0
  0
POINT
  5
22B
330
220
100
AcDbEntity
  8
DEFPOINTS
 62
     0
100
AcDbPoint
 10
5561.629191268003
 20
-6225.638750723929
 30
0.0
  0
POINT
  5
22C
330
220
100
AcDbEntity
  8
DEFPOINTS
 62
     0
100
AcDbPoint
 10
5561.629191268003
 20
-6047.092016708395
 30
0.0
  0
ENDBLK
  5
22D
330
220
100
AcDbEntity
  8
0
100
AcDbBlockEnd
  0
BLOCK
  5
230
330
22F
100
AcDbEntity
  8
0
100
AcDbBlockBegin
  2
*D16
 70
     1
 10
0.0
 20
0.0
 30
0.0
  3
*D16
  1
*D189
  0
LINE
  5
231
330
22F
100
AcDbEntity
  8
166-寸法B
440
 16777216
100
AcDbLine
 10
5561.629191268003
 20
-6201.638750723929
 30
0.0
 11
5561.629191268003
 21
-6041.092016708395
 31
0.0
  0
LINE
  5
232
330
22F
100
AcDbEntity
  8
166-寸法B
440
 16777216
100
AcDbLine
 10
5811.629191268003
 20
-6201.638750723929
 30
0.0
 11
5811.629191268003
 21
-6041.092016708395
 31
0.0
  0
LINE
  5
233
330
22F
100
AcDbEntity
  8
166-寸法B
440
 16777216
100
AcDbLine
 10
5573.629191268003
 20
-6047.092016708395
 30
0.0
 11
5799.629191268003
 21
-6047.092016708395
 31
0.0
  0
INSERT
  5
234
330
22F
100
AcDbEntity
  8
166-寸法B
440
 16777216
100
AcDbBlockReference
  2
_Dot
 10
5561.629191268003
 20
-6047.092016708395
 30
0.0
 41
12.0
 42
12.0
 43
12.0
 50
180.0
  0
INSERT
  5
235
330
22F
100
AcDbEntity
  8
166-寸法B
440
 16777216
100
AcDbBlockReference
  2
_Dot
 10
5811.629191268003
 20
-6047.092016708395
 30
0.0
 41
12.0
 42
12.0
 43
12.0
  0
MTEXT
  5
236
330
22F
100
AcDbEntity
  8
166-寸法B
440
 16777216
100
AcDbMText
 10
5686.629191268003
 20
-6017.092016708395
 30
0.0
 40
40.0
 41
0.0
 46
0.0
 71
     5
 72
     1
  1
\A1;250
 73
     1
 44
1.0
  0
POINT
  5
237
330
22F
100
AcDbEntity
  8
DEFPOINTS
 62
     0
100
AcDbPoint
 10
5561.629191268003
 20
-6225.638750723929
 30
0.0
  0
POINT
  5
238
330
22F
100
AcDbEntity
  8
DEFPOINTS
 62
     0
100
AcDbPoint
 10
5811.629191268003
 20
-6225.638750723929
 30
0.0
  0
POINT
  5
239
330
22F
100
AcDbEntity
  8
DEFPOINTS
 62
     0
100
AcDbPoint
 10
5811.629191268003
 20
-6047.092016708395
 30
0.0
  0
ENDBLK
  5
23A
330
22F
100
AcDbEntity
  8
0
100
AcDbBlockEnd
  0
BLOCK
  5
23D
330
23C
100
AcDbEntity
  8
0
100
AcDbBlockBegin
  2
*D17
 70
     1
 10
0.0
 20
0.0
 30
0.0
  3
*D17
  1
*D190
  0
LINE
  5
23E
330
23C
100
AcDbEntity
  8
166-寸法B
440
 16777216
100
AcDbLine
 10
5811.629191268003
 20
-6201.638750723929
 30
0.0
 11
5811.629191268003
 21
-6041.092016708395
 31
0.0
  0
LINE
  5
23F
330
23C
100
AcDbEntity
  8
166-寸法B
440
 16777216
100
AcDbLine
 10
5851.229191267979
 20
-6201.638750723929
 30
0.0
 11
5851.229191267979
 21
-6041.092016708395
 31
0.0
  0
LINE
  5
240
330
23C
100
AcDbEntity
  8
166-寸法B
440
 16777216
100
AcDbLine
 10
5811.629191268003
 20
-6047.092016708395
 30
0.0
 11
5851.229191267979
 21
-6047.092016708395
 31
0.0
  0
LINE
  5
241
330
23C
100
AcDbEntity
  8
166-寸法B
440
 16777216
100
AcDbLine
 10
5799.629191268003
 20
-6047.092016708395
 30
0.0
 11
5787.629191268003
 21
-6047.092016708395
 31
0.0
  0
LINE
  5
242
330
23C
100
AcDbEntity
  8
166-寸法B
440
 16777216
100
AcDbLine
 10
5863.229191267979
 20
-6047.092016708395
 30
0.0
 11
5875.229191267979
 21
-6047.092016708395
 31
0.0
  0
INSERT
  5
243
330
23C
100
AcDbEntity
  8
166-寸法B
440
 16777216
100
AcDbBlockReference
  2
_Dot
 10
5811.629191268003
 20
-6047.092016708395
 30
0.0
 41
12.0
 42
12.0
 43
12.0
  0
INSERT
  5
244
330
23C
100
AcDbEntity
  8
166-寸法B
440
 16777216
100
AcDbBlockReference
  2
_Dot
 10
5851.229191267979
 20
-6047.092016708395
 30
0.0
 41
12.0
 42
12.0
 43
12.0
 50
180.0
  0
MTEXT
  5
245
330
23C
100
AcDbEntity
  8
166-寸法B
440
 16777216
100
AcDbMText
 10
5831.429191267991
 20
-6017.092016708395
 30
0.0
 40
40.0
 41
0.0
 46
0.0
 71
     5
 72
     1
  1
\A1;40
 73
     1
 44
1.0
  0
POINT
  5
246
330
23C
100
AcDbEntity
  8
DEFPOINTS
 62
     0
100
AcDbPoint
 10
5811.629191268003
 20
-6225.638750723929
 30
0.0
  0
POINT
  5
247
330
23C
100
AcDbEntity
  8
DEFPOINTS
 62
     0
100
AcDbPoint
 10
5851.229191267979
 20
-6225.638750723929
 30
0.0
  0
POINT
  5
248
330
23C
100
AcDbEntity
  8
DEFPOINTS
 62
     0
100
AcDbPoint
 10
5851.229191267979
 20
-6047.092016708395
 30
0.0
  0
ENDBLK
  5
249
330
23C
100
AcDbEntity
  8
0
100
AcDbBlockEnd
  0
BLOCK
  5
24C
330
24B
100
AcDbEntity
  8
0
100
AcDbBlockBegin
  2
*D18
 70
     1
 10
0.0
 20
0.0
 30
0.0
  3
*D18
  1
*D191
  0
LINE
  5
24D
330
24B
100
AcDbEntity
  8
166-寸法B
440
 16777216
100
AcDbLine
 10
5851.229191267979
 20
-6201.638750723929
 30
0.0
 11
5851.229191267979
 21
-6041.092016708395
 31
0.0
  0
LINE
  5
24E
330
24B
100
AcDbEntity
  8
166-寸法B
440
 16777216
100
AcDbLine
 10
5986.629191268003
 20
-6201.638750723929
 30
0.0
 11
5986.629191268003
 21
-6041.092016708395
 31
0.0
  0
LINE
  5
24F
330
24B
100
AcDbEntity
  8
166-寸法B
440
 16777216
100
AcDbLine
 10
5863.229191267979
 20
-6047.092016708395
 30
0.0
 11
5974.629191268003
 21
-6047.092016708395
 31
0.0
  0
INSERT
  5
250
330
24B
100
AcDbEntity
  8
166-寸法B
440
 16777216
100
AcDbBlockReference
  2
_Dot
 10
5851.229191267979
 20
-6047.092016708395
 30
0.0
 41
12.0
 42
12.0
 43
12.0
 50
180.0
  0
INSERT
  5
251
330
24B
100
AcDbEntity
  8
166-寸法B
440
 16777216
100
AcDbBlockReference
  2
_Dot
 10
5986.629191268003
 20
-6047.092016708395
 30
0.0
 41
12.0
 42
12.0
 43
12.0
  0
MTEXT
  5
252
330
24B
100
AcDbEntity
  8
166-寸法B
440
 16777216
100
AcDbMText
 10
5918.929191267991
 20
-6017.092016708395
 30
0.0
 40
40.0
 41
0.0
 46
0.0
 71
     5
 72
     1
  1
\A1;135
 73
     1
 44
1.0
  0
POINT
  5
253
330
24B
100
AcDbEntity
  8
DEFPOINTS
 62
     0
100
AcDbPoint
 10
5851.229191267979
 20
-6225.638750723929
 30
0.0
  0
POINT
  5
254
330
24B
100
AcDbEntity
  8
DEFPOINTS
 62
     0
100
AcDbPoint
 10
5986.629191268003
 20
-6225.638750723929
 30
0.0
  0
POINT
  5
255
330
24B
100
AcDbEntity
  8
DEFPOINTS
 62
     0
100
AcDbPoint
 10
5986.629191268003
 20
-6047.092016708395
 30
0.0
  0
ENDBLK
  5
256
330
24B
100
AcDbEntity
  8
0
100
AcDbBlockEnd
  0
BLOCK
  5
259
330
258
100
AcDbEntity
  8
0
100
AcDbBlockBegin
  2
*D19
 70
     1
 10
0.0
 20
0.0
 30
0.0
  3
*D19
  1
*D192
  0
LINE
  5
25A
330
258
100
AcDbEntity
  8
166-寸法B
440
 16777216
100
AcDbLine
 10
5986.629191268003
 20
-6201.638750723929
 30
0.0
 11
5986.629191268003
 21
-5941.092016708395
 31
0.0
  0
LINE
  5
25B
330
258
100
AcDbEntity
  8
166-寸法B
440
 16777216
100
AcDbLine
 10
5386.629191268003
 20
-6201.638750721579
 30
0.0
 11
5386.629191268003
 21
-5941.092016708395
 31
0.0
  0
LINE
  5
25C
330
258
100
AcDbEntity
  8
166-寸法B
440
 16777216
100
AcDbLine
 10
5974.629191268003
 20
-5947.092016708395
 30
0.0
 11
5398.629191268003
 21
-5947.092016708395
 31
0.0
  0
INSERT
  5
25D
330
258
100
AcDbEntity
  8
166-寸法B
440
 16777216
100
AcDbBlockReference
  2
_Dot
 10
5986.629191268003
 20
-5947.092016708395
 30
0.0
 41
12.0
 42
12.0
 43
12.0
  0
INSERT
  5
25E
330
258
100
AcDbEntity
  8
166-寸法B
440
 16777216
100
AcDbBlockReference
  2
_Dot
 10
5386.629191268003
 20
-5947.092016708395
 30
0.0
 41
12.0
 42
12.0
 43
12.0
 50
180.0
  0
MTEXT
  5
25F
330
258
100
AcDbEntity
  8
166-寸法B
440
 16777216
100
AcDbMText
 10
5686.629191268003
 20
-5917.092016708395
 30
0.0
 40
40.0
 41
0.0
 46
0.0
 71
     5
 72
     1
  1
\A1;600
 73
     1
 44
1.0
  0
POINT
  5
260
330
258
100
AcDbEntity
  8
DEFPOINTS
 62
     0
100
AcDbPoint
 10
5986.629191268003
 20
-6225.638750723929
 30
0.0
  0
POINT
  5
261
330
258
100
AcDbEntity
  8
DEFPOINTS
 62
     0
100
AcDbPoint
 10
5386.629191268003
 20
-6225.638750721579
 30
0.0
  0
POINT
  5
262
330
258
100
AcDbEntity
  8
DEFPOINTS
 62
     0
100
AcDbPoint
 10
5386.629191268003
 20
-5947.092016708395
 30
0.0
  0
ENDBLK
  5
263
330
258
100
AcDbEntity
  8
0
100
AcDbBlockEnd
  0
BLOCK
  5
266
330
265
100
AcDbEntity
  8
0
100
AcDbBlockBegin
  2
*D20
 70
     1
 10
0.0
 20
0.0
 30
0.0
  3
*D20
  1
*D193
  0
LINE
  5
267
330
265
100
AcDbEntity
  8
166-寸法B
440
 16777216
100
AcDbLine
 10
2533.526168463402
 20
-6629.238750723935
 30
0.0
 11
2533.526168463402
 21
-6966.812138988431
 31
0.0
  0
LINE
  5
268
330
265
100
AcDbEntity
  8
166-寸法B
440
 16777216
100
AcDbLine
 10
2535.026168463402
 20
-6629.238750723935
 30
0.0
 11
2535.026168463402
 21
-6966.812138988431
 31
0.0
  0
LINE
  5
269
330
265
100
AcDbEntity
  8
166-寸法B
440
 16777216
100
AcDbLine
 10
2533.526168463402
 20
-6960.812138988431
 30
0.0
 11
2412.833634400084
 21
-6960.812138988431
 31
0.0
  0
LINE
  5
26A
330
265
100
AcDbEntity
  8
166-寸法B
440
 16777216
100
AcDbLine
 10
2533.526168463402
 20
-6960.812138988431
 30
0.0
 11
2535.026168463402
 21
-6960.812138988431
 31
0.0
  0
LINE
  5
26B
330
265
100
AcDbEntity
  8
166-寸法B
440
 16777216
100
AcDbLine
 10
2521.526168463402
 20
-6960.812138988431
 30
0.0
 11
2509.526168463402
 21
-6960.812138988431
 31
0.0
  0
LINE
  5
26C
330
265
100
AcDbEntity
  8
166-寸法B
440
 16777216
100
AcDbLine
 10
2547.026168463402
 20
-6960.812138988431
 30
0.0
 11
2559.026168463402
 21
-6960.812138988431
 31
0.0
  0
INSERT
  5
26D
330
265
100
AcDbEntity
  8
166-寸法B
440
 16777216
100
AcDbBlockReference
  2
_Dot
 10
2533.526168463402
 20
-6960.812138988431
 30
0.0
 41
12.0
 42
12.0
 43
12.0
  0
INSERT
  5
26E
330
265
100
AcDbEntity
  8
166-寸法B
440
 16777216
100
AcDbBlockReference
  2
_Dot
 10
2535.026168463402
 20
-6960.812138988431
 30
0.0
 41
12.0
 42
12.0
 43
12.0
 50
180.0
  0
MTEXT
  5
26F
330
265
100
AcDbEntity
  8
166-寸法B
440
 16777216
100
AcDbMText
 10
2457.753634400084
 20
-6930.812138988431
 30
0.0
 40
40.0
 41
0.0
 46
0.0
 71
     5
 72
     1
  1
\A1;1.5
 73
     1
 44
1.0
  0
POINT
  5
270
330
265
100
AcDbEntity
  8
DEFPOINTS
 62
     0
100
AcDbPoint
 10
2533.526168463402
 20
-6605.238750723935
 30
0.0
  0
POINT
  5
271
330
265
100
AcDbEntity
  8
DEFPOINTS
 62
     0
100
AcDbPoint
 10
2535.026168463402
 20
-6605.238750723935
 30
0.0
  0
POINT
  5
272
330
265
100
AcDbEntity
  8
DEFPOINTS
 62
     0
100
AcDbPoint
 10
2535.026168463402
 20
-6960.812138988431
 30
0.0
  0
ENDBLK
  5
273
330
265
100
AcDbEntity
  8
0
100
AcDbBlockEnd
  0
BLOCK
  5
276
330
275
100
AcDbEntity
  8
0
100
AcDbBlockBegin
  2
*D21
 70
     1
 10
0.0
 20
0.0
 30
0.0
  3
*D21
  1
*D194
  0
LINE
  5
277
330
275
100
AcDbEntity
  8
166-寸法B
440
 16777216
100
AcDbLine
 10
2535.026168463402
 20
-6629.238750723935
 30
0.0
 11
2535.026168463402
 21
-6966.812138988431
 31
0.0
  0
LINE
  5
278
330
275
100
AcDbEntity
  8
166-寸法B
440
 16777216
100
AcDbLine
 10
3432.025859382935
 20
-6629.238750723935
 30
0.0
 11
3432.025859382935
 21
-6966.812138988431
 31
0.0
  0
LINE
  5
279
330
275
100
AcDbEntity
  8
166-寸法B
440
 16777216
100
AcDbLine
 10
2547.026168463402
 20
-6960.812138988431
 30
0.0
 11
3420.025859382935
 21
-6960.812138988431
 31
0.0
  0
INSERT
  5
27A
330
275
100
AcDbEntity
  8
166-寸法B
440
 16777216
100
AcDbBlockReference
  2
_Dot
 10
2535.026168463402
 20
-6960.812138988431
 30
0.0
 41
12.0
 42
12.0
 43
12.0
 50
180.0
  0
INSERT
  5
27B
330
275
100
AcDbEntity
  8
166-寸法B
440
 16777216
100
AcDbBlockReference
  2
_Dot
 10
3432.025859382935
 20
-6960.812138988431
 30
0.0
 41
12.0
 42
12.0
 43
12.0
  0
MTEXT
  5
27C
330
275
100
AcDbEntity
  8
166-寸法B
440
 16777216
100
AcDbMText
 10
2983.526013923169
 20
-6930.812138988431
 30
0.0
 40
40.0
 41
0.0
 46
0.0
 71
     5
 72
     1
  1
\A1;897
 73
     1
 44
1.0
  0
POINT
  5
27D
330
275
100
AcDbEntity
  8
DEFPOINTS
 62
     0
100
AcDbPoint
 10
2535.026168463402
 20
-6605.238750723935
 30
0.0
  0
POINT
  5
27E
330
275
100
AcDbEntity
  8
DEFPOINTS
 62
     0
100
AcDbPoint
 10
3432.025859382935
 20
-6605.238750723935
 30
0.0
  0
POINT
  5
27F
330
275
100
AcDbEntity
  8
DEFPOINTS
 62
     0
100
AcDbPoint
 10
3432.025859382935
 20
-6960.812138988431
 30
0.0
  0
ENDBLK
  5
280
330
275
100
AcDbEntity
  8
0
100
AcDbBlockEnd
  0
BLOCK
  5
283
330
282
100
AcDbEntity
  8
0
100
AcDbBlockBegin
  2
*D22
 70
     1
 10
0.0
 20
0.0
 30
0.0
  3
*D22
  1
*D195
  0
LINE
  5
284
330
282
100
AcDbEntity
  8
166-寸法B
440
 16777216
100
AcDbLine
 10
3432.025859382935
 20
-6629.238750723935
 30
0.0
 11
3432.025859382935
 21
-6966.812138988431
 31
0.0
  0
LINE
  5
285
330
282
100
AcDbEntity
  8
166-寸法B
440
 16777216
100
AcDbLine
 10
3433.526168463519
 20
-6629.238750723935
 30
0.0
 11
3433.526168463519
 21
-6966.812138988431
 31
0.0
  0
LINE
  5
286
330
282
100
AcDbEntity
  8
166-寸法B
440
 16777216
100
AcDbLine
 10
3433.526168463519
 20
-6960.812138988431
 30
0.0
 11
3551.062430338892
 21
-6960.812138988431
 31
0.0
  0
LINE
  5
287
330
282
100
AcDbEntity
  8
166-寸法B
440
 16777216
100
AcDbLine
 10
3432.025859382935
 20
-6960.812138988431
 30
0.0
 11
3433.526168463519
 21
-6960.812138988431
 31
0.0
  0
LINE
  5
288
330
282
100
AcDbEntity
  8
166-寸法B
440
 16777216
100
AcDbLine
 10
3420.025859382935
 20
-6960.812138988431
 30
0.0
 11
3408.025859382935
 21
-6960.812138988431
 31
0.0
  0
LINE
  5
289
330
282
100
AcDbEntity
  8
166-寸法B
440
 16777216
100
AcDbLine
 10
3445.526168463519
 20
-6960.812138988431
 30
0.0
 11
3457.526168463519
 21
-6960.812138988431
 31
0.0
  0
INSERT
  5
28A
330
282
100
AcDbEntity
  8
166-寸法B
440
 16777216
100
AcDbBlockReference
  2
_Dot
 10
3432.025859382935
 20
-6960.812138988431
 30
0.0
 41
12.0
 42
12.0
 43
12.0
  0
INSERT
  5
28B
330
282
100
AcDbEntity
  8
166-寸法B
440
 16777216
100
AcDbBlockReference
  2
_Dot
 10
3433.526168463519
 20
-6960.812138988431
 30
0.0
 41
12.0
 42
12.0
 43
12.0
 50
180.0
  0
MTEXT
  5
28C
330
282
100
AcDbEntity
  8
166-寸法B
440
 16777216
100
AcDbMText
 10
3506.142430338892
 20
-6930.812138988431
 30
0.0
 40
40.0
 41
0.0
 46
0.0
 71
     5
 72
     1
  1
\A1;1.5
 73
     1
 44
1.0
  0
POINT
  5
28D
330
282
100
AcDbEntity
  8
DEFPOINTS
 62
     0
100
AcDbPoint
 10
3432.025859382935
 20
-6605.238750723935
 30
0.0
  0
POINT
  5
28E
330
282
100
AcDbEntity
  8
DEFPOINTS
 62
     0
100
AcDbPoint
 10
3433.526168463519
 20
-6605.238750723935
 30
0.0
  0
POINT
  5
28F
330
282
100
AcDbEntity
  8
DEFPOINTS
 62
     0
100
AcDbPoint
 10
3433.526168463519
 20
-6960.812138988431
 30
0.0
  0
ENDBLK
  5
290
330
282
100
AcDbEntity
  8
0
100
AcDbBlockEnd
  0
BLOCK
  5
293
330
292
100
AcDbEntity
  8
0
100
AcDbBlockBegin
  2
*D23
 70
     1
 10
0.0
 20
0.0
 30
0.0
  3
*D23
  1
*D196
  0
LINE
  5
294
330
292
100
AcDbEntity
  8
166-寸法B
440
 16777216
100
AcDbLine
 10
3433.526168463519
 20
-6629.238750723935
 30
0.0
 11
3433.526168463519
 21
-7066.812138988431
 31
0.0
  0
LINE
  5
295
330
292
100
AcDbEntity
  8
166-寸法B
440
 16777216
100
AcDbLine
 10
2533.526168463402
 20
-6629.238750723935
 30
0.0
 11
2533.526168463402
 21
-7066.812138988431
 31
0.0
  0
LINE
  5
296
330
292
100
AcDbEntity
  8
166-寸法B
440
 16777216
100
AcDbLine
 10
3421.526168463519
 20
-7060.812138988431
 30
0.0
 11
2545.526168463402
 21
-7060.812138988431
 31
0.0
  0
INSERT
  5
297
330
292
100
AcDbEntity
  8
166-寸法B
440
 16777216
100
AcDbBlockReference
  2
_Dot
 10
3433.526168463519
 20
-7060.812138988431
 30
0.0
 41
12.0
 42
12.0
 43
12.0
  0
INSERT
  5
298
330
292
100
AcDbEntity
  8
166-寸法B
440
 16777216
100
AcDbBlockReference
  2
_Dot
 10
2533.526168463402
 20
-7060.812138988431
 30
0.0
 41
12.0
 42
12.0
 43
12.0
 50
180.0
  0
MTEXT
  5
299
330
292
100
AcDbEntity
  8
166-寸法B
440
 16777216
100
AcDbMText
 10
2983.526168463461
 20
-7030.812138988431
 30
0.0
 40
40.0
 41
0.0
 46
0.0
 71
     5
 72
     1
  1
\A1;900
 73
     1
 44
1.0
  0
POINT
  5
29A
330
292
100
AcDbEntity
  8
DEFPOINTS
 62
     0
100
AcDbPoint
 10
3433.526168463519
 20
-6605.238750723935
 30
0.0
  0
POINT
  5
29B
330
292
100
AcDbEntity
  8
DEFPOINTS
 62
     0
100
AcDbPoint
 10
2533.526168463402
 20
-6605.238750723935
 30
0.0
  0
POINT
  5
29C
330
292
100
AcDbEntity
  8
DEFPOINTS
 62
     0
100
AcDbPoint
 10
2533.526168463402
 20
-7060.812138988431
 30
0.0
  0
ENDBLK
  5
29D
330
292
100
AcDbEntity
  8
0
100
AcDbBlockEnd
  0
BLOCK
  5
2A0
330
29F
100
AcDbEntity
  8
0
100
AcDbBlockBegin
  2
*D24
 70
     1
 10
0.0
 20
0.0
 30
0.0
  3
*D24
  1
*D197
  0
LINE
  5
2A1
330
29F
100
AcDbEntity
  8
166-寸法B
440
 16777216
100
AcDbLine
 10
2535.026168463402
 20
-6629.238750723935
 30
0.0
 11
2535.026168463402
 21
-6866.812138988431
 31
0.0
  0
LINE
  5
2A2
330
29F
100
AcDbEntity
  8
166-寸法B
440
 16777216
100
AcDbLine
 10
2574.626168463379
 20
-6629.238750723935
 30
0.0
 11
2574.626168463379
 21
-6866.812138988431
 31
0.0
  0
LINE
  5
2A3
330
29F
100
AcDbEntity
  8
166-寸法B
440
 16777216
100
AcDbLine
 10
2535.026168463402
 20
-6860.812138988431
 30
0.0
 11
2574.626168463379
 21
-6860.812138988431
 31
0.0
  0
LINE
  5
2A4
330
29F
100
AcDbEntity
  8
166-寸法B
440
 16777216
100
AcDbLine
 10
2523.026168463402
 20
-6860.812138988431
 30
0.0
 11
2511.026168463402
 21
-6860.812138988431
 31
0.0
  0
LINE
  5
2A5
330
29F
100
AcDbEntity
  8
166-寸法B
440
 16777216
100
AcDbLine
 10
2586.626168463379
 20
-6860.812138988431
 30
0.0
 11
2598.626168463379
 21
-6860.812138988431
 31
0.0
  0
INSERT
  5
2A6
330
29F
100
AcDbEntity
  8
166-寸法B
440
 16777216
100
AcDbBlockReference
  2
_Dot
 10
2535.026168463402
 20
-6860.812138988431
 30
0.0
 41
12.0
 42
12.0
 43
12.0
  0
INSERT
  5
2A7
330
29F
100
AcDbEntity
  8
166-寸法B
440
 16777216
100
AcDbBlockReference
  2
_Dot
 10
2574.626168463379
 20
-6860.812138988431
 30
0.0
 41
12.0
 42
12.0
 43
12.0
 50
180.0
  0
MTEXT
  5
2A8
330
29F
100
AcDbEntity
  8
166-寸法B
440
 16777216
100
AcDbMText
 10
2612.342529101879
 20
-6830.812138988431
 30
0.0
 40
40.0
 41
0.0
 46
0.0
 71
     5
 72
     1
  1
\A1;40
 73
     1
 44
1.0
  0
POINT
  5
2A9
330
29F
100
AcDbEntity
  8
DEFPOINTS
 62
     0
100
AcDbPoint
 10
2535.026168463402
 20
-6605.238750723935
 30
0.0
  0
POINT
  5
2AA
330
29F
100
AcDbEntity
  8
DEFPOINTS
 62
     0
100
AcDbPoint
 10
2574.626168463379
 20
-6605.238750723935
 30
0.0
  0
POINT
  5
2AB
330
29F
100
AcDbEntity
  8
DEFPOINTS
 62
     0
100
AcDbPoint
 10
2574.626168463379
 20
-6860.812138988431
 30
0.0
  0
ENDBLK
  5
2AC
330
29F
100
AcDbEntity
  8
0
100
AcDbBlockEnd
  0
BLOCK
  5
2AF
330
2AE
100
AcDbEntity
  8
0
100
AcDbBlockBegin
  2
*D25
 70
     1
 10
0.0
 20
0.0
 30
0.0
  3
*D25
  1
*D198
  0
LINE
  5
2B0
330
2AE
100
AcDbEntity
  8
166-寸法B
440
 16777216
100
AcDbLine
 10
2574.626168463379
 20
-6629.238750723935
 30
0.0
 11
2574.626168463379
 21
-6866.812138988431
 31
0.0
  0
LINE
  5
2B1
330
2AE
100
AcDbEntity
  8
166-寸法B
440
 16777216
100
AcDbLine
 10
3392.425859382958
 20
-6629.238750723935
 30
0.0
 11
3392.425859382958
 21
-6866.812138988431
 31
0.0
  0
LINE
  5
2B2
330
2AE
100
AcDbEntity
  8
166-寸法B
440
 16777216
100
AcDbLine
 10
2586.626168463379
 20
-6860.812138988431
 30
0.0
 11
3380.425859382958
 21
-6860.812138988431
 31
0.0
  0
INSERT
  5
2B3
330
2AE
100
AcDbEntity
  8
166-寸法B
440
 16777216
100
AcDbBlockReference
  2
_Dot
 10
2574.626168463379
 20
-6860.812138988431
 30
0.0
 41
12.0
 42
12.0
 43
12.0
 50
180.0
  0
INSERT
  5
2B4
330
2AE
100
AcDbEntity
  8
166-寸法B
440
 16777216
100
AcDbBlockReference
  2
_Dot
 10
3392.425859382958
 20
-6860.812138988431
 30
0.0
 41
12.0
 42
12.0
 43
12.0
  0
MTEXT
  5
2B5
330
2AE
100
AcDbEntity
  8
166-寸法B
440
 16777216
100
AcDbMText
 10
2983.526013923169
 20
-6830.812138988431
 30
0.0
 40
40.0
 41
0.0
 46
0.0
 71
     5
 72
     1
  1
\A1;818
 73
     1
 44
1.0
  0
POINT
  5
2B6
330
2AE
100
AcDbEntity
  8
DEFPOINTS
 62
     0
100
AcDbPoint
 10
2574.626168463379
 20
-6605.238750723935
 30
0.0
  0
POINT
  5
2B7
330
2AE
100
AcDbEntity
  8
DEFPOINTS
 62
     0
100
AcDbPoint
 10
3392.425859382958
 20
-6605.238750723935
 30
0.0
  0
POINT
  5
2B8
330
2AE
100
AcDbEntity
  8
DEFPOINTS
 62
     0
100
AcDbPoint
 10
3392.425859382958
 20
-6860.812138988431
 30
0.0
  0
ENDBLK
  5
2B9
330
2AE
100
AcDbEntity
  8
0
100
AcDbBlockEnd
  0
BLOCK
  5
2BC
330
2BB
100
AcDbEntity
  8
0
100
AcDbBlockBegin
  2
*D26
 70
     1
 10
0.0
 20
0.0
 30
0.0
  3
*D26
  1
*D199
  0
LINE
  5
2BD
330
2BB
100
AcDbEntity
  8
166-寸法B
440
 16777216
100
AcDbLine
 10
3392.425859382958
 20
-6629.238750723935
 30
0.0
 11
3392.425859382958
 21
-6866.812138988431
 31
0.0
  0
LINE
  5
2BE
330
2BB
100
AcDbEntity
  8
166-寸法B
440
 16777216
100
AcDbLine
 10
3432.025859382935
 20
-6629.238750723935
 30
0.0
 11
3432.025859382935
 21
-6866.812138988431
 31
0.0
  0
LINE
  5
2BF
330
2BB
100
AcDbEntity
  8
166-寸法B
440
 16777216
100
AcDbLine
 10
3392.425859382958
 20
-6860.812138988431
 30
0.0
 11
3432.025859382935
 21
-6860.812138988431
 31
0.0
  0
LINE
  5
2C0
330
2BB
100
AcDbEntity
  8
166-寸法B
440
 16777216
100
AcDbLine
 10
3380.425859382958
 20
-6860.812138988431
 30
0.0
 11
3368.425859382958
 21
-6860.812138988431
 31
0.0
  0
LINE
  5
2C1
330
2BB
100
AcDbEntity
  8
166-寸法B
440
 16777216
100
AcDbLine
 10
3444.025859382935
 20
-6860.812138988431
 30
0.0
 11
3456.025859382935
 21
-6860.812138988431
 31
0.0
  0
INSERT
  5
2C2
330
2BB
100
AcDbEntity
  8
166-寸法B
440
 16777216
100
AcDbBlockReference
  2
_Dot
 10
3392.425859382958
 20
-6860.812138988431
 30
0.0
 41
12.0
 42
12.0
 43
12.0
  0
INSERT
  5
2C3
330
2BB
100
AcDbEntity
  8
166-寸法B
440
 16777216
100
AcDbBlockReference
  2
_Dot
 10
3432.025859382935
 20
-6860.812138988431
 30
0.0
 41
12.0
 42
12.0
 43
12.0
 50
180.0
  0
MTEXT
  5
2C4
330
2BB
100
AcDbEntity
  8
166-寸法B
440
 16777216
100
AcDbMText
 10
3352.902386609232
 20
-6830.812138988431
 30
0.0
 40
40.0
 41
0.0
 46
0.0
 71
     5
 72
     1
  1
\A1;40
 73
     1
 44
1.0
  0
POINT
  5
2C5
330
2BB
100
AcDbEntity
  8
DEFPOINTS
 62
     0
100
AcDbPoint
 10
3392.425859382958
 20
-6605.238750723935
 30
0.0
  0
POINT
  5
2C6
330
2BB
100
AcDbEntity
  8
DEFPOINTS
 62
     0
100
AcDbPoint
 10
3432.025859382935
 20
-6605.238750723935
 30
0.0
  0
POINT
  5
2C7
330
2BB
100
AcDbEntity
  8
DEFPOINTS
 62
     0
100
AcDbPoint
 10
3432.025859382935
 20
-6860.812138988431
 30
0.0
  0
ENDBLK
  5
2C8
330
2BB
100
AcDbEntity
  8
0
100
AcDbBlockEnd
  0
BLOCK
  5
2CB
330
2CA
100
AcDbEntity
  8
0
100
AcDbBlockBegin
  2
*D27
 70
     1
 10
0.0
 20
0.0
 30
0.0
  3
*D27
  1
*D200
  0
LINE
  5
2CC
330
2CA
100
AcDbEntity
  8
166-寸法B
440
 16777216
100
AcDbLine
 10
5386.629191268003
 20
-6629.238737674243
 30
0.0
 11
5386.629191268003
 21
-6966.812138988431
 31
0.0
  0
LINE
  5
2CD
330
2CA
100
AcDbEntity
  8
166-寸法B
440
 16777216
100
AcDbLine
 10
5388.129191268003
 20
-6629.238737674243
 30
0.0
 11
5388.129191268003
 21
-6966.812138988431
 31
0.0
  0
LINE
  5
2CE
330
2CA
100
AcDbEntity
  8
166-寸法B
440
 16777216
100
AcDbLine
 10
5386.629191268003
 20
-6960.812138988431
 30
0.0
 11
5235.936657204684
 21
-6960.812138988431
 31
0.0
  0
LINE
  5
2CF
330
2CA
100
AcDbEntity
  8
166-寸法B
440
 16777216
100
AcDbLine
 10
5386.629191268003
 20
-6960.812138988431
 30
0.0
 11
5388.129191268003
 21
-6960.812138988431
 31
0.0
  0
LINE
  5
2D0
330
2CA
100
AcDbEntity
  8
166-寸法B
440
 16777216
100
AcDbLine
 10
5374.629191268003
 20
-6960.812138988431
 30
0.0
 11
5362.629191268003
 21
-6960.812138988431
 31
0.0
  0
LINE
  5
2D1
330
2CA
100
AcDbEntity
  8
166-寸法B
440
 16777216
100
AcDbLine
 10
5400.129191268003
 20
-6960.812138988431
 30
0.0
 11
5412.129191268003
 21
-6960.812138988431
 31
0.0
  0
INSERT
  5
2D2
330
2CA
100
AcDbEntity
  8
166-寸法B
440
 16777216
100
AcDbBlockReference
  2
_Dot
 10
5386.629191268003
 20
-6960.812138988431
 30
0.0
 41
12.0
 42
12.0
 43
12.0
  0
INSERT
  5
2D3
330
2CA
100
AcDbEntity
  8
166-寸法B
440
 16777216
100
AcDbBlockReference
  2
_Dot
 10
5388.129191268003
 20
-6960.812138988431
 30
0.0
 41
12.0
 42
12.0
 43
12.0
 50
180.0
  0
MTEXT
  5
2D4
330
2CA
100
AcDbEntity
  8
166-寸法B
440
 16777216
100
AcDbMText
 10
5280.856657204684
 20
-6930.812138988431
 30
0.0
 40
40.0
 41
0.0
 46
0.0
 71
     5
 72
     1
  1
\A1;1.5
 73
     1
 44
1.0
  0
POINT
  5
2D5
330
2CA
100
AcDbEntity
  8
DEFPOINTS
 62
     0
100
AcDbPoint
 10
5386.629191268003
 20
-6605.238737674243
 30
0.0
  0
POINT
  5
2D6
330
2CA
100
AcDbEntity
  8
DEFPOINTS
 62
     0
100
AcDbPoint
 10
5388.129191268003
 20
-6605.238737674243
 30
0.0
  0
POINT
  5
2D7
330
2CA
100
AcDbEntity
  8
DEFPOINTS
 62
     0
100
AcDbPoint
 10
5388.129191268003
 20
-6960.812138988431
 30
0.0
  0
ENDBLK
  5
2D8
330
2CA
100
AcDbEntity
  8
0
100
AcDbBlockEnd
  0
BLOCK
  5
2DB
330
2DA
100
AcDbEntity
  8
0
100
AcDbBlockBegin
  2
*D28
 70
     1
 10
0.0
 20
0.0
 30
0.0
  3
*D28
  1
*D201
  0
LINE
  5
2DC
330
2DA
100
AcDbEntity
  8
166-寸法B
440
 16777216
100
AcDbLine
 10
5388.129191268003
 20
-6629.238737674243
 30
0.0
 11
5388.129191268003
 21
-6966.812138988431
 31
0.0
  0
LINE
  5
2DD
330
2DA
100
AcDbEntity
  8
166-寸法B
440
 16777216
100
AcDbLine
 10
5985.129191268003
 20
-6629.238750723935
 30
0.0
 11
5985.129191268003
 21
-6966.812138988431
 31
0.0
  0
LINE
  5
2DE
330
2DA
100
AcDbEntity
  8
166-寸法B
440
 16777216
100
AcDbLine
 10
5400.129191268003
 20
-6960.812138988431
 30
0.0
 11
5973.129191268003
 21
-6960.812138988431
 31
0.0
  0
INSERT
  5
2DF
330
2DA
100
AcDbEntity
  8
166-寸法B
440
 16777216
100
AcDbBlockReference
  2
_Dot
 10
5388.129191268003
 20
-6960.812138988431
 30
0.0
 41
12.0
 42
12.0
 43
12.0
 50
180.0
  0
INSERT
  5
2E0
330
2DA
100
AcDbEntity
  8
166-寸法B
440
 16777216
100
AcDbBlockReference
  2
_Dot
 10
5985.129191268003
 20
-6960.812138988431
 30
0.0
 41
12.0
 42
12.0
 43
12.0
  0
MTEXT
  5
2E1
330
2DA
100
AcDbEntity
  8
166-寸法B
440
 16777216
100
AcDbMText
 10
5686.629191268003
 20
-6930.812138988431
 30
0.0
 40
40.0
 41
0.0
 46
0.0
 71
     5
 72
     1
  1
\A1;597
 73
     1
 44
1.0
  0
POINT
  5
2E2
330
2DA
100
AcDbEntity
  8
DEFPOINTS
 62
     0
100
AcDbPoint
 10
5388.129191268003
 20
-6605.238737674243
 30
0.0
  0
POINT
  5
2E3
330
2DA
100
AcDbEntity
  8
DEFPOINTS
 62
     0
100
AcDbPoint
 10
5985.129191268003
 20
-6605.238750723935
 30
0.0
  0
POINT
  5
2E4
330
2DA
100
AcDbEntity
  8
DEFPOINTS
 62
     0
100
AcDbPoint
 10
5985.129191268003
 20
-6960.812138988431
 30
0.0
  0
ENDBLK
  5
2E5
330
2DA
100
AcDbEntity
  8
0
100
AcDbBlockEnd
  0
BLOCK
  5
2E8
330
2E7
100
AcDbEntity
  8
0
100
AcDbBlockBegin
  2
*D29
 70
     1
 10
0.0
 20
0.0
 30
0.0
  3
*D29
  1
*D202
  0
LINE
  5
2E9
330
2E7
100
AcDbEntity
  8
166-寸法B
440
 16777216
100
AcDbLine
 10
5985.129191268003
 20
-6629.238750723935
 30
0.0
 11
5985.129191268003
 21
-6966.812138988431
 31
0.0
  0
LINE
  5
2EA
330
2E7
100
AcDbEntity
  8
166-寸法B
440
 16777216
100
AcDbLine
 10
5986.629500348587
 20
-6629.238750723935
 30
0.0
 11
5986.629500348587
 21
-6966.812138988431
 31
0.0
  0
LINE
  5
2EB
330
2E7
100
AcDbEntity
  8
166-寸法B
440
 16777216
100
AcDbLine
 10
5986.629500348587
 20
-6960.812138988431
 30
0.0
 11
6134.16576222396
 21
-6960.812138988431
 31
0.0
  0
LINE
  5
2EC
330
2E7
100
AcDbEntity
  8
166-寸法B
440
 16777216
100
AcDbLine
 10
5985.129191268003
 20
-6960.812138988431
 30
0.0
 11
5986.629500348587
 21
-6960.812138988431
 31
0.0
  0
LINE
  5
2ED
330
2E7
100
AcDbEntity
  8
166-寸法B
440
 16777216
100
AcDbLine
 10
5973.129191268003
 20
-6960.812138988431
 30
0.0
 11
5961.129191268003
 21
-6960.812138988431
 31
0.0
  0
LINE
  5
2EE
330
2E7
100
AcDbEntity
  8
166-寸法B
440
 16777216
100
AcDbLine
 10
5998.629500348587
 20
-6960.812138988431
 30
0.0
 11
6010.629500348587
 21
-6960.812138988431
 31
0.0
  0
INSERT
  5
2EF
330
2E7
100
AcDbEntity
  8
166-寸法B
440
 16777216
100
AcDbBlockReference
  2
_Dot
 10
5985.129191268003
 20
-6960.812138988431
 30
0.0
 41
12.0
 42
12.0
 43
12.0
  0
INSERT
  5
2F0
330
2E7
100
AcDbEntity
  8
166-寸法B
440
 16777216
100
AcDbBlockReference
  2
_Dot
 10
5986.629500348587
 20
-6960.812138988431
 30
0.0
 41
12.0
 42
12.0
 43
12.0
 50
180.0
  0
MTEXT
  5
2F1
330
2E7
100
AcDbEntity
  8
166-寸法B
440
 16777216
100
AcDbMText
 10
6089.24576222396
 20
-6930.812138988431
 30
0.0
 40
40.0
 41
0.0
 46
0.0
 71
     5
 72
     1
  1
\A1;1.5
 73
     1
 44
1.0
  0
POINT
  5
2F2
330
2E7
100
AcDbEntity
  8
DEFPOINTS
 62
     0
100
AcDbPoint
 10
5985.129191268003
 20
-6605.238750723935
 30
0.0
  0
POINT
  5
2F3
330
2E7
100
AcDbEntity
  8
DEFPOINTS
 62
     0
100
AcDbPoint
 10
5986.629500348587
 20
-6605.238750723935
 30
0.0
  0
POINT
  5
2F4
330
2E7
100
AcDbEntity
  8
DEFPOINTS
 62
     0
100
AcDbPoint
 10
5986.629500348587
 20
-6960.812138988431
 30
0.0
  0
ENDBLK
  5
2F5
330
2E7
100
AcDbEntity
  8
0
100
AcDbBlockEnd
  0
BLOCK
  5
2F8
330
2F7
100
AcDbEntity
  8
0
100
AcDbBlockBegin
  2
*D30
 70
     1
 10
0.0
 20
0.0
 30
0.0
  3
*D30
  1
*D203
  0
LINE
  5
2F9
330
2F7
100
AcDbEntity
  8
166-寸法B
440
 16777216
100
AcDbLine
 10
5986.629500348587
 20
-6629.238750723935
 30
0.0
 11
5986.629500348587
 21
-7066.812138988431
 31
0.0
  0
LINE
  5
2FA
330
2F7
100
AcDbEntity
  8
166-寸法B
440
 16777216
100
AcDbLine
 10
5386.629191268003
 20
-6629.238737674243
 30
0.0
 11
5386.629191268003
 21
-7066.812138988431
 31
0.0
  0
LINE
  5
2FB
330
2F7
100
AcDbEntity
  8
166-寸法B
440
 16777216
100
AcDbLine
 10
5974.629500348587
 20
-7060.812138988431
 30
0.0
 11
5398.629191268003
 21
-7060.812138988431
 31
0.0
  0
INSERT
  5
2FC
330
2F7
100
AcDbEntity
  8
166-寸法B
440
 16777216
100
AcDbBlockReference
  2
_Dot
 10
5986.629500348587
 20
-7060.812138988431
 30
0.0
 41
12.0
 42
12.0
 43
12.0
  0
INSERT
  5
2FD
330
2F7
100
AcDbEntity
  8
166-寸法B
440
 16777216
100
AcDbBlockReference
  2
_Dot
 10
5386.629191268003
 20
-7060.812138988431
 30
0.0
 41
12.0
 42
12.0
 43
12.0
 50
180.0
  0
MTEXT
  5
2FE
330
2F7
100
AcDbEntity
  8
166-寸法B
440
 16777216
100
AcDbMText
 10
5686.629345808295
 20
-7030.812138988431
 30
0.0
 40
40.0
 41
0.0
 46
0.0
 71
     5
 72
     1
  1
\A1;600
 73
     1
 44
1.0
  0
POINT
  5
2FF
330
2F7
100
AcDbEntity
  8
DEFPOINTS
 62
     0
100
AcDbPoint
 10
5986.629500348587
 20
-6605.238750723935
 30
0.0
  0
POINT
  5
300
330
2F7
100
AcDbEntity
  8
DEFPOINTS
 62
     0
100
AcDbPoint
 10
5386.629191268003
 20
-6605.238737674243
 30
0.0
  0
POINT
  5
301
330
2F7
100
AcDbEntity
  8
DEFPOINTS
 62
     0
100
AcDbPoint
 10
5386.629191268003
 20
-7060.812138988431
 30
0.0
  0
ENDBLK
  5
302
330
2F7
100
AcDbEntity
  8
0
100
AcDbBlockEnd
  0
BLOCK
  5
305
330
304
100
AcDbEntity
  8
0
100
AcDbBlockBegin
  2
*D31
 70
     1
 10
0.0
 20
0.0
 30
0.0
  3
*D31
  1
*D204
  0
LINE
  5
306
330
304
100
AcDbEntity
  8
166-寸法B
440
 16777216
100
AcDbLine
 10
3433.526168463402
 20
-6201.638763773621
 30
0.0
 11
3433.526168463402
 21
-5941.092016708395
 31
0.0
  0
LINE
  5
307
330
304
100
AcDbEntity
  8
166-寸法B
440
 16777216
100
AcDbLine
 10
2533.526168463402
 20
-6201.638763773621
 30
0.0
 11
2533.526168463402
 21
-5941.092016708395
 31
0.0
  0
LINE
  5
308
330
304
100
AcDbEntity
  8
166-寸法B
440
 16777216
100
AcDbLine
 10
3421.526168463402
 20
-5947.092016708395
 30
0.0
 11
2545.526168463402
 21
-5947.092016708395
 31
0.0
  0
INSERT
  5
309
330
304
100
AcDbEntity
  8
166-寸法B
440
 16777216
100
AcDbBlockReference
  2
_Dot
 10
3433.526168463402
 20
-5947.092016708395
 30
0.0
 41
12.0
 42
12.0
 43
12.0
  0
INSERT
  5
30A
330
304
100
AcDbEntity
  8
166-寸法B
440
 16777216
100
AcDbBlockReference
  2
_Dot
 10
2533.526168463402
 20
-5947.092016708395
 30
0.0
 41
12.0
 42
12.0
 43
12.0
 50
180.0
  0
MTEXT
  5
30B
330
304
100
AcDbEntity
  8
166-寸法B
440
 16777216
100
AcDbMText
 10
2983.526168463402
 20
-5917.092016708395
 30
0.0
 40
40.0
 41
0.0
 46
0.0
 71
     5
 72
     1
  1
\A1;900
 73
     1
 44
1.0
  0
POINT
  5
30C
330
304
100
AcDbEntity
  8
DEFPOINTS
 62
     0
100
AcDbPoint
 10
3433.526168463402
 20
-6225.638763773621
 30
0.0
  0
POINT
  5
30D
330
304
100
AcDbEntity
  8
DEFPOINTS
 62
     0
100
AcDbPoint
 10
2533.526168463402
 20
-6225.638763773621
 30
0.0
  0
POINT
  5
30E
330
304
100
AcDbEntity
  8
DEFPOINTS
 62
     0
100
AcDbPoint
 10
2533.526168463402
 20
-5947.092016708395
 30
0.0
  0
ENDBLK
  5
30F
330
304
100
AcDbEntity
  8
0
100
AcDbBlockEnd
  0
ENDSEC
  0
SECTION
  2
ENTITIES
  0
INSERT
  5
6D
330
1D
100
AcDbEntity
  8
190-図面外枠
100
AcDbBlockReference
  2
A$C5D946DDC
 10
0.0
 20
-8079.999999966383
 30
0.0
 41
0.4000000000014552
 42
0.4000000000014552
 43
0.4000000000014552
  0
LINE
  5
7B
330
1D
100
AcDbEntity
  8
191-図面内枠
100
AcDbLine
 10
108.3890909079928
 20
-7395.113333302192
 30
0.0
 11
8207.602424215525
 21
-7395.113333302192
 31
0.0
  0
MTEXT
  5
7F
330
1D
100
AcDbEntity
  8
191-図面内枠
100
AcDbMText
 10
140.3620929078897
 20
-7446.562166635378
 30
0.0
 40
43.99999999985993
 41
384.6245729987755
 46
0.0
 71
     4
 72
     1
  1
備考欄/NOTE 
 73
     1
 44
0.7828267384257844
  0
POINT
  5
80
330
1D
100
AcDbEntity
  8
191-図面内枠
100
AcDbPoint
 10
108.3890909079928
 20
-7939.733333300477
 30
0.0
  0
MTEXT
  5
81
330
1D
100
AcDbEntity
  8
160-文字
100
AcDbMText
 10
6170.509605354164
 20
-7716.484599967136
 30
0.0
 40
60.0
 41
0.0
 46
0.0
 71
     5
 72
     1
  1
1/20
 73
     1
 44
0.8762322015334063
  0
MTEXT
  5
85
330
1D
100
AcDbEntity
  8
160-文字
100
AcDbMText
 10
6170.509605354164
 20
-7804.484599967136
 30
0.0
 40
60.0
 41
0.0
 46
0.0
 71
     5
 72
     1
  1
(A3)
 73
     1
 44
0.8762322015334063
  0
MTEXT
  5
86
330
1D
100
AcDbEntity
  8
191-図面内枠
100
AcDbMText
 10
7647.138940884033
 20
-7446.562166635378
 30
0.0
 40
43.99999999985994
 41
0.0
 46
0.0
 71
     4
 72
     1
  1
図面番号/NO.
 73
     1
 44
0.7828267384257844
  0
MTEXT
  5
87
330
1D
100
AcDbEntity
  8
191-図面内枠
100
AcDbMText
 10
6384.034601808526
 20
-7446.562166635378
 30
0.0
 40
43.99999999985994
 41
0.0
 46
0.0
 71
     4
 72
     1
  1
図面名称/TITLE
 73
     1
 44
0.7828267384257844
  0
LINE
  5
88
330
1D
100
AcDbEntity
  8
191-図面内枠
100
AcDbLine
 10
7620.647790884133
 20
-7395.113333302192
 30
0.0
 11
7620.647790884133
 21
-7939.733333300477
 31
0.0
  0
MTEXT
  5
89
330
1D
100
AcDbEntity
  8
191-図面内枠
100
AcDbMText
 10
6183.972331158584
 20
-7446.562166635378
 30
0.0
 40
43.99999999985994
 41
0.0
 46
0.0
 71
     5
 72
     1
  1
縮尺/SCALE
 73
     1
 44
0.7828267384257844
  0
LINE
  5
8A
330
1D
100
AcDbEntity
  8
191-図面内枠
100
AcDbLine
 10
6352.729393304791
 20
-7395.113333302192
 30
0.0
 11
6352.729393304791
 21
-7939.733333300477
 31
0.0
  0
LINE
  5
8B
330
1D
100
AcDbEntity
  8
191-図面内枠
100
AcDbLine
 10
6003.576850933023
 20
-7395.113333302192
 30
0.0
 11
6003.576850933023
 21
-7939.733333300477
 31
0.0
  0
LINE
  5
8C
330
1D
100
AcDbEntity
  8
191-図面内枠
100
AcDbLine
 10
6003.576850933023
 20
-7498.010999968536
 30
0.0
 11
6352.729393304791
 21
-7498.010999968536
 31
0.0
  0
LINE
  5
8D
330
1D
100
AcDbEntity
  8
191-図面内枠
100
AcDbLine
 10
2921.897041180287
 20
-7395.113333302192
 30
0.0
 11
2921.897041180287
 21
-7939.733333300477
 31
0.0
  0
LINE
  5
8E
330
1D
100
AcDbEntity
  8
191-図面内枠
100
AcDbLine
 10
3013.973815541132
 20
-7395.113333302192
 30
0.0
 11
3013.973815541132
 21
-7939.733333300477
 31
0.0
  0
LINE
  5
8F
330
1D
100
AcDbEntity
  8
191-図面内枠
100
AcDbLine
 10
3134.616355341044
 20
-7395.113333302192
 30
0.0
 11
3134.616355341044
 21
-7939.733333300477
 31
0.0
  0
MTEXT
  5
90
330
1D
100
AcDbEntity
  8
160-文字
100
AcDbMText
 10
2967.935428360594
 20
-7667.423333301716
 30
0.0
 40
48.0
 41
0.0
 46
0.0
 71
     5
 72
     1
  1
改\P\P訂
 73
     1
 44
0.8762322015334063
  0
LINE
  5
91
330
1D
100
AcDbEntity
  8
DEFPOINTS
100
AcDbLine
 10
3013.973815541132
 20
-7395.113333302192
 30
0.0
 11
2921.897041180287
 21
-7939.733333301248
 31
0.0
  0
LINE
  5
92
330
1D
100
AcDbEntity
  8
191-図面内枠
100
AcDbLine
 10
3013.973815541132
 20
-7721.066666634584
 30
0.0
 11
6003.576850933023
 21
-7721.066666634584
 31
0.0
  0
LINE
  5
93
330
1D
100
AcDbEntity
  8
191-図面内枠
100
AcDbLine
 10
3013.973815541132
 20
-7830.399999967913
 30
0.0
 11
6003.576850933023
 21
-7830.399999967913
 31
0.0
  0
LINE
  5
94
330
1D
100
AcDbEntity
  8
DEFPOINTS
100
AcDbLine
 10
3134.616355341044
 20
-7830.399999967913
 30
0.0
 11
3013.973815541132
 21
-7939.733333300477
 31
0.0
  0
LINE
  5
95
330
1D
100
AcDbEntity
  8
DEFPOINTS
100
AcDbLine
 10
3571.044243657612
 20
-7830.399999967913
 30
0.0
 11
3134.616355341044
 21
-7939.733333301248
 31
0.0
  0
MTEXT
  5
96
330
1D
100
AcDbEntity
  8
160-文字
100
AcDbMText
 10
3074.295085441205
 20
-7885.066666634195
 30
0.0
 40
40.0
 41
0.0
 46
0.0
 71
     5
 72
     1
  1
0
 73
     1
 44
0.8762322015334063
  0
LINE
  5
97
330
1D
100
AcDbEntity
  8
DEFPOINTS
100
AcDbLine
 10
3134.616355341044
 20
-7721.066666634584
 30
0.0
 11
3013.973815541132
 21
-7830.399999967141
 31
0.0
  0
MTEXT
  5
98
330
1D
100
AcDbEntity
  8
160-文字
100
AcDbMText
 10
3074.295085441205
 20
-7775.733333300859
 30
0.0
 40
40.0
 41
0.0
 46
0.0
 71
     5
 72
     1
  1
1
 73
     1
 44
0.8762322015334063
  0
LINE
  5
99
330
1D
100
AcDbEntity
  8
191-図面内枠
100
AcDbLine
 10
3013.973815541132
 20
-7612.399999967913
 30
0.0
 11
6003.576850933256
 21
-7612.399999967913
 31
0.0
  0
LINE
  5
9A
330
1D
100
AcDbEntity
  8
DEFPOINTS
100
AcDbLine
 10
3134.616355341277
 20
-7612.399999967913
 30
0.0
 11
3013.973815541132
 21
-7721.066666633813
 31
0.0
  0
MTEXT
  5
9B
330
1D
100
AcDbEntity
  8
160-文字
100
AcDbMText
 10
3074.295085441205
 20
-7666.733333300859
 30
0.0
 40
40.0
 41
0.0
 46
0.0
 71
     5
 72
     1
  1
2
 73
     1
 44
0.8762322015334063
  0
LINE
  5
9C
330
1D
100
AcDbEntity
  8
DEFPOINTS
100
AcDbLine
 10
3134.616355341044
 20
-7503.733333301248
 30
0.0
 11
3013.973815541132
 21
-7612.399999967891
 31
0.0
  0
MTEXT
  5
9D
330
1D
100
AcDbEntity
  8
160-文字
100
AcDbMText
 10
3074.295085441205
 20
-7558.066666634566
 30
0.0
 40
40.0
 41
0.0
 46
0.0
 71
     5
 72
     1
  1
3
 73
     1
 44
0.8762322015334063
  0
LINE
  5
9E
330
1D
100
AcDbEntity
  8
DEFPOINTS
100
AcDbLine
 10
3134.616355341044
 20
-7395.113333302192
 30
0.0
 11
3013.973815541132
 21
-7503.779999968834
 31
0.0
  0
MTEXT
  5
9F
330
1D
100
AcDbEntity
  8
160-文字
100
AcDbMText
 10
3074.295085441205
 20
-7449.446666635509
 30
0.0
 40
40.0
 41
0.0
 46
0.0
 71
     5
 72
     1
  1
4
 73
     1
 44
0.8762322015334063
  0
LINE
  5
A0
330
1D
100
AcDbEntity
  8
191-図面内枠
100
AcDbLine
 10
3013.973815541132
 20
-7503.733333301248
 30
0.0
 11
6003.576850933256
 21
-7503.733333301248
 31
0.0
  0
LINE
  5
A1
330
1D
100
AcDbEntity
  8
191-図面内枠
100
AcDbLine
 10
3571.044243657612
 20
-7395.113333302192
 30
0.0
 11
3571.044243657612
 21
-7939.733333300477
 31
0.0
  0
MTEXT
  5
A2
330
1D
100
AcDbEntity
  8
160-文字
100
AcDbMText
 10
6986.688592094462
 20
-7667.423333301716
 30
0.0
 40
59.99999999999999
 41
0.0
 46
0.0
 71
     5
 72
     1
  1
センターテーブル\Pアーチレッグ\P900×600
 73
     1
 44
0.7829999999999999
  0
MTEXT
  5
A3
330
1D
100
AcDbEntity
  8
160-文字
100
AcDbMText
 10
7914.125107574509
 20
-7718.872166633801
 30
0.0
 40
59.99999999999999
 41
0.0
 46
59.99999999999999
 71
     5
 72
     1
  1
{000613-1}
 73
     1
 44
0.8762322015334065
1001
ACAD
1000
ACAD_MTEXT_DEFINED_HEIGHT_BEGIN
1070
    46
1040
59.99999999999999
1000
ACAD_MTEXT_DEFINED_HEIGHT_END
  0
TEXT
  5
A4
330
1D
100
AcDbEntity
  8
160-文字
100
AcDbText
 10
172.6557381312596
 20
-7537.046405819003
 30
0.0
 40
47.99999999999999
  1
1、仕様は改良のため予告なく変更することがあります。
100
AcDbText
1001
ACAD
1000
ACAD_MTEXT_DEFINED_HEIGHT_BEGIN
1070
    46
1040
0.0
1000
ACAD_MTEXT_DEFINED_HEIGHT_END
  0
TEXT
  5
A5
330
1D
100
AcDbEntity
  8
DEFPOINTS
100
AcDbText
 10
172.6557381312596
 20
-7601.601056337195
 30
0.0
 40
47.99999999999999
  1
2、（　）内寸法は、ワークトップ高さ910mmの場合を示す。
100
AcDbText
1001
ACAD
1000
ACAD_MTEXT_DEFINED_HEIGHT_BEGIN
1070
    46
1040
0.0
1000
ACAD_MTEXT_DEFINED_HEIGHT_END
  0
TEXT
  5
A6
330
1D
100
AcDbEntity
  8
DEFPOINTS
100
AcDbText
 10
172.6557381312596
 20
-7674.934389670523
 30
0.0
 40
47.99999999999999
  1
3、［　］内寸法は、セットのＬ・Ｒを反転させた場合を示す。
100
AcDbText
1001
ACAD
1000
ACAD_MTEXT_DEFINED_HEIGHT_BEGIN
1070
    46
1040
0.0
1000
ACAD_MTEXT_DEFINED_HEIGHT_END
  0
TEXT
  5
A7
330
1D
100
AcDbEntity
  8
DEFPOINTS
100
AcDbText
 10
172.6557381312596
 20
-7748.267723003859
 30
0.0
 40
47.99999999999999
  1
3、クリアランスは推奨寸法で記載しております。
100
AcDbText
1001
ACAD
1000
ACAD_MTEXT_DEFINED_HEIGHT_BEGIN
1070
    46
1040
0.0
1000
ACAD_MTEXT_DEFINED_HEIGHT_END
  0
TEXT
  5
A8
330
1D
100
AcDbEntity
  8
DEFPOINTS
100
AcDbText
 10
172.6557381312596
 20
-7821.601056337195
 30
0.0
 40
47.99999999999999
  1
4、本図は、天井高2400想定で記載されておりますが、各物件ごとに高さ調整し、ご使用ください。
100
AcDbText
1001
ACAD
1000
ACAD_MTEXT_DEFINED_HEIGHT_BEGIN
1070
    46
1040
0.0
1000
ACAD_MTEXT_DEFINED_HEIGHT_END
  0
TEXT
  5
A9
330
1D
100
AcDbEntity
  8
DEFPOINTS
100
AcDbText
 10
172.6557381312596
 20
-7894.934389670523
 30
0.0
 40
47.99999999999999
  1
6、仕様は改良のため予告なく変更することがあります。
100
AcDbText
1001
ACAD
1000
ACAD_MTEXT_DEFINED_HEIGHT_BEGIN
1070
    46
1040
0.0
1000
ACAD_MTEXT_DEFINED_HEIGHT_END
  0
TEXT
  5
AA
330
1D
100
AcDbEntity
  8
160-文字
100
AcDbText
 10
193.8822494870983
 20
-2451.293730381517
 30
0.0
 40
83.33333333333331
  1
センターテーブル アーチレッグ　900×600
 11
193.8822494870983
 21
-2409.627063714851
 31
0.0
100
AcDbText
 73
     2
  0
LWPOLYLINE
  5
AB
330
1D
100
AcDbEntity
  8
190-図面外枠
100
AcDbPolyline
 90
        2
 70
     0
 43
0.0
 10
108.3890909079928
 20
-2490.958922502167
 10
8207.602424233686
 20
-2490.958922502167
  0
LWPOLYLINE
  5
AC
330
1D
100
AcDbEntity
  8
160-文字
 62
     6
100
AcDbPolyline
 90
        4
 70
     1
 43
0.0
 10
6775.886000592727
 20
-2597.732255835492
 10
6916.673516288167
 20
-2597.732255835492
 10
6916.673516288167
 20
-2671.172255835498
 10
6775.886000592727
 20
-2671.172255835498
  0
MTEXT
  5
AD
330
1D
100
AcDbEntity
  8
160-文字
100
AcDbMText
 10
6846.279758440563
 20
-2634.452255835497
 30
0.0
 40
35.09999999999999
 41
0.0
 46
0.0
 71
     5
 72
     1
  1
番号
 73
     1
 44
1.0
  0
LINE
  5
AE
330
1D
100
AcDbEntity
  8
DEFPOINTS
100
AcDbLine
 10
6916.673516288167
 20
-2597.732255835488
 30
0.0
 11
6775.886000592727
 21
-2671.172255835505
 31
0.0
  0
LWPOLYLINE
  5
AF
330
1D
100
AcDbEntity
  8
160-文字
 62
     6
100
AcDbPolyline
 90
        4
 70
     1
 43
0.0
 10
6916.673516288167
 20
-2597.732255835492
 10
7978.586011132924
 20
-2597.732255835488
 10
7978.586011132924
 20
-2671.172255835501
 10
6916.673516288167
 20
-2671.172255835498
  0
MTEXT
  5
B0
330
1D
100
AcDbEntity
  8
160-文字
100
AcDbMText
 10
7497.629763710545
 20
-2634.452255835497
 30
0.0
 40
35.09999999999999
 41
0.0
 46
0.0
 71
     5
 72
     1
  1
名　称
 73
     1
 44
1.0
  0
MTEXT
  5
B1
330
1D
100
AcDbEntity
  8
160-文字
100
AcDbMText
 10
6846.279758440563
 20
-2707.892255835499
 30
0.0
 40
44.27999999999999
 41
0.0
 46
0.0
 71
     5
 72
     1
  1
①
 73
     1
 44
1.0
  0
LINE
  5
B2
330
1D
100
AcDbEntity
  8
DEFPOINTS
100
AcDbLine
 10
6775.886000592727
 20
-2671.172255835505
 30
0.0
 11
7978.586011132924
 21
-2671.172255835505
 31
0.0
  0
LINE
  5
B3
330
1D
100
AcDbEntity
  8
DEFPOINTS
100
AcDbLine
 10
6916.673516288167
 20
-2671.172255835505
 30
0.0
 11
6775.886000592727
 21
-2744.6122558355
 31
0.0
  0
LWPOLYLINE
  5
B4
330
1D
100
AcDbEntity
  8
160-文字
 62
     6
100
AcDbPolyline
 90
        4
 70
     1
 43
0.0
 10
6775.886000592727
 20
-2671.172255835498
 10
6916.673516288167
 20
-2671.172255835498
 10
6916.673516288167
 20
-2744.6122558355
 10
6775.886000592727
 20
-2744.6122558355
  0
MTEXT
  5
B5
330
1D
100
AcDbEntity
  8
160-文字
100
AcDbMText
 10
6938.27351628826
 20
-2707.892255835499
 30
0.0
 40
37.79999999999999
 41
0.0
 46
0.0
 71
     4
 72
     1
  1
ﾃｰﾌﾞﾙﾄｯﾌﾟ
 73
     1
 44
1.0
  0
LWPOLYLINE
  5
B6
330
1D
100
AcDbEntity
  8
160-文字
 62
     6
100
AcDbPolyline
 90
        4
 70
     1
 43
0.0
 10
6916.673516288167
 20
-2671.172255835498
 10
7978.586011132924
 20
-2671.172255835501
 10
7978.586011132924
 20
-2744.6122558355
 10
6916.673516288167
 20
-2744.6122558355
  0
LINE
  5
B7
330
1D
100
AcDbEntity
  8
DEFPOINTS
100
AcDbLine
 10
6938.27351628826
 20
-2671.172255835505
 30
0.0
 11
6938.27351628826
 21
-2964.9322558355
 31
0.0
  0
LINE
  5
B8
330
1D
100
AcDbEntity
  8
DEFPOINTS
100
AcDbLine
 10
6916.673516288167
 20
-2671.172255835505
 30
0.0
 11
7978.586011132924
 21
-2597.732255835488
 31
0.0
  0
LINE
  5
B9
330
1D
100
AcDbEntity
  8
DEFPOINTS
100
AcDbLine
 10
7634.752381534548
 20
-2671.172255835498
 30
0.0
 11
7634.752381534548
 21
-2964.9322558355
 31
0.0
  0
MTEXT
  5
BA
330
1D
100
AcDbEntity
  8
160-文字
100
AcDbMText
 10
6846.279758440563
 20
-2781.332255835498
 30
0.0
 40
44.27999999999999
 41
0.0
 46
0.0
 71
     5
 72
     1
  1
②
 73
     1
 44
1.0
  0
LINE
  5
BB
330
1D
100
AcDbEntity
  8
DEFPOINTS
100
AcDbLine
 10
6916.673516288167
 20
-2744.6122558355
 30
0.0
 11
6775.886000592727
 21
-2818.052255835502
 31
0.0
  0
LWPOLYLINE
  5
BC
330
1D
100
AcDbEntity
  8
160-文字
 62
     6
100
AcDbPolyline
 90
        4
 70
     1
 43
0.0
 10
6775.886000592727
 20
-2744.6122558355
 10
6916.673516288167
 20
-2744.6122558355
 10
6916.673516288167
 20
-2818.052255835499
 10
6775.886000592727
 20
-2818.052255835499
  0
MTEXT
  5
BD
330
1D
100
AcDbEntity
  8
160-文字
100
AcDbMText
 10
6938.27351628826
 20
-2781.332255835498
 30
0.0
 40
37.79999999999999
 41
0.0
 46
0.0
 71
     4
 72
     1
  1
補強桟
 73
     1
 44
1.0
  0
LWPOLYLINE
  5
BE
330
1D
100
AcDbEntity
  8
160-文字
 62
     6
100
AcDbPolyline
 90
        4
 70
     1
 43
0.0
 10
6916.673516288167
 20
-2744.6122558355
 10
7978.586011132924
 20
-2744.6122558355
 10
7978.586011132924
 20
-2818.052255835499
 10
6916.673516288167
 20
-2818.052255835499
  0
MTEXT
  5
BF
330
1D
100
AcDbEntity
  8
160-文字
100
AcDbMText
 10
6846.279758440563
 20
-2854.7722558355
 30
0.0
 40
44.27999999999999
 41
0.0
 46
0.0
 71
     5
 72
     1
  1
③
 73
     1
 44
1.0
  0
LINE
  5
C0
330
1D
100
AcDbEntity
  8
DEFPOINTS
100
AcDbLine
 10
6916.673516288167
 20
-2818.052255835502
 30
0.0
 11
6775.886000592727
 21
-2891.492255835497
 31
0.0
  0
LWPOLYLINE
  5
C1
330
1D
100
AcDbEntity
  8
160-文字
 62
     6
100
AcDbPolyline
 90
        4
 70
     1
 43
0.0
 10
6775.886000592727
 20
-2818.052255835499
 10
6916.673516288167
 20
-2818.052255835499
 10
6916.673516288167
 20
-2891.492255835497
 10
6775.886000592727
 20
-2891.492255835497
  0
MTEXT
  5
C2
330
1D
100
AcDbEntity
  8
160-文字
100
AcDbMText
 10
6938.27351628826
 20
-2854.7722558355
 30
0.0
 40
37.79999999999999
 41
0.0
 46
0.0
 71
     4
 72
     1
  1
ﾊﾟﾈﾙ脚
 73
     1
 44
1.0
  0
LWPOLYLINE
  5
C3
330
1D
100
AcDbEntity
  8
160-文字
 62
     6
100
AcDbPolyline
 90
        4
 70
     1
 43
0.0
 10
6916.673516288167
 20
-2818.052255835499
 10
7978.586011132924
 20
-2818.052255835499
 10
7978.586011132924
 20
-2891.492255835501
 10
6916.673516288167
 20
-2891.492255835497
  0
MTEXT
  5
C4
330
1D
100
AcDbEntity
  8
160-文字
100
AcDbMText
 10
7634.752381534548
 20
-2855.730284455085
 30
0.0
 40
37.79999999999999
 41
0.0
 46
0.0
 71
     4
 72
     1
  1
t40
 73
     1
 44
1.0
  0
LWPOLYLINE
  5
C5
330
1D
100
AcDbEntity
  8
160-文字
 62
     6
100
AcDbPolyline
 90
        4
 70
     1
 43
0.0
 10
6775.886000592727
 20
-2891.492255835501
 10
6916.673516288167
 20
-2891.492255835501
 10
6916.673516288167
 20
-2964.9322558355
 10
6775.886000592727
 20
-2964.9322558355
  0
MTEXT
  5
C6
330
1D
100
AcDbEntity
  8
160-文字
100
AcDbMText
 10
6938.27351628826
 20
-2928.212255835502
 30
0.0
 40
37.79999999999999
 41
0.0
 46
0.0
 71
     4
 72
     1
  1
取付部品ｾｯﾄ
 73
     1
 44
1.0
  0
LWPOLYLINE
  5
C7
330
1D
100
AcDbEntity
  8
160-文字
 62
     6
100
AcDbPolyline
 90
        4
 70
     1
 43
0.0
 10
6916.673516288167
 20
-2891.492255835501
 10
7978.586011132924
 20
-2891.492255835501
 10
7978.586011132924
 20
-2964.9322558355
 10
6916.673516288167
 20
-2964.9322558355
  0
LWPOLYLINE
  5
C8
330
1D
100
AcDbEntity
  8
160-文字
 62
     6
100
AcDbPolyline
 90
        4
 70
     1
 43
0.0
 10
7978.586011132924
 20
-2597.732255835492
 10
8171.172903119354
 20
-2597.732255835492
 10
8171.172903119354
 20
-2671.172255835494
 10
7978.586011132924
 20
-2671.172255835494
  0
MTEXT
  5
C9
330
1D
100
AcDbEntity
  8
160-文字
100
AcDbMText
 10
8074.879457126139
 20
-2634.452255835493
 30
0.0
 40
35.09999999999999
 41
0.0
 46
0.0
 71
     5
 72
     1
  1
数量
 73
     1
 44
1.0
  0
LINE
  5
CA
330
1D
100
AcDbEntity
  8
DEFPOINTS
100
AcDbLine
 10
8171.172903119354
 20
-2597.732255835488
 30
0.0
 11
7978.586011132924
 21
-2671.172255835498
 31
0.0
  0
MTEXT
  5
CB
330
1D
100
AcDbEntity
  8
160-文字
100
AcDbMText
 10
8074.879457126139
 20
-2707.892255835495
 30
0.0
 40
44.27999999999999
 41
0.0
 46
0.0
 71
     5
 72
     1
  1
1
 73
     1
 44
1.0
  0
LINE
  5
CC
330
1D
100
AcDbEntity
  8
DEFPOINTS
100
AcDbLine
 10
8171.172903119354
 20
-2671.172255835498
 30
0.0
 11
7978.586011132924
 21
-2744.612255835493
 31
0.0
  0
LWPOLYLINE
  5
CD
330
1D
100
AcDbEntity
  8
160-文字
 62
     6
100
AcDbPolyline
 90
        4
 70
     1
 43
0.0
 10
7978.586011132924
 20
-2671.172255835494
 10
8171.172903119354
 20
-2671.172255835494
 10
8171.172903119354
 20
-2744.612255835493
 10
7978.586011132924
 20
-2744.612255835493
  0
LINE
  5
CE
330
1D
100
AcDbEntity
  8
DEFPOINTS
100
AcDbLine
 10
8171.172903119354
 20
-2744.612255835493
 30
0.0
 11
7978.586011132924
 21
-2818.052255835495
 31
0.0
  0
LWPOLYLINE
  5
CF
330
1D
100
AcDbEntity
  8
160-文字
 62
     6
100
AcDbPolyline
 90
        4
 70
     1
 43
0.0
 10
7978.586011132924
 20
-2744.612255835493
 10
8171.172903119354
 20
-2744.612255835493
 10
8171.172903119354
 20
-2818.052255835491
 10
7978.586011132924
 20
-2818.052255835491
  0
LINE
  5
D0
330
1D
100
AcDbEntity
  8
DEFPOINTS
100
AcDbLine
 10
8171.172903119354
 20
-2818.052255835495
 30
0.0
 11
7978.586011132924
 21
-2891.492255835497
 31
0.0
  0
LWPOLYLINE
  5
D1
330
1D
100
AcDbEntity
  8
160-文字
 62
     6
100
AcDbPolyline
 90
        4
 70
     1
 43
0.0
 10
7978.586011132924
 20
-2818.052255835491
 10
8171.172903119354
 20
-2818.052255835491
 10
8171.172903119354
 20
-2891.492255835494
 10
7978.586011132924
 20
-2891.492255835494
  0
LWPOLYLINE
  5
D2
330
1D
100
AcDbEntity
  8
160-文字
 62
     6
100
AcDbPolyline
 90
        4
 70
     1
 43
0.0
 10
7978.586011132924
 20
-2891.492255835494
 10
8171.172903119354
 20
-2891.492255835494
 10
8171.172903119354
 20
-2964.932255835496
 10
7978.586011132924
 20
-2964.932255835496
  0
LWPOLYLINE
  5
D3
330
1D
100
AcDbEntity
  8
160-文字
 62
     6
100
AcDbPolyline
 90
        4
 70
     1
 43
0.0
 10
7978.586011132924
 20
-2597.732255835481
 10
8171.172903119354
 20
-2597.732255835481
 10
8171.172903119354
 20
-2597.732255835492
 10
7978.586011132924
 20
-2597.732255835492
  0
LINE
  5
D4
330
1D
100
AcDbEntity
  8
DEFPOINTS
100
AcDbLine
 10
8171.172903119354
 20
-2891.492255835497
 30
0.0
 11
7978.586011132924
 21
-2964.9322558355
 31
0.0
  0
MTEXT
  5
D5
330
1D
100
AcDbEntity
  8
160-文字
100
AcDbMText
 10
8074.879457126139
 20
-2781.332255835494
 30
0.0
 40
44.27999999999999
 41
0.0
 46
0.0
 71
     5
 72
     1
  1
1
 73
     1
 44
1.0
  0
MTEXT
  5
D6
330
1D
100
AcDbEntity
  8
160-文字
100
AcDbMText
 10
8074.879457126139
 20
-2854.772255835496
 30
0.0
 40
44.27999999999999
 41
0.0
 46
0.0
 71
     5
 72
     1
  1
2
 73
     1
 44
1.0
  0
MTEXT
  5
D7
330
1D
100
AcDbEntity
  8
160-文字
100
AcDbMText
 10
8074.879457126139
 20
-2928.212255835495
 30
0.0
 40
44.27999999999999
 41
0.0
 46
0.0
 71
     5
 72
     1
  1
1
 73
     1
 44
1.0
  0
LINE
  5
D8
330
1D
100
AcDbEntity
  8
120-キャビネット（外）
 62
     6
100
AcDbLine
 10
3433.526168463402
 20
-6225.638763773621
 30
0.0
 11
3433.526168463519
 21
-6265.238763773619
 31
0.0
1001
GENIUS_GENFIL_13
1070
     0
1040
0.0
1040
0.0
1040
0.0
1040
0.0
1002
{
1002
}
1001
GENIUS_GENOBJ-N-CHA_13
1002
{
1000
OWNER
1000
GEN
1002
}
1001
GENIUS_GENODEF_13
1002
{
1000
HIER
1070
     0
1002
}
1002
{
1000
MANEDIT
1070
     0
1002
}
1002
{
1000
NOSEL
1070
     0
1002
}
1002
{
1000
BEHIND
1070
     0
1002
}
1002
{
1000
OTHER
1070
     0
1002
}
1002
{
1000
REACTOR
1002
}
  0
LINE
  5
DF
330
1D
100
AcDbEntity
  8
120-キャビネット（外）
 62
     6
100
AcDbLine
 10
3432.026477535022
 20
-6265.238763773619
 30
0.0
 11
2735.025859391782
 21
-6265.238763773619
 31
0.0
  0
LINE
  5
E0
330
1D
100
AcDbEntity
  8
120-キャビネット（外）
 62
     6
100
AcDbLine
 10
3433.526168463402
 20
-6225.638763773621
 30
0.0
 11
2533.526168463402
 21
-6225.638763773621
 31
0.0
1001
GENIUS_GENFIL_13
1070
     0
1040
0.0
1040
0.0
1040
0.0
1040
0.0
1002
{
1002
}
1001
GENIUS_GENODEF_13
1002
{
1000
HIER
1070
     0
1002
}
1002
{
1000
MANEDIT
1070
     0
1002
}
1002
{
1000
NOSEL
1070
     0
1002
}
1002
{
1000
BEHIND
1070
     0
1002
}
1002
{
1000
OTHER
1070
     0
1002
}
1002
{
1000
REACTOR
1002
}
1001
GENIUS_GENOBJ-N-CHA_13
1002
{
1000
OWNER
1000
GEN
1002
}
  0
LINE
  5
E1
330
1D
100
AcDbEntity
  8
120-キャビネット（外）
 62
     6
100
AcDbLine
 10
2533.526168463402
 20
-6225.638763773621
 30
0.0
 11
2533.526168463402
 21
-6265.238763562646
 31
0.0
  0
LINE
  5
E2
330
1D
100
AcDbEntity
  8
120-キャビネット（外）
 62
     6
100
AcDbLine
 10
2535.026168463402
 20
-6265.238763773619
 30
0.0
 11
2535.026168463402
 21
-6603.238763773623
 31
0.0
  0
LINE
  5
E3
330
1D
100
AcDbEntity
  8
120-キャビネット（外）
 62
     6
100
AcDbLine
 10
2535.026168463402
 20
-6603.238763773623
 30
0.0
 11
2574.626168463379
 21
-6603.238763773623
 31
0.0
  0
LINE
  5
E4
330
1D
100
AcDbEntity
  8
120-キャビネット（外）
 62
     6
100
AcDbLine
 10
2535.026168463402
 20
-6265.238763773619
 30
0.0
 11
2574.626168463379
 21
-6265.238763773619
 31
0.0
  0
LINE
  5
E5
330
1D
100
AcDbEntity
  8
120-キャビネット（外）
 62
     6
100
AcDbLine
 10
2574.626168463379
 20
-6265.238763773619
 30
0.0
 11
2574.626168463379
 21
-6603.238763773623
 31
0.0
  0
LINE
  5
E6
330
1D
100
AcDbEntity
  8
120-キャビネット（外）
 62
     6
100
AcDbLine
 10
3432.025859382935
 20
-6265.239016573609
 30
0.0
 11
2533.526168463402
 21
-6265.238763562646
 31
0.0
1001
GENIUS_GENFIL_13
1070
     0
1040
0.0
1040
0.0
1040
0.0
1040
0.0
1002
{
1002
}
1001
GENIUS_GENODEF_13
1002
{
1000
HIER
1070
     0
1002
}
1002
{
1000
MANEDIT
1070
     0
1002
}
1002
{
1000
NOSEL
1070
     0
1002
}
1002
{
1000
BEHIND
1070
     0
1002
}
1002
{
1000
OTHER
1070
     0
1002
}
1002
{
1000
REACTOR
1002
}
1001
GENIUS_GENOBJ-N-CHA_13
1002
{
1000
OWNER
1000
GEN
1002
}
  0
LINE
  5
E7
330
1D
100
AcDbEntity
  8
120-キャビネット（外）
 62
     6
100
AcDbLine
 10
3392.425859382958
 20
-6265.238763773619
 30
0.0
 11
3392.425859382958
 21
-6603.238763773623
 31
0.0
  0
LINE
  5
E8
330
1D
100
AcDbEntity
  8
120-キャビネット（外）
 62
     6
100
AcDbLine
 10
3392.425859382958
 20
-6603.238763773623
 30
0.0
 11
3432.025859382935
 21
-6603.238763773623
 31
0.0
  0
LINE
  5
E9
330
1D
100
AcDbEntity
  8
120-キャビネット（外）
 62
     6
100
AcDbLine
 10
3392.425859382958
 20
-6265.238763773619
 30
0.0
 11
3433.526168463519
 21
-6265.238763773619
 31
0.0
1001
GENIUS_GENFIL_13
1070
     0
1040
0.0
1040
0.0
1040
0.0
1040
0.0
1002
{
1002
}
1001
GENIUS_GENODEF_13
1002
{
1000
HIER
1070
     0
1002
}
1002
{
1000
MANEDIT
1070
     0
1002
}
1002
{
1000
NOSEL
1070
     0
1002
}
1002
{
1000
BEHIND
1070
     0
1002
}
1002
{
1000
OTHER
1070
     0
1002
}
1002
{
1000
REACTOR
1002
}
1001
GENIUS_GENOBJ-N-CHA_13
1002
{
1000
OWNER
1000
GEN
1002
}
  0
LINE
  5
EA
330
1D
100
AcDbEntity
  8
120-キャビネット（外）
 62
     6
100
AcDbLine
 10
3432.025859382935
 20
-6265.238763773619
 30
0.0
 11
3432.025859382935
 21
-6603.238763773623
 31
0.0
  0
WIPEOUT
  5
EB
330
1D
100
AcDbEntity
  8
120-キャビネット（外）
 62
     6
160
               500
310
F401000001000000EC010000060000001400000000878DFFA6D2A3402E679F1F3DCBB9C0000000000000000000878DFFA618A4402E679F1F3DCBB9C0000000000000000000878DFFA618A4402E679F1F3DCDB9C0000000000000000000878DFFA6D2A3402E679F1F3DCDB9C0000000000000000000878DFFA6D2A3402E679F
310
1F3DCBB9C0000000000000000000878DFFA6D2A3402E679F1F3DCBB9C0000000000000000000878DFFA6D2A3402E679F1F3DCBB9C0000000000000000000878DFFA6D2A3402E679F1F3DCBB9C0000000000000000000878DFFA6D2A3402E679F1F3DCBB9C0000000000000000000878DFFA6D2A3402E679F1F3DCBB9C00000
310
00000000000000878DFFA6D2A3402E679F1F3DCBB9C0000000000000000000878DFFA6D2A3402E679F1F3DCBB9C0000000000000000000878DFFA6D2A3402E679F1F3DCBB9C0000000000000000000878DFFA6D2A3402E679F1F3DCBB9C0000000000000000000878DFFA6D2A3402E679F1F3DCBB9C0000000000000000000
310
878DFFA6D2A3402E679F1F3DCBB9C0000000000000000000878DFFA6D2A3402E679F1F3DCBB9C0000000000000000000878DFFA6D2A3402E679F1F3DCBB9C0000000000000000000878DFFA6D2A3402E679F1F3DCBB9C0000000000000000000878DFFA6D2A3402E679F1F3DCBB9C00000000000000000
100
AcDbWipeout
 90
        0
 10
2104.826168463449
 20
-7055.238763773623
 30
0.0
 11
467.4999999999999
 21
0.0
 31
0.0
 12
0.0
 22
467.4999999999999
 32
0.0
 13
1.0
 23
1.0
340
0
 70
     4
280
     1
281
    50
282
    50
283
     0
360
0
 71
     2
 91
       20
 14
0.4251336898395722
 24
-0.4668449197860964
 14
0.5
 24
-0.4668449197860964
 14
0.5
 24
-0.4625668449197862
 14
0.4251336898395722
 24
-0.4625668449197862
 14
0.4251336898395722
 24
-0.4668449197860964
 14
0.4251336898395722
 24
-0.4668449197860964
 14
0.4251336898395722
 24
-0.4668449197860964
 14
0.4251336898395722
 24
-0.4668449197860964
 14
0.4251336898395722
 24
-0.4668449197860964
 14
0.4251336898395722
 24
-0.4668449197860964
 14
0.4251336898395722
 24
-0.4668449197860964
 14
0.4251336898395722
 24
-0.4668449197860964
 14
0.4251336898395722
 24
-0.4668449197860964
 14
0.4251336898395722
 24
-0.4668449197860964
 14
0.4251336898395722
 24
-0.4668449197860964
 14
0.4251336898395722
 24
-0.4668449197860964
 14
0.4251336898395722
 24
-0.4668449197860964
 14
0.4251336898395722
 24
-0.4668449197860964
 14
0.4251336898395722
 24
-0.4668449197860964
 14
0.4251336898395722
 24
-0.4668449197860964
290
     0
  0
LWPOLYLINE
  5
EC
330
1D
100
AcDbEntity
  8
120-キャビネット（外）
 62
     6
100
AcDbPolyline
 90
        4
 70
     1
 43
0.0
 10
2537.326168463449
 20
-6603.238763773623
 10
2572.326168463449
 20
-6603.238763773623
 10
2572.326168463449
 20
-6605.238763773623
 10
2537.326168463449
 20
-6605.238763773623
  0
WIPEOUT
  5
F2
330
1D
100
AcDbEntity
  8
120-キャビネット（外）
 62
     6
160
               500
310
F401000001000000EC0100000600000014000000014FD7A37385AA402E679F1F3DCBB9C00000000000000000014FD7A373CBAA402E679F1F3DCBB9C00000000000000000014FD7A373CBAA402E679F1F3DCDB9C00000000000000000014FD7A37385AA402E679F1F3DCDB9C00000000000000000014FD7A37385AA402E679F
310
1F3DCBB9C00000000000000000014FD7A37385AA402E679F1F3DCBB9C00000000000000000014FD7A37385AA402E679F1F3DCBB9C00000000000000000014FD7A37385AA402E679F1F3DCBB9C00000000000000000014FD7A37385AA402E679F1F3DCBB9C00000000000000000014FD7A37385AA402E679F1F3DCBB9C00000
310
000000000000014FD7A37385AA402E679F1F3DCBB9C00000000000000000014FD7A37385AA402E679F1F3DCBB9C00000000000000000014FD7A37385AA402E679F1F3DCBB9C00000000000000000014FD7A37385AA402E679F1F3DCBB9C00000000000000000014FD7A37385AA402E679F1F3DCBB9C0000000000000000001
310
4FD7A37385AA402E679F1F3DCBB9C00000000000000000014FD7A37385AA402E679F1F3DCBB9C00000000000000000014FD7A37385AA402E679F1F3DCBB9C00000000000000000014FD7A37385AA402E679F1F3DCBB9C00000000000000000014FD7A37385AA402E679F1F3DCBB9C00000000000000000
100
AcDbWipeout
 90
        0
 10
3394.725859383005
 20
-7055.238763773623
 30
0.0
 11
467.4999999999999
 21
0.0
 31
0.0
 12
0.0
 22
467.4999999999999
 32
0.0
 13
1.0
 23
1.0
340
0
 70
     4
280
     1
281
    50
282
    50
283
     0
360
0
 71
     2
 91
       20
 14
-0.5
 24
-0.4668449197860964
 14
-0.4251336898395722
 24
-0.4668449197860964
 14
-0.4251336898395722
 24
-0.4625668449197862
 14
-0.5
 24
-0.4625668449197862
 14
-0.5
 24
-0.4668449197860964
 14
-0.5
 24
-0.4668449197860964
 14
-0.5
 24
-0.4668449197860964
 14
-0.5
 24
-0.4668449197860964
 14
-0.5
 24
-0.4668449197860964
 14
-0.5
 24
-0.4668449197860964
 14
-0.5
 24
-0.4668449197860964
 14
-0.5
 24
-0.4668449197860964
 14
-0.5
 24
-0.4668449197860964
 14
-0.5
 24
-0.4668449197860964
 14
-0.5
 24
-0.4668449197860964
 14
-0.5
 24
-0.4668449197860964
 14
-0.5
 24
-0.4668449197860964
 14
-0.5
 24
-0.4668449197860964
 14
-0.5
 24
-0.4668449197860964
 14
-0.5
 24
-0.4668449197860964
290
     0
  0
LWPOLYLINE
  5
F3
330
1D
100
AcDbEntity
  8
120-キャビネット（外）
 62
     6
100
AcDbPolyline
 90
        4
 70
     1
 43
0.0
 10
3394.725859383005
 20
-6603.238763773623
 10
3429.725859383005
 20
-6603.238763773623
 10
3429.725859383005
 20
-6605.238763773623
 10
3394.725859383005
 20
-6605.238763773623
  0
LINE
  5
F9
330
1D
100
AcDbEntity
  8
120-キャビネット（外）
 62
     6
100
AcDbLine
 10
5386.629191267886
 20
-6265.238750723935
 30
0.0
 11
5386.629191268003
 21
-6225.638750723929
 31
0.0
1001
GENIUS_GENFIL_13
1070
     0
1040
0.0
1040
0.0
1040
0.0
1040
0.0
1002
{
1002
}
1001
GENIUS_GENOBJ-N-CHA_13
1002
{
1000
OWNER
1000
GEN
1002
}
1001
GENIUS_GENODEF_13
1002
{
1000
HIER
1070
     0
1002
}
1002
{
1000
MANEDIT
1070
     0
1002
}
1002
{
1000
NOSEL
1070
     0
1002
}
1002
{
1000
BEHIND
1070
     0
1002
}
1002
{
1000
OTHER
1070
     0
1002
}
1002
{
1000
REACTOR
1002
}
  0
LINE
  5
FA
330
1D
100
AcDbEntity
  8
120-キャビネット（外）
 62
     6
100
AcDbLine
 10
5386.629191268003
 20
-6225.638750723929
 30
0.0
 11
5986.629191268003
 21
-6225.638750723929
 31
0.0
  0
LINE
  5
FB
330
1D
100
AcDbEntity
  8
120-キャビネット（外）
 62
     6
100
AcDbLine
 10
5986.629191268003
 20
-6265.238750723935
 30
0.0
 11
5986.629191268003
 21
-6225.638750723929
 31
0.0
1001
GENIUS_GENFIL_13
1070
     0
1040
0.0
1040
0.0
1040
0.0
1040
0.0
1002
{
1002
}
1001
GENIUS_GENODEF_13
1002
{
1000
HIER
1070
     0
1002
}
1002
{
1000
MANEDIT
1070
     0
1002
}
1002
{
1000
NOSEL
1070
     0
1002
}
1002
{
1000
BEHIND
1070
     0
1002
}
1002
{
1000
OTHER
1070
     0
1002
}
1002
{
1000
REACTOR
1002
}
1001
GENIUS_GENOBJ-N-CHA_13
1002
{
1000
OWNER
1000
GEN
1002
}
  0
LINE
  5
FC
330
1D
100
AcDbEntity
  8
121-キャビネット（中）
  6
Continuous
100
AcDbLine
 10
5388.129191268003
 20
-6603.238750723935
 30
0.0
 11
5388.129191268003
 21
-6265.238750723935
 31
0.0
  0
LINE
  5
101
330
1D
100
AcDbEntity
  8
121-キャビネット（中）
  6
Continuous
100
AcDbLine
 10
5985.129191268003
 20
-6603.238750723935
 30
0.0
 11
5985.129191268003
 21
-6265.238750723935
 31
0.0
  0
LINE
  5
102
330
1D
100
AcDbEntity
  8
121-キャビネット（中）
  6
Continuous
100
AcDbLine
 10
5985.129191268003
 20
-6603.238750723935
 30
0.0
 11
5388.129191268003
 21
-6603.238750723935
 31
0.0
  0
LINE
  5
103
330
1D
100
AcDbEntity
  8
120-キャビネット（外）
 62
     6
100
AcDbLine
 10
5986.629191268003
 20
-6265.238750723935
 30
0.0
 11
5386.629191267886
 21
-6265.238750723935
 31
0.0
  0
WIPEOUT
  5
104
330
1D
100
AcDbEntity
  8
121-キャビネット（中）
  6
Continuous
160
               500
310
F401000001000000EC010000060000001400000000CFAD12A11DB7403277C41E3DCBB9C0000000000000000000CFAD12A140B7403277C41E3DCBB9C0000000000000000000CFAD12A140B7403277C41E3DCDB9C0000000000000000000CFAD12A11DB7403277C41E3DCDB9C0000000000000000000CFAD12A11DB7403277C4
310
1E3DCBB9C0000000000000000000CFAD12A11DB7403277C41E3DCBB9C0000000000000000000CFAD12A11DB7403277C41E3DCBB9C0000000000000000000CFAD12A11DB7403277C41E3DCBB9C0000000000000000000CFAD12A11DB7403277C41E3DCBB9C0000000000000000000CFAD12A11DB7403277C41E3DCBB9C00000
310
00000000000000CFAD12A11DB7403277C41E3DCBB9C0000000000000000000CFAD12A11DB7403277C41E3DCBB9C0000000000000000000CFAD12A11DB7403277C41E3DCBB9C0000000000000000000CFAD12A11DB7403277C41E3DCBB9C0000000000000000000CFAD12A11DB7403277C41E3DCBB9C0000000000000000000
310
CFAD12A11DB7403277C41E3DCBB9C0000000000000000000CFAD12A11DB7403277C41E3DCBB9C0000000000000000000CFAD12A11DB7403277C41E3DCBB9C0000000000000000000CFAD12A11DB7403277C41E3DCBB9C0000000000000000000CFAD12A11DB7403277C41E3DCBB9C00000000000000000
100
AcDbWipeout
 90
        0
 10
5917.629191268003
 20
-6696.988750723935
 30
0.0
 11
93.75
 21
0.0
 31
0.0
 12
0.0
 22
93.75
 32
0.0
 13
1.0
 23
1.0
340
0
 70
     4
280
     1
281
    50
282
    50
283
     0
360
0
 71
     2
 91
       20
 14
-0.5
 24
-0.5
 14
-0.1266666666666666
 24
-0.5
 14
-0.1266666666666666
 24
-0.4786666666666668
 14
-0.5
 24
-0.4786666666666668
 14
-0.5
 24
-0.5
 14
-0.5
 24
-0.5
 14
-0.5
 24
-0.5
 14
-0.5
 24
-0.5
 14
-0.5
 24
-0.5
 14
-0.5
 24
-0.5
 14
-0.5
 24
-0.5
 14
-0.5
 24
-0.5
 14
-0.5
 24
-0.5
 14
-0.5
 24
-0.5
 14
-0.5
 24
-0.5
 14
-0.5
 24
-0.5
 14
-0.5
 24
-0.5
 14
-0.5
 24
-0.5
 14
-0.5
 24
-0.5
 14
-0.5
 24
-0.5
290
     0
  0
LWPOLYLINE
  5
105
330
1D
100
AcDbEntity
  8
121-キャビネット（中）
  6
Continuous
100
AcDbPolyline
 90
        4
 70
     1
 43
0.0
 10
5917.629191268003
 20
-6603.238750723935
 10
5952.629191268003
 20
-6603.238750723935
 10
5952.629191268003
 20
-6605.238750723935
 10
5917.629191268003
 20
-6605.238750723935
  0
WIPEOUT
  5
10B
330
1D
100
AcDbEntity
  8
121-キャビネット（中）
  6
Continuous
160
               500
310
F401000001000000EC010000060000001400000000CFAD12A12CB5403277C41E3DCBB9C0000000000000000000CFAD12A14FB5403277C41E3DCBB9C0000000000000000000CFAD12A14FB5403277C41E3DCDB9C0000000000000000000CFAD12A12CB5403277C41E3DCDB9C0000000000000000000CFAD12A12CB5403277C4
310
1E3DCBB9C0000000000000000000CFAD12A12CB5403277C41E3DCBB9C0000000000000000000CFAD12A12CB5403277C41E3DCBB9C0000000000000000000CFAD12A12CB5403277C41E3DCBB9C0000000000000000000CFAD12A12CB5403277C41E3DCBB9C0000000000000000000CFAD12A12CB5403277C41E3DCBB9C00000
310
00000000000000CFAD12A12CB5403277C41E3DCBB9C0000000000000000000CFAD12A12CB5403277C41E3DCBB9C0000000000000000000CFAD12A12CB5403277C41E3DCBB9C0000000000000000000CFAD12A12CB5403277C41E3DCBB9C0000000000000000000CFAD12A12CB5403277C41E3DCBB9C0000000000000000000
310
CFAD12A12CB5403277C41E3DCBB9C0000000000000000000CFAD12A12CB5403277C41E3DCBB9C0000000000000000000CFAD12A12CB5403277C41E3DCBB9C0000000000000000000CFAD12A12CB5403277C41E3DCBB9C0000000000000000000CFAD12A12CB5403277C41E3DCBB9C00000000000000000
100
AcDbWipeout
 90
        0
 10
5361.879191268003
 20
-6696.988750723935
 30
0.0
 11
93.75000000000026
 21
0.0
 31
0.0
 12
0.0
 22
93.75000000000026
 32
0.0
 13
1.0
 23
1.0
340
0
 70
     4
280
     1
281
    50
282
    50
283
     0
360
0
 71
     2
 91
       20
 14
0.1266666666666676
 24
-0.5
 14
0.5
 24
-0.5
 14
0.5
 24
-0.4786666666666669
 14
0.1266666666666676
 24
-0.4786666666666669
 14
0.1266666666666676
 24
-0.5
 14
0.1266666666666676
 24
-0.5
 14
0.1266666666666676
 24
-0.5
 14
0.1266666666666676
 24
-0.5
 14
0.1266666666666676
 24
-0.5
 14
0.1266666666666676
 24
-0.5
 14
0.1266666666666676
 24
-0.5
 14
0.1266666666666676
 24
-0.5
 14
0.1266666666666676
 24
-0.5
 14
0.1266666666666676
 24
-0.5
 14
0.1266666666666676
 24
-0.5
 14
0.1266666666666676
 24
-0.5
 14
0.1266666666666676
 24
-0.5
 14
0.1266666666666676
 24
-0.5
 14
0.1266666666666676
 24
-0.5
 14
0.1266666666666676
 24
-0.5
290
     0
  0
LWPOLYLINE
  5
10C
330
1D
100
AcDbEntity
  8
121-キャビネット（中）
  6
Continuous
100
AcDbPolyline
 90
        4
 70
     1
 43
0.0
 10
5420.629191268003
 20
-6603.238750723935
 10
5455.629191268003
 20
-6603.238750723935
 10
5455.629191268003
 20
-6605.238750723935
 10
5420.629191268003
 20
-6605.238750723935
  0
LINE
  5
112
330
1D
100
AcDbEntity
  8
121-キャビネット（中）
  6
HIDDENX2
100
AcDbLine
 10
2575.526168463402
 20
-3979.273257016806
 30
0.0
 11
2575.526168463402
 21
-4576.27325701681
 31
0.0
1001
GENIUS_GENFIL_13
1070
     0
1040
0.0
1040
0.0
1040
0.0
1040
0.0
1002
{
1002
}
1001
GENIUS_GENOBJ-N-CHA_13
1002
{
1000
OWNER
1000
GEN
1002
}
1001
GENIUS_GENODEF_13
1002
{
1000
HIER
1070
     0
1002
}
1002
{
1000
MANEDIT
1070
     0
1002
}
1002
{
1000
NOSEL
1070
     0
1002
}
1002
{
1000
BEHIND
1070
     0
1002
}
1002
{
1000
OTHER
1070
     0
1002
}
1002
{
1000
REACTOR
1002
}
  0
LINE
  5
114
330
1D
100
AcDbEntity
  8
121-キャビネット（中）
  6
HIDDENX2
100
AcDbLine
 10
2575.526168463402
 20
-4576.27325701681
 30
0.0
 11
2536.526168463402
 21
-4576.27325701681
 31
0.0
  0
LINE
  5
115
330
1D
100
AcDbEntity
  8
121-キャビネット（中）
  6
HIDDENX2
100
AcDbLine
 10
2575.526168463402
 20
-3979.273257016806
 30
0.0
 11
2536.526168463402
 21
-3979.273257016806
 31
0.0
1001
GENIUS_GENFIL_13
1070
     0
1040
0.0
1040
0.0
1040
0.0
1040
0.0
1002
{
1002
}
1001
GENIUS_GENOBJ-N-CHA_13
1002
{
1000
OWNER
1000
GEN
1002
}
1001
GENIUS_GENODEF_13
1002
{
1000
HIER
1070
     0
1002
}
1002
{
1000
MANEDIT
1070
     0
1002
}
1002
{
1000
NOSEL
1070
     0
1002
}
1002
{
1000
BEHIND
1070
     0
1002
}
1002
{
1000
OTHER
1070
     0
1002
}
1002
{
1000
REACTOR
1002
}
  0
LINE
  5
116
330
1D
100
AcDbEntity
  8
121-キャビネット（中）
  6
HIDDENX2
100
AcDbLine
 10
2536.526168463402
 20
-3979.273257016806
 30
0.0
 11
2536.526168463402
 21
-4576.27325701681
 31
0.0
1001
GENIUS_GENFIL_13
1070
     0
1040
0.0
1040
0.0
1040
0.0
1040
0.0
1002
{
1002
}
1001
GENIUS_GENOBJ-N-CHA_13
1002
{
1000
OWNER
1000
GEN
1002
}
1001
GENIUS_GENODEF_13
1002
{
1000
HIER
1070
     0
1002
}
1002
{
1000
MANEDIT
1070
     0
1002
}
1002
{
1000
NOSEL
1070
     0
1002
}
1002
{
1000
BEHIND
1070
     0
1002
}
1002
{
1000
OTHER
1070
     0
1002
}
1002
{
1000
REACTOR
1002
}
  0
LINE
  5
117
330
1D
100
AcDbEntity
  8
121-キャビネット（中）
  6
HIDDENX2
100
AcDbLine
 10
3433.526468319003
 20
-3979.216480187612
 30
0.0
 11
3433.526468319003
 21
-4576.216480187608
 31
0.0
1001
GENIUS_GENFIL_13
1070
     0
1040
0.0
1040
0.0
1040
0.0
1040
0.0
1002
{
1002
}
1001
GENIUS_GENOBJ-N-CHA_13
1002
{
1000
OWNER
1000
GEN
1002
}
1001
GENIUS_GENODEF_13
1002
{
1000
HIER
1070
     0
1002
}
1002
{
1000
MANEDIT
1070
     0
1002
}
1002
{
1000
NOSEL
1070
     0
1002
}
1002
{
1000
BEHIND
1070
     0
1002
}
1002
{
1000
OTHER
1070
     0
1002
}
1002
{
1000
REACTOR
1002
}
  0
LINE
  5
118
330
1D
100
AcDbEntity
  8
121-キャビネット（中）
  6
HIDDENX2
100
AcDbLine
 10
3433.526468319003
 20
-4576.216480187608
 30
0.0
 11
3393.92646831891
 21
-4576.216480187608
 31
0.0
  0
LINE
  5
119
330
1D
100
AcDbEntity
  8
121-キャビネット（中）
  6
HIDDENX2
100
AcDbLine
 10
3433.526468319003
 20
-3979.216480187612
 30
0.0
 11
3393.926468318794
 21
-3979.216480187612
 31
0.0
1001
GENIUS_GENFIL_13
1070
     0
1040
0.0
1040
0.0
1040
0.0
1040
0.0
1002
{
1002
}
1001
GENIUS_GENOBJ-N-CHA_13
1002
{
1000
OWNER
1000
GEN
1002
}
1001
GENIUS_GENODEF_13
1002
{
1000
HIER
1070
     0
1002
}
1002
{
1000
MANEDIT
1070
     0
1002
}
1002
{
1000
NOSEL
1070
     0
1002
}
1002
{
1000
BEHIND
1070
     0
1002
}
1002
{
1000
OTHER
1070
     0
1002
}
1002
{
1000
REACTOR
1002
}
  0
LINE
  5
11A
330
1D
100
AcDbEntity
  8
121-キャビネット（中）
  6
HIDDENX2
100
AcDbLine
 10
3393.926468318794
 20
-3979.216480187612
 30
0.0
 11
3393.926468319027
 21
-4576.216480187608
 31
0.0
  0
LINE
  5
11B
330
1D
100
AcDbEntity
  8
120-キャビネット（外）
 62
     6
100
AcDbLine
 10
3435.026168463402
 20
-3977.716172786828
 30
0.0
 11
3435.026168463402
 21
-4577.716172786828
 31
0.0
  0
LINE
  5
11C
330
1D
100
AcDbEntity
  8
120-キャビネット（外）
 62
     6
100
AcDbLine
 10
3435.026168463402
 20
-4577.716172786828
 30
0.0
 11
2535.026168463402
 21
-4577.716172786828
 31
0.0
1001
GENIUS_GENFIL_13
1070
     0
1040
0.0
1040
0.0
1040
0.0
1040
0.0
1002
{
1002
}
1001
GENIUS_GENODEF_13
1002
{
1000
HIER
1070
     0
1002
}
1002
{
1000
MANEDIT
1070
     0
1002
}
1002
{
1000
NOSEL
1070
     0
1002
}
1002
{
1000
BEHIND
1070
     0
1002
}
1002
{
1000
OTHER
1070
     0
1002
}
1002
{
1000
REACTOR
1002
}
1001
GENIUS_GENOBJ-N-CHA_13
1002
{
1000
OWNER
1000
GEN
1002
}
  0
LINE
  5
11D
330
1D
100
AcDbEntity
  8
120-キャビネット（外）
 62
     6
100
AcDbLine
 10
3435.026168463402
 20
-3977.716172786828
 30
0.0
 11
2535.026168463402
 21
-3977.716172786828
 31
0.0
1001
GENIUS_GENFIL_13
1070
     0
1040
0.0
1040
0.0
1040
0.0
1040
0.0
1002
{
1002
}
1001
GENIUS_GENODEF_13
1002
{
1000
HIER
1070
     0
1002
}
1002
{
1000
MANEDIT
1070
     0
1002
}
1002
{
1000
NOSEL
1070
     0
1002
}
1002
{
1000
BEHIND
1070
     0
1002
}
1002
{
1000
OTHER
1070
     0
1002
}
1002
{
1000
REACTOR
1002
}
1001
GENIUS_GENOBJ-N-CHA_13
1002
{
1000
OWNER
1000
GEN
1002
}
  0
LINE
  5
11E
330
1D
100
AcDbEntity
  8
120-キャビネット（外）
 62
     6
100
AcDbLine
 10
2535.026168463402
 20
-3977.716172786828
 30
0.0
 11
2535.026168463402
 21
-4577.716172786828
 31
0.0
1001
GENIUS_GENFIL_13
1070
     0
1040
0.0
1040
0.0
1040
0.0
1040
0.0
1002
{
1002
}
1001
GENIUS_GENODEF_13
1002
{
1000
HIER
1070
     0
1002
}
1002
{
1000
MANEDIT
1070
     0
1002
}
1002
{
1000
NOSEL
1070
     0
1002
}
1002
{
1000
BEHIND
1070
     0
1002
}
1002
{
1000
OTHER
1070
     0
1002
}
1002
{
1000
REACTOR
1002
}
1001
GENIUS_GENOBJ-N-CHA_13
1002
{
1000
OWNER
1000
GEN
1002
}
  0
LINE
  5
11F
330
1D
100
AcDbEntity
  8
120-キャビネット（外）
 62
     6
100
AcDbLine
 10
2575.025859382935
 20
-6265.238763773619
 30
0.0
 11
3392.025859382935
 21
-6265.238763773619
 31
0.0
  0
CIRCLE
  5
120
330
1D
100
AcDbEntity
  8
180-補助
  6
HIDDEN
100
AcDbCircle
 10
3271.025859382935
 20
-6280.238763773619
 30
0.0
 40
5.499999999999637
  0
LINE
  5
125
330
1D
100
AcDbEntity
  8
DEFPOINTS
100
AcDbLine
 10
3271.025859382935
 20
-6291.238763773619
 30
0.0
 11
3271.025859382935
 21
-6269.238763773619
 31
0.0
  0
LINE
  5
126
330
1D
100
AcDbEntity
  8
DEFPOINTS
100
AcDbLine
 10
3260.025859382935
 20
-6280.238763773619
 30
0.0
 11
3282.025859382935
 21
-6280.238763773619
 31
0.0
  0
LINE
  5
127
330
1D
100
AcDbEntity
  8
180-補助
  6
HIDDEN
 48
2.0
100
AcDbLine
 10
3244.525859382935
 20
-6368.240857885861
 30
0.0
 11
3392.425859382842
 21
-6368.240857885861
 31
0.0
  0
ARC
  5
128
330
1D
100
AcDbEntity
  8
180-補助
  6
HIDDEN
 48
2.0
100
AcDbCircle
 10
3244.525859382935
 20
-6365.738763773619
 30
0.0
 40
2.5
100
AcDbArc
 50
180.0
 51
270.0
  0
LINE
  5
129
330
1D
100
AcDbEntity
  8
180-補助
  6
HIDDEN
 48
2.0
100
AcDbLine
 10
3242.025859382935
 20
-6265.238763773619
 30
0.0
 11
3242.025859382935
 21
-6365.738763773619
 31
0.0
  0
CIRCLE
  5
12A
330
1D
100
AcDbEntity
  8
180-補助
  6
HIDDEN
100
AcDbCircle
 10
3355.025859382935
 20
-6280.238763773619
 30
0.0
 40
5.499999999999421
  0
LINE
  5
12B
330
1D
100
AcDbEntity
  8
DEFPOINTS
100
AcDbLine
 10
3355.025859382935
 20
-6291.238763773619
 30
0.0
 11
3355.025859382935
 21
-6269.238763773619
 31
0.0
  0
LINE
  5
12C
330
1D
100
AcDbEntity
  8
DEFPOINTS
100
AcDbLine
 10
3344.025859382935
 20
-6280.238763773619
 30
0.0
 11
3366.025859382935
 21
-6280.238763773619
 31
0.0
  0
CIRCLE
  5
12D
330
1D
100
AcDbEntity
  8
180-補助
  6
HIDDEN
100
AcDbCircle
 10
3271.025859382935
 20
-6353.238763773619
 30
0.0
 40
5.499999999999637
  0
LINE
  5
12E
330
1D
100
AcDbEntity
  8
DEFPOINTS
100
AcDbLine
 10
3271.025859382935
 20
-6364.238763773619
 30
0.0
 11
3271.025859382935
 21
-6342.238763773619
 31
0.0
  0
LINE
  5
12F
330
1D
100
AcDbEntity
  8
DEFPOINTS
100
AcDbLine
 10
3260.025859382935
 20
-6353.238763773619
 30
0.0
 11
3282.025859382935
 21
-6353.238763773619
 31
0.0
  0
CIRCLE
  5
130
330
1D
100
AcDbEntity
  8
180-補助
  6
HIDDEN
100
AcDbCircle
 10
3355.025859382935
 20
-6353.238763773619
 30
0.0
 40
5.499999999999421
  0
LINE
  5
131
330
1D
100
AcDbEntity
  8
DEFPOINTS
100
AcDbLine
 10
3355.025859382935
 20
-6364.238763773619
 30
0.0
 11
3355.025859382935
 21
-6342.238763773619
 31
0.0
  0
LINE
  5
132
330
1D
100
AcDbEntity
  8
DEFPOINTS
100
AcDbLine
 10
3344.025859382935
 20
-6353.238763773619
 30
0.0
 11
3366.025859382935
 21
-6353.238763773619
 31
0.0
  0
LINE
  5
133
330
1D
100
AcDbEntity
  8
120-キャビネット（外）
 62
     6
100
AcDbLine
 10
2574.626168463379
 20
-6370.238763773619
 30
0.0
 11
3392.425859383075
 21
-6370.238763773619
 31
0.0
  0
LINE
  5
134
330
1D
100
AcDbEntity
  8
180-補助
  6
HIDDEN
 48
2.0
100
AcDbLine
 10
3336.526168463402
 20
-4345.716481858419
 30
0.0
 11
3243.526168463402
 21
-4345.716481858419
 31
0.0
  0
LINE
  5
135
330
1D
100
AcDbEntity
  8
180-補助
  6
HIDDEN
 48
2.0
100
AcDbLine
 10
3336.526168463402
 20
-4209.716481858419
 30
0.0
 11
3336.526168463402
 21
-4345.716481858419
 31
0.0
  0
LINE
  5
136
330
1D
100
AcDbEntity
  8
180-補助
  6
HIDDEN
 48
2.0
100
AcDbLine
 10
3243.526168463402
 20
-4209.716481858419
 30
0.0
 11
3336.526168463402
 21
-4209.716481858419
 31
0.0
  0
LINE
  5
137
330
1D
100
AcDbEntity
  8
180-補助
  6
HIDDEN
 48
2.0
100
AcDbLine
 10
3243.526168463402
 20
-4152.716481858419
 30
0.0
 11
3243.526168463402
 21
-4209.716481858419
 31
0.0
  0
LINE
  5
138
330
1D
100
AcDbEntity
  8
180-補助
  6
HIDDEN
 48
2.0
100
AcDbLine
 10
3243.526168463402
 20
-4345.716481858419
 30
0.0
 11
3243.526168463402
 21
-4402.716481858419
 31
0.0
  0
CIRCLE
  5
139
330
1D
100
AcDbEntity
  8
180-補助
  6
HIDDEN
100
AcDbCircle
 10
3273.526168463402
 20
-4189.716481858419
 30
0.0
 40
3.25000000000009
  0
CIRCLE
  5
13A
330
1D
100
AcDbEntity
  8
180-補助
  6
HIDDEN
100
AcDbCircle
 10
3326.526168463402
 20
-4189.716481858419
 30
0.0
 40
3.249999999999445
  0
CIRCLE
  5
13B
330
1D
100
AcDbEntity
  8
180-補助
  6
HIDDEN
100
AcDbCircle
 10
3273.526168463402
 20
-4365.716481858419
 30
0.0
 40
3.249999999999943
  0
CIRCLE
  5
13C
330
1D
100
AcDbEntity
  8
180-補助
  6
HIDDEN
100
AcDbCircle
 10
3326.526168463402
 20
-4365.716481858419
 30
0.0
 40
3.249999999999297
  0
CIRCLE
  5
13D
330
1D
100
AcDbEntity
  8
180-補助
  6
HIDDEN
100
AcDbCircle
 10
3356.526168463402
 20
-4335.716481858419
 30
0.0
 40
3.249999999999445
  0
CIRCLE
  5
13E
330
1D
100
AcDbEntity
  8
180-補助
  6
HIDDEN
100
AcDbCircle
 10
3356.526168463402
 20
-4219.716481858419
 30
0.0
 40
3.249999999999445
  0
LINE
  5
13F
330
1D
100
AcDbEntity
  8
180-補助
  6
HIDDEN
 48
2.0
100
AcDbLine
 10
3336.526168463402
 20
-4209.716481858419
 30
0.0
 11
3393.526168463519
 21
-4152.716481858419
 31
0.0
  0
LINE
  5
140
330
1D
100
AcDbEntity
  8
180-補助
  6
HIDDEN
 48
2.0
100
AcDbLine
 10
3336.526168463402
 20
-4345.716481858419
 30
0.0
 11
3393.525956112775
 21
-4402.716269507635
 31
0.0
  0
LINE
  5
141
330
1D
100
AcDbEntity
  8
DEFPOINTS
100
AcDbLine
 10
3273.526168463402
 20
-4182.216481858419
 30
0.0
 11
3273.526168463402
 21
-4197.216481858419
 31
0.0
  0
LINE
  5
142
330
1D
100
AcDbEntity
  8
DEFPOINTS
100
AcDbLine
 10
3266.026168463402
 20
-4189.716481858419
 30
0.0
 11
3281.026168463402
 21
-4189.716481858419
 31
0.0
  0
LINE
  5
143
330
1D
100
AcDbEntity
  8
DEFPOINTS
100
AcDbLine
 10
3326.526168463402
 20
-4182.216481858419
 30
0.0
 11
3326.526168463402
 21
-4197.216481858419
 31
0.0
  0
LINE
  5
144
330
1D
100
AcDbEntity
  8
DEFPOINTS
100
AcDbLine
 10
3319.026168463402
 20
-4189.716481858419
 30
0.0
 11
3334.026168463402
 21
-4189.716481858419
 31
0.0
  0
LINE
  5
145
330
1D
100
AcDbEntity
  8
DEFPOINTS
100
AcDbLine
 10
3356.526168463402
 20
-4212.216481858419
 30
0.0
 11
3356.526168463402
 21
-4227.216481858419
 31
0.0
  0
LINE
  5
146
330
1D
100
AcDbEntity
  8
DEFPOINTS
100
AcDbLine
 10
3349.026168463402
 20
-4219.716481858419
 30
0.0
 11
3364.026168463402
 21
-4219.716481858419
 31
0.0
  0
LINE
  5
147
330
1D
100
AcDbEntity
  8
DEFPOINTS
100
AcDbLine
 10
3356.526168463402
 20
-4328.216481858419
 30
0.0
 11
3356.526168463402
 21
-4343.216481858419
 31
0.0
  0
LINE
  5
148
330
1D
100
AcDbEntity
  8
DEFPOINTS
100
AcDbLine
 10
3349.026168463402
 20
-4335.716481858419
 30
0.0
 11
3364.026168463402
 21
-4335.716481858419
 31
0.0
  0
LINE
  5
149
330
1D
100
AcDbEntity
  8
DEFPOINTS
100
AcDbLine
 10
3326.526168463402
 20
-4358.216481858419
 30
0.0
 11
3326.526168463402
 21
-4373.216481858419
 31
0.0
  0
LINE
  5
14A
330
1D
100
AcDbEntity
  8
DEFPOINTS
100
AcDbLine
 10
3319.026168463402
 20
-4365.716481858419
 30
0.0
 11
3334.026168463402
 21
-4365.716481858419
 31
0.0
  0
LINE
  5
14B
330
1D
100
AcDbEntity
  8
DEFPOINTS
100
AcDbLine
 10
3273.526168463402
 20
-4358.216481858419
 30
0.0
 11
3273.526168463402
 21
-4373.216481858419
 31
0.0
  0
LINE
  5
14C
330
1D
100
AcDbEntity
  8
DEFPOINTS
100
AcDbLine
 10
3266.026168463402
 20
-4365.716481858419
 30
0.0
 11
3281.026168463402
 21
-4365.716481858419
 31
0.0
  0
LINE
  5
14D
330
1D
100
AcDbEntity
  8
121-キャビネット（中）
  6
HIDDENX2
100
AcDbLine
 10
2575.526168463402
 20
-4441.76947437227
 30
0.0
 11
3393.926468319027
 21
-4441.76947437227
 31
0.0
  0
LINE
  5
14E
330
1D
100
AcDbEntity
  8
121-キャビネット（中）
  6
HIDDENX2
100
AcDbLine
 10
2575.526168463402
 20
-4402.76947437227
 30
0.0
 11
3393.926468319027
 21
-4402.716257104143
 31
0.0
  0
LINE
  5
14F
330
1D
100
AcDbEntity
  8
121-キャビネット（中）
  6
HIDDENX2
100
AcDbLine
 10
2575.526168463402
 20
-4152.716481858419
 30
0.0
 11
3393.92646831891
 21
-4152.716481858419
 31
0.0
  0
LINE
  5
150
330
1D
100
AcDbEntity
  8
121-キャビネット（中）
  6
HIDDENX2
100
AcDbLine
 10
2575.526168463402
 20
-4113.716481858419
 30
0.0
 11
3393.92646831891
 21
-4113.716481858419
 31
0.0
  0
CIRCLE
  5
151
330
1D
100
AcDbEntity
  8
180-補助
  6
HIDDEN
100
AcDbCircle
 10
2696.02647754387
 20
-6280.238763773619
 30
0.0
 40
5.499999999999637
  0
LINE
  5
152
330
1D
100
AcDbEntity
  8
DEFPOINTS
100
AcDbLine
 10
2696.02647754387
 20
-6291.238763773619
 30
0.0
 11
2696.02647754387
 21
-6269.238763773619
 31
0.0
  0
LINE
  5
153
330
1D
100
AcDbEntity
  8
DEFPOINTS
100
AcDbLine
 10
2707.02647754387
 20
-6280.238763773619
 30
0.0
 11
2685.02647754387
 21
-6280.238763773619
 31
0.0
  0
LINE
  5
154
330
1D
100
AcDbEntity
  8
180-補助
  6
HIDDEN
 48
2.0
100
AcDbLine
 10
2722.52647754387
 20
-6368.240857885861
 30
0.0
 11
2574.626477543963
 21
-6368.240857885861
 31
0.0
  0
ARC
  5
155
330
1D
100
AcDbEntity
  8
180-補助
  6
HIDDEN
 48
2.0
100
AcDbCircle
 10
2722.52647754387
 20
-6365.738763773619
 30
0.0
 40
2.5
100
AcDbArc
 50
270.0
 51
0.0
  0
LINE
  5
156
330
1D
100
AcDbEntity
  8
180-補助
  6
HIDDEN
 48
2.0
100
AcDbLine
 10
2725.02647754387
 20
-6265.238763773619
 30
0.0
 11
2725.02647754387
 21
-6365.738763773619
 31
0.0
  0
CIRCLE
  5
157
330
1D
100
AcDbEntity
  8
180-補助
  6
HIDDEN
100
AcDbCircle
 10
2612.02647754387
 20
-6280.238763773619
 30
0.0
 40
5.499999999999421
  0
LINE
  5
158
330
1D
100
AcDbEntity
  8
DEFPOINTS
100
AcDbLine
 10
2612.02647754387
 20
-6291.238763773619
 30
0.0
 11
2612.02647754387
 21
-6269.238763773619
 31
0.0
  0
LINE
  5
159
330
1D
100
AcDbEntity
  8
DEFPOINTS
100
AcDbLine
 10
2623.02647754387
 20
-6280.238763773619
 30
0.0
 11
2601.02647754387
 21
-6280.238763773619
 31
0.0
  0
CIRCLE
  5
15A
330
1D
100
AcDbEntity
  8
180-補助
  6
HIDDEN
100
AcDbCircle
 10
2696.02647754387
 20
-6353.238763773619
 30
0.0
 40
5.499999999999637
  0
LINE
  5
15B
330
1D
100
AcDbEntity
  8
DEFPOINTS
100
AcDbLine
 10
2696.02647754387
 20
-6364.238763773619
 30
0.0
 11
2696.02647754387
 21
-6342.238763773619
 31
0.0
  0
LINE
  5
15C
330
1D
100
AcDbEntity
  8
DEFPOINTS
100
AcDbLine
 10
2707.02647754387
 20
-6353.238763773619
 30
0.0
 11
2685.02647754387
 21
-6353.238763773619
 31
0.0
  0
CIRCLE
  5
15D
330
1D
100
AcDbEntity
  8
180-補助
  6
HIDDEN
100
AcDbCircle
 10
2612.02647754387
 20
-6353.238763773619
 30
0.0
 40
5.499999999999421
  0
LINE
  5
15E
330
1D
100
AcDbEntity
  8
DEFPOINTS
100
AcDbLine
 10
2612.02647754387
 20
-6364.238763773619
 30
0.0
 11
2612.02647754387
 21
-6342.238763773619
 31
0.0
  0
LINE
  5
15F
330
1D
100
AcDbEntity
  8
DEFPOINTS
100
AcDbLine
 10
2623.02647754387
 20
-6353.238763773619
 30
0.0
 11
2601.02647754387
 21
-6353.238763773619
 31
0.0
  0
LWPOLYLINE
  5
160
330
1D
100
AcDbEntity
  8
120-キャビネット（外）
 62
     6
100
AcDbPolyline
 90
        4
 70
     1
 43
0.0
 10
5522.029191268026
 20
-6265.238750723935
 10
5561.629191268003
 20
-6265.238750723935
 10
5561.629191268003
 20
-6370.238763773619
 10
5522.029191268026
 20
-6370.238763773619
  0
LWPOLYLINE
  5
161
330
1D
100
AcDbEntity
  8
120-キャビネット（外）
 62
     6
100
AcDbPolyline
 90
        4
 70
     1
 43
0.0
 10
5811.629191268003
 20
-6265.238750723935
 10
5851.229191267979
 20
-6265.238750723935
 10
5851.229191267979
 20
-6370.238763773619
 10
5811.629191268003
 20
-6370.238763773619
  0
LWPOLYLINE
  5
162
330
1D
100
AcDbEntity
  8
141-パーツ
100
AcDbPolyline
 90
        6
 70
     0
 43
0.0
 10
5593.629191268003
 20
-6368.240857885861
 10
5561.629191268003
 20
-6368.240857885861
 10
5561.629191268003
 20
-6265.238750723935
 10
5811.629191268003
 20
-6265.238750723935
 10
5811.629191268003
 20
-6368.240857885861
 10
5779.629191268003
 20
-6368.240857885861
  0
LWPOLYLINE
  5
166
330
1D
100
AcDbEntity
  8
141-パーツ
100
AcDbPolyline
 90
        2
 70
     0
 43
0.0
 10
5769.629191268003
 20
-6368.240857885861
 10
5603.629191268003
 20
-6368.240857885861
  0
LINE
  5
167
330
1D
100
AcDbEntity
  8
141-パーツ
100
AcDbLine
 10
5603.629191268003
 20
-6353.240857885861
 30
0.0
 11
5603.629191268003
 21
-6368.240857885861
 31
0.0
  0
LINE
  5
168
330
1D
100
AcDbEntity
  8
141-パーツ
100
AcDbLine
 10
5593.629191268003
 20
-6353.240857885861
 30
0.0
 11
5593.629191268003
 21
-6368.240857885861
 31
0.0
  0
CIRCLE
  5
169
330
1D
100
AcDbEntity
  8
141-パーツ
100
AcDbCircle
 10
5598.629191268003
 20
-6302.238750723935
 30
0.0
 40
4.0
  0
ARC
  5
16A
330
1D
100
AcDbEntity
  8
141-パーツ
100
AcDbCircle
 10
5598.629191268003
 20
-6353.240857885861
 30
0.0
 40
5.0
100
AcDbArc
 50
0.0
 51
180.0
  0
LINE
  5
16B
330
1D
100
AcDbEntity
  8
141-パーツ
100
AcDbLine
 10
5769.629191268003
 20
-6353.240857885861
 30
0.0
 11
5769.629191268003
 21
-6368.240857885861
 31
0.0
  0
LINE
  5
16C
330
1D
100
AcDbEntity
  8
141-パーツ
100
AcDbLine
 10
5779.629191268003
 20
-6353.240857885861
 30
0.0
 11
5779.629191268003
 21
-6368.240857885861
 31
0.0
  0
CIRCLE
  5
16D
330
1D
100
AcDbEntity
  8
141-パーツ
100
AcDbCircle
 10
5774.629191268003
 20
-6302.238750723935
 30
0.0
 40
4.0
  0
ARC
  5
16E
330
1D
100
AcDbEntity
  8
141-パーツ
100
AcDbCircle
 10
5774.629191268003
 20
-6353.240857885861
 30
0.0
 40
5.0
100
AcDbArc
 50
0.0
 51
180.0
  0
LINE
  5
16F
330
1D
100
AcDbEntity
  8
111-壁仕上
 48
2.0
100
AcDbLine
 10
823.9712076742435
 20
-6605.238750723935
 30
0.0
 11
6898.838306351216
 21
-6605.238750723935
 31
0.0
  0
DIMENSION
  5
173
330
1D
100
AcDbEntity
  8
166-寸法B
100
AcDbDimension
280
     0
  2
*D3
 10
2151.864443357568
 20
-3977.716172786828
 30
0.0
 11
2121.864443357568
 21
-4277.716172786828
 31
0.0
 70
    32
 71
     5
 42
600.0
 73
     0
 74
     0
 75
     0
  3
KH1xx020
100
AcDbAlignedDimension
 13
2535.026168463402
 23
-4577.716172786828
 33
0.0
 14
2535.026168463402
 24
-3977.716172786828
 34
0.0
 50
90.0
100
AcDbRotatedDimension
  0
DIMENSION
  5
183
330
1D
100
AcDbEntity
  8
166-寸法B
100
AcDbDimension
280
     0
  2
*D4
 10
3435.026168463402
 20
-3621.364697951822
 30
0.0
 11
2985.026168463402
 21
-3591.364697951822
 31
0.0
 70
    32
 71
     5
 42
900.0
 73
     0
 74
     0
 75
     0
  3
KH1xx020
100
AcDbAlignedDimension
 13
2535.026168463402
 23
-3977.716172786828
 33
0.0
 14
3435.026168463402
 24
-3977.716172786828
 34
0.0
100
AcDbRotatedDimension
  0
DIMENSION
  5
190
330
1D
100
AcDbEntity
  8
166-寸法B
100
AcDbDimension
280
     0
  2
*D5
 10
2151.864443357568
 20
-6225.638763773621
 30
0.0
 11
2121.864443357568
 21
-6415.438763773622
 31
0.0
 70
    32
 71
     5
 42
379.6000000000022
 73
     0
 74
     0
 75
     0
  3
KH1xx020
100
AcDbAlignedDimension
 13
2535.026168463402
 23
-6605.238763773623
 33
0.0
 14
2533.526168463402
 24
-6225.638763773621
 34
0.0
 50
90.0
100
AcDbRotatedDimension
1001
ACAD
1000
DSTYLE
1002
{
1070
   271
1070
     0
1002
}
  0
DIMENSION
  5
19D
330
1D
100
AcDbEntity
  8
166-寸法B
100
AcDbDimension
280
     0
  2
*D6
 10
2251.864443357568
 20
-6603.238763773623
 30
0.0
 11
2259.269836238702
 21
-6652.690895948033
 31
0.0
 70
   160
 71
     5
 42
2.0
 73
     0
 74
     0
 75
     0
  3
KH1xx020
100
AcDbAlignedDimension
 13
2535.026168463402
 23
-6605.238763773623
 33
0.0
 14
2535.026168463402
 24
-6603.238763773623
 34
0.0
 50
90.0
100
AcDbRotatedDimension
1001
ACAD
1000
DSTYLE
1002
{
1070
   279
1070
     1
1002
}
  0
DIMENSION
  5
1AD
330
1D
100
AcDbEntity
  8
166-寸法B
100
AcDbDimension
280
     0
  2
*D7
 10
2251.864443357568
 20
-6265.238763562646
 30
0.0
 11
2221.864443357568
 21
-6434.238763668134
 31
0.0
 70
    32
 71
     5
 42
338.0000002109773
 73
     0
 74
     0
 75
     0
  3
KH1xx020
100
AcDbAlignedDimension
 13
2535.026168463402
 23
-6603.238763773623
 33
0.0
 14
2533.526168463402
 24
-6265.238763562646
 34
0.0
 50
90.0
100
AcDbRotatedDimension
  0
DIMENSION
  5
1BA
330
1D
100
AcDbEntity
  8
166-寸法B
100
AcDbDimension
280
     0
  2
*D8
 10
2251.864443357568
 20
-6225.638763773621
 30
0.0
 11
2253.757823957247
 21
-6166.224231797676
 31
0.0
 70
   160
 71
     5
 42
39.59999978902488
 73
     0
 74
     0
 75
     0
  3
KH1xx020
100
AcDbAlignedDimension
 13
2533.526168463402
 23
-6265.238763562646
 33
0.0
 14
2533.526168463402
 24
-6225.638763773621
 34
0.0
 50
90.0
100
AcDbRotatedDimension
1001
ACAD
1000
DSTYLE
1002
{
1070
   271
1070
     0
1070
   279
1070
     1
1002
}
  0
DIMENSION
  5
1CA
330
1D
100
AcDbEntity
  8
166-寸法B
100
AcDbDimension
280
     0
  2
*D9
 10
2826.293554535601
 20
-6265.238763773619
 30
0.0
 11
2846.142851384473
 21
-6433.281111591279
 31
0.0
 70
   160
 71
     5
 42
105.0
 73
     0
 74
     0
 75
     0
  3
KH1xx020
100
AcDbAlignedDimension
 13
2750.790828375146
 23
-6370.238763773619
 33
0.0
 14
2725.02647754387
 24
-6265.238763773619
 34
0.0
 50
90.0
100
AcDbRotatedDimension
1001
ACAD
1000
DSTYLE
1002
{
1070
   279
1070
     1
1002
}
  0
DIMENSION
  5
1D8
330
1D
100
AcDbEntity
  8
166-寸法B
100
AcDbDimension
280
     0
  2
*D10
 10
5004.967466162168
 20
-6225.638763782617
 30
0.0
 11
4974.967466162168
 21
-6415.438763782617
 31
0.0
 70
    32
 71
     5
 42
379.5999999999985
 73
     0
 74
     0
 75
     0
  3
KH1xx020
100
AcDbAlignedDimension
 13
5388.129191268003
 23
-6605.238763782616
 33
0.0
 14
5386.629191268003
 24
-6225.638763782617
 34
0.0
 50
90.0
100
AcDbRotatedDimension
1001
ACAD
1000
DSTYLE
1002
{
1070
   271
1070
     0
1002
}
  0
DIMENSION
  5
1E5
330
1D
100
AcDbEntity
  8
166-寸法B
100
AcDbDimension
280
     0
  2
*D11
 10
5104.967466162168
 20
-6603.238763782616
 30
0.0
 11
5112.372859043302
 21
-6652.690895957026
 31
0.0
 70
   160
 71
     5
 42
2.0
 73
     0
 74
     0
 75
     0
  3
KH1xx020
100
AcDbAlignedDimension
 13
5388.129191268003
 23
-6605.238763782616
 33
0.0
 14
5388.129191268003
 24
-6603.238763782616
 34
0.0
 50
90.0
100
AcDbRotatedDimension
1001
ACAD
1000
DSTYLE
1002
{
1070
   279
1070
     1
1002
}
  0
DIMENSION
  5
1F5
330
1D
100
AcDbEntity
  8
166-寸法B
100
AcDbDimension
280
     0
  2
*D12
 10
5104.967466162168
 20
-6265.238763571639
 30
0.0
 11
5074.967466162168
 21
-6434.238763677127
 31
0.0
 70
    32
 71
     5
 42
338.0000002109773
 73
     0
 74
     0
 75
     0
  3
KH1xx020
100
AcDbAlignedDimension
 13
5388.129191268003
 23
-6603.238763782616
 33
0.0
 14
5386.629191268003
 24
-6265.238763571639
 34
0.0
 50
90.0
100
AcDbRotatedDimension
  0
DIMENSION
  5
202
330
1D
100
AcDbEntity
  8
166-寸法B
100
AcDbDimension
280
     0
  2
*D13
 10
5104.967466162168
 20
-6225.638763782617
 30
0.0
 11
5106.860846761847
 21
-6166.224231806669
 31
0.0
 70
   160
 71
     5
 42
39.59999978902124
 73
     0
 74
     0
 75
     0
  3
KH1xx020
100
AcDbAlignedDimension
 13
5386.629191268003
 23
-6265.238763571639
 33
0.0
 14
5386.629191268003
 24
-6225.638763782617
 34
0.0
 50
90.0
100
AcDbRotatedDimension
1001
ACAD
1000
DSTYLE
1002
{
1070
   271
1070
     0
1070
   279
1070
     1
1002
}
  0
DIMENSION
  5
212
330
1D
100
AcDbEntity
  8
166-寸法B
100
AcDbDimension
280
     0
  2
*D14
 10
5522.029191268026
 20
-6047.092016708395
 30
0.0
 11
5454.329191268014
 21
-6017.092016708395
 31
0.0
 70
    32
 71
     5
 42
135.4000000000233
 73
     0
 74
     0
 75
     0
  3
KH1xx020
100
AcDbAlignedDimension
 13
5386.629191268003
 23
-6225.638750723929
 33
0.0
 14
5522.029191268026
 24
-6225.638750723929
 34
0.0
100
AcDbRotatedDimension
1001
ACAD
1000
DSTYLE
1002
{
1070
   271
1070
     0
1002
}
  0
DIMENSION
  5
21F
330
1D
100
AcDbEntity
  8
166-寸法B
100
AcDbDimension
280
     0
  2
*D15
 10
5561.629191268003
 20
-6047.092016708395
 30
0.0
 11
5541.829191268014
 21
-6017.092016708395
 31
0.0
 70
    32
 71
     5
 42
39.59999999997672
 73
     0
 74
     0
 75
     0
  3
KH1xx020
100
AcDbAlignedDimension
 13
5522.029191268026
 23
-6225.638750723929
 33
0.0
 14
5561.629191268003
 24
-6225.638750723929
 34
0.0
100
AcDbRotatedDimension
1001
ACAD
1000
DSTYLE
1002
{
1070
   271
1070
     0
1002
}
  0
DIMENSION
  5
22E
330
1D
100
AcDbEntity
  8
166-寸法B
100
AcDbDimension
280
     0
  2
*D16
 10
5811.629191268003
 20
-6047.092016708395
 30
0.0
 11
5686.629191268003
 21
-6017.092016708395
 31
0.0
 70
    32
 71
     5
 42
250.0
 73
     0
 74
     0
 75
     0
  3
KH1xx020
100
AcDbAlignedDimension
 13
5561.629191268003
 23
-6225.638750723929
 33
0.0
 14
5811.629191268003
 24
-6225.638750723929
 34
0.0
100
AcDbRotatedDimension
1001
ACAD
1000
DSTYLE
1002
{
1070
   271
1070
     0
1002
}
  0
DIMENSION
  5
23B
330
1D
100
AcDbEntity
  8
166-寸法B
100
AcDbDimension
280
     0
  2
*D17
 10
5851.229191267979
 20
-6047.092016708395
 30
0.0
 11
5831.429191267991
 21
-6017.092016708395
 31
0.0
 70
    32
 71
     5
 42
39.59999999997672
 73
     0
 74
     0
 75
     0
  3
KH1xx020
100
AcDbAlignedDimension
 13
5811.629191268003
 23
-6225.638750723929
 33
0.0
 14
5851.229191267979
 24
-6225.638750723929
 34
0.0
100
AcDbRotatedDimension
1001
ACAD
1000
DSTYLE
1002
{
1070
   271
1070
     0
1002
}
  0
DIMENSION
  5
24A
330
1D
100
AcDbEntity
  8
166-寸法B
100
AcDbDimension
280
     0
  2
*D18
 10
5986.629191268003
 20
-6047.092016708395
 30
0.0
 11
5918.929191267991
 21
-6017.092016708395
 31
0.0
 70
    32
 71
     5
 42
135.4000000000233
 73
     0
 74
     0
 75
     0
  3
KH1xx020
100
AcDbAlignedDimension
 13
5851.229191267979
 23
-6225.638750723929
 33
0.0
 14
5986.629191268003
 24
-6225.638750723929
 34
0.0
100
AcDbRotatedDimension
1001
ACAD
1000
DSTYLE
1002
{
1070
   271
1070
     0
1002
}
  0
DIMENSION
  5
257
330
1D
100
AcDbEntity
  8
166-寸法B
100
AcDbDimension
280
     0
  2
*D19
 10
5386.629191268003
 20
-5947.092016708395
 30
0.0
 11
5686.629191268003
 21
-5917.092016708395
 31
0.0
 70
    32
 71
     5
 42
600.0
 73
     0
 74
     0
 75
     0
  3
KH1xx020
100
AcDbAlignedDimension
 13
5986.629191268003
 23
-6225.638750723929
 33
0.0
 14
5386.629191268003
 24
-6225.638750721579
 34
0.0
100
AcDbRotatedDimension
  0
DIMENSION
  5
264
330
1D
100
AcDbEntity
  8
166-寸法B
100
AcDbDimension
280
     0
  2
*D20
 10
2535.026168463402
 20
-6960.812138988431
 30
0.0
 11
2457.753634400084
 21
-6975.233333466951
 31
0.0
 70
   160
 71
     5
 42
1.5
 73
     0
 74
     0
 75
     0
  3
KH1xx020
100
AcDbAlignedDimension
 13
2533.526168463402
 23
-6605.238750723935
 33
0.0
 14
2535.026168463402
 24
-6605.238750723935
 34
0.0
100
AcDbRotatedDimension
1001
ACAD
1000
DSTYLE
1002
{
1070
   279
1070
     1
1002
}
  0
DIMENSION
  5
274
330
1D
100
AcDbEntity
  8
166-寸法B
100
AcDbDimension
280
     0
  2
*D21
 10
3432.025859382935
 20
-6960.812138988431
 30
0.0
 11
2983.526013923169
 21
-6930.812138988431
 31
0.0
 70
    32
 71
     5
 42
896.9996909195324
 73
     0
 74
     0
 75
     0
  3
KH1xx020
100
AcDbAlignedDimension
 13
2535.026168463402
 23
-6605.238750723935
 33
0.0
 14
3432.025859382935
 24
-6605.238750723935
 34
0.0
100
AcDbRotatedDimension
  0
DIMENSION
  5
281
330
1D
100
AcDbEntity
  8
166-寸法B
100
AcDbDimension
280
     0
  2
*D22
 10
3433.526168463519
 20
-6960.812138988431
 30
0.0
 11
3506.142430338892
 21
-6967.602948077283
 31
0.0
 70
   160
 71
     5
 42
1.500309080583975
 73
     0
 74
     0
 75
     0
  3
KH1xx020
100
AcDbAlignedDimension
 13
3432.025859382935
 23
-6605.238750723935
 33
0.0
 14
3433.526168463519
 24
-6605.238750723935
 34
0.0
100
AcDbRotatedDimension
1001
ACAD
1000
DSTYLE
1002
{
1070
   279
1070
     1
1002
}
  0
DIMENSION
  5
291
330
1D
100
AcDbEntity
  8
166-寸法B
100
AcDbDimension
280
     0
  2
*D23
 10
2533.526168463402
 20
-7060.812138988431
 30
0.0
 11
2983.526168463461
 21
-7030.812138988431
 31
0.0
 70
    32
 71
     5
 42
900.0000000001164
 73
     0
 74
     0
 75
     0
  3
KH1xx020
100
AcDbAlignedDimension
 13
3433.526168463519
 23
-6605.238750723935
 33
0.0
 14
2533.526168463402
 24
-6605.238750723935
 34
0.0
100
AcDbRotatedDimension
  0
DIMENSION
  5
29E
330
1D
100
AcDbEntity
  8
166-寸法B
100
AcDbDimension
280
     0
  2
*D24
 10
2574.626168463379
 20
-6860.812138988431
 30
0.0
 11
2612.342529101879
 21
-6830.812138988431
 31
0.0
 70
   160
 71
     5
 42
39.59999999997672
 73
     0
 74
     0
 75
     0
  3
KH1xx020
100
AcDbAlignedDimension
 13
2535.026168463402
 23
-6605.238750723935
 33
0.0
 14
2574.626168463379
 24
-6605.238750723935
 34
0.0
100
AcDbRotatedDimension
1001
ACAD
1000
DSTYLE
1002
{
1070
   271
1070
     0
1002
}
  0
DIMENSION
  5
2AD
330
1D
100
AcDbEntity
  8
166-寸法B
100
AcDbDimension
280
     0
  2
*D25
 10
3392.425859382958
 20
-6860.812138988431
 30
0.0
 11
2983.526013923169
 21
-6830.812138988431
 31
0.0
 70
    32
 71
     5
 42
817.799690919579
 73
     0
 74
     0
 75
     0
  3
KH1xx020
100
AcDbAlignedDimension
 13
2574.626168463379
 23
-6605.238750723935
 33
0.0
 14
3392.425859382958
 24
-6605.238750723935
 34
0.0
100
AcDbRotatedDimension
1001
ACAD
1000
DSTYLE
1002
{
1070
   271
1070
     0
1002
}
  0
DIMENSION
  5
2BA
330
1D
100
AcDbEntity
  8
166-寸法B
100
AcDbDimension
280
     0
  2
*D26
 10
3432.025859382935
 20
-6860.812138988431
 30
0.0
 11
3352.902386609232
 21
-6830.812138988431
 31
0.0
 70
   160
 71
     5
 42
39.59999999997672
 73
     0
 74
     0
 75
     0
  3
KH1xx020
100
AcDbAlignedDimension
 13
3392.425859382958
 23
-6605.238750723935
 33
0.0
 14
3432.025859382935
 24
-6605.238750723935
 34
0.0
100
AcDbRotatedDimension
1001
ACAD
1000
DSTYLE
1002
{
1070
   271
1070
     0
1002
}
  0
DIMENSION
  5
2C9
330
1D
100
AcDbEntity
  8
166-寸法B
100
AcDbDimension
280
     0
  2
*D27
 10
5388.129191268003
 20
-6960.812138988431
 30
0.0
 11
5280.856657204684
 21
-6977.233320417263
 31
0.0
 70
   160
 71
     5
 42
1.5
 73
     0
 74
     0
 75
     0
  3
KH1xx020
100
AcDbAlignedDimension
 13
5386.629191268003
 23
-6605.238737674243
 33
0.0
 14
5388.129191268003
 24
-6605.238737674243
 34
0.0
100
AcDbRotatedDimension
1001
ACAD
1000
DSTYLE
1002
{
1070
   279
1070
     1
1002
}
  0
DIMENSION
  5
2D9
330
1D
100
AcDbEntity
  8
166-寸法B
100
AcDbDimension
280
     0
  2
*D28
 10
5985.129191268003
 20
-6960.812138988431
 30
0.0
 11
5686.629191268003
 21
-6930.812138988431
 31
0.0
 70
    32
 71
     5
 42
597.0
 73
     0
 74
     0
 75
     0
  3
KH1xx020
100
AcDbAlignedDimension
 13
5388.129191268003
 23
-6605.238737674243
 33
0.0
 14
5985.129191268003
 24
-6605.238750723935
 34
0.0
100
AcDbRotatedDimension
  0
DIMENSION
  5
2E6
330
1D
100
AcDbEntity
  8
166-寸法B
100
AcDbDimension
280
     0
  2
*D29
 10
5986.629500348587
 20
-6960.812138988431
 30
0.0
 11
6089.24576222396
 21
-6967.602948077283
 31
0.0
 70
   160
 71
     5
 42
1.500309080583975
 73
     0
 74
     0
 75
     0
  3
KH1xx020
100
AcDbAlignedDimension
 13
5985.129191268003
 23
-6605.238750723935
 33
0.0
 14
5986.629500348587
 24
-6605.238750723935
 34
0.0
100
AcDbRotatedDimension
1001
ACAD
1000
DSTYLE
1002
{
1070
   279
1070
     1
1002
}
  0
DIMENSION
  5
2F6
330
1D
100
AcDbEntity
  8
166-寸法B
100
AcDbDimension
280
     0
  2
*D30
 10
5386.629191268003
 20
-7060.812138988431
 30
0.0
 11
5686.629345808295
 21
-7030.812138988431
 31
0.0
 70
    32
 71
     5
 42
600.000309080584
 73
     0
 74
     0
 75
     0
  3
KH1xx020
100
AcDbAlignedDimension
 13
5986.629500348587
 23
-6605.238750723935
 33
0.0
 14
5386.629191268003
 24
-6605.238737674243
 34
0.0
100
AcDbRotatedDimension
  0
DIMENSION
  5
303
330
1D
100
AcDbEntity
  8
166-寸法B
100
AcDbDimension
280
     0
  2
*D31
 10
2533.526168463402
 20
-5947.092016708395
 30
0.0
 11
2983.526168463402
 21
-5917.092016708395
 31
0.0
 70
    32
 71
     5
 42
900.0
 73
     0
 74
     0
 75
     0
  3
KH1xx020
100
AcDbAlignedDimension
 13
3433.526168463402
 23
-6225.638763773621
 33
0.0
 14
2533.526168463402
 24
-6225.638763773621
 34
0.0
100
AcDbRotatedDimension
  0
MTEXT
  5
310
330
1D
100
AcDbEntity
  8
161-番号
100
AcDbMText
 10
3050.678309702314
 20
-6017.296882019838
 30
0.0
 40
60.00000000000001
 41
0.0
 46
0.0
 71
     1
 72
     1
  1
①
 73
     1
 44
1.0
  0
LEADER
  5
314
330
1D
100
AcDbEntity
  8
161-番号
100
AcDbLeader
  3
KH1xx030
 74
     0
 76
     2
 10
2992.423756590695
 20
-6234.579141159209
 30
0.0
 10
3070.442406154238
 20
-6086.500872190338
 30
0.0
1001
ACAD
1000
DSTYLE
1002
{
1070
    41
1040
2.0
1070
   341
1005
0
1070
   147
1040
0.5
1070
    77
1070
     1
1002
}
  0
MTEXT
  5
316
330
1D
100
AcDbEntity
  8
161-番号
100
AcDbMText
 10
2972.441547539784
 20
-6452.107056302359
 30
0.0
 40
60.00000000000001
 41
0.0
 46
0.0
 71
     1
 72
     1
  1
②
 73
     1
 44
1.0
  0
LEADER
  5
317
330
1D
100
AcDbEntity
  8
161-番号
100
AcDbLeader
  3
KH1xx030
 74
     0
 76
     2
 10
3099.468444131431
 20
-6318.045342383868
 30
0.0
 10
3025.318910767324
 20
-6457.587999669659
 30
0.0
1001
ACAD
1000
DSTYLE
1002
{
1070
    41
1040
2.0
1070
   341
1005
0
1070
   147
1040
0.5
1070
    77
1070
     1
1002
}
  0
MTEXT
  5
318
330
1D
100
AcDbEntity
  8
161-番号
100
AcDbMText
 10
2490.306991400081
 20
-6314.708085187662
 30
0.0
 40
60.00000000000001
 41
0.0
 46
0.0
 71
     3
 72
     1
  1
③
 73
     1
 44
1.0
  0
LEADER
  5
319
330
1D
100
AcDbEntity
  8
161-番号
100
AcDbLeader
  3
KH1xx030
 74
     0
 76
     2
 10
2553.007804476889
 20
-6539.849759361308
 30
0.0
 10
2470.542894948157
 20
-6383.912075358161
 30
0.0
211
-1.0
221
0.0
231
0.0
1001
ACAD
1000
DSTYLE
1002
{
1070
    41
1040
2.0
1070
   341
1005
0
1070
   147
1040
0.5
1070
    77
1070
     1
1002
}
  0
MTEXT
  5
31A
330
1D
100
AcDbEntity
  8
161-番号
100
AcDbMText
 10
3475.298996721744
 20
-6314.708085187662
 30
0.0
 40
60.00000000000001
 41
0.0
 46
0.0
 71
     1
 72
     1
  1
③
 73
     1
 44
1.0
  0
LEADER
  5
31B
330
1D
100
AcDbEntity
  8
161-番号
100
AcDbLeader
  3
KH1xx030
 74
     0
 76
     2
 10
3412.598183644935
 20
-6539.849759361308
 30
0.0
 10
3495.063093173667
 20
-6383.912075358161
 30
0.0
1001
ACAD
1000
DSTYLE
1002
{
1070
    41
1040
2.0
1070
   341
1005
0
1070
   147
1040
0.5
1070
    77
1070
     1
1002
}
  0
CIRCLE
  5
31C
330
1D
100
AcDbEntity
  8
166-寸法B
100
AcDbCircle
 10
2982.857539125602
 20
-4944.82798430689
 30
0.0
 40
77.11740949756849
  0
LINE
  5
31D
330
1D
100
AcDbEntity
  8
166-寸法B
100
AcDbLine
 10
2982.857539125602
 20
-4843.710574809311
 30
0.0
 11
2982.857539125602
 21
-4891.710574809311
 31
0.0
  0
LINE
  5
31E
330
1D
100
AcDbEntity
  8
166-寸法B
100
AcDbLine
 10
2929.740129628102
 20
-4944.82798430689
 30
0.0
 11
2881.740129628102
 21
-4944.82798430689
 31
0.0
  0
MTEXT
  5
31F
330
1D
100
AcDbEntity
  8
166-寸法B
100
AcDbMText
 10
2982.857539125602
 20
-4810.110574809327
 30
0.0
 40
47.99999999999999
 41
0.0
 46
0.0
 71
     5
 72
     1
  1
{\fArial|b0|i0|c0|p32;A}
 73
     1
 44
1.0
  0
MTEXT
  5
320
330
1D
100
AcDbEntity
  8
166-寸法B
100
AcDbMText
 10
2857.680362295243
 20
-4944.827984306894
 30
0.0
 40
47.99999999999999
 41
0.0
 46
0.0
 71
     5
 72
     1
  1
{\fArial|b0|i0|c0|p32;B}
 73
     1
 44
1.0
  0
LINE
  5
321
330
1D
100
AcDbEntity
  8
180-補助
  6
HIDDEN
 48
2.0
100
AcDbLine
 10
2633.526168463402
 20
-4345.716481858419
 30
0.0
 11
2726.526168463402
 21
-4345.716481858419
 31
0.0
  0
LINE
  5
322
330
1D
100
AcDbEntity
  8
180-補助
  6
HIDDEN
 48
2.0
100
AcDbLine
 10
2633.526168463402
 20
-4209.716481858419
 30
0.0
 11
2633.526168463402
 21
-4345.716481858419
 31
0.0
  0
LINE
  5
323
330
1D
100
AcDbEntity
  8
180-補助
  6
HIDDEN
 48
2.0
100
AcDbLine
 10
2726.526168463402
 20
-4209.716481858419
 30
0.0
 11
2633.526168463402
 21
-4209.716481858419
 31
0.0
  0
LINE
  5
324
330
1D
100
AcDbEntity
  8
180-補助
  6
HIDDEN
 48
2.0
100
AcDbLine
 10
2726.526168463402
 20
-4152.716481858419
 30
0.0
 11
2726.526168463402
 21
-4209.716481858419
 31
0.0
  0
LINE
  5
325
330
1D
100
AcDbEntity
  8
180-補助
  6
HIDDEN
 48
2.0
100
AcDbLine
 10
2726.526168463402
 20
-4345.716481858419
 30
0.0
 11
2726.526168463402
 21
-4402.716481858419
 31
0.0
  0
CIRCLE
  5
326
330
1D
100
AcDbEntity
  8
180-補助
  6
HIDDEN
100
AcDbCircle
 10
2696.526168463402
 20
-4189.716481858419
 30
0.0
 40
3.25000000000009
  0
CIRCLE
  5
327
330
1D
100
AcDbEntity
  8
180-補助
  6
HIDDEN
100
AcDbCircle
 10
2643.526168463402
 20
-4189.716481858419
 30
0.0
 40
3.249999999999445
  0
CIRCLE
  5
328
330
1D
100
AcDbEntity
  8
180-補助
  6
HIDDEN
100
AcDbCircle
 10
2696.526168463402
 20
-4365.716481858419
 30
0.0
 40
3.249999999999943
  0
CIRCLE
  5
329
330
1D
100
AcDbEntity
  8
180-補助
  6
HIDDEN
100
AcDbCircle
 10
2643.526168463402
 20
-4365.716481858419
 30
0.0
 40
3.249999999999297
  0
CIRCLE
  5
32A
330
1D
100
AcDbEntity
  8
180-補助
  6
HIDDEN
100
AcDbCircle
 10
2613.526168463402
 20
-4335.716481858419
 30
0.0
 40
3.249999999999445
  0
CIRCLE
  5
32B
330
1D
100
AcDbEntity
  8
180-補助
  6
HIDDEN
100
AcDbCircle
 10
2613.526168463402
 20
-4219.716481858419
 30
0.0
 40
3.249999999999445
  0
LINE
  5
32C
330
1D
100
AcDbEntity
  8
180-補助
  6
HIDDEN
 48
2.0
100
AcDbLine
 10
2633.526168463402
 20
-4209.716481858419
 30
0.0
 11
2576.526168463286
 21
-4152.716481858419
 31
0.0
  0
LINE
  5
32D
330
1D
100
AcDbEntity
  8
180-補助
  6
HIDDEN
 48
2.0
100
AcDbLine
 10
2633.526168463402
 20
-4345.716481858419
 30
0.0
 11
2576.52638081403
 21
-4402.716269507635
 31
0.0
  0
LINE
  5
32E
330
1D
100
AcDbEntity
  8
DEFPOINTS
100
AcDbLine
 10
2696.526168463402
 20
-4182.216481858419
 30
0.0
 11
2696.526168463402
 21
-4197.216481858419
 31
0.0
  0
LINE
  5
32F
330
1D
100
AcDbEntity
  8
DEFPOINTS
100
AcDbLine
 10
2704.026168463402
 20
-4189.716481858419
 30
0.0
 11
2689.026168463402
 21
-4189.716481858419
 31
0.0
  0
LINE
  5
330
330
1D
100
AcDbEntity
  8
DEFPOINTS
100
AcDbLine
 10
2643.526168463402
 20
-4182.216481858419
 30
0.0
 11
2643.526168463402
 21
-4197.216481858419
 31
0.0
  0
LINE
  5
331
330
1D
100
AcDbEntity
  8
DEFPOINTS
100
AcDbLine
 10
2651.026168463402
 20
-4189.716481858419
 30
0.0
 11
2636.026168463402
 21
-4189.716481858419
 31
0.0
  0
LINE
  5
332
330
1D
100
AcDbEntity
  8
DEFPOINTS
100
AcDbLine
 10
2613.526168463402
 20
-4212.216481858419
 30
0.0
 11
2613.526168463402
 21
-4227.216481858419
 31
0.0
  0
LINE
  5
333
330
1D
100
AcDbEntity
  8
DEFPOINTS
100
AcDbLine
 10
2621.026168463402
 20
-4219.716481858419
 30
0.0
 11
2606.026168463402
 21
-4219.716481858419
 31
0.0
  0
LINE
  5
334
330
1D
100
AcDbEntity
  8
DEFPOINTS
100
AcDbLine
 10
2613.526168463402
 20
-4328.216481858419
 30
0.0
 11
2613.526168463402
 21
-4343.216481858419
 31
0.0
  0
LINE
  5
335
330
1D
100
AcDbEntity
  8
DEFPOINTS
100
AcDbLine
 10
2621.026168463402
 20
-4335.716481858419
 30
0.0
 11
2606.026168463402
 21
-4335.716481858419
 31
0.0
  0
LINE
  5
336
330
1D
100
AcDbEntity
  8
DEFPOINTS
100
AcDbLine
 10
2643.526168463402
 20
-4358.216481858419
 30
0.0
 11
2643.526168463402
 21
-4373.216481858419
 31
0.0
  0
LINE
  5
337
330
1D
100
AcDbEntity
  8
DEFPOINTS
100
AcDbLine
 10
2651.026168463402
 20
-4365.716481858419
 30
0.0
 11
2636.026168463402
 21
-4365.716481858419
 31
0.0
  0
LINE
  5
338
330
1D
100
AcDbEntity
  8
DEFPOINTS
100
AcDbLine
 10
2696.526168463402
 20
-4358.216481858419
 30
0.0
 11
2696.526168463402
 21
-4373.216481858419
 31
0.0
  0
LINE
  5
339
330
1D
100
AcDbEntity
  8
DEFPOINTS
100
AcDbLine
 10
2704.026168463402
 20
-4365.716481858419
 30
0.0
 11
2689.026168463402
 21
-4365.716481858419
 31
0.0
  0
MTEXT
  5
33A
330
1D
100
AcDbEntity
  8
160-文字
100
AcDbMText
 10
3352.830299499328
 20
-7885.066666634581
 30
0.0
 40
40.0
 41
0.0
 46
40.0
 71
     5
 72
     1
  1
{2015.07.31}
 73
     1
 44
0.8762322015334063
1001
ACAD
1000
ACAD_MTEXT_DEFINED_HEIGHT_BEGIN
1070
    46
1040
40.0
1000
ACAD_MTEXT_DEFINED_HEIGHT_END
  0
MTEXT
  5
33B
330
1D
100
AcDbEntity
  8
160-文字
100
AcDbMText
 10
3587.916739934008
 20
-7885.066666633811
 30
0.0
 40
40.0
 41
0.0
 46
40.0
 71
     4
 72
     1
  1
{新規作成(ｸﾞﾗﾌﾃｸﾄﾘﾘｰｽに伴い複製)}
 73
     1
 44
0.8762322015334063
1001
ACAD
1000
ACAD_MTEXT_DEFINED_HEIGHT_BEGIN
1070
    46
1040
40.0
1000
ACAD_MTEXT_DEFINED_HEIGHT_END
  0
MTEXT
  5
33C
330
1D
100
AcDbEntity
  8
160-文字
100
AcDbMText
 10
3352.830299499328
 20
-7775.733333302016
 30
0.0
 40
40.0
 41
0.0
 46
40.0
 71
     5
 72
     1
  1
{2016.02.02}
 73
     1
 44
0.8762322015334063
1001
ACAD
1000
ACAD_MTEXT_DEFINED_HEIGHT_BEGIN
1070
    46
1040
40.0
1000
ACAD_MTEXT_DEFINED_HEIGHT_END
  0
MTEXT
  5
33D
330
1D
100
AcDbEntity
  8
160-文字
100
AcDbMText
 10
3587.916739934008
 20
-7775.733333301247
 30
0.0
 40
40.0
 41
0.0
 46
40.0
 71
     4
 72
     1
  1
{図面名称変更}
 73
     1
 44
0.8762322015334063
1001
ACAD
1000
ACAD_MTEXT_DEFINED_HEIGHT_BEGIN
1070
    46
1040
40.0
1000
ACAD_MTEXT_DEFINED_HEIGHT_END
  0
ENDSEC
  0
SECTION
  2
OBJECTS
  0
DICTIONARY
  5
C
330
0
100
AcDbDictionary
281
     1
  3
ACAD_COLOR
350
40
  3
ACAD_DETAILVIEWSTYLE
350
343
  3
ACAD_GROUP
350
3E
  3
ACAD_LAYOUT
350
26
  3
ACAD_MATERIAL
350
E
  3
ACAD_MLEADERSTYLE
350
341
  3
ACAD_MLINESTYLE
350
39
  3
ACAD_PLOTSETTINGS
350
3F
  3
ACAD_PLOTSTYLENAME
350
B
  3
ACAD_SCALELIST
350
49
  3
ACAD_SECTIONVIEWSTYLE
350
344
  3
ACAD_TABLESTYLE
350
340
  3
ACAD_VISUALSTYLE
350
346
  3
ACDB_RECOMPOSE_DATA
350
36B
  3
AcDbVariableDictionary
350
33E
  0
DICTIONARY
  5
3D
330
3C
100
AcDbDictionary
280
     1
281
     1
  0
DICTIONARY
  5
3
330
2
100
AcDbDictionary
280
     1
281
     1
  3
ACAD_LAYERFILTERS
360
4
  3
ACAD_LAYERSTATES
360
5
  3
ACLYDICTIONARY
360
6
  3
AMLAYER_GROUPCOLORS
360
9
  0
DICTIONARY
  5
22
330
21
100
AcDbDictionary
280
     1
281
     1
  3
ADSK_XREC_LAYER_RECONCILED
360
23
  0
DICTIONARY
  5
83
330
82
100
AcDbDictionary
280
     1
281
     1
  3
ADSK_XREC_LAYER_RECONCILED
360
84
  0
DICTIONARY
  5
6F
330
6E
100
AcDbDictionary
280
     1
281
     1
  3
ADSK_XREC_LAYER_RECONCILED
360
70
  0
DICTIONARY
  5
7D
330
7C
100
AcDbDictionary
280
     1
281
     1
  3
ADSK_XREC_LAYER_RECONCILED
360
7E
  0
DICTIONARY
  5
DA
330
D9
100
AcDbDictionary
280
     1
281
     1
  3
ADSK_XREC_LAYER_RECONCILED
360
DB
  0
DICTIONARY
  5
FE
330
FD
100
AcDbDictionary
280
     1
281
     1
  3
ADSK_XREC_LAYER_RECONCILED
360
FF
  0
DICTIONARY
  5
171
330
170
100
AcDbDictionary
280
     1
281
     1
  3
ADSK_XREC_LAYER_RECONCILED
360
172
  0
DICTIONARY
  5
164
330
163
100
AcDbDictionary
280
     1
281
     1
  3
ADSK_XREC_LAYER_RECONCILED
360
165
  0
DICTIONARY
  5
175
330
174
100
AcDbDictionary
280
     1
281
     1
  3
ADSK_XREC_LAYER_RECONCILED
360
176
  0
DICTIONARY
  5
122
330
121
100
AcDbDictionary
280
     1
281
     1
  3
ADSK_XREC_LAYER_RECONCILED
360
123
  0
DICTIONARY
  5
312
330
311
100
AcDbDictionary
280
     1
281
     1
  3
ADSK_XREC_LAYER_RECONCILED
360
313
  0
DICTIONARY
  5
1E
330
1D
100
AcDbDictionary
280
     1
281
     1
  3
ACAD_SORTENTS
360
1F
  0
DICTIONARY
  5
72
330
71
100
AcDbDictionary
280
     1
281
     1
  3
ACAD_SORTENTS
360
73
  0
DICTIONARY
  5
40
102
{ACAD_REACTORS
330
C
102
}
330
C
100
AcDbDictionary
281
     1
  0
DICTIONARY
  5
343
102
{ACAD_REACTORS
330
C
102
}
330
C
100
AcDbDictionary
281
     1
  0
DICTIONARY
  5
3E
102
{ACAD_REACTORS
330
C
102
}
330
C
100
AcDbDictionary
281
     1
  0
DICTIONARY
  5
26
102
{ACAD_REACTORS
330
C
102
}
330
C
100
AcDbDictionary
281
     1
  3
Model
350
25
  3
ﾚｲｱｳﾄ1
350
2C
  0
DICTIONARY
  5
E
102
{ACAD_REACTORS
330
C
102
}
330
C
100
AcDbDictionary
281
     1
  3
ByBlock
350
6C
  3
ByLayer
350
17
  3
Global
350
D
  0
DICTIONARY
  5
341
102
{ACAD_REACTORS
330
C
102
}
330
C
100
AcDbDictionary
281
     1
  3
Standard
350
360
  0
DICTIONARY
  5
39
102
{ACAD_REACTORS
330
C
102
}
330
C
100
AcDbDictionary
281
     1
  3
STANDARD
350
38
  0
DICTIONARY
  5
3F
102
{ACAD_REACTORS
330
C
102
}
330
C
100
AcDbDictionary
281
     1
  0
ACDBDICTIONARYWDFLT
  5
B
102
{ACAD_REACTORS
330
C
102
}
330
C
100
AcDbDictionary
281
     1
  3
Normal
350
A
100
AcDbDictionaryWithDefault
340
A
  0
DICTIONARY
  5
49
102
{ACAD_REACTORS
330
C
102
}
330
C
100
AcDbDictionary
281
     1
  3
*A1
350
6B
  0
DICTIONARY
  5
344
102
{ACAD_REACTORS
330
C
102
}
330
C
100
AcDbDictionary
281
     1
  0
DICTIONARY
  5
340
102
{ACAD_REACTORS
330
C
102
}
330
C
100
AcDbDictionary
281
     1
  3
Standard
350
35F
  0
DICTIONARY
  5
346
102
{ACAD_REACTORS
330
C
102
}
330
C
100
AcDbDictionary
281
     1
  3
2dWireframe
350
34B
  3
Basic
350
34E
  3
Brighten
350
352
  3
ColorChange
350
356
  3
Conceptual
350
350
  3
Dim
350
351
  3
EdgeColorOff
350
359
  3
Facepattern
350
355
  3
Flat
350
347
  3
FlatWithEdges
350
348
  3
Gouraud
350
349
  3
GouraudWithEdges
350
34A
  3
Hidden
350
34D
  3
JitterOff
350
357
  3
Linepattern
350
354
  3
OverhangOff
350
358
  3
Realistic
350
34F
  3
Shaded
350
35E
  3
Shaded with edges
350
35D
  3
Shades of Gray
350
35A
  3
Sketchy
350
35B
  3
Thicken
350
353
  3
Wireframe
350
34C
  3
X-Ray
350
35C
  0
XRECORD
  5
36B
102
{ACAD_REACTORS
330
C
102
}
330
C
100
AcDbXrecord
280
     1
 90
        1
330
35F
  0
DICTIONARY
  5
33E
102
{ACAD_REACTORS
330
C
102
}
330
C
100
AcDbDictionary
281
     1
  3
CANNOSCALE
350
33F
  3
CMLEADERSTYLE
350
367
  3
CTABLESTYLE
350
366
  3
MSLTSCALE
350
368
  3
XCLIPFRAME
350
342
  0
DICTIONARY
  5
4
102
{ACAD_REACTORS
330
3
102
}
330
3
100
AcDbDictionary
281
     1
  0
DICTIONARY
  5
5
102
{ACAD_REACTORS
330
3
102
}
330
3
100
AcDbDictionary
281
     1
  0
DICTIONARY
  5
6
102
{ACAD_REACTORS
330
3
102
}
330
3
100
AcDbDictionary
281
     1
1001
ACAD
1000
<All
  0
DICTIONARY
  5
9
102
{ACAD_REACTORS
330
3
102
}
330
3
100
AcDbDictionary
280
     1
281
     1
  0
XRECORD
  5
23
102
{ACAD_REACTORS
330
22
102
}
330
22
100
AcDbXrecord
280
     1
290
     1
  0
XRECORD
  5
84
102
{ACAD_REACTORS
330
83
102
}
330
83
100
AcDbXrecord
280
     1
290
     1
  0
XRECORD
  5
70
102
{ACAD_REACTORS
330
6F
102
}
330
6F
100
AcDbXrecord
280
     1
290
     1
  0
XRECORD
  5
7E
102
{ACAD_REACTORS
330
7D
102
}
330
7D
100
AcDbXrecord
280
     1
290
     1
  0
XRECORD
  5
DB
102
{ACAD_REACTORS
330
DA
102
}
330
DA
100
AcDbXrecord
280
     1
290
     1
  0
XRECORD
  5
FF
102
{ACAD_REACTORS
330
FE
102
}
330
FE
100
AcDbXrecord
280
     1
290
     1
  0
XRECORD
  5
172
102
{ACAD_REACTORS
330
171
102
}
330
171
100
AcDbXrecord
280
     1
290
     1
  0
XRECORD
  5
165
102
{ACAD_REACTORS
330
164
102
}
330
164
100
AcDbXrecord
280
     1
290
     1
  0
XRECORD
  5
176
102
{ACAD_REACTORS
330
175
102
}
330
175
100
AcDbXrecord
280
     1
290
     1
  0
XRECORD
  5
123
102
{ACAD_REACTORS
330
122
102
}
330
122
100
AcDbXrecord
280
     1
290
     1
  0
XRECORD
  5
313
102
{ACAD_REACTORS
330
312
102
}
330
312
100
AcDbXrecord
280
     1
290
     1
  0
SORTENTSTABLE
  5
1F
102
{ACAD_REACTORS
330
1E
102
}
330
1E
100
AcDbSortentsTable
330
1D
  0
SORTENTSTABLE
  5
73
102
{ACAD_REACTORS
330
72
102
}
330
72
100
AcDbSortentsTable
330
71
  0
LAYOUT
  5
25
102
{ACAD_REACTORS
330
26
330
26
102
}
102
{ACAD_XDICTIONARY
360
27
102
}
330
26
100
AcDbPlotSettings
  1

  2
Adobe PDF
  4
A3
  6

 40
0.0
 41
0.1
 42
0.0
 43
0.0
 44
297.0
 45
420.2
 46
1.499999999503416
 47
2.150212120509963
 48
0.0
 49
-8079.999999966383
140
8315.991515179601
141
-2199.99999994652
142
1.0
143
20.0
 70
  3748
 72
     1
 73
     1
 74
     4
  7
KHmono.ctb
 75
     0
 76
     0
 77
     2
 78
   300
147
1.0
148
0.0
149
8079.999999966383
100
AcDbLayout
  1
Model
 70
     1
 71
     0
 10
0.0
 20
0.0
 11
12.0
 21
9.0
 12
0.0
 22
0.0
 32
0.0
 14
0.0
 24
-8079.999999966384
 34
0.0
 15
8315.991515179601
 25
-2199.999999946521
 35
0.0
146
0.0
 13
0.0
 23
0.0
 33
0.0
 16
1.0
 26
0.0
 36
0.0
 17
0.0
 27
1.0
 37
0.0
 76
     0
330
1D
331
44
1001
ACAD_PSEXT
1000
Adobe PDF
1000
Adobe PDF Converter
1000
Documents\*.pdf
1000

1070
     0
1001
PLOTTRANSPARENCY
1071
        0
  0
LAYOUT
  5
2C
102
{ACAD_REACTORS
330
26
330
26
102
}
102
{ACAD_XDICTIONARY
360
2D
102
}
330
26
100
AcDbPlotSettings
  1

  2
FX DC 250/350/400 ART4-ADV
  4
A3
  6

 40
5.365749835968018
 41
5.365756511688232
 42
5.365753173828125
 43
5.365753173828125
 44
296.9259948730469
 45
420.1159973144531
 46
0.0
 47
0.0
 48
0.0
 49
0.0
140
0.0
141
0.0
142
1.0
143
1.0
 70
   688
 72
     1
 73
     1
 74
     5
  7
KH1xx.ctb
 75
    16
 76
     0
 77
     2
 78
   300
147
1.0
148
0.0
149
0.0
100
AcDbLayout
  1
ﾚｲｱｳﾄ1
 70
     0
 71
     1
 10
-5.365753173828125
 20
-5.365749835968018
 11
414.750244140625
 21
291.5602450370789
 12
0.0
 22
0.0
 32
0.0
 14
1.000000000000000E+20
 24
1.000000000000000E+20
 34
1.000000000000000E+20
 15
-1.000000000000000E+20
 25
-1.000000000000000E+20
 35
-1.000000000000000E+20
146
0.0
 13
0.0
 23
0.0
 33
0.0
 16
1.0
 26
0.0
 36
0.0
 17
0.0
 27
1.0
 37
0.0
 76
     0
330
29
  0
MATERIAL
  5
6C
102
{ACAD_REACTORS
330
E
102
}
330
E
100
AcDbMaterial
  1
ByBlock
 72
     0
 73
     2
 43
0.0208333333333333
 43
0.0
 43
0.0
 43
0.0
 43
0.0
 43
0.0208333333333333
 43
0.0
 43
0.0
 43
0.0
 43
0.0
 43
1.0
 43
0.0
 43
0.0
 43
0.0
 43
0.0
 43
1.0
 77
     0
 78
     2
 47
0.0208333333333333
 47
0.0
 47
0.0
 47
0.0
 47
0.0
 47
0.0208333333333333
 47
0.0
 47
0.0
 47
0.0
 47
0.0
 47
1.0
 47
0.0
 47
0.0
 47
0.0
 47
0.0
 47
1.0
171
     0
172
     2
 49
0.0208333333333333
 49
0.0
 49
0.0
 49
0.0
 49
0.0
 49
0.0208333333333333
 49
0.0
 49
0.0
 49
0.0
 49
0.0
 49
1.0
 49
0.0
 49
0.0
 49
0.0
 49
0.0
 49
1.0
175
     0
176
     2
142
0.0208333333333333
142
0.0
142
0.0
142
0.0
142
0.0
142
0.0208333333333333
142
0.0
142
0.0
142
0.0
142
0.0
142
1.0
142
0.0
142
0.0
142
0.0
142
0.0
142
1.0
179
     0
270
     2
144
0.0208333333333333
144
0.0
144
0.0
144
0.0
144
0.0
144
0.0208333333333333
144
0.0
144
0.0
144
0.0
144
0.0
144
1.0
144
0.0
144
0.0
144
0.0
144
0.0
144
1.0
274
     2
147
0.0208333333333333
147
0.0
147
0.0
147
0.0
147
0.0
147
0.0208333333333333
147
0.0
147
0.0
147
0.0
147
0.0
147
1.0
147
0.0
147
0.0
147
0.0
147
0.0
147
1.0
 94
      127
  0
MATERIAL
  5
17
102
{ACAD_REACTORS
330
E
102
}
330
E
100
AcDbMaterial
  1
ByLayer
 72
     0
 73
     2
 43
0.0208333333333333
 43
0.0
 43
0.0
 43
0.0
 43
0.0
 43
0.0208333333333333
 43
0.0
 43
0.0
 43
0.0
 43
0.0
 43
1.0
 43
0.0
 43
0.0
 43
0.0
 43
0.0
 43
1.0
 77
     0
 78
     2
 47
0.0208333333333333
 47
0.0
 47
0.0
 47
0.0
 47
0.0
 47
0.0208333333333333
 47
0.0
 47
0.0
 47
0.0
 47
0.0
 47
1.0
 47
0.0
 47
0.0
 47
0.0
 47
0.0
 47
1.0
171
     0
172
     2
 49
0.0208333333333333
 49
0.0
 49
0.0
 49
0.0
 49
0.0
 49
0.0208333333333333
 49
0.0
 49
0.0
 49
0.0
 49
0.0
 49
1.0
 49
0.0
 49
0.0
 49
0.0
 49
0.0
 49
1.0
175
     0
176
     2
142
0.0208333333333333
142
0.0
142
0.0
142
0.0
142
0.0
142
0.0208333333333333
142
0.0
142
0.0
142
0.0
142
0.0
142
1.0
142
0.0
142
0.0
142
0.0
142
0.0
142
1.0
179
     0
270
     2
144
0.0208333333333333
144
0.0
144
0.0
144
0.0
144
0.0
144
0.0208333333333333
144
0.0
144
0.0
144
0.0
144
0.0
144
1.0
144
0.0
144
0.0
144
0.0
144
0.0
144
1.0
274
     2
147
0.0208333333333333
147
0.0
147
0.0
147
0.0
147
0.0
147
0.0208333333333333
147
0.0
147
0.0
147
0.0
147
0.0
147
1.0
147
0.0
147
0.0
147
0.0
147
0.0
147
1.0
 94
      127
  0
MATERIAL
  5
D
102
{ACAD_REACTORS
330
E
102
}
102
{ACAD_XDICTIONARY
360
F
102
}
330
E
100
AcDbMaterial
  1
Global
 72
     0
 73
     2
 43
0.0208333333333333
 43
0.0
 43
0.0
 43
0.0
 43
0.0
 43
0.0208333333333333
 43
0.0
 43
0.0
 43
0.0
 43
0.0
 43
1.0
 43
0.0
 43
0.0
 43
0.0
 43
0.0
 43
1.0
 77
     0
 78
     2
 47
0.0208333333333333
 47
0.0
 47
0.0
 47
0.0
 47
0.0
 47
0.0208333333333333
 47
0.0
 47
0.0
 47
0.0
 47
0.0
 47
1.0
 47
0.0
 47
0.0
 47
0.0
 47
0.0
 47
1.0
171
     0
172
     2
 49
0.0208333333333333
 49
0.0
 49
0.0
 49
0.0
 49
0.0
 49
0.0208333333333333
 49
0.0
 49
0.0
 49
0.0
 49
0.0
 49
1.0
 49
0.0
 49
0.0
 49
0.0
 49
0.0
 49
1.0
175
     0
176
     2
142
0.0208333333333333
142
0.0
142
0.0
142
0.0
142
0.0
142
0.0208333333333333
142
0.0
142
0.0
142
0.0
142
0.0
142
1.0
142
0.0
142
0.0
142
0.0
142
0.0
142
1.0
179
     0
270
     2
144
0.0208333333333333
144
0.0
144
0.0
144
0.0
144
0.0
144
0.0208333333333333
144
0.0
144
0.0
144
0.0
144
0.0
144
1.0
144
0.0
144
0.0
144
0.0
144
0.0
144
1.0
274
     2
147
0.0208333333333333
147
0.0
147
0.0
147
0.0
147
0.0
147
0.0208333333333333
147
0.0
147
0.0
147
0.0
147
0.0
147
1.0
147
0.0
147
0.0
147
0.0
147
0.0
147
1.0
 94
      127
  0
MLEADERSTYLE
  5
360
102
{ACAD_REACTORS
330
341
102
}
330
341
100
AcDbMLeaderStyle
179
     2
170
     2
171
     1
172
     0
 90
        2
 40
0.0
 41
0.0
173
     1
 91
-1056964608
340
14
 92
       -2
290
     1
 42
0.09
291
     1
 43
0.36
  3
Standard
341
0
 44
0.18
300

342
15
174
     1
178
     6
175
     1
176
     0
 93
-1056964608
 45
0.18
292
     0
297
     0
 46
0.18
343
0
 94
-1056964608
 47
1.0
 49
1.0
140
1.0
293
     1
141
0.0
294
     1
177
     0
142
1.0
295
     0
296
     0
143
0.125
271
     0
272
     9
273
     9
298
     0
1001
ACAD_MLEADERVER
1070
     2
  0
MLINESTYLE
  5
38
102
{ACAD_REACTORS
330
39
102
}
330
39
100
AcDbMlineStyle
  2
STANDARD
 70
     0
  3

 62
     0
 51
90.0
 52
90.0
 71
     2
 49
0.5
 62
   256
  6
BYLAYER
 49
-0.5
 62
   256
  6
BYLAYER
  0
ACDBPLACEHOLDER
  5
A
102
{ACAD_REACTORS
330
B
102
}
330
B
  0
SCALE
  5
6B
102
{ACAD_REACTORS
330
49
102
}
330
49
100
AcDbScale
 70
     0
300
1/8" = 1'-0"
140
0.125
141
12.0
290
     0
  0
TABLESTYLE
  5
35F
102
{ACAD_REACTORS
330
340
102
}
102
{ACAD_XDICTIONARY
360
369
102
}
330
340
100
AcDbTableStyle
  3
Standard
 70
     0
 71
     0
 40
0.06
 41
0.06
280
     0
281
     0
  7
KH001
140
0.18
170
     2
 62
     0
 63
   257
283
     0
 90
      512
 91
        0
  1

274
    -2
284
     1
 64
     0
275
    -2
285
     1
 65
     0
276
    -2
286
     1
 66
     0
277
    -2
287
     1
 67
     0
278
    -2
288
     1
 68
     0
279
    -2
289
     1
 69
     0
  7
KH001
140
0.25
170
     5
 62
     0
 63
   257
283
     0
 90
      512
 91
        0
  1

274
    -2
284
     1
 64
     0
275
    -2
285
     1
 65
     0
276
    -2
286
     1
 66
     0
277
    -2
287
     1
 67
     0
278
    -2
288
     1
 68
     0
279
    -2
289
     1
 69
     0
  7
KH001
140
0.18
170
     5
 62
     0
 63
   257
283
     0
 90
      512
 91
        0
  1

274
    -2
284
     1
 64
     0
275
    -2
285
     1
 65
     0
276
    -2
286
     1
 66
     0
277
    -2
287
     1
 67
     0
278
    -2
288
     1
 68
     0
279
    -2
289
     1
 69
     0
  0
VISUALSTYLE
  5
34B
102
{ACAD_REACTORS
330
346
102
}
330
346
100
AcDbVisualStyle
  2
2dWireframe
 70
     4
177
     3
291
     0
 70
    58
 90
        0
176
     1
 90
        2
176
     1
 90
        0
176
     1
 90
        0
176
     1
 40
0.6
176
     1
 40
30.0
176
     1
 62
     7
420
 16777215
176
     1
 90
        1
176
     1
 90
        4
176
     1
 62
     7
176
     1
 62
   257
176
     1
 90
        1
176
     1
 90
        1
176
     1
 40
1.0
176
     1
 90
        0
176
     1
 62
   257
176
     1
 40
1.0
176
     1
 90
        1
176
     1
 90
        6
176
     1
 90
        2
176
     1
 62
     7
176
     1
 90
        5
176
     1
 90
        0
176
     1
 90
        0
176
     1
290
     0
176
     1
 90
        1
176
     1
 40
0.0
176
     1
 90
        0
176
     1
290
     1
176
     1
290
     1
176
     1
290
     0
176
     1
290
     0
176
     1
290
     0
176
     1
290
     0
176
     1
290
     0
176
     1
290
     0
176
     1
290
     0
176
     1
 90
       50
176
     1
 40
0.0
176
     1
 40
1.0
176
     1
 90
        0
176
     1
 62
    18
420
        0
176
     1
 90
       50
176
     1
 90
        3
176
     1
 62
     5
420
      255
176
     1
290
     0
176
     1
 90
       50
176
     1
 90
       50
176
     1
 90
       50
176
     1
290
     0
176
     1
 90
       50
176
     1
 62
   256
176
     0
 40
1.0
176
     0
 90
        2
176
     1
  1
strokes_ogs.tif
176
     1
290
     0
176
     1
 40
1.0
176
     1
 40
1.0
176
     1
  0
VISUALSTYLE
  5
34E
102
{ACAD_REACTORS
330
346
102
}
330
346
100
AcDbVisualStyle
  2
Basic
 70
     7
177
     3
291
     1
 70
    58
 90
        1
176
     1
 90
        0
176
     1
 90
        1
176
     1
 90
        0
176
     1
 40
0.6
176
     1
 40
30.0
176
     1
 62
     7
420
 16777215
176
     1
 90
        0
176
     1
 90
        4
176
     1
 62
     7
176
     1
 62
   257
176
     1
 90
        1
176
     1
 90
        1
176
     1
 40
1.0
176
     1
 90
        8
176
     1
 62
     7
176
     1
 40
1.0
176
     1
 90
        1
176
     1
 90
        6
176
     1
 90
        2
176
     1
 62
     7
176
     1
 90
        5
176
     1
 90
        0
176
     1
 90
        0
176
     1
290
     0
176
     1
 90
        1
176
     1
 40
0.0
176
     1
 90
        0
176
     1
290
     0
176
     1
290
     1
176
     1
290
     1
176
     1
290
     0
176
     1
290
     0
176
     1
290
     0
176
     1
290
     0
176
     1
290
     0
176
     1
290
     0
176
     1
 90
       50
176
     1
 40
0.0
176
     1
 40
1.0
176
     1
 90
        0
176
     1
 62
    18
420
        0
176
     1
 90
       50
176
     1
 90
        3
176
     1
 62
     5
420
      255
176
     1
290
     0
176
     1
 90
       50
176
     1
 90
       50
176
     1
 90
       50
176
     1
290
     0
176
     1
 90
       50
176
     1
 62
   256
176
     0
 40
1.0
176
     0
 90
        2
176
     1
  1
strokes_ogs.tif
176
     1
290
     0
176
     1
 40
1.0
176
     1
 40
1.0
176
     1
  0
VISUALSTYLE
  5
352
102
{ACAD_REACTORS
330
346
102
}
330
346
100
AcDbVisualStyle
  2
Brighten
 70
    12
177
     3
291
     1
 70
    58
 90
        2
176
     1
 90
        2
176
     1
 90
        0
176
     1
 90
        0
176
     1
 40
0.6
176
     1
 40
30.0
176
     1
 62
     7
420
 16777215
176
     1
 90
        1
176
     1
 90
        4
176
     1
 62
     7
176
     1
 62
   257
176
     1
 90
        1
176
     1
 90
        1
176
     1
 40
1.0
176
     1
 90
        8
176
     1
 62
     7
176
     1
 40
1.0
176
     1
 90
        1
176
     1
 90
        6
176
     1
 90
        2
176
     1
 62
     7
176
     1
 90
        5
176
     1
 90
        0
176
     1
 90
        0
176
     1
290
     0
176
     1
 90
        1
176
     1
 40
50.0
176
     1
 90
        0
176
     1
290
     0
176
     1
290
     1
176
     1
290
     1
176
     1
290
     0
176
     1
290
     0
176
     1
290
     0
176
     1
290
     0
176
     1
290
     0
176
     1
290
     0
176
     1
 90
       50
176
     1
 40
0.0
176
     1
 40
1.0
176
     1
 90
        0
176
     1
 62
    18
420
        0
176
     1
 90
       50
176
     1
 90
        3
176
     1
 62
     5
420
      255
176
     1
290
     0
176
     1
 90
       50
176
     1
 90
       50
176
     1
 90
       50
176
     1
290
     0
176
     1
 90
       50
176
     1
 62
   256
176
     0
 40
1.0
176
     0
 90
        2
176
     1
  1
strokes_ogs.tif
176
     1
290
     0
176
     1
 40
1.0
176
     1
 40
1.0
176
     1
  0
VISUALSTYLE
  5
356
102
{ACAD_REACTORS
330
346
102
}
330
346
100
AcDbVisualStyle
  2
ColorChange
 70
    16
177
     3
291
     1
 70
    58
 90
        2
176
     1
 90
        2
176
     1
 90
        3
176
     1
 90
        0
176
     1
 40
0.6
176
     1
 40
30.0
176
     1
 62
     8
420
  8421504
176
     1
 90
        1
176
     1
 90
        4
176
     1
 62
     7
176
     1
 62
   257
176
     1
 90
        1
176
     1
 90
        1
176
     1
 40
1.0
176
     1
 90
        8
176
     1
 62
     8
420
  8421504
176
     1
 40
1.0
176
     1
 90
        1
176
     1
 90
        6
176
     1
 90
        2
176
     1
 62
     7
176
     1
 90
        5
176
     1
 90
        0
176
     1
 90
        0
176
     1
290
     0
176
     1
 90
        1
176
     1
 40
0.0
176
     1
 90
        0
176
     1
290
     0
176
     1
290
     1
176
     1
290
     1
176
     1
290
     0
176
     1
290
     0
176
     1
290
     0
176
     1
290
     0
176
     1
290
     0
176
     1
290
     0
176
     1
 90
       50
176
     1
 40
0.0
176
     1
 40
1.0
176
     1
 90
        0
176
     1
 62
    18
420
        0
176
     1
 90
       50
176
     1
 90
        3
176
     1
 62
     5
420
      255
176
     1
290
     0
176
     1
 90
       50
176
     1
 90
       50
176
     1
 90
       50
176
     1
290
     0
176
     1
 90
       50
176
     1
 62
   256
176
     0
 40
1.0
176
     0
 90
        2
176
     1
  1
strokes_ogs.tif
176
     1
290
     0
176
     1
 40
1.0
176
     1
 40
1.0
176
     1
  0
VISUALSTYLE
  5
350
102
{ACAD_REACTORS
330
346
102
}
330
346
100
AcDbVisualStyle
  2
Conceptual
 70
     9
177
     3
291
     0
 70
    58
 90
        3
176
     1
 90
        2
176
     1
 90
        0
176
     1
 90
        0
176
     1
 40
0.6
176
     1
 40
30.0
176
     1
 62
     7
420
 16777215
176
     1
 90
        2
176
     1
 90
        2
176
     1
 62
     7
176
     1
 62
   257
176
     1
 90
        1
176
     1
 90
        1
176
     1
 40
40.0
176
     1
 90
        8
176
     1
 62
     7
176
     1
 40
1.0
176
     1
 90
        1
176
     1
 90
        6
176
     1
 90
        2
176
     1
 62
     7
176
     1
 90
        3
176
     1
 90
        0
176
     1
 90
        0
176
     1
290
     0
176
     1
 90
        1
176
     1
 40
0.0
176
     1
 90
        0
176
     1
290
     0
176
     1
290
     1
176
     1
290
     1
176
     1
290
     0
176
     1
290
     0
176
     1
290
     0
176
     1
290
     0
176
     1
290
     0
176
     1
290
     0
176
     1
 90
       50
176
     1
 40
0.0
176
     1
 40
1.0
176
     1
 90
        0
176
     1
 62
    18
420
        0
176
     1
 90
       50
176
     1
 90
        3
176
     1
 62
     5
420
      255
176
     1
290
     0
176
     1
 90
       50
176
     1
 90
       50
176
     1
 90
       50
176
     1
290
     0
176
     1
 90
       50
176
     1
 62
   256
176
     0
 40
1.0
176
     0
 90
        2
176
     1
  1
strokes_ogs.tif
176
     1
290
     0
176
     1
 40
1.0
176
     1
 40
1.0
176
     1
  0
VISUALSTYLE
  5
351
102
{ACAD_REACTORS
330
346
102
}
330
346
100
AcDbVisualStyle
  2
Dim
 70
    11
177
     3
291
     1
 70
    58
 90
        2
176
     1
 90
        2
176
     1
 90
        0
176
     1
 90
        0
176
     1
 40
0.6
176
     1
 40
30.0
176
     1
 62
     7
420
 16777215
176
     1
 90
        1
176
     1
 90
        4
176
     1
 62
     7
176
     1
 62
   257
176
     1
 90
        1
176
     1
 90
        1
176
     1
 40
1.0
176
     1
 90
        8
176
     1
 62
     7
176
     1
 40
1.0
176
     1
 90
        1
176
     1
 90
        6
176
     1
 90
        2
176
     1
 62
     7
176
     1
 90
        5
176
     1
 90
        0
176
     1
 90
        0
176
     1
290
     0
176
     1
 90
        1
176
     1
 40
-50.0
176
     1
 90
        0
176
     1
290
     0
176
     1
290
     1
176
     1
290
     1
176
     1
290
     0
176
     1
290
     0
176
     1
290
     0
176
     1
290
     0
176
     1
290
     0
176
     1
290
     0
176
     1
 90
       50
176
     1
 40
0.0
176
     1
 40
1.0
176
     1
 90
        0
176
     1
 62
    18
420
        0
176
     1
 90
       50
176
     1
 90
        3
176
     1
 62
     5
420
      255
176
     1
290
     0
176
     1
 90
       50
176
     1
 90
       50
176
     1
 90
       50
176
     1
290
     0
176
     1
 90
       50
176
     1
 62
   256
176
     0
 40
1.0
176
     0
 90
        2
176
     1
  1
strokes_ogs.tif
176
     1
290
     0
176
     1
 40
1.0
176
     1
 40
1.0
176
     1
  0
VISUALSTYLE
  5
359
102
{ACAD_REACTORS
330
346
102
}
330
346
100
AcDbVisualStyle
  2
EdgeColorOff
 70
    22
177
     3
291
     1
 70
    58
 90
        2
176
     0
 90
        2
176
     0
 90
        0
176
     0
 90
        0
176
     0
 40
0.6
176
     0
 40
30.0
176
     0
 62
     7
420
 16777215
176
     0
 90
        1
176
     0
 90
        4
176
     0
 62
     7
176
     0
 62
   257
176
     0
 90
        1
176
     0
 90
        1
176
     0
 40
1.0
176
     0
 90
        8
176
     0
 62
     7
176
     0
 40
1.0
176
     0
 90
        1
176
     0
 90
        6
176
     0
 90
        2
176
     0
 62
     7
176
     0
 90
        5
176
     0
 90
        0
176
     0
 90
        0
176
     0
290
     0
176
     0
 90
        1
176
     0
 40
0.0
176
     0
 90
        0
176
     0
290
     0
176
     1
290
     1
176
     1
290
     1
176
     1
290
     0
176
     1
290
     0
176
     1
290
     0
176
     1
290
     0
176
     1
290
     0
176
     1
290
     0
176
     1
 90
       50
176
     1
 40
0.0
176
     1
 40
1.0
176
     1
 90
        0
176
     1
 62
    18
420
        0
176
     1
 90
       50
176
     1
 90
        3
176
     1
 62
     5
420
      255
176
     1
290
     0
176
     1
 90
       50
176
     1
 90
       50
176
     1
 90
       50
176
     1
290
     0
176
     1
 90
       50
176
     1
 62
   256
176
     0
 40
1.0
176
     0
 90
        2
176
     1
  1
strokes_ogs.tif
176
     1
290
     0
176
     1
 40
1.0
176
     1
 40
1.0
176
     1
  0
VISUALSTYLE
  5
355
102
{ACAD_REACTORS
330
346
102
}
330
346
100
AcDbVisualStyle
  2
Facepattern
 70
    15
177
     3
291
     1
 70
    58
 90
        2
176
     1
 90
        2
176
     1
 90
        0
176
     1
 90
        0
176
     1
 40
0.6
176
     1
 40
30.0
176
     1
 62
     7
420
 16777215
176
     1
 90
        1
176
     1
 90
        4
176
     1
 62
     7
176
     1
 62
   257
176
     1
 90
        1
176
     1
 90
        1
176
     1
 40
1.0
176
     1
 90
        8
176
     1
 62
     7
176
     1
 40
1.0
176
     1
 90
        1
176
     1
 90
        6
176
     1
 90
        2
176
     1
 62
     7
176
     1
 90
        5
176
     1
 90
        0
176
     1
 90
        0
176
     1
290
     0
176
     1
 90
        1
176
     1
 40
0.0
176
     1
 90
        0
176
     1
290
     0
176
     1
290
     1
176
     1
290
     1
176
     1
290
     0
176
     1
290
     0
176
     1
290
     0
176
     1
290
     0
176
     1
290
     0
176
     1
290
     0
176
     1
 90
       50
176
     1
 40
0.0
176
     1
 40
1.0
176
     1
 90
        0
176
     1
 62
    18
420
        0
176
     1
 90
       50
176
     1
 90
        3
176
     1
 62
     5
420
      255
176
     1
290
     0
176
     1
 90
       50
176
     1
 90
       50
176
     1
 90
       50
176
     1
290
     0
176
     1
 90
       50
176
     1
 62
   256
176
     0
 40
1.0
176
     0
 90
        2
176
     1
  1
strokes_ogs.tif
176
     1
290
     0
176
     1
 40
1.0
176
     1
 40
1.0
176
     1
  0
VISUALSTYLE
  5
347
102
{ACAD_REACTORS
330
346
102
}
330
346
100
AcDbVisualStyle
  2
Flat
 70
     0
177
     3
291
     1
 70
    58
 90
        2
176
     1
 90
        1
176
     1
 90
        1
176
     1
 90
        2
176
     1
 40
0.6
176
     1
 40
30.0
176
     1
 62
     7
420
 16777215
176
     1
 90
        0
176
     1
 90
        4
176
     1
 62
     7
176
     1
 62
   257
176
     1
 90
        1
176
     1
 90
        1
176
     1
 40
1.0
176
     1
 90
        8
176
     1
 62
     7
176
     1
 40
1.0
176
     1
 90
        1
176
     1
 90
        6
176
     1
 90
        2
176
     1
 62
     7
176
     1
 90
        5
176
     1
 90
        0
176
     1
 90
        0
176
     1
290
     0
176
     1
 90
       13
176
     1
 40
0.0
176
     1
 90
        0
176
     1
290
     0
176
     1
290
     1
176
     1
290
     1
176
     1
290
     0
176
     1
290
     0
176
     1
290
     0
176
     1
290
     0
176
     1
290
     0
176
     1
290
     0
176
     1
 90
       50
176
     1
 40
0.0
176
     1
 40
1.0
176
     1
 90
        0
176
     1
 62
    18
420
        0
176
     1
 90
       50
176
     1
 90
        3
176
     1
 62
     5
420
      255
176
     1
290
     0
176
     1
 90
       50
176
     1
 90
       50
176
     1
 90
       50
176
     1
290
     0
176
     1
 90
       50
176
     1
 62
   256
176
     0
 40
1.0
176
     0
 90
        2
176
     1
  1
strokes_ogs.tif
176
     1
290
     0
176
     1
 40
1.0
176
     1
 40
1.0
176
     1
  0
VISUALSTYLE
  5
348
102
{ACAD_REACTORS
330
346
102
}
330
346
100
AcDbVisualStyle
  2
FlatWithEdges
 70
     1
177
     3
291
     1
 70
    58
 90
        2
176
     1
 90
        1
176
     1
 90
        1
176
     1
 90
        2
176
     1
 40
0.6
176
     1
 40
30.0
176
     1
 62
     7
420
 16777215
176
     1
 90
        1
176
     1
 90
        4
176
     1
 62
     7
176
     1
 62
   257
176
     1
 90
        1
176
     1
 90
        1
176
     1
 40
1.0
176
     1
 90
        0
176
     1
 62
   257
176
     1
 40
1.0
176
     1
 90
        1
176
     1
 90
        6
176
     1
 90
        2
176
     1
 62
     7
176
     1
 90
        5
176
     1
 90
        0
176
     1
 90
        0
176
     1
290
     0
176
     1
 90
       13
176
     1
 40
0.0
176
     1
 90
        0
176
     1
290
     0
176
     1
290
     1
176
     1
290
     1
176
     1
290
     0
176
     1
290
     0
176
     1
290
     0
176
     1
290
     0
176
     1
290
     0
176
     1
290
     0
176
     1
 90
       50
176
     1
 40
0.0
176
     1
 40
1.0
176
     1
 90
        0
176
     1
 62
    18
420
        0
176
     1
 90
       50
176
     1
 90
        3
176
     1
 62
     5
420
      255
176
     1
290
     0
176
     1
 90
       50
176
     1
 90
       50
176
     1
 90
       50
176
     1
290
     0
176
     1
 90
       50
176
     1
 62
   256
176
     0
 40
1.0
176
     0
 90
        2
176
     1
  1
strokes_ogs.tif
176
     1
290
     0
176
     1
 40
1.0
176
     1
 40
1.0
176
     1
  0
VISUALSTYLE
  5
349
102
{ACAD_REACTORS
330
346
102
}
330
346
100
AcDbVisualStyle
  2
Gouraud
 70
     2
177
     3
291
     1
 70
    58
 90
        2
176
     1
 90
        2
176
     1
 90
        1
176
     1
 90
        2
176
     1
 40
0.6
176
     1
 40
30.0
176
     1
 62
     7
420
 16777215
176
     1
 90
        0
176
     1
 90
        4
176
     1
 62
     7
176
     1
 62
   257
176
     1
 90
        1
176
     1
 90
        1
176
     1
 40
1.0
176
     1
 90
        0
176
     1
 62
     7
176
     1
 40
1.0
176
     1
 90
        1
176
     1
 90
        6
176
     1
 90
        2
176
     1
 62
     7
176
     1
 90
        5
176
     1
 90
        0
176
     1
 90
        0
176
     1
290
     0
176
     1
 90
       13
176
     1
 40
0.0
176
     1
 90
        0
176
     1
290
     0
176
     1
290
     1
176
     1
290
     1
176
     1
290
     0
176
     1
290
     0
176
     1
290
     0
176
     1
290
     0
176
     1
290
     0
176
     1
290
     0
176
     1
 90
       50
176
     1
 40
0.0
176
     1
 40
1.0
176
     1
 90
        0
176
     1
 62
    18
420
        0
176
     1
 90
       50
176
     1
 90
        3
176
     1
 62
     5
420
      255
176
     1
290
     0
176
     1
 90
       50
176
     1
 90
       50
176
     1
 90
       50
176
     1
290
     0
176
     1
 90
       50
176
     1
 62
   256
176
     0
 40
1.0
176
     0
 90
        2
176
     1
  1
strokes_ogs.tif
176
     1
290
     0
176
     1
 40
1.0
176
     1
 40
1.0
176
     1
  0
VISUALSTYLE
  5
34A
102
{ACAD_REACTORS
330
346
102
}
330
346
100
AcDbVisualStyle
  2
GouraudWithEdges
 70
     3
177
     3
291
     1
 70
    58
 90
        2
176
     1
 90
        2
176
     1
 90
        1
176
     1
 90
        2
176
     1
 40
0.6
176
     1
 40
30.0
176
     1
 62
     7
420
 16777215
176
     1
 90
        1
176
     1
 90
        4
176
     1
 62
     7
176
     1
 62
   257
176
     1
 90
        1
176
     1
 90
        1
176
     1
 40
1.0
176
     1
 90
        0
176
     1
 62
   257
176
     1
 40
1.0
176
     1
 90
        1
176
     1
 90
        6
176
     1
 90
        2
176
     1
 62
     7
176
     1
 90
        5
176
     1
 90
        0
176
     1
 90
        0
176
     1
290
     0
176
     1
 90
       13
176
     1
 40
0.0
176
     1
 90
        0
176
     1
290
     0
176
     1
290
     1
176
     1
290
     1
176
     1
290
     0
176
     1
290
     0
176
     1
290
     0
176
     1
290
     0
176
     1
290
     0
176
     1
290
     0
176
     1
 90
       50
176
     1
 40
0.0
176
     1
 40
1.0
176
     1
 90
        0
176
     1
 62
    18
420
        0
176
     1
 90
       50
176
     1
 90
        3
176
     1
 62
     5
420
      255
176
     1
290
     0
176
     1
 90
       50
176
     1
 90
       50
176
     1
 90
       50
176
     1
290
     0
176
     1
 90
       50
176
     1
 62
   256
176
     0
 40
1.0
176
     0
 90
        2
176
     1
  1
strokes_ogs.tif
176
     1
290
     0
176
     1
 40
1.0
176
     1
 40
1.0
176
     1
  0
VISUALSTYLE
  5
34D
102
{ACAD_REACTORS
330
346
102
}
330
346
100
AcDbVisualStyle
  2
Hidden
 70
     6
177
     3
291
     0
 70
    58
 90
        1
176
     1
 90
        2
176
     1
 90
        2
176
     1
 90
        0
176
     1
 40
0.6
176
     1
 40
30.0
176
     1
 62
     7
420
 16777215
176
     1
 90
        2
176
     1
 90
        2
176
     1
 62
     7
176
     1
 62
   257
176
     1
 90
        2
176
     1
 90
        1
176
     1
 40
40.0
176
     1
 90
        0
176
     1
 62
   257
176
     1
 40
1.0
176
     1
 90
        1
176
     1
 90
        6
176
     1
 90
        2
176
     1
 62
     7
176
     1
 90
        3
176
     1
 90
        0
176
     1
 90
        0
176
     1
290
     0
176
     1
 90
        1
176
     1
 40
0.0
176
     1
 90
        0
176
     1
290
     0
176
     1
290
     1
176
     1
290
     1
176
     1
290
     0
176
     1
290
     0
176
     1
290
     0
176
     1
290
     0
176
     1
290
     0
176
     1
290
     0
176
     1
 90
       50
176
     1
 40
0.0
176
     1
 40
1.0
176
     1
 90
        0
176
     1
 62
    18
420
        0
176
     1
 90
       50
176
     1
 90
        3
176
     1
 62
     5
420
      255
176
     1
290
     0
176
     1
 90
       50
176
     1
 90
       50
176
     1
 90
       50
176
     1
290
     0
176
     1
 90
       50
176
     1
 62
   256
176
     0
 40
1.0
176
     0
 90
        2
176
     1
  1
strokes_ogs.tif
176
     1
290
     0
176
     1
 40
1.0
176
     1
 40
1.0
176
     1
  0
VISUALSTYLE
  5
357
102
{ACAD_REACTORS
330
346
102
}
330
346
100
AcDbVisualStyle
  2
JitterOff
 70
    20
177
     3
291
     1
 70
    58
 90
        2
176
     0
 90
        2
176
     0
 90
        0
176
     0
 90
        0
176
     0
 40
0.6
176
     0
 40
30.0
176
     0
 62
     7
420
 16777215
176
     0
 90
        1
176
     0
 90
        4
176
     0
 62
     7
176
     0
 62
   257
176
     0
 90
        1
176
     0
 90
        1
176
     0
 40
1.0
176
     0
 90
       10
176
     0
 62
     7
176
     0
 40
1.0
176
     0
 90
        1
176
     0
 90
        6
176
     0
 90
        2
176
     0
 62
     7
176
     0
 90
        5
176
     0
 90
        0
176
     0
 90
        0
176
     0
290
     0
176
     0
 90
        1
176
     0
 40
0.0
176
     0
 90
        0
176
     0
290
     0
176
     1
290
     1
176
     1
290
     1
176
     1
290
     0
176
     1
290
     0
176
     1
290
     0
176
     1
290
     0
176
     1
290
     0
176
     1
290
     0
176
     1
 90
       50
176
     1
 40
0.0
176
     1
 40
1.0
176
     1
 90
        0
176
     1
 62
    18
420
        0
176
     1
 90
       50
176
     1
 90
        3
176
     1
 62
     5
420
      255
176
     1
290
     0
176
     1
 90
       50
176
     1
 90
       50
176
     1
 90
       50
176
     1
290
     0
176
     1
 90
       50
176
     1
 62
   256
176
     0
 40
1.0
176
     0
 90
        2
176
     1
  1
strokes_ogs.tif
176
     1
290
     0
176
     1
 40
1.0
176
     1
 40
1.0
176
     1
  0
VISUALSTYLE
  5
354
102
{ACAD_REACTORS
330
346
102
}
330
346
100
AcDbVisualStyle
  2
Linepattern
 70
    14
177
     3
291
     1
 70
    58
 90
        2
176
     1
 90
        2
176
     1
 90
        0
176
     1
 90
        0
176
     1
 40
0.6
176
     1
 40
30.0
176
     1
 62
     7
420
 16777215
176
     1
 90
        1
176
     1
 90
        4
176
     1
 62
     7
176
     1
 62
   257
176
     1
 90
        7
176
     1
 90
        7
176
     1
 40
1.0
176
     1
 90
        8
176
     1
 62
     7
176
     1
 40
1.0
176
     1
 90
        1
176
     1
 90
        6
176
     1
 90
        2
176
     1
 62
     7
176
     1
 90
        5
176
     1
 90
        0
176
     1
 90
        0
176
     1
290
     0
176
     1
 90
        1
176
     1
 40
0.0
176
     1
 90
        0
176
     1
290
     0
176
     1
290
     1
176
     1
290
     1
176
     1
290
     0
176
     1
290
     0
176
     1
290
     0
176
     1
290
     0
176
     1
290
     0
176
     1
290
     0
176
     1
 90
       50
176
     1
 40
0.0
176
     1
 40
1.0
176
     1
 90
        0
176
     1
 62
    18
420
        0
176
     1
 90
       50
176
     1
 90
        3
176
     1
 62
     5
420
      255
176
     1
290
     0
176
     1
 90
       50
176
     1
 90
       50
176
     1
 90
       50
176
     1
290
     0
176
     1
 90
       50
176
     1
 62
   256
176
     0
 40
1.0
176
     0
 90
        2
176
     1
  1
strokes_ogs.tif
176
     1
290
     0
176
     1
 40
1.0
176
     1
 40
1.0
176
     1
  0
VISUALSTYLE
  5
358
102
{ACAD_REACTORS
330
346
102
}
330
346
100
AcDbVisualStyle
  2
OverhangOff
 70
    21
177
     3
291
     1
 70
    58
 90
        2
176
     0
 90
        2
176
     0
 90
        0
176
     0
 90
        0
176
     0
 40
0.6
176
     0
 40
30.0
176
     0
 62
     7
420
 16777215
176
     0
 90
        1
176
     0
 90
        4
176
     0
 62
     7
176
     0
 62
   257
176
     0
 90
        1
176
     0
 90
        1
176
     0
 40
1.0
176
     0
 90
        9
176
     0
 62
     7
176
     0
 40
1.0
176
     0
 90
        1
176
     0
 90
        6
176
     0
 90
        2
176
     0
 62
     7
176
     0
 90
        5
176
     0
 90
        0
176
     0
 90
        0
176
     0
290
     0
176
     0
 90
        1
176
     0
 40
0.0
176
     0
 90
        0
176
     0
290
     0
176
     1
290
     1
176
     1
290
     1
176
     1
290
     0
176
     1
290
     0
176
     1
290
     0
176
     1
290
     0
176
     1
290
     0
176
     1
290
     0
176
     1
 90
       50
176
     1
 40
0.0
176
     1
 40
1.0
176
     1
 90
        0
176
     1
 62
    18
420
        0
176
     1
 90
       50
176
     1
 90
        3
176
     1
 62
     5
420
      255
176
     1
290
     0
176
     1
 90
       50
176
     1
 90
       50
176
     1
 90
       50
176
     1
290
     0
176
     1
 90
       50
176
     1
 62
   256
176
     0
 40
1.0
176
     0
 90
        2
176
     1
  1
strokes_ogs.tif
176
     1
290
     0
176
     1
 40
1.0
176
     1
 40
1.0
176
     1
  0
VISUALSTYLE
  5
34F
102
{ACAD_REACTORS
330
346
102
}
330
346
100
AcDbVisualStyle
  2
Realistic
 70
     8
177
     3
291
     0
 70
    58
 90
        2
176
     1
 90
        3
176
     1
 90
        0
176
     1
 90
        2
176
     1
 40
0.6
176
     1
 40
30.0
176
     1
 62
     7
420
 16777215
176
     1
 90
        0
176
     1
 90
        0
176
     1
 62
     7
176
     1
 62
   257
176
     1
 90
        1
176
     1
 90
        1
176
     1
 40
1.0
176
     1
 90
        8
176
     1
 62
   257
176
     1
 40
1.0
176
     1
 90
        1
176
     1
 90
        6
176
     1
 90
        2
176
     1
 62
     7
176
     1
 90
        3
176
     1
 90
        0
176
     1
 90
        0
176
     1
290
     0
176
     1
 90
       13
176
     1
 40
0.0
176
     1
 90
        0
176
     1
290
     0
176
     1
290
     1
176
     1
290
     1
176
     1
290
     0
176
     1
290
     0
176
     1
290
     0
176
     1
290
     0
176
     1
290
     0
176
     1
290
     0
176
     1
 90
       50
176
     1
 40
0.0
176
     1
 40
1.0
176
     1
 90
        0
176
     1
 62
    18
420
        0
176
     1
 90
       50
176
     1
 90
        3
176
     1
 62
     5
420
      255
176
     1
290
     0
176
     1
 90
       50
176
     1
 90
       50
176
     1
 90
       50
176
     1
290
     0
176
     1
 90
       50
176
     1
 62
   256
176
     0
 40
1.0
176
     0
 90
        2
176
     1
  1
strokes_ogs.tif
176
     1
290
     0
176
     1
 40
1.0
176
     1
 40
1.0
176
     1
  0
VISUALSTYLE
  5
35E
102
{ACAD_REACTORS
330
346
102
}
330
346
100
AcDbVisualStyle
  2
Shaded
 70
    27
177
     3
291
     0
 70
    58
 90
        2
176
     1
 90
        2
176
     1
 90
        1
176
     1
 90
        2
176
     1
 40
0.6
176
     1
 40
30.0
176
     1
 62
     7
420
 16777215
176
     1
 90
        0
176
     1
 90
        4
176
     1
 62
     7
176
     1
 62
   257
176
     1
 90
        1
176
     1
 90
        1
176
     1
 40
1.0
176
     1
 90
        8
176
     1
 62
   257
176
     1
 40
1.0
176
     1
 90
        1
176
     1
 90
        6
176
     1
 90
        2
176
     1
 62
   251
420
  5131854
176
     1
 90
        3
176
     1
 90
        0
176
     1
 90
        0
176
     1
290
     0
176
     1
 90
        5
176
     1
 40
0.0
176
     1
 90
        0
176
     1
290
     0
176
     1
290
     1
176
     1
290
     1
176
     1
290
     0
176
     1
290
     0
176
     1
290
     0
176
     1
290
     0
176
     1
290
     0
176
     1
290
     0
176
     1
 90
       50
176
     1
 40
0.0
176
     1
 40
1.0
176
     1
 90
        0
176
     1
 62
    18
420
        0
176
     1
 90
       50
176
     1
 90
        3
176
     1
 62
     5
420
      255
176
     1
290
     0
176
     1
 90
       50
176
     1
 90
       50
176
     1
 90
       50
176
     1
290
     0
176
     1
 90
       50
176
     1
 62
   256
176
     0
 40
1.0
176
     0
 90
        2
176
     1
  1
strokes_ogs.tif
176
     1
290
     0
176
     1
 40
1.0
176
     1
 40
1.0
176
     1
  0
VISUALSTYLE
  5
35D
102
{ACAD_REACTORS
330
346
102
}
330
346
100
AcDbVisualStyle
  2
Shaded with edges
 70
    26
177
     3
291
     0
 70
    58
 90
        2
176
     1
 90
        2
176
     1
 90
        1
176
     1
 90
        2
176
     1
 40
0.6
176
     1
 40
30.0
176
     1
 62
     7
420
 16777215
176
     1
 90
        1
176
     1
 90
       10
176
     1
 62
     7
176
     1
 62
   257
176
     1
 90
        2
176
     1
 90
        1
176
     1
 40
1.0
176
     1
 90
        8
176
     1
 62
   257
176
     1
 40
1.0
176
     1
 90
        1
176
     1
 90
        6
176
     1
 90
        2
176
     1
 62
     7
176
     1
 90
        3
176
     1
 90
        0
176
     1
 90
        0
176
     1
290
     0
176
     1
 90
        5
176
     1
 40
0.0
176
     1
 90
        0
176
     1
290
     0
176
     1
290
     1
176
     1
290
     1
176
     1
290
     0
176
     1
290
     0
176
     1
290
     0
176
     1
290
     0
176
     1
290
     0
176
     1
290
     0
176
     1
 90
       50
176
     1
 40
0.0
176
     1
 40
1.0
176
     1
 90
        0
176
     1
 62
    18
420
        0
176
     1
 90
       50
176
     1
 90
        3
176
     1
 62
     5
420
      255
176
     1
290
     0
176
     1
 90
       50
176
     1
 90
       50
176
     1
 90
       50
176
     1
290
     0
176
     1
 90
       50
176
     1
 62
   256
176
     0
 40
1.0
176
     0
 90
        2
176
     1
  1
strokes_ogs.tif
176
     1
290
     0
176
     1
 40
1.0
176
     1
 40
1.0
176
     1
  0
VISUALSTYLE
  5
35A
102
{ACAD_REACTORS
330
346
102
}
330
346
100
AcDbVisualStyle
  2
Shades of Gray
 70
    23
177
     3
291
     0
 70
    58
 90
        2
176
     1
 90
        2
176
     1
 90
        3
176
     1
 90
        0
176
     1
 40
0.6
176
     1
 40
30.0
176
     1
 62
     7
420
 16777215
176
     1
 90
        2
176
     1
 90
        2
176
     1
 62
     7
176
     1
 62
     7
176
     1
 90
        1
176
     1
 90
        1
176
     1
 40
40.0
176
     1
 90
        8
176
     1
 62
     7
176
     1
 40
1.0
176
     1
 90
        1
176
     1
 90
        6
176
     1
 90
        2
176
     1
 62
     7
176
     1
 90
        3
176
     1
 90
        0
176
     1
 90
        0
176
     1
290
     0
176
     1
 90
        1
176
     1
 40
0.0
176
     1
 90
        0
176
     1
290
     0
176
     1
290
     1
176
     1
290
     1
176
     1
290
     0
176
     1
290
     0
176
     1
290
     0
176
     1
290
     0
176
     1
290
     0
176
     1
290
     0
176
     1
 90
       50
176
     1
 40
0.0
176
     1
 40
1.0
176
     1
 90
        0
176
     1
 62
    18
420
        0
176
     1
 90
       50
176
     1
 90
        3
176
     1
 62
     5
420
      255
176
     1
290
     0
176
     1
 90
       50
176
     1
 90
       50
176
     1
 90
       50
176
     1
290
     0
176
     1
 90
       50
176
     1
 62
   256
176
     0
 40
1.0
176
     0
 90
        2
176
     1
  1
strokes_ogs.tif
176
     1
290
     0
176
     1
 40
1.0
176
     1
 40
1.0
176
     1
  0
VISUALSTYLE
  5
35B
102
{ACAD_REACTORS
330
346
102
}
330
346
100
AcDbVisualStyle
  2
Sketchy
 70
    24
177
     3
291
     0
 70
    58
 90
        1
176
     1
 90
        2
176
     1
 90
        2
176
     1
 90
        0
176
     1
 40
0.6
176
     1
 40
30.0
176
     1
 62
     7
420
 16777215
176
     1
 90
        2
176
     1
 90
        2
176
     1
 62
     7
176
     1
 62
     7
176
     1
 90
        1
176
     1
 90
        1
176
     1
 40
40.0
176
     1
 90
       11
176
     1
 62
     7
176
     1
 40
1.0
176
     1
 90
        1
176
     1
 90
        6
176
     1
 90
        2
176
     1
 62
     7
176
     1
 90
        6
176
     1
 90
        0
176
     1
 90
        0
176
     1
290
     0
176
     1
 90
        1
176
     1
 40
0.0
176
     1
 90
        0
176
     1
290
     0
176
     1
290
     1
176
     1
290
     1
176
     1
290
     0
176
     1
290
     0
176
     1
290
     0
176
     1
290
     0
176
     1
290
     0
176
     1
290
     0
176
     1
 90
       50
176
     1
 40
0.0
176
     1
 40
1.0
176
     1
 90
        0
176
     1
 62
    18
420
        0
176
     1
 90
       50
176
     1
 90
        3
176
     1
 62
     5
420
      255
176
     1
290
     0
176
     1
 90
       50
176
     1
 90
       50
176
     1
 90
       50
176
     1
290
     0
176
     1
 90
       50
176
     1
 62
   256
176
     0
 40
1.0
176
     0
 90
        2
176
     1
  1
strokes_ogs.tif
176
     1
290
     0
176
     1
 40
1.0
176
     1
 40
1.0
176
     1
  0
VISUALSTYLE
  5
353
102
{ACAD_REACTORS
330
346
102
}
330
346
100
AcDbVisualStyle
  2
Thicken
 70
    13
177
     3
291
     1
 70
    58
 90
        2
176
     1
 90
        2
176
     1
 90
        0
176
     1
 90
        0
176
     1
 40
0.6
176
     1
 40
30.0
176
     1
 62
     7
420
 16777215
176
     1
 90
        1
176
     1
 90
        4
176
     1
 62
     7
176
     1
 62
   257
176
     1
 90
        1
176
     1
 90
        1
176
     1
 40
1.0
176
     1
 90
       12
176
     1
 62
     7
176
     1
 40
1.0
176
     1
 90
        1
176
     1
 90
        6
176
     1
 90
        2
176
     1
 62
     7
176
     1
 90
        5
176
     1
 90
        0
176
     1
 90
        0
176
     1
290
     0
176
     1
 90
        1
176
     1
 40
0.0
176
     1
 90
        0
176
     1
290
     0
176
     1
290
     1
176
     1
290
     1
176
     1
290
     0
176
     1
290
     0
176
     1
290
     0
176
     1
290
     0
176
     1
290
     0
176
     1
290
     0
176
     1
 90
       50
176
     1
 40
0.0
176
     1
 40
1.0
176
     1
 90
        0
176
     1
 62
    18
420
        0
176
     1
 90
       50
176
     1
 90
        3
176
     1
 62
     5
420
      255
176
     1
290
     0
176
     1
 90
       50
176
     1
 90
       50
176
     1
 90
       50
176
     1
290
     0
176
     1
 90
       50
176
     1
 62
   256
176
     0
 40
1.0
176
     0
 90
        2
176
     1
  1
strokes_ogs.tif
176
     1
290
     0
176
     1
 40
1.0
176
     1
 40
1.0
176
     1
  0
VISUALSTYLE
  5
34C
102
{ACAD_REACTORS
330
346
102
}
330
346
100
AcDbVisualStyle
  2
Wireframe
 70
     5
177
     3
291
     0
 70
    58
 90
        0
176
     1
 90
        2
176
     1
 90
        0
176
     1
 90
        0
176
     1
 40
0.6
176
     1
 40
30.0
176
     1
 62
     7
420
 16777215
176
     1
 90
        1
176
     1
 90
        4
176
     1
 62
     7
176
     1
 62
   257
176
     1
 90
        1
176
     1
 90
        1
176
     1
 40
1.0
176
     1
 90
        0
176
     1
 62
   257
176
     1
 40
1.0
176
     1
 90
        1
176
     1
 90
        6
176
     1
 90
        2
176
     1
 62
     7
176
     1
 90
        5
176
     1
 90
        0
176
     1
 90
        0
176
     1
290
     0
176
     1
 90
        1
176
     1
 40
0.0
176
     1
 90
        0
176
     1
290
     0
176
     1
290
     1
176
     1
290
     1
176
     1
290
     0
176
     1
290
     0
176
     1
290
     0
176
     1
290
     0
176
     1
290
     0
176
     1
290
     0
176
     1
 90
       50
176
     1
 40
0.0
176
     1
 40
1.0
176
     1
 90
        0
176
     1
 62
    18
420
        0
176
     1
 90
       50
176
     1
 90
        3
176
     1
 62
     5
420
      255
176
     1
290
     0
176
     1
 90
       50
176
     1
 90
       50
176
     1
 90
       50
176
     1
290
     0
176
     1
 90
       50
176
     1
 62
   256
176
     0
 40
1.0
176
     0
 90
        2
176
     1
  1
strokes_ogs.tif
176
     1
290
     0
176
     1
 40
1.0
176
     1
 40
1.0
176
     1
  0
VISUALSTYLE
  5
35C
102
{ACAD_REACTORS
330
346
102
}
330
346
100
AcDbVisualStyle
  2
X-Ray
 70
    25
177
     3
291
     0
 70
    58
 90
        2
176
     1
 90
        2
176
     1
 90
        1
176
     1
 90
        1
176
     1
 40
0.5
176
     1
 40
30.0
176
     1
 62
     7
420
 16777215
176
     1
 90
        1
176
     1
 90
        0
176
     1
 62
     7
176
     1
 62
   257
176
     1
 90
        1
176
     1
 90
        1
176
     1
 40
1.0
176
     1
 90
        8
176
     1
 62
     7
176
     1
 40
1.0
176
     1
 90
        1
176
     1
 90
        6
176
     1
 90
        2
176
     1
 62
     7
176
     1
 90
        3
176
     1
 90
        0
176
     1
 90
        0
176
     1
290
     0
176
     1
 90
       13
176
     1
 40
0.0
176
     1
 90
        0
176
     1
290
     0
176
     1
290
     1
176
     1
290
     1
176
     1
290
     0
176
     1
290
     0
176
     1
290
     0
176
     1
290
     0
176
     1
290
     0
176
     1
290
     0
176
     1
 90
       50
176
     1
 40
0.0
176
     1
 40
1.0
176
     1
 90
        0
176
     1
 62
    18
420
        0
176
     1
 90
       50
176
     1
 90
        3
176
     1
 62
     5
420
      255
176
     1
290
     0
176
     1
 90
       50
176
     1
 90
       50
176
     1
 90
       50
176
     1
290
     0
176
     1
 90
       50
176
     1
 62
   256
176
     0
 40
1.0
176
     0
 90
        2
176
     1
  1
strokes_ogs.tif
176
     1
290
     0
176
     1
 40
1.0
176
     1
 40
1.0
176
     1
  0
DICTIONARYVAR
  5
33F
102
{ACAD_REACTORS
330
33E
102
}
330
33E
100
DictionaryVariables
280
     0
  1
1/8" = 1'-0"
  0
DICTIONARYVAR
  5
367
102
{ACAD_REACTORS
330
33E
102
}
330
33E
100
DictionaryVariables
280
     0
  1
Standard
  0
DICTIONARYVAR
  5
366
102
{ACAD_REACTORS
330
33E
102
}
330
33E
100
DictionaryVariables
280
     0
  1
Standard
  0
DICTIONARYVAR
  5
368
102
{ACAD_REACTORS
330
33E
102
}
330
33E
100
DictionaryVariables
280
     0
  1
0
  0
DICTIONARYVAR
  5
342
102
{ACAD_REACTORS
330
33E
102
}
330
33E
100
DictionaryVariables
280
     0
  1
0
  0
DICTIONARY
  5
27
330
25
100
AcDbDictionary
280
     1
281
     1
  0
DICTIONARY
  5
2D
330
2C
100
AcDbDictionary
280
     1
281
     1
  0
DICTIONARY
  5
F
330
D
100
AcDbDictionary
280
     1
281
     1
  3
FBXASSET
360
10
  0
DICTIONARY
  5
369
330
35F
100
AcDbDictionary
280
     1
281
     1
  3
ACAD_ROUNDTRIP_2008_TABLESTYLE_CELLSTYLEMAP
360
36A
  0
XRECORD
  5
10
102
{ACAD_REACTORS
330
F
102
}
330
F
100
AcDbXrecord
280
     1
 70
     1
 90
1959938040
 71
     1
  1
4BF6C10E-3DD3-41AC-B3C0-57EF7624EC9A
311
504B03041400060808001988CC446B3AFE15D9000000200100004F00000043413139303946352D433432412D343545392D384135462D3633333543373330424143382F4173736574446174612F446566696E6974696F6E4974657261746F7250726F706572746965732E62696E454E3D4FC33010350C200606FE41D5DDF86C
311
B9358DDAA2D2284CB0C0C4525D9D6B89E424559C488C8CFC6B7A16453DE9DDBBCF77F72384F83D1987E282F1CDFE96F9991AEA2AFFE63FA94671952AA1DD62B83EF72E394C694E3B1C429FB65EAAE829046CA81DE2DD79745463CF7218EED3D20DE3BF1093C2FEEF58BAFFCA482F25C6F2903D628CD42FD46EFBA5AC9D805B
311
D9A974665648BB320FF2695D68699D06A7F302F259A13A8AEDD0798ACA28D89C943787665F95CB795FD5346AB0A6C5D877C43F95E3A5016D254CA536EFDA6500D9043EE62A4D1E01504B03041400060808001988CC4481012FD418010000300200004500000043413139303946352D433432412D343545392D384135462D36
311
33333543373330424143382F4173736574446174612F496E7374616E636550726F706572746965732E62696E6D513B4EC340149C00120DA00851708014A158C9F6FA235776FCA30461444563D98E4241824C245A97749C87963370008EE0861AC68EB1839CB79A7DEFCD9BD995765F01FCB4C11223A2E47ECC7C992FF3E221
311
8DD345FE984C48E85E64FAAA120A190452E8EACC179EF41561586164999A1EFAF6ECB037D616A9EA41A819B630749D16535385177981502DA9F8A64F436853D6DC8B8BFBB78FEFE9A7C3BC47AE24FEFA26B36754CE460D8C5D8C1BAAD9266E5FEFAC68DC4457EC9491EC04D53EBB9268AD5F6D3E22358CFA1DFB4977C84098
311
BDBB03EE1F31B4D6474FB7349573C0AEFEAD13227E49D6E9427845B2CCF2AC9E600D0D0A54E21A05567882E43A1F618E33DCE0167788395AE17987F4AA9547BC618ED32DFD2F504B03041400060808001988CC4428BB58AF800100009E0500003D00000043413139303946352D433432412D343545392D384135462D363333
311
3543373330424143382F536368656D61732F436F6D6D6F6E536368656D612E786D6CBD544D4FC23018BEFB2B96DE15493C78601010A34B880709DEDFB52FD0D8B54BD70DF6EFED3AC0B12E6442E2716BFB3CEFF3D18E26FB440405EA8C2B1992E1C323095052C5B8DC842437EBFB673219DF8DA659866649B798C078B48AE6
311
410122242F2A4994AC7F93815DF85C049C8564CA0A901499DD886B2EB9B1E02448F358701A9235880C49A0119892A20C89D1B9FD768815CAD268CB5E0355B40B1E47F3E37A2020464BED06AA57CE8FCC20C3C3446D46761A2632A8C1283D07031EFF2AE7CCB1BFEEE916E406DFAC8E36FFD99A9D60A6944090EEDC3B670C7D
311
C13DE86B6B2C5C240D6E503BB85ACD579D513F1B9F9A69DC9CC22AFA80C426D40AF0B21EA168559156B6276F0F726A6BFF04DCD513A87A62CAD41FB24FCB2858B3952E3D852084DA25B9303C15687973CC8E8AAE11DF2836C38C6A9E765E8C1BA1BFB1DC29CDFE518C8B5A7655A4ED7E77291ABEB80DBD82EC866ADE1B8D05
311
AF9E35CF09D7A061F38A986D9EC412B8F0F65E5D81534D9B231D1E5A8FE577A241F3A5FD01504B03041400060808001988CC442CCEBD668A040000E01200003E00000043413139303946352D433432412D343545392D384135462D3633333543373330424143382F536368656D61732F47656E65726963536368656D612E78
311
6D6CD5586D6FDB380CFE7EBF42F0F7A649B70E1B90744856B4970F450FCD7A5F05459613EDE4174872DADCAF3F522F8ED3B88D2F1D06AC4050DBA2493EE4438AF2F8EB73AEC8466823CB62928C06C384888297A92C5693A4B6D9D9E7E4EBD51FE3A931C22EF85AE4EC6AFC38BF261BA626C9AD288496DC3F4FCEAFC6336684
311
5F7A10452AF41DB320C0D44EC26EAB20918735565582695670811A6A49643A49A6E9069FA4604A64B29016DC4B48552F95E4932463CA888468C1D2B250DB4962750DF7CE273069CE8363F1FF4EDB00E0A21999574AE4A2B00C353B93F3BD4777B8A61ED8F604ABFEDD79CE56A2B7BDFBDBC50996E0ADDE16FED26223C5D309
311
56C29BDF4A55EA686E5E58B112DA45CE67F76F4FA27EFA3FB672FD7372FC388FAECDCA5209E693CAD167BADCD272F943701B3812F8A3D852008B1D2E32DB927B2F833C6EA95879925356D254582695095A3CE982924720BE5774A3CB9CDCDB350427D2DF20DA1B5532EBE2D5D6288D75D4F7E4FD9890A0EF8E3D93EBB8F8BA
311
4758158EF6FB90A6F9520281C93DE7AAC6D24607DA296BB96018123F821A7D6A5C5884050C475DA4865442732C8B95684A50165CBB3A32F25F783A4A480ED59AD7F924B968AEA50131F46303223E6A397B0E52976030DC1DCA81D7E7C1EDEEA42C19FF27635C505E2BD5198A599020DF50A2330FCB3AAF28CB012410842955
311
3EF1B228802E2265D8F7CC2401042B155BCC7070F1E5C55F13B4A9577362CCCE46C32174E010C3C378C44841A4BDA00FE3A12006CE11EE6AEC59894D3526DDE1CD59D503ECC324017F8061B7F162162FA62EDD81AE3308617770796DCBDAD2B2625C5AE8A63DE20B2C8AA5E95E76E5730823955956E33E705425A2187C185D
311
36489A1B44D3DCEC2172F6BA2105C3546287A7194B2331768EBBE64F6E70A9930ABE0ADEA89E9E2C38523B810287AD67A54A039C1606EAFE68F8304610BB9093DBDDABC0B2AE4E290DCDA15376D7E39F72B556F0B32EAB5D3D498B4C41ABADEC3A1434C422D87E8025A84BDCB2B1417ED750FAE4DA8976863974C577C7F902
311
D3F156AD354DEA3540DE6BEAE2BEA52F7A2EB4CA43802ECE5BF2CE2EDC9347179FFB023CE412E60BE16DA0BE29B374988A553F561DC04615DD35F7D2C8979F60E5955CE93DF29DED8AFA1EE6642D53418086C03C47C377910F75F7E8F5EF665F70B60FFB22AEDF897D119E8423C773E819A3C1E55E550599EE6EDCA34D0C86
311
FD72057DF2CD46F16A470682471C164E4346D5306BF12D7D12D82CFF673D41636C347443FEB51B50D72EA171A8E4A58623A4A16E0FA2B8B10A0D23268D87C33896EE8FB73305A74BF224EDBADFA0BD674AB354D63DB7BD5D83426761C077DE767728235446A552754EB93B755891C3C4CC6CADE37CF0E912A7BB38DBA010F9
311
DE1282EDF470CA69A9CDA482E334C4A6EA4107987980B17E72F31730EBF88BBD39E7C629F56797A3C0009C2C5AE7951D9A05A02773440F02EEB4DE396A3B6A570C72CCFBCD823B0B8ED3F1D5CEDDFED772FA70236C83FB7D86C385D570B87107535572A60A96035F8F7C6A7192F13007246BBE0521855E6AC46F3E27689CEE
311
7D186A6FD679D98CDCAD13333E04EBE7ED6F55FF01504B03041400060808001988CC446180134D5F0100006B0300004500000043413139303946352D433432412D343545392D384135462D3633333543373330424143382F536368656D61732F52656E6465724D6174657269616C536368656D612E786D6CA5934D6FC2300C
311
86EFFB1551EEE343DBA41D1A103009551ADAD40EAE28A4A68D9426284961FCFBE5A340113B2071746D3F765EBF4DC6BFB5407BD0862B49F0B037C0082453059725C18DDD3EBFE3F1E829991803366715D474942CD30FB4A782E00C64017A412D684E454CE3FE28995203B162A6EA5AC94B66997D225E109CD63B0135484BAD
311
1B3C07E9080CA35DB3119C11BCA5C200461A68A1A438126C75E3E230D40FF81FB3F03C91D1E3A3A0AF79FE28E25BC39EC3E17E4C2A2D94A0833A51AF55BCCA7D88572FCBAC529C4140B020FC3AAFA886621DCED7EAD7664CC86024E806DC297DA1BB393E4156543457A4537DB8817349A70F8ACBF09B3EEE2CB2F33E91B65D
311
60786E4E3B39B77E3FEEEF5650424525DA657FB8B46BE6BF064646F0A0F7327C0BC1BC1B4CBBC1C419FA3CCB23500007872A2580CAAE5461865565294E4EDB4617B62FF579DF9A5B2F54E834076A597573A020912FED777F9B3F504B03041400060808001988CC447055230851000000570000004700000043413139303946
311
352D433432412D343545392D384135462D3633333543373330424143382F4173736574446174612F41737365745461626C654F66436F6E74656E74732E62696E536160603071723373363470D535767131D635317474D675327636D035357775333733327175B6741402AACB4D2C492DCA4CCC492C28484D2C4ACC4B4E050A
311
82012F90744FCD03CA26072767A4E6260200504B03041400060808001988CC44F865834058000000680000004500000043413139303946352D433432412D343545392D384135462D3633333543373330424143382F4173736574446174612F53747265616D56657273696F6E5461626C652E696E66558CBD0A80300C06F73E
311
4B117FB66E451741D041DC5BF98480A492E4FDD18EAEC7DD4555D89EF28DF51A0B1BD8340C4DE7DD848B988C0ACF0649566493F2408C508DDEBB99D5129FF8F1AF8CF5B9503E20FAE5A16B5AF702504B03041400060808001988CC44229C9EF6340100009A0400003600000043413139303946352D433432412D343545392D
311
384135462D3633333543373330424143382F4173736574446174612F636E782E786D6CCD943F6FC32010C5BF8AC56EC051FF29C24455BB646AA5461DBA5DF03945C160C1B96ABF7D21F1D02A55A70C598F77C7E327DEA9D5E7E0AA0F8CC906DFB2864B56A137A1B37ED7B289FAFA8E552BAD6208F443C62A0F03B6AC949956
311
BB18A6712E75D8C3E44AD559BF9F8BF729216D60EBF0A97F089ED0536295719052CB9279C701384C143A4C7BDE01016F78C414A668304F223BE03CC94404C28EE9856CAE6A7953378B4D73BB9472792DDF94284AADB621B8596FF365318C9539DECAB454A21C6B35453B6BCA5B98FECB23DF5AAF44566A9528662673077D8D
311
B903C6D1590394D1896008A9CE22844189A3582B5118FC22F188BDF5B6B4ACB331A0109FB33D8C64F1E288FCE7F5FC64D63E11788397CBE3D4E1F929BC1C7ED0EB319087C45C5A4E4E1D72EBFB33A4441CD6480E4DD92AFA1B504B03041400060808001988CC44A8B09D6C070100004F030000340000004341313930394635
311
2D433432412D343545392D384135462D3633333543373330424143382F536368656D61732F636E782E786D6CCD933B4F04211485FFCA847E80D9F8CA86610B0B2B1BB5B243B8BB9205EE8487D17F2F8C14BB899D16DBC1E10B39E77011BB4FEF860F88C96298C9443919206834361C6652F27EBC23C34E8A88984F303204E5
311
61264D26521C2296A54B06F6AAB8A63A1B8E5DBC47EF313CEB77F08A0CDAA9946692D62D5525A38174A4466545271A2161891AEA0DD97AE837E8082A832172C3A7AB91DF8CD3E665BADD72BEBDE6AF8235528A3744D7791B32445C068D7511AA1D2E583B96A244DB999681C8536FB4B6215825A44839D60E3A99BF964AAA65
311
7156AB5CAB622BF8C348C15AD4B3C00F10205A7D9989CFCCFD5BE4270806E2637DA56895BBCCE4BF79FC5B016C9DFD3A02ED2BC86F504B03041400060808001988CC44410A3D5871000000A40000002C00000043413139303946352D433432412D343545392D384135462D3633333543373330424143382F636E782E786D6C
311
55CC4D0E82301086E1AB34B31774E7A22D31F1069E60020334B633A63FC6E34B0909B07DDE2F9FEE7EC1AB2FC5E4840DDC9A2B28E25E06C7938192C7CB1D54677514C9871928C640062A83D55394F2D968A0118BAFEA1DBF377CA444F98919176EAB9FEAAB9F2960DA5BBB1E2ED3FA6FFF504B03041400060808001988CC44
311
D92F79DE7E000000A300000007000000636E782E786D6C4D8CD10AC22018465F45FE7BCBE52C85E93069EF319A1B92D3B0193D7E1ABBE8EA83C3774ED77F568FDE36BD5C0C129A030164C33D4E2E2C12F236630EA8575D8A71FBBB010AE36A25540CAA5B52CCCF1D4D761EB3AFD4BBF0D8A1D18D206260D8B4278D5B761398
311
6B36E033A5CC5C28B96AC38B71AC4A995FAF6CCDAB2F504B03041400060808001988CC4416E99B5DA600000035010000130000005B436F6E74656E745F54797065735D2E786D6C9590410E82301045AFD2740F4517C6180A0BF5065E60AC53688469D30E066F6F91AD9AB89CF9FFFD3F99BA9DC7413C3026E749CB4D594981
311
64FCCD51A7E5C4B6D84BD136F5E5193089ECA5A465CF1C0E4A25D3E308A9F401292BD6C711388FB15301CC1D3A54DBAADA29E38991B8E0254336F5092D4C038BF39CD76B6FC6A538AEBEA54A4B08617006389FA516557DE4AE8E7E70DE30729138228C5F021CD93F02D4FB0DCD0B504B03041400060808001988CC443DEE33
311
6E64000000790000001B0000006175746F6465736B2D64657369676E2D7061636B6167652E786D6C35CBC10E83200C00D05F21DCA56CA76D41FC96062B120735B69A7DBE268BB7777961F8D5AF396893C2ADB70FE7ADA196782C2DF776D7A97B5933C430F15651E5469C55D70F80A4992A3ADC954792C525AE70A1E4D6AD98
311
16CC044FEFDF01FE3FDE907802504B03041400060808001988CC4428D1062BF8000000960100003700000043413139303946352D433432412D343545392D384135462D3633333543373330424143382F4173736574446174612F636F72652E786D6C8550CB6EC32010FC156BEF6070ECB88D30919B345FD0536F08888B1283
311
C5A3EAE71762576A4F3DED6A76667677D8F16BBE579FDA07E3EC001413A8B4954E193B0D90E2153D4175E4CC3B177FD1A0B262D6031418389BBC4BCB064967A3B605B54EE90D1421E80895BCE76680203FF42CB0483133C20D2F42DEC4A431C52B8FB3948CDAA44665377335DA03BF9CE8F39EEE4EE8DCF517D476B97BE929
311
41F4B569C6B6251D1D3B56173167D1CC3FDBA5D7226A05BC21B445648F68F346FB0321878EBCB3BA30390BD1E79FB7A5E53BE063B9FA2CA260F53AFDE39A16F5BF6B3236EE9ACD755504E0341FF91870569794727944986B49947F03504B03041400060808001988CC445F55755DF600000094010000350000004341313930
311
3946352D433432412D343545392D384135462D3633333543373330424143382F536368656D61732F636F72652E786D6C8550CB6EC32010FC156BEFD840ECB88D30519A363FD09E7A43405C94182C1E553FBF60BB527BEA6957B333B3BBC38E5FD3BDFAD43E1867072035864A5BE994B1E300295ED1035447CEBC73F1170D2A
311
2B263D408181B3D1BB346F9074366A5B50EB94DE4011828E50C97B6E0608F2434FA216296646B8D5B3903731EA9AD42B8FB3948CDAA44665377335DA03BF9CC9E39EECCEE8B9EB2FA8ED72F7D4138CC80BA5A7B6C51D3975AC2962CEA2997EB64BAF45D40A38C5A445788F087D23FD01E34387DF5953989C85E8F3CFDBD2F2
311
1DF0D7E5CEC09A75F6C733CDEA7FCF646CDCD1CD735504E0249FB80C386B4A46B92C01E65AF2E4DF504B03041400060808001988CC44A2943D1002010000D70100002D00000043413139303946352D433432412D343545392D384135462D3633333543373330424143382F636F72652E786D6C9591DD6E842010855FC5CC3D
311
0AFEECEA06D958D37D825EF58ECAAC25BB82116CFAF8856AD3F6AEBD821CBE33C399E1E7F7E99EBCE1E2B4352DB094428266B04A9BB185D55F490DC959F0C55AFF0383C4C8095B8832083E2E769D7769B0C6A389AAB10A77513A871E92E11E2E2DB8E1152799CAD507C2DDD2590E373962CAD28D13DCEBE9CB3A2C283D2A10
311
396525A107C2F227763C517AAAE833CF2229F8AA8D2FF2BD194E2FA8123BFB100944C5B3ED3550AB563BA355F8A3BE6A5C40F41D6B6873A9485FE61D29ABC786D45D752187A2A8FA63411FBABE0E45825970E7973099BD489CC15FED9BF157B27556FF4CB6391C08F61D2A8B63163CFBDC4138E34AC407504B030414000608
311
08001988CC44E6A1654807010000B201000008000000636F72652E786D6C8D50CB4EC33010FC156BEF4EEC3469A0725C9542BF80133713BBC16A62477E54F0F7D8AD91E0C6695733B33BB3CBF69FCB8CAECA796DCD00B422809419ADD4661A2086337E00B4E7CC591B7EC90019B1A801320C9C4DCEC6B540A33541998C1A2B
311
550185F72A001AE7D40CE0C70FB5884AC49014FE52AD62BC884955B4BAEB380B7AF9191D9D124149E00DA12D265B4C9B57DAEF08D975E48DD559C9598C5A162B2D93BB3E6BE5809F8EF4714B3747FCDCF527DC76A97BEA29C1F4A5690E6D4B3A7AE8589D8739F3C1A59BCB929433202FAED997D5778AB3776BE72248A124B2
311
66FE024E589D893FA1E32AFF115A9BB069CAC2FB84074E53A01B918CF30753B9BD37D5FC6DFE0D504B010214001400060808001988CC446B3AFE15D9000000200100004F000000000000000000000000000000000043413139303946352D433432412D343545392D384135462D3633333543373330424143382F4173736574
311
446174612F446566696E6974696F6E4974657261746F7250726F706572746965732E62696E504B010214001400060808001988CC4481012FD4180100003002000045000000000000000000000000004601000043413139303946352D433432412D343545392D384135462D3633333543373330424143382F41737365744461
311
74612F496E7374616E636550726F706572746965732E62696E504B010214001400060808001988CC4428BB58AF800100009E0500003D00000000000000000000000000C102000043413139303946352D433432412D343545392D384135462D3633333543373330424143382F536368656D61732F436F6D6D6F6E536368656D
311
612E786D6C504B010214001400060808001988CC442CCEBD668A040000E01200003E000000000000000000000000009C04000043413139303946352D433432412D343545392D384135462D3633333543373330424143382F536368656D61732F47656E65726963536368656D612E786D6C504B010214001400060808001988
311
CC446180134D5F0100006B03000045000000000000000000000000008209000043413139303946352D433432412D343545392D384135462D3633333543373330424143382F536368656D61732F52656E6465724D6174657269616C536368656D612E786D6C504B010214001400060808001988CC4470552308510000005700
311
00004700000000000000000000000000440B000043413139303946352D433432412D343545392D384135462D3633333543373330424143382F4173736574446174612F41737365745461626C654F66436F6E74656E74732E62696E504B010214001400060808001988CC44F865834058000000680000004500000000000000
311
000000000000FA0B000043413139303946352D433432412D343545392D384135462D3633333543373330424143382F4173736574446174612F53747265616D56657273696F6E5461626C652E696E66504B010214001400060808001988CC44229C9EF6340100009A0400003600000000000000000000000000B50C00004341
311
3139303946352D433432412D343545392D384135462D3633333543373330424143382F4173736574446174612F636E782E786D6C504B010214001400060808001988CC44A8B09D6C070100004F03000034000000000000000000000000003D0E000043413139303946352D433432412D343545392D384135462D3633333543
311
373330424143382F536368656D61732F636E782E786D6C504B010214001400060808001988CC44410A3D5871000000A40000002C00000000000000000000000000960F000043413139303946352D433432412D343545392D384135462D3633333543373330424143382F636E782E786D6C504B010214001400060808001988
311
CC44D92F79DE7E000000A3000000070000000000000000000000000051100000636E782E786D6C504B010214001400060808001988CC4416E99B5DA6000000350100001300000000000000000000000000F41000005B436F6E74656E745F54797065735D2E786D6C504B010214001400060808001988CC443DEE336E640000
311
00790000001B00000000000000000000000000CB1100006175746F6465736B2D64657369676E2D7061636B6167652E786D6C504B010214001400060808001988CC4428D1062BF80000009601000037000000000000000000000000006812000043413139303946352D433432412D343545392D384135462D36333335433733
311
30424143382F4173736574446174612F636F72652E786D6C504B010214001400060808001988CC445F55755DF6000000940100003500000000000000000000000000B513000043413139303946352D433432412D343545392D384135462D3633333543373330424143382F536368656D61732F636F72652E786D6C504B0102
311
14001400060808001988CC44A2943D1002010000D70100002D00000000000000000000000000FE14000043413139303946352D433432412D343545392D384135462D3633333543373330424143382F636F72652E786D6C504B010214001400060808001988CC44E6A1654807010000B2010000080000000000000000000000
311
00004B160000636F72652E786D6C504B050600000000110011005A060000781700000000
310
504B03041400060808001988CC44000000000000000000000000370000006662782F45313331384442352D343832422D343242452D384145312D4333374337433630453644372F617474726962757465732E62696E504B03041400060808001988CC44000000000000000000000000350000006662782F4531333138444235
310
2D343832422D343242452D384145312D4333374337433630453644372F76657274696365732E62696E504B03041400060808001988CC44F270F1330600000004000000360000006662782F45313331384442352D343832422D343242452D384145312D4333374337433630453644372F747269616E676C65732E62696E6366
310
60600000504B03041400060808001988CC4451464CB48900000043010000360000006662782F45313331384442352D343832422D343242452D384145312D4333374337433630453644372F6469726563746F72792E786D6C9D8F310EC2300C45AF127987122606C71DD918B841D4B851A43646695A717C52A85029031293A5
310
A76FBF6FACEF7DA7264E43906840EF0FA03836E242F406C6DCEE4EA06AC22492573150D1F66C60C640E8938CB705396EEDD86DE9B5042FE27813D640EA63BB001C722AF6E55CB61E4863F58284D5D3F53DD715CE1C3985E63FD7F1B7EBDD617E9F1E504B03041400060808001988CC44163FD6EF38070000201C0000340000
310
006662782F45313331384442352D343832422D343242452D384145312D4333374337433630453644372F6F626A656374732E786D6CDD59DB6EDB3810FD1542FBB2FBA09BAF71A1B848ECB8308AB4418D2EF64DA065DAE146379052E2ECD7EF90226549966D25DB02C52640E230D470E6CCCC99E1C8FBB88F42F44C18A7497C
310
6DB89663201207C986C6BB6B23CFB6E695813E4E91C79224ABEC33508C23726D886563EAED5892A76A6943B6380F9BAB8BDBBF100F484C0C148498F36B83078F24C216CEB36443F893B5C119B676DBBDE55AC5C6BAD81DC3E963E3A814331267A02AACC7204569E0D6FF0493ECA9678B0DB56DBD6EDBFA67B6D9D2F0BAA234
310
E6198E8323AD1A727ADDB4EABB83F95D6F3831878341DF1C8C7AAE79BBB89D9BEEB8EFCC46B3D9E4E66E62A0A9B74E92B074404AE20D78F1D598BA9E2DFE539AAF5068D33B48E298040ACDB60D1BA2E452C29B98D48075A569158714B65616FA1D8D3FB1AD132835956A686BE3F4EF6AF426EBBF0104DE254A192722CA79C6
310
C0D70AFB221F1CCF2E566B7EA11C4538238CE2108574CD300307C1D6C2413531225B84282430935ED4F2AABA42605FCEA5362DB779188AFC35A632D37CC8479271A919FD87B083F6D5D34027B036A77176A58CCD5E531031F16CB958FCAFDF53FF2C8044DB10EF205AC04CB1A9DF6BE035135CB09C1BD3CF8BF57E25F8A1FD
310
F09425296199883C99CC2AEFB4072BA105C1D7019402D7BAEF0EA87C03E8BF00F2A52EC803CF31BA1FEC07DA768663BE4D5804DE410E321DF8E120F1F1E89367970F4F11AA71E5294C216D7F10A635336A6757209D7ACF10F409EB2BE356010E21A6EF692CF21C020585092C01DF6FD77B63BA04328545780A87603D7C7BB6
310
F888E0572107F8A6E1A136FAEDE0289D30CD3C3BF8EA13C40CA341E9AA9A8DA7F01DFE107C6FE6ABCFAB9C6D7140EE5562CFC996C6348362DAAE500DF45ACA7F5F7E911979644F6D5700E7EC12411C2D7E5929BF20E9185045D4E1C23572E59E42BA87218E499273B5DE4654411226CC5FBFFA450EB79EF5A70E82E230C86F
310
1101AD6406D53D603415A01853655EC984D60127C1832A00778553FD350E9E04BC7E008CF51E3D206A316B0ACDA3D4C75192C782BE8FC3BB699AD577E497EB4E7ACEA47735196963B914AFB3475343A9BC3827C2E9894366356F29D6D0928B3C1A005BB6591040CF94677E92E28066EDB1D030426528807D56E50DDD6E730E
310
A4DE0A4B4363ABEF0E9153F9591E725E7B75884F23BC23FE168B0AD77A5E0DA052B8B6A015995D98704E63C2658772C45C0D541C0B88A0885B2DB5250829F72392E1F7C49F2C798DF063641BFAD04B65A29BBD1C7D5A41553D4F49149D5B12FBD2FE579FE3280D8B2EED12066EAF71422BAE426971C433C49B8F33DFD910D9
310
745F925EF282C6B793F4C9BBC59F8087E19F0E8F3E8242EB0D35F2B2675D6BE84EC4D71590CA68E8F6C7DA1197B0D24765A2070973E89A8257FF85D0DD633742EB740E27E1D6A76198477E510F3212410B86B39C75CAD7D1D03972BEE2854642544EDAD2101AE4CEA4297B0FDD7D8055B2F938459A9563C0281AC31DAD9321
310
4756B486B0F485BC8F8A6BD765EFBF5DEA7FE6CBEA3DE589BCBE246CD3AA69BD8DD01D986E18045DAA0A57C691943CF5AAC917C98BCB651C065A88E2B7E296A0228491672A0613F206D47A7FE02F380B804857F2B7790B19B1219B434F5113A7C61CC6140ED5D2749F5ABDE900D989F2516BBC96825023983660C1B3F7E243
310
F80D83ABA1F3E3B6EA6AEC627D290A9B058395831E67647DFDB46A488195CE4F3F088CC84B43825A9D8946EE8CA8EFCB43BFDA90A02CFABE3CF378F69847EB185351194558E04DFAE1A3BC4B5EDB7051B00783A133BE198CCC716FB2300737BD2BF376B670CDC1D875C6EE7CE1CC270B9B119EE42C20DCEED98EAF7BA734DE
310
E9C028A0EB72A380A9C2E5AB9F8EE7A683FFC7378A3059E353B1F8AB5E28CA764F34648D5CEC7AA16825EAF5DBBA7FF788A8DB8BD89B3AE76256A003FC7CD90232D2F5BE7B6BA145EB4EA25DE74A457C63E13D795BF9E935A646E8ADF5A1B6A38DF2EB5C0CB3A7962AA56FB792D706B78BD1CC75EECCFE7C0E3358F76666DE
310
F6678E391CDF2DC6A3DEE00EA6B025E2AA1676AD2BBF04876A652B63349806F324A43094271BB42309DC8060EAD0815F5944B8BCD94003A0CAB87E23D0E1E9E762A69AE175A89F0E1E310CA6435591F30086A270EBB836D43AFA0DC6A06212298753D613141E15ED06CA19BD362004320AF5C55AC3384B0E0FA5F4C6B812DC
310
86E39DB833154F957F1F1E13E840AC1CEC2AF774C14559568B4E180EA4F23D01B09D6E48DE6FBA5607E10C3EAEF3AC34E6B070B04681A05F0814C6C1D4EF49C1BB07E2396F976BC93D35483A4DE6CFC64121D5CC30DBC9F17A05EF9BF9832D26E3CBAF280DF39D70E7B97A5F93648A3E23CC8B21940781A1CC4CB1B887CF3E
310
D80F2C81574C115A500802F4FBFE6AF4873D4BA228898B25FB46BDA842AB4778EDB4B1F5C80F1A17C71DDAB2EF51637D985B7162E10D7F8205702DA362365A405C0B80929E2A01A03D227C018FD5F62FE74815814A0B5B6D5D053C72A68F2091C4BB1C9136D50D950124E4026855CC69CB0F7AC1B3190CC1A7FF02504B0304
310
1400060808001988CC44B8B961D63E01000046050000300000006662782F45313331384442352D343832422D343242452D384145312D4333374337433630453644372F636E782E786D6CCD944D6EC3201085AF82D81BE3A87F8A3091BAE809BAA8BAC378E2D260B060A89ADB1752276D55A5EA2252B243C31BE97D334F2356
310
EFA3256F10A2F1AEA50DE39480D3BE376E6869C2757547C94A8AE03D7E9351E2D4082D2D652AC5107C9AE6520F6B956CA95AE33673512106D325844889B62AC69646FD02A3622AA1EF216E58AF50B18605883E050DB91FCD0873BF0EA0107A2A17BCB9AAF84DD52C1E9BDB25E7CB6BFE2CEAA294A2F3DECE7AE310829F88F6
310
F9E1B2192EEAF22D450A66D614022ABF9CB1CE3851E77F296276EB865987DBA9E8A6C91AAD308FA9F61A01AB2C02358AFA532C455D787F503FDC3FED1D90DE04D0E8C3F64C03688E0DE0608CE524FC8F7F27FC1BDB77AF19F75CDB3E0A3BDB3A19EA3EAD31C7F5F7FE738A941BECE585FE60ECF499CFA7048DBE3CE4BDAF13
310
11D7BB9397975E2EA0FC00504B03041400060808001988CC44FD7993467E000000A30000000B0000006662782F636E782E786D6C4D8C410E83201405AF42FE9E56D40A0BC014E420A6A2215530549A1EBFD0B8E8EA259337C3FBCFB6A2B78D2F17BC0072A90059FF0893F38B8074CC9801EA258F211C7F37407EDCAC808241
310
F22586B49F68B2F398D64257E79F2734A4216C5037DCB25AE1B65606B3BB2158375453DD55A61B6836AE45C9F3EBE52D79F905504B03041400060808001988CC44A6D797065F0000008200000007000000636E782E786D6C4DCB3B0E80201045D1AD90E9FD7516806B51190811670C8A61F982B1B0BAC9C97B72CA7B1037C6
310
D3332918DA1E04D2CAC69353902EDB8C20262D23F3F59B81A079470595414B17391D1F19B4730A5583A7ED43BBE4025D9592775E5ADFFA01504B03041400060808001988CC444FEB6A7CA0000000F4000000130000005B436F6E74656E745F54797065735D2E786D6C7D8F4B0EC2300C44AF1279DFA6B0400835ED02B80117
310
30C16D239A8F121795DB93D02D6269CFBC19BBED573B8B17C564BC53B0AB1B10E4B47F18372A5878A88E20FAAEBDBD032591BD2E299898C349CAA427B2986A1FC86565F0D122E7318E32A07EE24872DF3407A9BD63725C71C980AEBDD080CBCCE2BAE6F5D69B7110E7CD57AA146008B3D1C8F92C5954F993BB1BF787F39A89
310
ABC491D09600F9FDA2FB00504B03041400060808001988CC443DEE336E64000000790000001B0000006175746F6465736B2D64657369676E2D7061636B6167652E786D6C35CBC10E83200C00D05F21DCA56CA76D41FC96062B120735B69A7DBE268BB7777961F8D5AF396893C2ADB70FE7ADA196782C2DF776D7A97B5933C4
310
30F15651E5469C55D70F80A4992A3ADC954792C525AE70A1E4D6AD9816CC044FEFDF01FE3FDE907802504B03041400060808001988CC446A695362F9000000960100003B0000006662782F45313331384442352D343832422D343242452D384145312D4333374337433630453644372F7265736F75726365732F636F72652E
310
786D6C8550CB6EC23010FC9568EF4EEC102020C72824FC414FBD59CE925A101BF951F5F36B432AB5A79E76353B33BB3BFCF4B5DC8B4F745E5BD3012B291468949DB4993B88E14A5A284E823B6BC32F1A14462ED8418641F0D9D9F85821654D40935163275C41E93D0628D43D351D78F5818B2C650C89E16FE543AA9B9CB164
310
E58B27788C7A5AA57A4A6EFAAAD18118DBB1DEB2DD4036F43292A6697B7268FB3DE92FE3B8391FE830F4675E65B1E0412F3FDB95431970025153D610BA23AC7E63FB23A5C72D7DE755660AEE834B3FAF4BF377201C7A1B9D42CFABD7F48F6B7C4CFFBB466DC2A65E5D5F0A0F82A5239F03C1AB9C522ACF0853CD898A6F504B
310
03041400060808001988CC445AE53A57F2000000B1010000310000006662782F45313331384442352D343832422D343242452D384145312D4333374337433630453644372F636F72652E786D6C8D50CB6E833010FC15B477830D0450641C15C21FF4D49B651C6A25D8C88FAA9F5F3B50A9BDE5B4D6EC8C6776E8E57B7D645F
310
D23A65740F24C790492DCCACF4D243F037D4417661D41AE3FFD020D37C953D2418185DAC09DB0109A3BDD409D5669607C89D931E32F1888F1E9CF8942BCF79F091E1EEF9C6C59D2F3227F9CE63D4ABF5572AACE45ECEC04A4C6A841B44CA77D29E313E9FF0072D1293D110D47C58A939BAAB9B9216D8442AD25D8713AABB72
310
4075394CA87B9B081AAB766CC7064FCDB5A5451233EABC8D371F9FA4EB5E95EFC27F99C336BF9059695F9587E1AE70C048CCF35C305AA402E378B61B672A9BFD00504B03041400060808001988CC442CD54AC253010000DD0200000C0000006662782F636F72652E786D6C8D52DB8E832014FC15C33B8AD65E8334B6F60FF6
310
69DF28529754C120987EFE8297B83E6C77638264CE39336726E0F3ABA9839EEB4E289981384420E092A952C82A03D63CE001046782B552E6471B08246D78063C0C08AEB4B2ED0431250D971E95AAE41348BB8E1B10B0DA5D32D0B12FDED0905AE33ABA67D852F6A4150FE370EC23D85A514EA3A2746CE221B806A43814C936
310
DE5DE106DD0A98A6871C1E0FF91EE6B7A2D85C8EE87ACD2F38F2C3041BD1CCEA4C736A78094882E214A21D8C938F787F42E8B4459F38F29D0477463BCF93A87707C8E3FEC2D188AFF86C5BFECD6785349B64E21B273A4062B7DE502038F2F9B8DF10DE3A4327ECF233F45ECF169E0EEA39334AA7AE522ABB947A5A5BEEA851
310
307C381AAB8E7920F88D2779C3F39EC3054565E556A3C65DEFD678F5F54E2DD7B037AF402ADDD07A596E5C713917A195A5799CA95AE9FF4CCF56E73023FF30C937504B03041400060808001988CC4494AA640F07010000B201000008000000636F72652E786D6C8D50C172832014FC15E6DD515093980C92319A3FE8A9372A
310
C43051700433EDDF17A29D696F3D3D6677DFDB65D9F9731CD053CD4E5B53014D0820653A2BB5E92B58FC0D9780CE9CCDD6FA5F3240468CAA82080367FD6C9769833A6BBC32113556AA0D14CE290FA81BC2A302D7DDD52812B1F8A0708F6412DD43F42AA1C9AAE3CCEBF167B59B95F04A02CF082D30D9639ABDD1C38990D38E
310
BCB3342A395B162D372B2D83BBBE6935036FCB36DBD17D8373726D715194353E96F501D7D7B6CD2F47D234F585A5719933E7E7F0E7ED48C8E99113CFE8CBD295E2ECC3DA611384501259337C01272C8DC49FD0CB24FF115A1B9F67DBC175C301A721D08B08C6B1C1305EF58619DBE6DF504B010214001400060808001988CC
310
440000000000000000000000003700000000000000000000000000000000006662782F45313331384442352D343832422D343242452D384145312D4333374337433630453644372F617474726962757465732E62696E504B010214001400060808001988CC4400000000000000000000000035000000000000000000000000
310
00550000006662782F45313331384442352D343832422D343242452D384145312D4333374337433630453644372F76657274696365732E62696E504B010214001400060808001988CC44F270F13306000000040000003600000000000000000000000000A80000006662782F45313331384442352D343832422D343242452D
310
384145312D4333374337433630453644372F747269616E676C65732E62696E504B010214001400060808001988CC4451464CB489000000430100003600000000000000000000000000020100006662782F45313331384442352D343832422D343242452D384145312D4333374337433630453644372F6469726563746F7279
310
2E786D6C504B010214001400060808001988CC44163FD6EF38070000201C00003400000000000000000000000000DF0100006662782F45313331384442352D343832422D343242452D384145312D4333374337433630453644372F6F626A656374732E786D6C504B010214001400060808001988CC44B8B961D63E01000046
310
0500003000000000000000000000000000690900006662782F45313331384442352D343832422D343242452D384145312D4333374337433630453644372F636E782E786D6C504B010214001400060808001988CC44FD7993467E000000A30000000B00000000000000000000000000F50A00006662782F636E782E786D6C50
310
4B010214001400060808001988CC44A6D797065F0000008200000007000000000000000000000000009C0B0000636E782E786D6C504B010214001400060808001988CC444FEB6A7CA0000000F40000001300000000000000000000000000200C00005B436F6E74656E745F54797065735D2E786D6C504B0102140014000608
310
08001988CC443DEE336E64000000790000001B00000000000000000000000000F10C00006175746F6465736B2D64657369676E2D7061636B6167652E786D6C504B010214001400060808001988CC446A695362F9000000960100003B000000000000000000000000008E0D00006662782F45313331384442352D343832422D
310
343242452D384145312D4333374337433630453644372F7265736F75726365732F636F72652E786D6C504B010214001400060808001988CC445AE53A57F2000000B10100003100000000000000000000000000E00E00006662782F45313331384442352D343832422D343242452D384145312D433337433743363045364437
310
2F636F72652E786D6C504B010214001400060808001988CC442CD54AC253010000DD0200000C00000000000000000000000000211000006662782F636F72652E786D6C504B010214001400060808001988CC4494AA640F07010000B201000008000000000000000000000000009E110000636F72652E786D6C504B05060000
310
00000E000E0080040000CB1200000000
  0
CELLSTYLEMAP
  5
36A
102
{ACAD_REACTORS
330
369
102
}
330
369
100
AcDbCellStyleMap
 90
        3
300
CELLSTYLE
  1
TABLEFORMAT_BEGIN
 90
        5
170
     1
 91
        0
 92
    32768
 62
   257
 93
        1
300
CONTENTFORMAT
  1
CONTENTFORMAT_BEGIN
 90
        0
 91
        0
 92
      512
 93
        0
300

 40
0.0
140
1.0
 94
        5
 62
     0
340
1A
144
0.25
309
CONTENTFORMAT_END
171
     1
301
MARGIN
  1
CELLMARGIN_BEGIN
 40
0.06
 40
0.06
 40
0.06
 40
0.06
 40
0.06
 40
0.06
309
CELLMARGIN_END
 94
        6
 95
        1
302
GRIDFORMAT
  1
GRIDFORMAT_BEGIN
 90
        0
 91
        1
 62
     0
 92
       -2
340
13
 93
        0
 40
0.045
309
GRIDFORMAT_END
 95
        2
302
GRIDFORMAT
  1
GRIDFORMAT_BEGIN
 90
        0
 91
        1
 62
     0
 92
       -2
340
13
 93
        0
 40
0.045
309
GRIDFORMAT_END
 95
        4
302
GRIDFORMAT
  1
GRIDFORMAT_BEGIN
 90
        0
 91
        1
 62
     0
 92
       -2
340
13
 93
        0
 40
0.045
309
GRIDFORMAT_END
 95
        8
302
GRIDFORMAT
  1
GRIDFORMAT_BEGIN
 90
        0
 91
        1
 62
     0
 92
       -2
340
13
 93
        0
 40
0.045
309
GRIDFORMAT_END
 95
       16
302
GRIDFORMAT
  1
GRIDFORMAT_BEGIN
 90
        0
 91
        1
 62
     0
 92
       -2
340
13
 93
        0
 40
0.045
309
GRIDFORMAT_END
 95
       32
302
GRIDFORMAT
  1
GRIDFORMAT_BEGIN
 90
        0
 91
        1
 62
     0
 92
       -2
340
13
 93
        0
 40
0.045
309
GRIDFORMAT_END
309
TABLEFORMAT_END
  1
CELLSTYLE_BEGIN
 90
        1
 91
        1
300
_TITLE
309
CELLSTYLE_END
300
CELLSTYLE
  1
TABLEFORMAT_BEGIN
 90
        5
170
     1
 91
        0
 92
        0
 62
   257
 93
        1
300
CONTENTFORMAT
  1
CONTENTFORMAT_BEGIN
 90
        0
 91
        0
 92
      512
 93
        0
300

 40
0.0
140
1.0
 94
        5
 62
     0
340
1A
144
0.18
309
CONTENTFORMAT_END
171
     1
301
MARGIN
  1
CELLMARGIN_BEGIN
 40
0.06
 40
0.06
 40
0.06
 40
0.06
 40
0.06
 40
0.06
309
CELLMARGIN_END
 94
        6
 95
        1
302
GRIDFORMAT
  1
GRIDFORMAT_BEGIN
 90
        0
 91
        1
 62
     0
 92
       -2
340
13
 93
        0
 40
0.045
309
GRIDFORMAT_END
 95
        2
302
GRIDFORMAT
  1
GRIDFORMAT_BEGIN
 90
        0
 91
        1
 62
     0
 92
       -2
340
13
 93
        0
 40
0.045
309
GRIDFORMAT_END
 95
        4
302
GRIDFORMAT
  1
GRIDFORMAT_BEGIN
 90
        0
 91
        1
 62
     0
 92
       -2
340
13
 93
        0
 40
0.045
309
GRIDFORMAT_END
 95
        8
302
GRIDFORMAT
  1
GRIDFORMAT_BEGIN
 90
        0
 91
        1
 62
     0
 92
       -2
340
13
 93
        0
 40
0.045
309
GRIDFORMAT_END
 95
       16
302
GRIDFORMAT
  1
GRIDFORMAT_BEGIN
 90
        0
 91
        1
 62
     0
 92
       -2
340
13
 93
        0
 40
0.045
309
GRIDFORMAT_END
 95
       32
302
GRIDFORMAT
  1
GRIDFORMAT_BEGIN
 90
        0
 91
        1
 62
     0
 92
       -2
340
13
 93
        0
 40
0.045
309
GRIDFORMAT_END
309
TABLEFORMAT_END
  1
CELLSTYLE_BEGIN
 90
        2
 91
        1
300
_HEADER
309
CELLSTYLE_END
300
CELLSTYLE
  1
TABLEFORMAT_BEGIN
 90
        5
170
     1
 91
        0
 92
        0
 62
   257
 93
        1
300
CONTENTFORMAT
  1
CONTENTFORMAT_BEGIN
 90
        0
 91
        0
 92
      512
 93
        0
300

 40
0.0
140
1.0
 94
        2
 62
     0
340
1A
144
0.18
309
CONTENTFORMAT_END
171
     1
301
MARGIN
  1
CELLMARGIN_BEGIN
 40
0.06
 40
0.06
 40
0.06
 40
0.06
 40
0.06
 40
0.06
309
CELLMARGIN_END
 94
        6
 95
        1
302
GRIDFORMAT
  1
GRIDFORMAT_BEGIN
 90
        0
 91
        1
 62
     0
 92
       -2
340
13
 93
        0
 40
0.045
309
GRIDFORMAT_END
 95
        2
302
GRIDFORMAT
  1
GRIDFORMAT_BEGIN
 90
        0
 91
        1
 62
     0
 92
       -2
340
13
 93
        0
 40
0.045
309
GRIDFORMAT_END
 95
        4
302
GRIDFORMAT
  1
GRIDFORMAT_BEGIN
 90
        0
 91
        1
 62
     0
 92
       -2
340
13
 93
        0
 40
0.045
309
GRIDFORMAT_END
 95
        8
302
GRIDFORMAT
  1
GRIDFORMAT_BEGIN
 90
        0
 91
        1
 62
     0
 92
       -2
340
13
 93
        0
 40
0.045
309
GRIDFORMAT_END
 95
       16
302
GRIDFORMAT
  1
GRIDFORMAT_BEGIN
 90
        0
 91
        1
 62
     0
 92
       -2
340
13
 93
        0
 40
0.045
309
GRIDFORMAT_END
 95
       32
302
GRIDFORMAT
  1
GRIDFORMAT_BEGIN
 90
        0
 91
        1
 62
     0
 92
       -2
340
13
 93
        0
 40
0.045
309
GRIDFORMAT_END
309
TABLEFORMAT_END
  1
CELLSTYLE_BEGIN
 90
        3
 91
        2
300
_DATA
309
CELLSTYLE_END
  0
ENDSEC
  0
EOF
