  0
SECTION
  2
HEADER
  9
$ACADVER
  1
AC1018
  9
$ACADMAINTVER
 70
     0
  9
$DWGCODEPAGE
  3
ANSI_932
  9
$LASTSAVEDBY
  1
mitomim
  9
$INSBASE
 10
0.0
 20
0.0
 30
0.0
  9
$EXTMIN
 10
-24941.00038806658
 20
-61811.18061254341
 30
0.0
  9
$EXTMAX
 10
102221.5750418411
 20
19697.31098658771
 30
0.0
  9
$LIMMIN
 10
0.0
 20
0.0
  9
$LIMMAX
 10
2969.996969696967
 20
2100.0
  9
$ORTHOMODE
 70
     1
  9
$REGENMODE
 70
     1
  9
$FILLMODE
 70
     1
  9
$QTEXTMODE
 70
     0
  9
$MIRRTEXT
 70
     0
  9
$LTSCALE
 40
50.0
  9
$ATTMODE
 70
     1
  9
$TEXTSIZE
 40
0.2
  9
$TRACEWID
 40
0.05
  9
$TEXTSTYLE
  7
スタイル1
  9
$CLAYER
  8
DEFPOINTS
  9
$CELTYPE
  6
BYLAYER
  9
$CECOLOR
 62
   256
  9
$CELTSCALE
 40
1.0
  9
$DISPSILH
 70
     0
  9
$DIMSCALE
 40
20.0
  9
$DIMASZ
 40
0.6
  9
$DIMEXO
 40
1.2
  9
$DIMDLI
 40
5.0
  9
$DIMRND
 40
0.0
  9
$DIMDLE
 40
1.0
  9
$DIMEXE
 40
0.3
  9
$DIMTP
 40
0.0
  9
$DIMTM
 40
0.0
  9
$DIMTXT
 40
2.0
  9
$DIMCEN
 40
1.0
  9
$DIMTSZ
 40
0.0
  9
$DIMTOL
 70
     0
  9
$DIMLIM
 70
     0
  9
$DIMTIH
 70
     0
  9
$DIMTOH
 70
     0
  9
$DIMSE1
 70
     0
  9
$DIMSE2
 70
     0
  9
$DIMTAD
 70
     3
  9
$DIMZIN
 70
     8
  9
$DIMBLK
  1
Dot
  9
$DIMASO
 70
     1
  9
$DIMSHO
 70
     1
  9
$DIMPOST
  1

  9
$DIMAPOST
  1

  9
$DIMALT
 70
     0
  9
$DIMALTD
 70
     2
  9
$DIMALTF
 40
25.4
  9
$DIMLFAC
 40
1.0
  9
$DIMTOFL
 70
     1
  9
$DIMTVP
 40
0.0
  9
$DIMTIX
 70
     1
  9
$DIMSOXD
 70
     0
  9
$DIMSAH
 70
     0
  9
$DIMBLK1
  1

  9
$DIMBLK2
  1

  9
$DIMSTYLE
  2
KH1xx020
  9
$DIMCLRD
 70
   256
  9
$DIMCLRE
 70
   256
  9
$DIMCLRT
 70
   256
  9
$DIMTFAC
 40
1.0
  9
$DIMGAP
 40
0.5
  9
$DIMJUST
 70
     0
  9
$DIMSD1
 70
     0
  9
$DIMSD2
 70
     0
  9
$DIMTOLJ
 70
     1
  9
$DIMTZIN
 70
     0
  9
$DIMALTZ
 70
     0
  9
$DIMALTTZ
 70
     0
  9
$DIMUPT
 70
     0
  9
$DIMDEC
 70
     1
  9
$DIMTDEC
 70
     1
  9
$DIMALTU
 70
     2
  9
$DIMALTTD
 70
     2
  9
$DIMTXSTY
  7
KH001
  9
$DIMAUNIT
 70
     0
  9
$DIMADEC
 70
     0
  9
$DIMALTRND
 40
0.0
  9
$DIMAZIN
 70
     0
  9
$DIMDSEP
 70
    46
  9
$DIMATFIT
 70
     3
  9
$DIMFRAC
 70
     0
  9
$DIMLDRBLK
  1
ClosedBlank
  9
$DIMLUNIT
 70
     6
  9
$DIMLWD
 70
    -1
  9
$DIMLWE
 70
    -1
  9
$DIMTMOVE
 70
     2
  9
$LUNITS
 70
     2
  9
$LUPREC
 70
     1
  9
$SKETCHINC
 40
0.1
  9
$FILLETRAD
 40
0.0
  9
$AUNITS
 70
     0
  9
$AUPREC
 70
     0
  9
$MENU
  1
WAVES
  9
$ELEVATION
 40
0.0
  9
$PELEVATION
 40
0.0
  9
$THICKNESS
 40
0.0
  9
$LIMCHECK
 70
     0
  9
$CHAMFERA
 40
0.0
  9
$CHAMFERB
 40
0.0
  9
$CHAMFERC
 40
0.0
  9
$CHAMFERD
 40
0.0
  9
$SKPOLY
 70
     0
  9
$TDCREATE
 40
2450631.675926736
  9
$TDUCREATE
 40
2450631.300926736
  9
$TDUPDATE
 40
2457421.714340312
  9
$TDUUPDATE
 40
2457421.339340312
  9
$TDINDWG
 40
0.0
  9
$TDUSRTIMER
 40
0.0
  9
$USRTIMER
 70
     1
  9
$ANGBASE
 50
0.0
  9
$ANGDIR
 70
     0
  9
$PDMODE
 70
     0
  9
$PDSIZE
 40
0.0
  9
$PLINEWID
 40
0.0
  9
$SPLFRAME
 70
     0
  9
$SPLINETYPE
 70
     6
  9
$SPLINESEGS
 70
     8
  9
$HANDSEED
  5
272
  9
$SURFTAB1
 70
     6
  9
$SURFTAB2
 70
     6
  9
$SURFTYPE
 70
     6
  9
$SURFU
 70
     6
  9
$SURFV
 70
     6
  9
$UCSBASE
  2

  9
$UCSNAME
  2

  9
$UCSORG
 10
0.0
 20
0.0
 30
0.0
  9
$UCSXDIR
 10
1.0
 20
0.0
 30
0.0
  9
$UCSYDIR
 10
0.0
 20
1.0
 30
0.0
  9
$UCSORTHOREF
  2

  9
$UCSORTHOVIEW
 70
     0
  9
$UCSORGTOP
 10
0.0
 20
0.0
 30
0.0
  9
$UCSORGBOTTOM
 10
0.0
 20
0.0
 30
0.0
  9
$UCSORGLEFT
 10
0.0
 20
0.0
 30
0.0
  9
$UCSORGRIGHT
 10
0.0
 20
0.0
 30
0.0
  9
$UCSORGFRONT
 10
0.0
 20
0.0
 30
0.0
  9
$UCSORGBACK
 10
0.0
 20
0.0
 30
0.0
  9
$PUCSBASE
  2

  9
$PUCSNAME
  2

  9
$PUCSORG
 10
0.0
 20
0.0
 30
0.0
  9
$PUCSXDIR
 10
1.0
 20
0.0
 30
0.0
  9
$PUCSYDIR
 10
0.0
 20
1.0
 30
0.0
  9
$PUCSORTHOREF
  2

  9
$PUCSORTHOVIEW
 70
     0
  9
$PUCSORGTOP
 10
0.0
 20
0.0
 30
0.0
  9
$PUCSORGBOTTOM
 10
0.0
 20
0.0
 30
0.0
  9
$PUCSORGLEFT
 10
0.0
 20
0.0
 30
0.0
  9
$PUCSORGRIGHT
 10
0.0
 20
0.0
 30
0.0
  9
$PUCSORGFRONT
 10
0.0
 20
0.0
 30
0.0
  9
$PUCSORGBACK
 10
0.0
 20
0.0
 30
0.0
  9
$USERI1
 70
     0
  9
$USERI2
 70
     0
  9
$USERI3
 70
     0
  9
$USERI4
 70
     0
  9
$USERI5
 70
     0
  9
$USERR1
 40
0.0
  9
$USERR2
 40
0.0
  9
$USERR3
 40
0.0
  9
$USERR4
 40
0.0
  9
$USERR5
 40
0.0
  9
$WORLDVIEW
 70
     1
  9
$SHADEDGE
 70
     3
  9
$SHADEDIF
 70
    70
  9
$TILEMODE
 70
     1
  9
$MAXACTVP
 70
    16
  9
$PINSBASE
 10
0.0
 20
0.0
 30
0.0
  9
$PLIMCHECK
 70
     0
  9
$PEXTMIN
 10
1.000000000000000E+20
 20
1.000000000000000E+20
 30
1.000000000000000E+20
  9
$PEXTMAX
 10
-1.000000000000000E+20
 20
-1.000000000000000E+20
 30
-1.000000000000000E+20
  9
$PLIMMIN
 10
-5.365753173828125
 20
-5.365749835968018
  9
$PLIMMAX
 10
414.750244140625
 20
291.5602450370789
  9
$UNITMODE
 70
     0
  9
$VISRETAIN
 70
     0
  9
$PLINEGEN
 70
     0
  9
$PSLTSCALE
 70
     0
  9
$TREEDEPTH
 70
  3020
  9
$CMLSTYLE
  2
STANDARD
  9
$CMLJUST
 70
     0
  9
$CMLSCALE
 40
1.0
  9
$PROXYGRAPHICS
 70
     1
  9
$MEASUREMENT
 70
     0
  9
$CELWEIGHT
370
    -1
  9
$ENDCAPS
280
     0
  9
$JOINSTYLE
280
     0
  9
$LWDISPLAY
290
     0
  9
$INSUNITS
 70
     0
  9
$HYPERLINKBASE
  1

  9
$STYLESHEET
  1
KH1xx.ctb
  9
$XEDIT
290
     1
  9
$CEPSNTYPE
380
     0
  9
$PSTYLEMODE
290
     1
  9
$FINGERPRINTGUID
  2
{3A219652-3426-4B31-A692-0CE8BD366F52}
  9
$VERSIONGUID
  2
{B2213255-F310-48B1-959D-F6D8FB2B0099}
  9
$EXTNAMES
290
     1
  9
$PSVPSCALE
 40
0.0
  9
$OLESTARTUP
290
     0
  9
$SORTENTS
280
   127
  9
$INDEXCTL
280
     0
  9
$HIDETEXT
280
     0
  9
$XCLIPFRAME
290
     0
  9
$HALOGAP
280
     0
  9
$OBSCOLOR
 70
   257
  9
$OBSLTYPE
280
     0
  9
$INTERSECTIONDISPLAY
280
     0
  9
$INTERSECTIONCOLOR
 70
   257
  9
$DIMASSOC
280
     1
  9
$PROJECTNAME
  1

  0
ENDSEC
  0
SECTION
  2
CLASSES
  0
CLASS
  1
ACDBDICTIONARYWDFLT
  2
AcDbDictionaryWithDefault
  3
ObjectDBX Classes
 90
        0
 91
        7
280
     0
281
     0
  0
CLASS
  1
MATERIAL
  2
AcDbMaterial
  3
ObjectDBX Classes
 90
     1153
 91
        7
280
     0
281
     0
  0
CLASS
  1
SORTENTSTABLE
  2
AcDbSortentsTable
  3
ObjectDBX Classes
 90
        0
 91
        6
280
     0
281
     0
  0
CLASS
  1
VISUALSTYLE
  2
AcDbVisualStyle
  3
ObjectDBX Classes
 90
     4095
 91
        7
280
     0
281
     0
  0
CLASS
  1
SUN
  2
AcDbSun
  3
SCENEOE
 90
     1153
 91
        7
280
     0
281
     0
  0
CLASS
  1
SCALE
  2
AcDbScale
  3
ObjectDBX Classes
 90
     1153
 91
        7
280
     0
281
     0
  0
CLASS
  1
DICTIONARYVAR
  2
AcDbDictionaryVar
  3
ObjectDBX Classes
 90
        0
 91
        5
280
     0
281
     0
  0
ENDSEC
  0
SECTION
  2
TABLES
  0
TABLE
  2
VPORT
  5
3C
102
{ACAD_XDICTIONARY
360
3D
102
}
330
0
100
AcDbSymbolTable
 70
     1
  0
VPORT
  5
44
330
3C
100
AcDbSymbolTableRecord
100
AcDbViewportTableRecord
  2
*Active
 70
     0
 10
0.0
 20
0.0
 11
1.0
 21
1.0
 12
23789.97878787339
 22
-13219.99999995645
 13
0.0
 23
0.0
 14
45.0
 24
45.0
 15
40.0
 25
40.0
 16
0.0
 26
0.0
 36
1.0
 17
0.0
 27
0.0
 37
0.0
 40
7056.000000023836
 41
1.41428427128427
 42
50.0
 43
0.0
 44
0.0
 50
0.0
 51
0.0
 71
    16
 72
   100
 73
     1
 74
     0
 75
     0
 76
     0
 77
     0
 78
     1
281
     0
 65
     1
110
0.0
120
0.0
130
0.0
111
1.0
121
0.0
131
0.0
112
0.0
122
1.0
132
0.0
 79
     0
146
0.0
1001
ACAD_NAV_VCDISPLAY
1070
     3
  0
ENDTAB
  0
TABLE
  2
LTYPE
  5
12
330
0
100
AcDbSymbolTable
 70
    14
  0
LTYPE
  5
13
330
12
100
AcDbSymbolTableRecord
100
AcDbLinetypeTableRecord
  2
BYBLOCK
 70
     0
  3

 72
    65
 73
     0
 40
0.0
  0
LTYPE
  5
14
330
12
100
AcDbSymbolTableRecord
100
AcDbLinetypeTableRecord
  2
BYLAYER
 70
     0
  3

 72
    65
 73
     0
 40
0.0
  0
LTYPE
  5
11
330
12
100
AcDbSymbolTableRecord
100
AcDbLinetypeTableRecord
  2
CONTINUOUS
 70
     0
  3
Solid line
 72
    65
 73
     0
 40
0.0
  0
LTYPE
  5
118
330
12
100
AcDbSymbolTableRecord
100
AcDbLinetypeTableRecord
  2
HIDDEN
 70
     0
  3
Hidden __ __ __ __ __ __ __ __ __ __ __ __ __ _
 72
    65
 73
     2
 40
0.375
 49
0.25
 74
     0
 49
-0.125
 74
     0
  0
LTYPE
  5
119
330
12
100
AcDbSymbolTableRecord
100
AcDbLinetypeTableRecord
  2
HIDDENX2
 70
     0
  3
Hidden (2x) ____ ____ ____ ____ ____ ____ ____
 72
    65
 73
     2
 40
0.75
 49
0.5
 74
     0
 49
-0.25
 74
     0
  0
ENDTAB
  0
TABLE
  2
LAYER
  5
2
102
{ACAD_XDICTIONARY
360
3
102
}
330
0
100
AcDbSymbolTable
 70
    19
  0
LAYER
  5
21
102
{ACAD_XDICTIONARY
360
22
102
}
330
2
100
AcDbSymbolTableRecord
100
AcDbLayerTableRecord
  2
0
 70
     0
 62
     7
  6
CONTINUOUS
370
    -3
390
A
  0
LAYER
  5
82
102
{ACAD_XDICTIONARY
360
83
102
}
330
2
100
AcDbSymbolTableRecord
100
AcDbLayerTableRecord
  2
160-文字
 70
     0
 62
   254
  6
CONTINUOUS
370
    -3
390
A
  0
LAYER
  5
6E
102
{ACAD_XDICTIONARY
360
6F
102
}
330
2
100
AcDbSymbolTableRecord
100
AcDbLayerTableRecord
  2
190-図面外枠
 70
     0
 62
     5
  6
CONTINUOUS
370
    -3
390
A
  0
LAYER
  5
7C
102
{ACAD_XDICTIONARY
360
7D
102
}
330
2
100
AcDbSymbolTableRecord
100
AcDbLayerTableRecord
  2
191-図面内枠
 70
     0
 62
     4
  6
CONTINUOUS
370
    -3
390
A
  0
LAYER
  5
F7
102
{ACAD_XDICTIONARY
360
F8
102
}
330
2
100
AcDbSymbolTableRecord
100
AcDbLayerTableRecord
  2
120-キャビネット（外）
 70
     0
 62
     7
  6
CONTINUOUS
370
    -3
390
A
  0
LAYER
  5
115
102
{ACAD_XDICTIONARY
360
116
102
}
330
2
100
AcDbSymbolTableRecord
100
AcDbLayerTableRecord
  2
121-キャビネット（中）
 70
     0
 62
   253
  6
HIDDEN
370
    -3
390
A
  0
LAYER
  5
D8
102
{ACAD_XDICTIONARY
360
D9
102
}
330
2
100
AcDbSymbolTableRecord
100
AcDbLayerTableRecord
  2
111-壁仕上
 70
     0
 62
     3
  6
CONTINUOUS
370
    -3
390
A
  0
LAYER
  5
1
330
2
100
AcDbSymbolTableRecord
100
AcDbLayerTableRecord
  2
DEFPOINTS
 70
     0
 62
   146
  6
CONTINUOUS
290
     0
370
    -3
390
A
  0
LAYER
  5
1DA
102
{ACAD_XDICTIONARY
360
1DB
102
}
330
2
100
AcDbSymbolTableRecord
100
AcDbLayerTableRecord
  2
141-パーツ
 70
     0
 62
    31
  6
CONTINUOUS
370
    -3
390
A
  0
LAYER
  5
DC
102
{ACAD_XDICTIONARY
360
DD
102
}
330
2
100
AcDbSymbolTableRecord
100
AcDbLayerTableRecord
  2
166-寸法B
 70
     0
 62
    11
  6
CONTINUOUS
370
    -3
390
A
1001
AcAecLayerStandard
1000

1000

  0
LAYER
  5
11F
102
{ACAD_XDICTIONARY
360
120
102
}
330
2
100
AcDbSymbolTableRecord
100
AcDbLayerTableRecord
  2
180-補助
 70
     0
 62
   161
  6
CONTINUOUS
370
    -3
390
A
1001
AcAecLayerStandard
1000

1000

  0
LAYER
  5
260
102
{ACAD_XDICTIONARY
360
261
102
}
330
2
100
AcDbSymbolTableRecord
100
AcDbLayerTableRecord
  2
161-番号
 70
     0
 62
   110
  6
CONTINUOUS
370
    -3
390
A
1001
AcAecLayerStandard
1000

1000

  0
ENDTAB
  0
TABLE
  2
STYLE
  5
16
330
0
100
AcDbSymbolTable
 70
     6
  0
STYLE
  5
1A
330
16
100
AcDbSymbolTableRecord
100
AcDbTextStyleTableRecord
  2
KH001
 70
     0
 40
0.0
 41
1.0
 50
0.0
 71
     0
 42
0.2
  3

  4

1001
ACAD
1000
MS Gothic
1071
    32817
  0
STYLE
  5
15
330
16
100
AcDbSymbolTableRecord
100
AcDbTextStyleTableRecord
  2
スタイル1
 70
     0
 40
0.0
 41
0.8
 50
0.0
 71
     0
 42
0.2
  3

  4

1001
ACAD
1000
HGSGothicE
1071
    32818
  0
ENDTAB
  0
TABLE
  2
VIEW
  5
3A
330
0
100
AcDbSymbolTable
 70
     2
  0
ENDTAB
  0
TABLE
  2
UCS
  5
3B
330
0
100
AcDbSymbolTable
 70
     0
  0
ENDTAB
  0
TABLE
  2
APPID
  5
8
330
0
100
AcDbSymbolTable
 70
    48
  0
APPID
  5
7
330
8
100
AcDbSymbolTableRecord
100
AcDbRegAppTableRecord
  2
ACAD
 70
     0
  0
APPID
  5
28
330
8
100
AcDbSymbolTableRecord
100
AcDbRegAppTableRecord
  2
ACAD_PSEXT
 70
     0
  0
APPID
  5
DF
330
8
100
AcDbSymbolTableRecord
100
AcDbRegAppTableRecord
  2
AcAecLayerStandard
 70
     0
  0
APPID
  5
47
330
8
100
AcDbSymbolTableRecord
100
AcDbRegAppTableRecord
  2
ACAD_NAV_VCDISPLAY
 70
     0
  0
ENDTAB
  0
TABLE
  2
DIMSTYLE
  5
19
330
0
100
AcDbSymbolTable
 70
     9
100
AcDbDimStyleTable
  0
DIMSTYLE
105
264
102
{ACAD_REACTORS
330
263
330
265
102
}
330
19
100
AcDbSymbolTableRecord
100
AcDbDimStyleTableRecord
  2
KH1xx030
 70
     0
 40
30.0
 41
0.6
 42
1.2
 43
4.5
 44
0.3
 46
1.0
 73
     0
 74
     0
 77
     3
 78
     8
140
2.0
141
1.0
147
0.5
172
     1
174
     1
176
   256
177
   256
271
     1
178
   256
271
     1
272
     1
277
     6
279
     2
340
1A
341
1B
342
33
371
    -1
372
    -1
  0
DIMSTYLE
105
18
102
{ACAD_REACTORS
330
FA
330
107
330
13E
330
14B
330
15C
330
169
330
176
330
189
330
197
330
1A4
330
1B1
330
1BE
330
1CC
330
1E7
330
1F4
330
203
330
210
330
21D
330
22E
330
23C
330
249
102
}
330
19
100
AcDbSymbolTableRecord
100
AcDbDimStyleTableRecord
  2
KH1xx020
 70
     0
 40
20.0
 41
0.6
 42
1.2
 43
5.0
 44
0.3
 46
1.0
 73
     0
 74
     0
 77
     3
 78
     8
140
2.0
141
1.0
147
0.5
172
     1
174
     1
176
   256
177
   256
271
     1
178
   256
271
     1
272
     1
277
     6
279
     2
340
1A
341
1B
342
33
371
    -1
372
    -1
  0
ENDTAB
  0
TABLE
  2
BLOCK_RECORD
  5
1C
330
0
100
AcDbSymbolTable
 70
   487
  0
BLOCK_RECORD
  5
1D
102
{ACAD_XDICTIONARY
360
1E
102
}
330
1C
100
AcDbSymbolTableRecord
100
AcDbBlockTableRecord
  2
*MODEL_SPACE
340
25
  0
BLOCK_RECORD
  5
29
330
1C
100
AcDbSymbolTableRecord
100
AcDbBlockTableRecord
  2
*PAPER_SPACE
340
2C
  0
BLOCK_RECORD
  5
1B
330
1C
100
AcDbSymbolTableRecord
100
AcDbBlockTableRecord
  2
_ClosedBlank
340
0
310
2800000020000000200000000100080000000000000400000000000000000000000000000000000000000000000080000080000000808000800000008000800080800000C0C0C000C0DCC000F0CAA6000020400000206000002080000020A0000020C0000020E00000400000004020000040400000406000004080000040A0
310
000040C0000040E00000600000006020000060400000606000006080000060A0000060C0000060E00000800000008020000080400000806000008080000080A0000080C0000080E00000A0000000A0200000A0400000A0600000A0800000A0A00000A0C00000A0E00000C0000000C0200000C0400000C0600000C0800000C0
310
A00000C0C00000C0E00000E0000000E0200000E0400000E0600000E0800000E0A00000E0C00000E0E00040000000400020004000400040006000400080004000A0004000C0004000E00040200000402020004020400040206000402080004020A0004020C0004020E000404000004040200040404000404060004040800040
310
40A0004040C0004040E00040600000406020004060400040606000406080004060A0004060C0004060E00040800000408020004080400040806000408080004080A0004080C0004080E00040A0000040A0200040A0400040A0600040A0800040A0A00040A0C00040A0E00040C0000040C0200040C0400040C0600040C08000
310
40C0A00040C0C00040C0E00040E0000040E0200040E0400040E0600040E0800040E0A00040E0C00040E0E00080000000800020008000400080006000800080008000A0008000C0008000E00080200000802020008020400080206000802080008020A0008020C0008020E00080400000804020008040400080406000804080
310
008040A0008040C0008040E00080600000806020008060400080606000806080008060A0008060C0008060E00080800000808020008080400080806000808080008080A0008080C0008080E00080A0000080A0200080A0400080A0600080A0800080A0A00080A0C00080A0E00080C0000080C0200080C0400080C0600080C0
310
800080C0A00080C0C00080C0E00080E0000080E0200080E0400080E0600080E0800080E0A00080E0C00080E0E000C0000000C0002000C0004000C0006000C0008000C000A000C000C000C000E000C0200000C0202000C0204000C0206000C0208000C020A000C020C000C020E000C0400000C0402000C0404000C0406000C0
310
408000C040A000C040C000C040E000C0600000C0602000C0604000C0606000C0608000C060A000C060C000C060E000C0800000C0802000C0804000C0806000C0808000C080A000C080C000C080E000C0A00000C0A02000C0A04000C0A06000C0A08000C0A0A000C0A0C000C0A0E000C0C00000C0C02000C0C04000C0C06000
310
C0C08000C0C0A000F0FBFF00A4A0A000808080000000FF0000FF000000FFFF00FF000000FF00FF00FFFF0000FFFFFF0000000000000000000000000000000000000000000000000000000000000000000000000000000000000000000000000000000000000000000000000000000000000000000000000000000000000000
310
00000000000000000000000000000000000000000000000000000000000000000000000000000000000000000000000000000000000000000000000000000000000000000000000000000000000000000000000000000000000000000000000000000000000000000000000000000000000000000000000000000000000000
310
00000000000000000000000000000000000000000000000000000000000000000000000000000000000000000000000000000000000000000000000000000000000000000000000000000000000000000000000000000000000000000000000000000000000000000000000000000000000000000000000000000000000000
310
0000000000000000000000000000000000000000FFFFFF0000000000000000000000000000000000000000000000000000000000FF0000FFFFFFFFFFFF0000000000000000000000000000000000000000000000FF0000000000000000FFFFFFFFFFFF0000000000000000000000000000000000FF00000000000000000000
310
00000000FFFFFFFFFFFF0000000000000000000000FF0000000000000000000000000000000000000000FFFFFFFFFFFF0000000000FF00000000000000000000000000000000000000000000000000FFFFFFFF0000FF000000000000000000000000000000000000FFFFFFFFFFFFFF000000000000FF000000000000000000
310
00FFFFFFFFFFFFFFFF00000000000000000000000000FF000000FFFFFFFFFFFFFF000000000000000000000000000000000000000000FFFFFFFF000000000000000000000000000000000000000000000000000000000000000000000000000000000000000000000000000000000000000000000000000000000000000000
310
00000000000000000000000000000000000000000000000000000000000000000000000000000000000000000000000000000000000000000000000000000000000000000000000000000000000000000000000000000000000000000000000000000000000000000000000000000000000000000000000000000000000000
310
00000000000000000000000000000000000000000000000000000000000000000000000000000000000000000000000000000000000000000000000000000000000000000000000000000000000000000000000000000000000000000000000000000000000000000000000000000000000000000000000000000000000000
310
0000000000000000000000000000000000000000000000000000000000000000000000000000000000000000000000000000000000000000
  0
BLOCK_RECORD
  5
33
330
1C
100
AcDbSymbolTableRecord
100
AcDbBlockTableRecord
  2
_Dot
340
0
310
2800000020000000200000000100080000000000000400000000000000000000000000000000000000000000000080000080000000808000800000008000800080800000C0C0C000C0DCC000F0CAA6000020400000206000002080000020A0000020C0000020E00000400000004020000040400000406000004080000040A0
310
000040C0000040E00000600000006020000060400000606000006080000060A0000060C0000060E00000800000008020000080400000806000008080000080A0000080C0000080E00000A0000000A0200000A0400000A0600000A0800000A0A00000A0C00000A0E00000C0000000C0200000C0400000C0600000C0800000C0
310
A00000C0C00000C0E00000E0000000E0200000E0400000E0600000E0800000E0A00000E0C00000E0E00040000000400020004000400040006000400080004000A0004000C0004000E00040200000402020004020400040206000402080004020A0004020C0004020E000404000004040200040404000404060004040800040
310
40A0004040C0004040E00040600000406020004060400040606000406080004060A0004060C0004060E00040800000408020004080400040806000408080004080A0004080C0004080E00040A0000040A0200040A0400040A0600040A0800040A0A00040A0C00040A0E00040C0000040C0200040C0400040C0600040C08000
310
40C0A00040C0C00040C0E00040E0000040E0200040E0400040E0600040E0800040E0A00040E0C00040E0E00080000000800020008000400080006000800080008000A0008000C0008000E00080200000802020008020400080206000802080008020A0008020C0008020E00080400000804020008040400080406000804080
310
008040A0008040C0008040E00080600000806020008060400080606000806080008060A0008060C0008060E00080800000808020008080400080806000808080008080A0008080C0008080E00080A0000080A0200080A0400080A0600080A0800080A0A00080A0C00080A0E00080C0000080C0200080C0400080C0600080C0
310
800080C0A00080C0C00080C0E00080E0000080E0200080E0400080E0600080E0800080E0A00080E0C00080E0E000C0000000C0002000C0004000C0006000C0008000C000A000C000C000C000E000C0200000C0202000C0204000C0206000C0208000C020A000C020C000C020E000C0400000C0402000C0404000C0406000C0
310
408000C040A000C040C000C040E000C0600000C0602000C0604000C0606000C0608000C060A000C060C000C060E000C0800000C0802000C0804000C0806000C0808000C080A000C080C000C080E000C0A00000C0A02000C0A04000C0A06000C0A08000C0A0A000C0A0C000C0A0E000C0C00000C0C02000C0C04000C0C06000
310
C0C08000C0C0A000F0FBFF00A4A0A000808080000000FF0000FF000000FFFF00FF000000FF00FF00FFFF0000FFFFFF0000000000000000000000000000000000000000000000000000000000000000000000000000000000000000000000000000000000000000000000000000000000000000000000000000000000000000
310
000000000000000000FF000000000000000000000000000000000000000000000000000000000000FFFFFF00000000000000000000000000000000000000000000000000000000FF00FF00FF0000000000000000000000000000000000000000000000000000FF0000FF0000FF000000000000000000000000000000000000
310
000000000000FF000000FF000000FF00000000000000000000000000000000000000000000FF00000000FF00000000FF0000000000000000000000000000000000000000FF0000000000FF0000000000FF000000000000000000000000000000000000FF000000000000FF000000000000FF00000000000000000000000000
310
000000FF00000000000000FF00000000000000000000000000000000000000000000FF0000000000000000FF000000000000000000000000000000000000000000FF000000000000000000FF0000000000000000000000000000000000000000FF00000000000000000000FF00000000000000000000000000000000000000
310
FF00000000000000000000FFFFFF0000000000000000000000000000000000FF00000000000000000000FFFFFFFFFFFFFFFFFFFF00FFFFFFFFFFFFFFFFFFFFFFFFFFFFFFFFFFFFFFFFFFFFFFFFFFFF00000000000000000000000000000000FF0000000000000000000000FFFFFF0000000000000000000000000000000000
310
00FF0000000000000000000000FF0000000000000000000000000000000000000000FF00000000000000000000FF000000000000000000000000000000000000000000FF000000000000000000FF00000000000000000000000000000000000000000000FF0000000000000000FF0000000000000000000000000000000000
310
000000000000FFFF000000000000FF000000000000FF000000000000000000000000000000000000FF0000000000FF0000000000FF0000000000000000000000000000000000000000FF00000000FF00000000FF00000000000000000000000000000000000000000000FF000000FF000000FF000000000000000000000000
310
000000000000000000000000FF0000FF0000FF0000000000000000000000000000000000000000000000000000FF00FF00FF00000000000000000000000000000000000000000000000000000000FFFFFF000000000000000000000000000000000000000000000000000000000000FF000000000000000000000000000000
310
0000000000000000000000000000000000000000000000000000000000000000000000000000000000000000000000000000000000000000
102
{BLKREFS
331
100
331
101
331
10D
331
10E
331
162
331
163
331
16F
331
170
331
190
331
191
331
19D
331
19E
331
1AA
331
1AB
331
1B7
331
1B8
331
1C5
331
1C6
331
1D2
331
1D3
331
209
331
20A
331
216
331
217
331
235
331
236
331
242
331
243
331
250
331
251
331
144
331
145
331
17C
331
17D
331
1ED
331
1EE
331
223
331
224
331
156
331
157
331
1FC
331
1FD
102
}
  0
BLOCK_RECORD
  5
71
102
{ACAD_XDICTIONARY
360
72
102
}
330
1C
100
AcDbSymbolTableRecord
100
AcDbBlockTableRecord
  2
A$C5D946DDC
340
0
310
2800000020000000200000000100080000000000000400000000000000000000000000000000000000000000000080000080000000808000800000008000800080800000C0C0C000C0DCC000F0CAA6000020400000206000002080000020A0000020C0000020E00000400000004020000040400000406000004080000040A0
310
000040C0000040E00000600000006020000060400000606000006080000060A0000060C0000060E00000800000008020000080400000806000008080000080A0000080C0000080E00000A0000000A0200000A0400000A0600000A0800000A0A00000A0C00000A0E00000C0000000C0200000C0400000C0600000C0800000C0
310
A00000C0C00000C0E00000E0000000E0200000E0400000E0600000E0800000E0A00000E0C00000E0E00040000000400020004000400040006000400080004000A0004000C0004000E00040200000402020004020400040206000402080004020A0004020C0004020E000404000004040200040404000404060004040800040
310
40A0004040C0004040E00040600000406020004060400040606000406080004060A0004060C0004060E00040800000408020004080400040806000408080004080A0004080C0004080E00040A0000040A0200040A0400040A0600040A0800040A0A00040A0C00040A0E00040C0000040C0200040C0400040C0600040C08000
310
40C0A00040C0C00040C0E00040E0000040E0200040E0400040E0600040E0800040E0A00040E0C00040E0E00080000000800020008000400080006000800080008000A0008000C0008000E00080200000802020008020400080206000802080008020A0008020C0008020E00080400000804020008040400080406000804080
310
008040A0008040C0008040E00080600000806020008060400080606000806080008060A0008060C0008060E00080800000808020008080400080806000808080008080A0008080C0008080E00080A0000080A0200080A0400080A0600080A0800080A0A00080A0C00080A0E00080C0000080C0200080C0400080C0600080C0
310
800080C0A00080C0C00080C0E00080E0000080E0200080E0400080E0600080E0800080E0A00080E0C00080E0E000C0000000C0002000C0004000C0006000C0008000C000A000C000C000C000E000C0200000C0202000C0204000C0206000C0208000C020A000C020C000C020E000C0400000C0402000C0404000C0406000C0
310
408000C040A000C040C000C040E000C0600000C0602000C0604000C0606000C0608000C060A000C060C000C060E000C0800000C0802000C0804000C0806000C0808000C080A000C080C000C080E000C0A00000C0A02000C0A04000C0A06000C0A08000C0A0A000C0A0C000C0A0E000C0C00000C0C02000C0C04000C0C06000
310
C0C08000C0C0A000F0FBFF00A4A0A000808080000000FF0000FF000000FFFF00FF000000FF00FF00FFFF0000FFFFFF0000000000000000000000000000000000000000000000000000000000000000000000000000000000000000000000000000000000000000000000000000000000000000000000000000000000000000
310
00000000000000000000000000000000000000000000000000000000000000000000000000000000000000000000000000000000000000000000000000000000000000000000000000000000000000000000000000000000000000000000000000000000000000000000000000000000000098FCFCFCFCFCFCFCFCFCFCFCFC
310
FCFCFCFCFCFCFCFCFCFCFCFCFCFCFCFC98000098FC0000000000000000000000000000000000000000000000000000FC98000098FC0000000000000000000000000000000000000000000000000000FC98000098FC0000000000000000000000000000000000000000000000000000FC98000098FC00000000000000000000
310
00000000000000000000000000000000FC98000098FC0000000000000000000000000000000000000000000000000000FC98000098FC0000000000000000000000000000000000000000000000000000FC98000098FC0000000000000000000000000000000000000000000000000000FC98000098FC000000000000000000
310
0000000000000000000000000000000000FC98000098FC0000000000000000000000000000000000000000000000000000FC98000098FC0000000000000000000000000000000000000000000000000000FC98000098FC0000000000000000000000000000000000000000000000000000FC98000098FC0000000000000000
310
000000000000000000000000000000000000FC98000098FC0000000000000000000000000000000000000000000000000000FC98000098FC0000000000000000000000000000000000000000000000000000FC98000098FC0000000000000000000000000000000000000000000000000000FC98000098FC00000000000000
310
00000000000000000000000000000000000000FC98000098FC0000000000000000000000000000000000000000000000000000FC98000098FC0000000000000000000000000000000000000000000000000000FC98000098FCFCFCFCFCFCFCFCFCFCFCFCFCFCFCFCFCFCFCFCFCFCFCFCFCFCFCFC9800000000000000000000
310
00000000000000000000000000000000000000000000000000000000000000000000000000000000000000000000000000000000000000000000000000000000000000000000000000000000000000000000000000000000000000000000000000000000000000000000000000000000000000000000000000000000000000
310
0000000000000000000000000000000000000000000000000000000000000000000000000000000000000000000000000000000000000000
102
{BLKREFS
331
6D
102
}
  0
BLOCK_RECORD
  5
FB
330
1C
100
AcDbSymbolTableRecord
100
AcDbBlockTableRecord
  2
*D363
340
0
  0
BLOCK_RECORD
  5
108
330
1C
100
AcDbSymbolTableRecord
100
AcDbBlockTableRecord
  2
*D364
340
0
  0
BLOCK_RECORD
  5
13F
330
1C
100
AcDbSymbolTableRecord
100
AcDbBlockTableRecord
  2
*D365
340
0
  0
BLOCK_RECORD
  5
14C
330
1C
100
AcDbSymbolTableRecord
100
AcDbBlockTableRecord
  2
*D366
340
0
  0
BLOCK_RECORD
  5
15D
330
1C
100
AcDbSymbolTableRecord
100
AcDbBlockTableRecord
  2
*D367
340
0
  0
BLOCK_RECORD
  5
16A
330
1C
100
AcDbSymbolTableRecord
100
AcDbBlockTableRecord
  2
*D368
340
0
  0
BLOCK_RECORD
  5
177
330
1C
100
AcDbSymbolTableRecord
100
AcDbBlockTableRecord
  2
*D369
340
0
  0
BLOCK_RECORD
  5
18A
330
1C
100
AcDbSymbolTableRecord
100
AcDbBlockTableRecord
  2
*D370
340
0
  0
BLOCK_RECORD
  5
198
330
1C
100
AcDbSymbolTableRecord
100
AcDbBlockTableRecord
  2
*D371
340
0
  0
BLOCK_RECORD
  5
1A5
330
1C
100
AcDbSymbolTableRecord
100
AcDbBlockTableRecord
  2
*D372
340
0
  0
BLOCK_RECORD
  5
1B2
330
1C
100
AcDbSymbolTableRecord
100
AcDbBlockTableRecord
  2
*D373
340
0
  0
BLOCK_RECORD
  5
1BF
330
1C
100
AcDbSymbolTableRecord
100
AcDbBlockTableRecord
  2
*D374
340
0
  0
BLOCK_RECORD
  5
1CD
330
1C
100
AcDbSymbolTableRecord
100
AcDbBlockTableRecord
  2
*D375
340
0
  0
BLOCK_RECORD
  5
1E8
330
1C
100
AcDbSymbolTableRecord
100
AcDbBlockTableRecord
  2
*D376
340
0
  0
BLOCK_RECORD
  5
1F5
330
1C
100
AcDbSymbolTableRecord
100
AcDbBlockTableRecord
  2
*D377
340
0
  0
BLOCK_RECORD
  5
204
330
1C
100
AcDbSymbolTableRecord
100
AcDbBlockTableRecord
  2
*D378
340
0
  0
BLOCK_RECORD
  5
211
330
1C
100
AcDbSymbolTableRecord
100
AcDbBlockTableRecord
  2
*D379
340
0
  0
BLOCK_RECORD
  5
21E
330
1C
100
AcDbSymbolTableRecord
100
AcDbBlockTableRecord
  2
*D380
340
0
  0
BLOCK_RECORD
  5
22F
330
1C
100
AcDbSymbolTableRecord
100
AcDbBlockTableRecord
  2
*D381
340
0
  0
BLOCK_RECORD
  5
23D
330
1C
100
AcDbSymbolTableRecord
100
AcDbBlockTableRecord
  2
*D382
340
0
  0
BLOCK_RECORD
  5
24A
330
1C
100
AcDbSymbolTableRecord
100
AcDbBlockTableRecord
  2
*D383
340
0
  0
ENDTAB
  0
ENDSEC
  0
SECTION
  2
BLOCKS
  0
BLOCK
  5
20
330
1D
100
AcDbEntity
  8
0
100
AcDbBlockBegin
  2
*MODEL_SPACE
 70
     0
 10
0.0
 20
0.0
 30
0.0
  3
*MODEL_SPACE
  1
*MODEL_SPACE
  0
ENDBLK
  5
24
330
1D
100
AcDbEntity
  8
0
100
AcDbBlockEnd
  0
BLOCK
  5
2A
330
29
100
AcDbEntity
 67
     1
  8
0
100
AcDbBlockBegin
  2
*PAPER_SPACE
 70
     0
 10
0.0
 20
0.0
 30
0.0
  3
*PAPER_SPACE
  1
*PAPER_SPACE
  0
ENDBLK
  5
2B
330
29
100
AcDbEntity
 67
     1
  8
0
100
AcDbBlockEnd
  0
BLOCK
  5
2E
330
1B
100
AcDbEntity
  8
0
100
AcDbBlockBegin
  2
_ClosedBlank
 70
     0
 10
0.0
 20
0.0
 30
0.0
  3
_ClosedBlank
  1
_ClosedBlank
  0
LINE
  5
2F
330
1B
100
AcDbEntity
  8
0
  6
ByBlock
 62
     0
370
    -2
100
AcDbLine
 10
-1.0
 20
0.1666666666666667
 30
0.0
 11
0.0
 21
0.0
 31
0.0
  0
LINE
  5
30
330
1B
100
AcDbEntity
  8
0
  6
ByBlock
 62
     0
370
    -2
100
AcDbLine
 10
0.0
 20
0.0
 30
0.0
 11
-1.0
 21
-0.1666666666666667
 31
0.0
  0
LINE
  5
31
330
1B
100
AcDbEntity
  8
0
  6
ByBlock
 62
     0
370
    -2
100
AcDbLine
 10
-1.0
 20
0.1666666666666667
 30
0.0
 11
-1.0
 21
-0.1666666666666667
 31
0.0
  0
ENDBLK
  5
32
330
1B
100
AcDbEntity
  8
0
100
AcDbBlockEnd
  0
BLOCK
  5
34
330
33
100
AcDbEntity
  8
0
100
AcDbBlockBegin
  2
_Dot
 70
     0
 10
0.0
 20
0.0
 30
0.0
  3
_Dot
  1
_Dot
  0
LWPOLYLINE
  5
35
330
33
100
AcDbEntity
  8
0
  6
ByBlock
 62
     0
100
AcDbPolyline
 90
        2
 70
     1
 43
0.5
 10
-0.25
 20
0.0
 42
1.0
 10
0.25
 20
0.0
 42
1.0
  0
LINE
  5
36
330
33
100
AcDbEntity
  8
0
  6
ByBlock
 62
     0
370
    -2
100
AcDbLine
 10
-0.5
 20
0.0
 30
0.0
 11
-1.0
 21
0.0
 31
0.0
  0
ENDBLK
  5
37
330
33
100
AcDbEntity
  8
0
100
AcDbBlockEnd
  0
BLOCK
  5
74
330
71
100
AcDbEntity
  8
0
100
AcDbBlockBegin
  2
A$C5D946DDC
 70
     0
 10
0.0
 20
0.0
 30
0.0
  3
A$C5D946DDC
  1
A$C5D946DDC
  0
LWPOLYLINE
  5
75
330
71
100
AcDbEntity
  8
DEFPOINTS
100
AcDbPolyline
 90
        4
 70
     1
 43
0.0
 10
0.0
 20
0.0
 10
20789.97878787337
 20
0.0
 10
20789.97878787337
 20
14699.99999999618
 10
0.0
 20
14699.99999999618
  0
LINE
  5
76
330
71
100
AcDbEntity
  8
190-図面外枠
100
AcDbLine
 10
270.9727272700184
 20
14349.33333333142
 30
0.0
 11
20519.00606060335
 21
14349.33333333142
 31
0.0
  0
LINE
  5
77
330
71
100
AcDbEntity
  8
190-図面外枠
100
AcDbLine
 10
20519.00606060335
 20
14349.33333333142
 30
0.0
 11
20519.00606060335
 21
350.6666666647579
 31
0.0
  0
LINE
  5
78
330
71
100
AcDbEntity
  8
190-図面外枠
100
AcDbLine
 10
20519.00606060335
 20
350.6666666647579
 30
0.0
 11
270.9727272700184
 21
350.6666666647579
 31
0.0
  0
LINE
  5
79
330
71
100
AcDbEntity
  8
190-図面外枠
100
AcDbLine
 10
270.9727272700184
 20
350.6666666647579
 30
0.0
 11
270.9727272700184
 21
14349.33333333142
 31
0.0
  0
ENDBLK
  5
7A
330
71
100
AcDbEntity
  8
0
100
AcDbBlockEnd
  0
BLOCK
  5
FC
330
FB
100
AcDbEntity
  8
0
100
AcDbBlockBegin
  2
*D363
 70
     1
 10
0.0
 20
0.0
 30
0.0
  3
*D363
  1
*D363
  0
LINE
  5
FD
330
FB
100
AcDbEntity
  8
166-寸法B
440
 16777216
100
AcDbLine
 10
21098.30687243352
 20
-12398.16237220534
 30
0.0
 11
20728.40499666415
 21
-12398.16237220534
 31
0.0
  0
LINE
  5
FE
330
FB
100
AcDbEntity
  8
166-寸法B
440
 16777216
100
AcDbLine
 10
21098.30687243352
 20
-11598.16237220534
 30
0.0
 11
20728.40499666415
 21
-11598.16237220534
 31
0.0
  0
LINE
  5
FF
330
FB
100
AcDbEntity
  8
166-寸法B
440
 16777216
100
AcDbLine
 10
20734.40499666415
 20
-12386.16237220534
 30
0.0
 11
20734.40499666415
 21
-11610.16237220534
 31
0.0
  0
INSERT
  5
100
330
FB
100
AcDbEntity
  8
166-寸法B
440
 16777216
100
AcDbBlockReference
  2
_Dot
 10
20734.40499666415
 20
-12398.16237220534
 30
0.0
 41
12.0
 42
12.0
 43
12.0
 50
270.0
  0
INSERT
  5
101
330
FB
100
AcDbEntity
  8
166-寸法B
440
 16777216
100
AcDbBlockReference
  2
_Dot
 10
20734.40499666415
 20
-11598.16237220534
 30
0.0
 41
12.0
 42
12.0
 43
12.0
 50
90.0
  0
MTEXT
  5
102
330
FB
100
AcDbEntity
  8
166-寸法B
440
 16777216
100
AcDbMText
 10
20704.40499666415
 20
-11998.16237220534
 30
0.0
 40
40.0
 41
0.0
 71
     5
 72
     1
  1
\A1;800
 11
0.0
 21
1.0
 31
0.0
 73
     1
 44
1.0
  0
POINT
  5
103
330
FB
100
AcDbEntity
  8
DEFPOINTS
 62
     0
100
AcDbPoint
 10
21122.30687243352
 20
-12398.16237220534
 30
0.0
  0
POINT
  5
104
330
FB
100
AcDbEntity
  8
DEFPOINTS
 62
     0
100
AcDbPoint
 10
21122.30687243352
 20
-11598.16237220534
 30
0.0
  0
POINT
  5
105
330
FB
100
AcDbEntity
  8
DEFPOINTS
 62
     0
100
AcDbPoint
 10
20734.40499666415
 20
-11598.16237220534
 30
0.0
  0
ENDBLK
  5
106
330
FB
100
AcDbEntity
  8
0
100
AcDbBlockEnd
  0
BLOCK
  5
109
330
108
100
AcDbEntity
  8
0
100
AcDbBlockBegin
  2
*D364
 70
     1
 10
0.0
 20
0.0
 30
0.0
  3
*D364
  1
*D364
  0
LINE
  5
10A
330
108
100
AcDbEntity
  8
166-寸法B
440
 16777216
100
AcDbLine
 10
23122.3068724334
 20
-11574.16237220534
 30
0.0
 11
23122.3068724334
 21
-11204.26237220534
 31
0.0
  0
LINE
  5
10B
330
108
100
AcDbEntity
  8
166-寸法B
440
 16777216
100
AcDbLine
 10
21122.30687243352
 20
-11574.16237220534
 30
0.0
 11
21122.30687243352
 21
-11204.26237220534
 31
0.0
  0
LINE
  5
10C
330
108
100
AcDbEntity
  8
166-寸法B
440
 16777216
100
AcDbLine
 10
23110.3068724334
 20
-11210.26237220534
 30
0.0
 11
21134.30687243352
 21
-11210.26237220534
 31
0.0
  0
INSERT
  5
10D
330
108
100
AcDbEntity
  8
166-寸法B
440
 16777216
100
AcDbBlockReference
  2
_Dot
 10
23122.3068724334
 20
-11210.26237220534
 30
0.0
 41
12.0
 42
12.0
 43
12.0
  0
INSERT
  5
10E
330
108
100
AcDbEntity
  8
166-寸法B
440
 16777216
100
AcDbBlockReference
  2
_Dot
 10
21122.30687243352
 20
-11210.26237220534
 30
0.0
 41
12.0
 42
12.0
 43
12.0
 50
180.0
  0
MTEXT
  5
10F
330
108
100
AcDbEntity
  8
166-寸法B
440
 16777216
100
AcDbMText
 10
22122.30687243346
 20
-11177.72237220534
 30
0.0
 40
40.0
 41
0.0
 71
     5
 72
     1
  1
\A1;2,000
 73
     1
 44
1.0
  0
POINT
  5
110
330
108
100
AcDbEntity
  8
DEFPOINTS
 62
     0
100
AcDbPoint
 10
23122.3068724334
 20
-11598.16237220534
 30
0.0
  0
POINT
  5
111
330
108
100
AcDbEntity
  8
DEFPOINTS
 62
     0
100
AcDbPoint
 10
21122.30687243352
 20
-11598.16237220534
 30
0.0
  0
POINT
  5
112
330
108
100
AcDbEntity
  8
DEFPOINTS
 62
     0
100
AcDbPoint
 10
21122.30687243352
 20
-11210.26237220534
 30
0.0
  0
ENDBLK
  5
113
330
108
100
AcDbEntity
  8
0
100
AcDbBlockEnd
  0
BLOCK
  5
140
330
13F
100
AcDbEntity
  8
0
100
AcDbBlockBegin
  2
*D365
 70
     1
 10
0.0
 20
0.0
 30
0.0
  3
*D365
  1
*D365
  0
LINE
  5
141
330
13F
100
AcDbEntity
  8
166-寸法B
440
 16777216
100
AcDbLine
 10
21098.30687243352
 20
-14685.23875072394
 30
0.0
 11
20728.40499666415
 21
-14685.23875072394
 31
0.0
  0
LINE
  5
142
330
13F
100
AcDbEntity
  8
166-寸法B
440
 16777216
100
AcDbLine
 10
21098.30687243352
 20
-13964.63875072393
 30
0.0
 11
20728.40499666415
 21
-13964.63875072393
 31
0.0
  0
LINE
  5
143
330
13F
100
AcDbEntity
  8
166-寸法B
440
 16777216
100
AcDbLine
 10
20734.40499666415
 20
-14673.23875072394
 30
0.0
 11
20734.40499666415
 21
-13976.63875072393
 31
0.0
  0
INSERT
  5
144
330
13F
100
AcDbEntity
  8
166-寸法B
440
 16777216
100
AcDbBlockReference
  2
_Dot
 10
20734.40499666415
 20
-14685.23875072394
 30
0.0
 41
12.0
 42
12.0
 43
12.0
 50
270.0
  0
INSERT
  5
145
330
13F
100
AcDbEntity
  8
166-寸法B
440
 16777216
100
AcDbBlockReference
  2
_Dot
 10
20734.40499666415
 20
-13964.63875072393
 30
0.0
 41
12.0
 42
12.0
 43
12.0
 50
90.0
  0
MTEXT
  5
146
330
13F
100
AcDbEntity
  8
166-寸法B
440
 16777216
100
AcDbMText
 10
20704.40499666415
 20
-14324.93875072393
 30
0.0
 40
40.0
 41
0.0
 71
     5
 72
     1
  1
\A1;720.6
 11
6.123233995736766E-17
 21
1.0
 31
0.0
 73
     1
 44
1.0
  0
POINT
  5
147
330
13F
100
AcDbEntity
  8
DEFPOINTS
 62
     0
100
AcDbPoint
 10
21122.30687243352
 20
-14685.23875072394
 30
0.0
  0
POINT
  5
148
330
13F
100
AcDbEntity
  8
DEFPOINTS
 62
     0
100
AcDbPoint
 10
21122.30687243352
 20
-13964.63875072393
 30
0.0
  0
POINT
  5
149
330
13F
100
AcDbEntity
  8
DEFPOINTS
 62
     0
100
AcDbPoint
 10
20734.40499666415
 20
-13964.63875072393
 30
0.0
  0
ENDBLK
  5
14A
330
13F
100
AcDbEntity
  8
0
100
AcDbBlockEnd
  0
BLOCK
  5
14D
330
14C
100
AcDbEntity
  8
0
100
AcDbBlockBegin
  2
*D366
 70
     1
 10
0.0
 20
0.0
 30
0.0
  3
*D366
  1
*D366
  0
LINE
  5
14E
330
14C
100
AcDbEntity
  8
166-寸法B
440
 16777216
100
AcDbLine
 10
21098.30687243352
 20
-13984.23875072393
 30
0.0
 11
20828.40499666415
 21
-13984.23875072393
 31
0.0
  0
LINE
  5
14F
330
14C
100
AcDbEntity
  8
166-寸法B
440
 16777216
100
AcDbLine
 10
21098.30687243352
 20
-13964.63875072393
 30
0.0
 11
20828.40499666415
 21
-13964.63875072393
 31
0.0
  0
LINE
  5
150
330
14C
100
AcDbEntity
  8
166-寸法B
440
 16777216
100
AcDbLine
 10
20834.40499666415
 20
-13996.23875072393
 30
0.0
 11
20834.40499666415
 21
-14008.23875072393
 31
0.0
  0
LINE
  5
151
330
14C
100
AcDbEntity
  8
166-寸法B
440
 16777216
100
AcDbLine
 10
20834.40499666415
 20
-13952.63875072393
 30
0.0
 11
20834.40499666415
 21
-13940.63875072393
 31
0.0
  0
LINE
  5
152
330
14C
100
AcDbEntity
  8
166-寸法B
440
 16777216
100
AcDbLine
 10
20834.40499666415
 20
-13823.06114889253
 30
0.0
 11
20834.40499666415
 21
-13964.63875072393
 31
0.0
  0
MTEXT
  5
153
330
14C
100
AcDbEntity
  8
166-寸法B
440
 16777216
100
AcDbMText
 10
20804.40499666415
 20
-13881.08145346105
 30
0.0
 40
40.0
 41
0.0
 71
     5
 72
     1
  1
\A1;19.6
 11
6.123233995736766E-17
 21
1.0
 31
0.0
 73
     1
 44
1.0
  0
LINE
  5
154
330
14C
100
AcDbEntity
  8
166-寸法B
440
 16777216
100
AcDbLine
 10
20834.40499666415
 20
-13984.23875072393
 30
0.0
 11
20834.40499666415
 21
-13964.63875072393
 31
0.0
  0
LINE
  5
155
330
14C
100
AcDbEntity
  8
166-寸法B
440
 16777216
100
AcDbLine
 10
20834.40499666415
 20
-13984.23875072393
 30
0.0
 11
20834.40499666415
 21
-13964.63875072393
 31
0.0
  0
INSERT
  5
156
330
14C
100
AcDbEntity
  8
166-寸法B
440
 16777216
100
AcDbBlockReference
  2
_Dot
 10
20834.40499666415
 20
-13984.23875072393
 30
0.0
 41
12.0
 42
12.0
 43
12.0
 50
90.0
  0
INSERT
  5
157
330
14C
100
AcDbEntity
  8
166-寸法B
440
 16777216
100
AcDbBlockReference
  2
_Dot
 10
20834.40499666415
 20
-13964.63875072393
 30
0.0
 41
12.0
 42
12.0
 43
12.0
 50
270.0
  0
POINT
  5
158
330
14C
100
AcDbEntity
  8
DEFPOINTS
 62
     0
100
AcDbPoint
 10
21122.30687243352
 20
-13984.23875072393
 30
0.0
  0
POINT
  5
159
330
14C
100
AcDbEntity
  8
DEFPOINTS
 62
     0
100
AcDbPoint
 10
21122.30687243352
 20
-13964.63875072393
 30
0.0
  0
POINT
  5
15A
330
14C
100
AcDbEntity
  8
DEFPOINTS
 62
     0
100
AcDbPoint
 10
20834.40499666415
 20
-13964.63875072393
 30
0.0
  0
ENDBLK
  5
15B
330
14C
100
AcDbEntity
  8
0
100
AcDbBlockEnd
  0
BLOCK
  5
15E
330
15D
100
AcDbEntity
  8
0
100
AcDbBlockBegin
  2
*D367
 70
     1
 10
0.0
 20
0.0
 30
0.0
  3
*D367
  1
*D367
  0
LINE
  5
15F
330
15D
100
AcDbEntity
  8
166-寸法B
440
 16777216
100
AcDbLine
 10
21098.30687243352
 20
-14685.23875072394
 30
0.0
 11
20828.40499666415
 21
-14685.23875072394
 31
0.0
  0
LINE
  5
160
330
15D
100
AcDbEntity
  8
166-寸法B
440
 16777216
100
AcDbLine
 10
21098.30687243352
 20
-13984.23875072393
 30
0.0
 11
20828.40499666415
 21
-13984.23875072393
 31
0.0
  0
LINE
  5
161
330
15D
100
AcDbEntity
  8
166-寸法B
440
 16777216
100
AcDbLine
 10
20834.40499666415
 20
-14673.23875072394
 30
0.0
 11
20834.40499666415
 21
-13996.23875072393
 31
0.0
  0
INSERT
  5
162
330
15D
100
AcDbEntity
  8
166-寸法B
440
 16777216
100
AcDbBlockReference
  2
_Dot
 10
20834.40499666415
 20
-14685.23875072394
 30
0.0
 41
12.0
 42
12.0
 43
12.0
 50
270.0
  0
INSERT
  5
163
330
15D
100
AcDbEntity
  8
166-寸法B
440
 16777216
100
AcDbBlockReference
  2
_Dot
 10
20834.40499666415
 20
-13984.23875072393
 30
0.0
 41
12.0
 42
12.0
 43
12.0
 50
90.0
  0
MTEXT
  5
164
330
15D
100
AcDbEntity
  8
166-寸法B
440
 16777216
100
AcDbMText
 10
20804.40499666415
 20
-14334.73875072394
 30
0.0
 40
40.0
 41
0.0
 71
     5
 72
     1
  1
\A1;701
 11
0.0
 21
1.0
 31
0.0
 73
     1
 44
1.0
  0
POINT
  5
165
330
15D
100
AcDbEntity
  8
DEFPOINTS
 62
     0
100
AcDbPoint
 10
21122.30687243352
 20
-14685.23875072394
 30
0.0
  0
POINT
  5
166
330
15D
100
AcDbEntity
  8
DEFPOINTS
 62
     0
100
AcDbPoint
 10
21122.30687243352
 20
-13984.23875072393
 30
0.0
  0
POINT
  5
167
330
15D
100
AcDbEntity
  8
DEFPOINTS
 62
     0
100
AcDbPoint
 10
20834.40499666415
 20
-13984.23875072393
 30
0.0
  0
ENDBLK
  5
168
330
15D
100
AcDbEntity
  8
0
100
AcDbBlockEnd
  0
BLOCK
  5
16B
330
16A
100
AcDbEntity
  8
0
100
AcDbBlockBegin
  2
*D368
 70
     1
 10
0.0
 20
0.0
 30
0.0
  3
*D368
  1
*D368
  0
LINE
  5
16C
330
16A
100
AcDbEntity
  8
166-寸法B
440
 16777216
100
AcDbLine
 10
21122.30687243352
 20
-14709.23875072394
 30
0.0
 11
21122.30687243352
 21
-14952.6768296533
 31
0.0
  0
LINE
  5
16D
330
16A
100
AcDbEntity
  8
166-寸法B
440
 16777216
100
AcDbLine
 10
23122.3068724334
 20
-14709.23875072394
 30
0.0
 11
23122.3068724334
 21
-14952.6768296533
 31
0.0
  0
LINE
  5
16E
330
16A
100
AcDbEntity
  8
166-寸法B
440
 16777216
100
AcDbLine
 10
21134.30687243352
 20
-14946.6768296533
 30
0.0
 11
23110.3068724334
 21
-14946.6768296533
 31
0.0
  0
INSERT
  5
16F
330
16A
100
AcDbEntity
  8
166-寸法B
440
 16777216
100
AcDbBlockReference
  2
_Dot
 10
21122.30687243352
 20
-14946.6768296533
 30
0.0
 41
12.0
 42
12.0
 43
12.0
 50
180.0
  0
INSERT
  5
170
330
16A
100
AcDbEntity
  8
166-寸法B
440
 16777216
100
AcDbBlockReference
  2
_Dot
 10
23122.3068724334
 20
-14946.6768296533
 30
0.0
 41
12.0
 42
12.0
 43
12.0
  0
MTEXT
  5
171
330
16A
100
AcDbEntity
  8
166-寸法B
440
 16777216
100
AcDbMText
 10
22122.30687243346
 20
-14914.1368296533
 30
0.0
 40
40.0
 41
0.0
 71
     5
 72
     1
  1
\A1;2,000
 73
     1
 44
1.0
  0
POINT
  5
172
330
16A
100
AcDbEntity
  8
DEFPOINTS
 62
     0
100
AcDbPoint
 10
21122.30687243352
 20
-14685.23875072394
 30
0.0
  0
POINT
  5
173
330
16A
100
AcDbEntity
  8
DEFPOINTS
 62
     0
100
AcDbPoint
 10
23122.3068724334
 20
-14685.23875072394
 30
0.0
  0
POINT
  5
174
330
16A
100
AcDbEntity
  8
DEFPOINTS
 62
     0
100
AcDbPoint
 10
23122.3068724334
 20
-14946.6768296533
 30
0.0
  0
ENDBLK
  5
175
330
16A
100
AcDbEntity
  8
0
100
AcDbBlockEnd
  0
BLOCK
  5
178
330
177
100
AcDbEntity
  8
0
100
AcDbBlockBegin
  2
*D369
 70
     1
 10
0.0
 20
0.0
 30
0.0
  3
*D369
  1
*D369
  0
LINE
  5
179
330
177
100
AcDbEntity
  8
166-寸法B
440
 16777216
100
AcDbLine
 10
21122.30687243352
 20
-13940.63875072393
 30
0.0
 11
21122.30687243352
 21
-13698.60067179458
 31
0.0
  0
LINE
  5
17A
330
177
100
AcDbEntity
  8
166-寸法B
440
 16777216
100
AcDbLine
 10
23122.30687243352
 20
-13940.63875072393
 30
0.0
 11
23122.30687243352
 21
-13698.60067179458
 31
0.0
  0
LINE
  5
17B
330
177
100
AcDbEntity
  8
166-寸法B
440
 16777216
100
AcDbLine
 10
21134.30687243352
 20
-13704.60067179458
 30
0.0
 11
23110.30687243352
 21
-13704.60067179458
 31
0.0
  0
INSERT
  5
17C
330
177
100
AcDbEntity
  8
166-寸法B
440
 16777216
100
AcDbBlockReference
  2
_Dot
 10
21122.30687243352
 20
-13704.60067179458
 30
0.0
 41
12.0
 42
12.0
 43
12.0
 50
180.0
  0
INSERT
  5
17D
330
177
100
AcDbEntity
  8
166-寸法B
440
 16777216
100
AcDbBlockReference
  2
_Dot
 10
23122.30687243352
 20
-13704.60067179458
 30
0.0
 41
12.0
 42
12.0
 43
12.0
  0
MTEXT
  5
17E
330
177
100
AcDbEntity
  8
166-寸法B
440
 16777216
100
AcDbMText
 10
22122.30687243352
 20
-13672.06260072859
 30
0.0
 40
40.0
 41
0.0
 71
     5
 72
     1
  1
\A1;2,000
 73
     1
 44
1.0
  0
POINT
  5
17F
330
177
100
AcDbEntity
  8
DEFPOINTS
 62
     0
100
AcDbPoint
 10
21122.30687243352
 20
-13964.63875072393
 30
0.0
  0
POINT
  5
180
330
177
100
AcDbEntity
  8
DEFPOINTS
 62
     0
100
AcDbPoint
 10
23122.30687243352
 20
-13964.63875072393
 30
0.0
  0
POINT
  5
181
330
177
100
AcDbEntity
  8
DEFPOINTS
 62
     0
100
AcDbPoint
 10
23122.30687243352
 20
-13704.60067179458
 30
0.0
  0
ENDBLK
  5
182
330
177
100
AcDbEntity
  8
0
100
AcDbBlockEnd
  0
BLOCK
  5
18B
330
18A
100
AcDbEntity
  8
0
100
AcDbBlockBegin
  2
*D370
 70
     1
 10
0.0
 20
0.0
 30
0.0
  3
*D370
  1
*D370
  0
LINE
  5
18C
330
18A
100
AcDbEntity
  8
166-寸法B
440
 16777216
100
AcDbLine
 10
23018.58461374673
 20
-14709.23875072393
 30
0.0
 11
23018.58461374673
 21
-14852.6768296533
 31
0.0
  0
LINE
  5
18D
330
18A
100
AcDbEntity
  8
166-寸法B
440
 16777216
100
AcDbLine
 10
23122.3068724334
 20
-14709.23875072394
 30
0.0
 11
23122.3068724334
 21
-14852.6768296533
 31
0.0
  0
LINE
  5
18E
330
18A
100
AcDbEntity
  8
166-寸法B
440
 16777216
100
AcDbLine
 10
23122.3068724334
 20
-14846.6768296533
 30
0.0
 11
23285.90972147186
 21
-14846.6768296533
 31
0.0
  0
LINE
  5
18F
330
18A
100
AcDbEntity
  8
166-寸法B
440
 16777216
100
AcDbLine
 10
23030.58461374673
 20
-14846.6768296533
 30
0.0
 11
23110.3068724334
 21
-14846.6768296533
 31
0.0
  0
INSERT
  5
190
330
18A
100
AcDbEntity
  8
166-寸法B
440
 16777216
100
AcDbBlockReference
  2
_Dot
 10
23018.58461374673
 20
-14846.6768296533
 30
0.0
 41
12.0
 42
12.0
 43
12.0
 50
180.0
  0
INSERT
  5
191
330
18A
100
AcDbEntity
  8
166-寸法B
440
 16777216
100
AcDbBlockReference
  2
_Dot
 10
23122.3068724334
 20
-14846.6768296533
 30
0.0
 41
12.0
 42
12.0
 43
12.0
  0
MTEXT
  5
192
330
18A
100
AcDbEntity
  8
166-寸法B
440
 16777216
100
AcDbMText
 10
23215.18972147186
 20
-14816.6768296533
 30
0.0
 40
40.0
 41
0.0
 71
     5
 72
     1
  1
\A1;103.7
 73
     1
 44
1.0
  0
POINT
  5
193
330
18A
100
AcDbEntity
  8
DEFPOINTS
 62
     0
100
AcDbPoint
 10
23018.58461374673
 20
-14685.23875072393
 30
0.0
  0
POINT
  5
194
330
18A
100
AcDbEntity
  8
DEFPOINTS
 62
     0
100
AcDbPoint
 10
23122.3068724334
 20
-14685.23875072394
 30
0.0
  0
POINT
  5
195
330
18A
100
AcDbEntity
  8
DEFPOINTS
 62
     0
100
AcDbPoint
 10
23122.3068724334
 20
-14846.6768296533
 30
0.0
  0
ENDBLK
  5
196
330
18A
100
AcDbEntity
  8
0
100
AcDbBlockEnd
  0
BLOCK
  5
199
330
198
100
AcDbEntity
  8
0
100
AcDbBlockBegin
  2
*D371
 70
     1
 10
0.0
 20
0.0
 30
0.0
  3
*D371
  1
*D371
  0
LINE
  5
19A
330
198
100
AcDbEntity
  8
166-寸法B
440
 16777216
100
AcDbLine
 10
22722.30687243061
 20
-14709.23875072393
 30
0.0
 11
22722.30687243061
 21
-14852.6768296533
 31
0.0
  0
LINE
  5
19B
330
198
100
AcDbEntity
  8
166-寸法B
440
 16777216
100
AcDbLine
 10
23018.58461374673
 20
-14709.23875072393
 30
0.0
 11
23018.58461374673
 21
-14852.6768296533
 31
0.0
  0
LINE
  5
19C
330
198
100
AcDbEntity
  8
166-寸法B
440
 16777216
100
AcDbLine
 10
22734.30687243061
 20
-14846.6768296533
 30
0.0
 11
23006.58461374673
 21
-14846.6768296533
 31
0.0
  0
INSERT
  5
19D
330
198
100
AcDbEntity
  8
166-寸法B
440
 16777216
100
AcDbBlockReference
  2
_Dot
 10
22722.30687243061
 20
-14846.6768296533
 30
0.0
 41
12.0
 42
12.0
 43
12.0
 50
180.0
  0
INSERT
  5
19E
330
198
100
AcDbEntity
  8
166-寸法B
440
 16777216
100
AcDbBlockReference
  2
_Dot
 10
23018.58461374673
 20
-14846.6768296533
 30
0.0
 41
12.0
 42
12.0
 43
12.0
  0
MTEXT
  5
19F
330
198
100
AcDbEntity
  8
166-寸法B
440
 16777216
100
AcDbMText
 10
22870.44574308867
 20
-14816.6768296533
 30
0.0
 40
40.0
 41
0.0
 71
     5
 72
     1
  1
\A1;296.3
 73
     1
 44
1.0
  0
POINT
  5
1A0
330
198
100
AcDbEntity
  8
DEFPOINTS
 62
     0
100
AcDbPoint
 10
22722.30687243061
 20
-14685.23875072393
 30
0.0
  0
POINT
  5
1A1
330
198
100
AcDbEntity
  8
DEFPOINTS
 62
     0
100
AcDbPoint
 10
23018.58461374673
 20
-14685.23875072393
 30
0.0
  0
POINT
  5
1A2
330
198
100
AcDbEntity
  8
DEFPOINTS
 62
     0
100
AcDbPoint
 10
23018.58461374673
 20
-14846.6768296533
 30
0.0
  0
ENDBLK
  5
1A3
330
198
100
AcDbEntity
  8
0
100
AcDbBlockEnd
  0
BLOCK
  5
1A6
330
1A5
100
AcDbEntity
  8
0
100
AcDbBlockBegin
  2
*D372
 70
     1
 10
0.0
 20
0.0
 30
0.0
  3
*D372
  1
*D372
  0
LINE
  5
1A7
330
1A5
100
AcDbEntity
  8
166-寸法B
440
 16777216
100
AcDbLine
 10
21522.30687243352
 20
-14709.23875072393
 30
0.0
 11
21522.30687243352
 21
-14852.6768296533
 31
0.0
  0
LINE
  5
1A8
330
1A5
100
AcDbEntity
  8
166-寸法B
440
 16777216
100
AcDbLine
 10
22722.30687243061
 20
-14709.23875072393
 30
0.0
 11
22722.30687243061
 21
-14852.6768296533
 31
0.0
  0
LINE
  5
1A9
330
1A5
100
AcDbEntity
  8
166-寸法B
440
 16777216
100
AcDbLine
 10
21534.30687243352
 20
-14846.6768296533
 30
0.0
 11
22710.30687243061
 21
-14846.6768296533
 31
0.0
  0
INSERT
  5
1AA
330
1A5
100
AcDbEntity
  8
166-寸法B
440
 16777216
100
AcDbBlockReference
  2
_Dot
 10
21522.30687243352
 20
-14846.6768296533
 30
0.0
 41
12.0
 42
12.0
 43
12.0
 50
180.0
  0
INSERT
  5
1AB
330
1A5
100
AcDbEntity
  8
166-寸法B
440
 16777216
100
AcDbBlockReference
  2
_Dot
 10
22722.30687243061
 20
-14846.6768296533
 30
0.0
 41
12.0
 42
12.0
 43
12.0
  0
MTEXT
  5
1AC
330
1A5
100
AcDbEntity
  8
166-寸法B
440
 16777216
100
AcDbMText
 10
22122.30687243206
 20
-14814.1368296533
 30
0.0
 40
40.0
 41
0.0
 71
     5
 72
     1
  1
\A1;1,200
 73
     1
 44
1.0
  0
POINT
  5
1AD
330
1A5
100
AcDbEntity
  8
DEFPOINTS
 62
     0
100
AcDbPoint
 10
21522.30687243352
 20
-14685.23875072393
 30
0.0
  0
POINT
  5
1AE
330
1A5
100
AcDbEntity
  8
DEFPOINTS
 62
     0
100
AcDbPoint
 10
22722.30687243061
 20
-14685.23875072393
 30
0.0
  0
POINT
  5
1AF
330
1A5
100
AcDbEntity
  8
DEFPOINTS
 62
     0
100
AcDbPoint
 10
22722.30687243061
 20
-14846.6768296533
 30
0.0
  0
ENDBLK
  5
1B0
330
1A5
100
AcDbEntity
  8
0
100
AcDbBlockEnd
  0
BLOCK
  5
1B3
330
1B2
100
AcDbEntity
  8
0
100
AcDbBlockBegin
  2
*D373
 70
     1
 10
0.0
 20
0.0
 30
0.0
  3
*D373
  1
*D373
  0
LINE
  5
1B4
330
1B2
100
AcDbEntity
  8
166-寸法B
440
 16777216
100
AcDbLine
 10
21226.02913111867
 20
-14709.23875072393
 30
0.0
 11
21226.02913111867
 21
-14852.6768296533
 31
0.0
  0
LINE
  5
1B5
330
1B2
100
AcDbEntity
  8
166-寸法B
440
 16777216
100
AcDbLine
 10
21522.30687243352
 20
-14709.23875072393
 30
0.0
 11
21522.30687243352
 21
-14852.6768296533
 31
0.0
  0
LINE
  5
1B6
330
1B2
100
AcDbEntity
  8
166-寸法B
440
 16777216
100
AcDbLine
 10
21238.02913111867
 20
-14846.6768296533
 30
0.0
 11
21510.30687243352
 21
-14846.6768296533
 31
0.0
  0
INSERT
  5
1B7
330
1B2
100
AcDbEntity
  8
166-寸法B
440
 16777216
100
AcDbBlockReference
  2
_Dot
 10
21226.02913111867
 20
-14846.6768296533
 30
0.0
 41
12.0
 42
12.0
 43
12.0
 50
180.0
  0
INSERT
  5
1B8
330
1B2
100
AcDbEntity
  8
166-寸法B
440
 16777216
100
AcDbBlockReference
  2
_Dot
 10
21522.30687243352
 20
-14846.6768296533
 30
0.0
 41
12.0
 42
12.0
 43
12.0
  0
MTEXT
  5
1B9
330
1B2
100
AcDbEntity
  8
166-寸法B
440
 16777216
100
AcDbMText
 10
21374.1680017761
 20
-14816.6768296533
 30
0.0
 40
40.0
 41
0.0
 71
     5
 72
     1
  1
\A1;296.3
 73
     1
 44
1.0
  0
POINT
  5
1BA
330
1B2
100
AcDbEntity
  8
DEFPOINTS
 62
     0
100
AcDbPoint
 10
21226.02913111867
 20
-14685.23875072393
 30
0.0
  0
POINT
  5
1BB
330
1B2
100
AcDbEntity
  8
DEFPOINTS
 62
     0
100
AcDbPoint
 10
21522.30687243352
 20
-14685.23875072393
 30
0.0
  0
POINT
  5
1BC
330
1B2
100
AcDbEntity
  8
DEFPOINTS
 62
     0
100
AcDbPoint
 10
21522.30687243352
 20
-14846.6768296533
 30
0.0
  0
ENDBLK
  5
1BD
330
1B2
100
AcDbEntity
  8
0
100
AcDbBlockEnd
  0
BLOCK
  5
1C0
330
1BF
100
AcDbEntity
  8
0
100
AcDbBlockBegin
  2
*D374
 70
     1
 10
0.0
 20
0.0
 30
0.0
  3
*D374
  1
*D374
  0
LINE
  5
1C1
330
1BF
100
AcDbEntity
  8
166-寸法B
440
 16777216
100
AcDbLine
 10
21122.30687243352
 20
-14709.23875072394
 30
0.0
 11
21122.30687243352
 21
-14852.6768296533
 31
0.0
  0
LINE
  5
1C2
330
1BF
100
AcDbEntity
  8
166-寸法B
440
 16777216
100
AcDbLine
 10
21226.02913111867
 20
-14709.23875072393
 30
0.0
 11
21226.02913111867
 21
-14852.6768296533
 31
0.0
  0
LINE
  5
1C3
330
1BF
100
AcDbEntity
  8
166-寸法B
440
 16777216
100
AcDbLine
 10
21122.30687243352
 20
-14846.6768296533
 30
0.0
 11
20962.47927096984
 21
-14846.6768296533
 31
0.0
  0
LINE
  5
1C4
330
1BF
100
AcDbEntity
  8
166-寸法B
440
 16777216
100
AcDbLine
 10
21134.30687243352
 20
-14846.6768296533
 30
0.0
 11
21214.02913111867
 21
-14846.6768296533
 31
0.0
  0
INSERT
  5
1C5
330
1BF
100
AcDbEntity
  8
166-寸法B
440
 16777216
100
AcDbBlockReference
  2
_Dot
 10
21122.30687243352
 20
-14846.6768296533
 30
0.0
 41
12.0
 42
12.0
 43
12.0
 50
180.0
  0
INSERT
  5
1C6
330
1BF
100
AcDbEntity
  8
166-寸法B
440
 16777216
100
AcDbBlockReference
  2
_Dot
 10
21226.02913111867
 20
-14846.6768296533
 30
0.0
 41
12.0
 42
12.0
 43
12.0
  0
MTEXT
  5
1C7
330
1BF
100
AcDbEntity
  8
166-寸法B
440
 16777216
100
AcDbMText
 10
21033.19927096984
 20
-14816.6768296533
 30
0.0
 40
40.0
 41
0.0
 71
     5
 72
     1
  1
\A1;103.7
 73
     1
 44
1.0
  0
POINT
  5
1C8
330
1BF
100
AcDbEntity
  8
DEFPOINTS
 62
     0
100
AcDbPoint
 10
21122.30687243352
 20
-14685.23875072394
 30
0.0
  0
POINT
  5
1C9
330
1BF
100
AcDbEntity
  8
DEFPOINTS
 62
     0
100
AcDbPoint
 10
21226.02913111867
 20
-14685.23875072393
 30
0.0
  0
POINT
  5
1CA
330
1BF
100
AcDbEntity
  8
DEFPOINTS
 62
     0
100
AcDbPoint
 10
21226.02913111867
 20
-14846.6768296533
 30
0.0
  0
ENDBLK
  5
1CB
330
1BF
100
AcDbEntity
  8
0
100
AcDbBlockEnd
  0
BLOCK
  5
1CE
330
1CD
100
AcDbEntity
  8
0
100
AcDbBlockBegin
  2
*D375
 70
     1
 10
0.0
 20
0.0
 30
0.0
  3
*D375
  1
*D375
  0
LINE
  5
1CF
330
1CD
100
AcDbEntity
  8
166-寸法B
440
 16777216
100
AcDbLine
 10
22004.81455738167
 20
-13984.23875072393
 30
0.0
 11
22001.85151364282
 21
-13984.23875072393
 31
0.0
  0
LINE
  5
1D0
330
1CD
100
AcDbEntity
  8
166-寸法B
440
 16777216
100
AcDbLine
 10
22004.81455738167
 20
-14084.23875072393
 30
0.0
 11
22001.85151364282
 21
-14084.23875072393
 31
0.0
  0
LINE
  5
1D1
330
1CD
100
AcDbEntity
  8
166-寸法B
440
 16777216
100
AcDbLine
 10
22007.85151364282
 20
-13996.23875072393
 30
0.0
 11
22007.85151364282
 21
-14072.23875072393
 31
0.0
  0
INSERT
  5
1D2
330
1CD
100
AcDbEntity
  8
166-寸法B
440
 16777216
100
AcDbBlockReference
  2
_Dot
 10
22007.85151364282
 20
-13984.23875072393
 30
0.0
 41
12.0
 42
12.0
 43
12.0
 50
90.0
  0
INSERT
  5
1D3
330
1CD
100
AcDbEntity
  8
166-寸法B
440
 16777216
100
AcDbBlockReference
  2
_Dot
 10
22007.85151364282
 20
-14084.23875072393
 30
0.0
 41
12.0
 42
12.0
 43
12.0
 50
270.0
  0
MTEXT
  5
1D4
330
1CD
100
AcDbEntity
  8
166-寸法B
440
 16777216
100
AcDbMText
 10
21977.85151364282
 20
-14034.23875072393
 30
0.0
 40
40.0
 41
0.0
 71
     5
 72
     1
  1
\A1;100
 11
0.0
 21
1.0
 31
0.0
 73
     1
 44
1.0
  0
POINT
  5
1D5
330
1CD
100
AcDbEntity
  8
DEFPOINTS
 62
     0
100
AcDbPoint
 10
22028.81455738167
 20
-13984.23875072393
 30
0.0
  0
POINT
  5
1D6
330
1CD
100
AcDbEntity
  8
DEFPOINTS
 62
     0
100
AcDbPoint
 10
22028.81455738167
 20
-14084.23875072393
 30
0.0
  0
POINT
  5
1D7
330
1CD
100
AcDbEntity
  8
DEFPOINTS
 62
     0
100
AcDbPoint
 10
22007.85151364282
 20
-14084.23875072393
 30
0.0
  0
ENDBLK
  5
1D8
330
1CD
100
AcDbEntity
  8
0
100
AcDbBlockEnd
  0
BLOCK
  5
1E9
330
1E8
100
AcDbEntity
  8
0
100
AcDbBlockBegin
  2
*D376
 70
     1
 10
0.0
 20
0.0
 30
0.0
  3
*D376
  1
*D376
  0
LINE
  5
1EA
330
1E8
100
AcDbEntity
  8
166-寸法B
440
 16777216
100
AcDbLine
 10
24905.95765242644
 20
-14685.23875072394
 30
0.0
 11
24562.53810395568
 21
-14685.23875072394
 31
0.0
  0
LINE
  5
1EB
330
1E8
100
AcDbEntity
  8
166-寸法B
440
 16777216
100
AcDbLine
 10
24905.95765242667
 20
-13964.63875072393
 30
0.0
 11
24562.53810395568
 21
-13964.63875072393
 31
0.0
  0
LINE
  5
1EC
330
1E8
100
AcDbEntity
  8
166-寸法B
440
 16777216
100
AcDbLine
 10
24568.53810395568
 20
-14673.23875072394
 30
0.0
 11
24568.53810395568
 21
-13976.63875072393
 31
0.0
  0
INSERT
  5
1ED
330
1E8
100
AcDbEntity
  8
166-寸法B
440
 16777216
100
AcDbBlockReference
  2
_Dot
 10
24568.53810395568
 20
-14685.23875072394
 30
0.0
 41
12.0
 42
12.0
 43
12.0
 50
270.0
  0
INSERT
  5
1EE
330
1E8
100
AcDbEntity
  8
166-寸法B
440
 16777216
100
AcDbBlockReference
  2
_Dot
 10
24568.53810395568
 20
-13964.63875072393
 30
0.0
 41
12.0
 42
12.0
 43
12.0
 50
90.0
  0
MTEXT
  5
1EF
330
1E8
100
AcDbEntity
  8
166-寸法B
440
 16777216
100
AcDbMText
 10
24538.53810395569
 20
-14324.93875072393
 30
0.0
 40
40.0
 41
0.0
 71
     5
 72
     1
  1
\A1;720.6
 11
6.123233995736766E-17
 21
1.0
 31
0.0
 73
     1
 44
1.0
  0
POINT
  5
1F0
330
1E8
100
AcDbEntity
  8
DEFPOINTS
 62
     0
100
AcDbPoint
 10
24929.95765242644
 20
-14685.23875072394
 30
0.0
  0
POINT
  5
1F1
330
1E8
100
AcDbEntity
  8
DEFPOINTS
 62
     0
100
AcDbPoint
 10
24929.95765242667
 20
-13964.63875072393
 30
0.0
  0
POINT
  5
1F2
330
1E8
100
AcDbEntity
  8
DEFPOINTS
 62
     0
100
AcDbPoint
 10
24568.53810395568
 20
-13964.63875072393
 30
0.0
  0
ENDBLK
  5
1F3
330
1E8
100
AcDbEntity
  8
0
100
AcDbBlockEnd
  0
BLOCK
  5
1F6
330
1F5
100
AcDbEntity
  8
0
100
AcDbBlockBegin
  2
*D377
 70
     1
 10
0.0
 20
0.0
 30
0.0
  3
*D377
  1
*D377
  0
LINE
  5
1F7
330
1F5
100
AcDbEntity
  8
166-寸法B
440
 16777216
100
AcDbLine
 10
24905.95765242667
 20
-13984.23875072393
 30
0.0
 11
24662.53810395545
 21
-13984.23875072393
 31
0.0
  0
LINE
  5
1F8
330
1F5
100
AcDbEntity
  8
166-寸法B
440
 16777216
100
AcDbLine
 10
24905.95765242667
 20
-13964.63875072393
 30
0.0
 11
24662.53810395545
 21
-13964.63875072393
 31
0.0
  0
LINE
  5
1F9
330
1F5
100
AcDbEntity
  8
166-寸法B
440
 16777216
100
AcDbLine
 10
24668.53810395545
 20
-13996.23875072393
 30
0.0
 11
24668.53810395545
 21
-14008.23875072393
 31
0.0
  0
LINE
  5
1FA
330
1F5
100
AcDbEntity
  8
166-寸法B
440
 16777216
100
AcDbLine
 10
24668.53810395545
 20
-13952.63875072393
 30
0.0
 11
24668.53810395545
 21
-13824.59814158688
 31
0.0
  0
LINE
  5
1FB
330
1F5
100
AcDbEntity
  8
166-寸法B
440
 16777216
100
AcDbLine
 10
24668.53810395545
 20
-13984.23875072393
 30
0.0
 11
24668.53810395545
 21
-13964.63875072393
 31
0.0
  0
INSERT
  5
1FC
330
1F5
100
AcDbEntity
  8
166-寸法B
440
 16777216
100
AcDbBlockReference
  2
_Dot
 10
24668.53810395545
 20
-13984.23875072393
 30
0.0
 41
12.0
 42
12.0
 43
12.0
 50
90.0
  0
INSERT
  5
1FD
330
1F5
100
AcDbEntity
  8
166-寸法B
440
 16777216
100
AcDbBlockReference
  2
_Dot
 10
24668.53810395545
 20
-13964.63875072393
 30
0.0
 41
12.0
 42
12.0
 43
12.0
 50
270.0
  0
MTEXT
  5
1FE
330
1F5
100
AcDbEntity
  8
166-寸法B
440
 16777216
100
AcDbMText
 10
24638.53810395545
 20
-13882.6184461554
 30
0.0
 40
40.0
 41
0.0
 71
     5
 72
     1
  1
\A1;19.6
 11
6.123233995736766E-17
 21
1.0
 31
0.0
 73
     1
 44
1.0
  0
POINT
  5
1FF
330
1F5
100
AcDbEntity
  8
DEFPOINTS
 62
     0
100
AcDbPoint
 10
24929.95765242667
 20
-13984.23875072393
 30
0.0
  0
POINT
  5
200
330
1F5
100
AcDbEntity
  8
DEFPOINTS
 62
     0
100
AcDbPoint
 10
24929.95765242667
 20
-13964.63875072393
 30
0.0
  0
POINT
  5
201
330
1F5
100
AcDbEntity
  8
DEFPOINTS
 62
     0
100
AcDbPoint
 10
24668.53810395545
 20
-13964.63875072393
 30
0.0
  0
ENDBLK
  5
202
330
1F5
100
AcDbEntity
  8
0
100
AcDbBlockEnd
  0
BLOCK
  5
205
330
204
100
AcDbEntity
  8
0
100
AcDbBlockBegin
  2
*D378
 70
     1
 10
0.0
 20
0.0
 30
0.0
  3
*D378
  1
*D378
  0
LINE
  5
206
330
204
100
AcDbEntity
  8
166-寸法B
440
 16777216
100
AcDbLine
 10
24905.95765242644
 20
-14685.23875072394
 30
0.0
 11
24662.53810395545
 21
-14685.23875072394
 31
0.0
  0
LINE
  5
207
330
204
100
AcDbEntity
  8
166-寸法B
440
 16777216
100
AcDbLine
 10
24905.95765242667
 20
-13984.23875072393
 30
0.0
 11
24662.53810395545
 21
-13984.23875072393
 31
0.0
  0
LINE
  5
208
330
204
100
AcDbEntity
  8
166-寸法B
440
 16777216
100
AcDbLine
 10
24668.53810395545
 20
-14673.23875072394
 30
0.0
 11
24668.53810395545
 21
-13996.23875072393
 31
0.0
  0
INSERT
  5
209
330
204
100
AcDbEntity
  8
166-寸法B
440
 16777216
100
AcDbBlockReference
  2
_Dot
 10
24668.53810395545
 20
-14685.23875072394
 30
0.0
 41
12.0
 42
12.0
 43
12.0
 50
270.0
  0
INSERT
  5
20A
330
204
100
AcDbEntity
  8
166-寸法B
440
 16777216
100
AcDbBlockReference
  2
_Dot
 10
24668.53810395545
 20
-13984.23875072393
 30
0.0
 41
12.0
 42
12.0
 43
12.0
 50
90.0
  0
MTEXT
  5
20B
330
204
100
AcDbEntity
  8
166-寸法B
440
 16777216
100
AcDbMText
 10
24638.53810395545
 20
-14334.73875072394
 30
0.0
 40
40.0
 41
0.0
 71
     5
 72
     1
  1
\A1;701
 11
0.0
 21
1.0
 31
0.0
 73
     1
 44
1.0
  0
POINT
  5
20C
330
204
100
AcDbEntity
  8
DEFPOINTS
 62
     0
100
AcDbPoint
 10
24929.95765242644
 20
-14685.23875072394
 30
0.0
  0
POINT
  5
20D
330
204
100
AcDbEntity
  8
DEFPOINTS
 62
     0
100
AcDbPoint
 10
24929.95765242667
 20
-13984.23875072393
 30
0.0
  0
POINT
  5
20E
330
204
100
AcDbEntity
  8
DEFPOINTS
 62
     0
100
AcDbPoint
 10
24668.53810395545
 20
-13984.23875072393
 30
0.0
  0
ENDBLK
  5
20F
330
204
100
AcDbEntity
  8
0
100
AcDbBlockEnd
  0
BLOCK
  5
212
330
211
100
AcDbEntity
  8
0
100
AcDbBlockBegin
  2
*D379
 70
     1
 10
0.0
 20
0.0
 30
0.0
  3
*D379
  1
*D379
  0
LINE
  5
213
330
211
100
AcDbEntity
  8
166-寸法B
440
 16777216
100
AcDbLine
 10
24929.95765242644
 20
-14709.23875072394
 30
0.0
 11
24929.95765242644
 21
-14952.6768296533
 31
0.0
  0
LINE
  5
214
330
211
100
AcDbEntity
  8
166-寸法B
440
 16777216
100
AcDbLine
 10
25729.95765242644
 20
-14709.23875072394
 30
0.0
 11
25729.95765242644
 21
-14952.6768296533
 31
0.0
  0
LINE
  5
215
330
211
100
AcDbEntity
  8
166-寸法B
440
 16777216
100
AcDbLine
 10
24941.95765242644
 20
-14946.6768296533
 30
0.0
 11
25717.95765242644
 21
-14946.6768296533
 31
0.0
  0
INSERT
  5
216
330
211
100
AcDbEntity
  8
166-寸法B
440
 16777216
100
AcDbBlockReference
  2
_Dot
 10
24929.95765242644
 20
-14946.6768296533
 30
0.0
 41
12.0
 42
12.0
 43
12.0
 50
180.0
  0
INSERT
  5
217
330
211
100
AcDbEntity
  8
166-寸法B
440
 16777216
100
AcDbBlockReference
  2
_Dot
 10
25729.95765242644
 20
-14946.6768296533
 30
0.0
 41
12.0
 42
12.0
 43
12.0
  0
MTEXT
  5
218
330
211
100
AcDbEntity
  8
166-寸法B
440
 16777216
100
AcDbMText
 10
25329.95765242644
 20
-14916.6768296533
 30
0.0
 40
40.0
 41
0.0
 71
     5
 72
     1
  1
\A1;800
 73
     1
 44
1.0
  0
POINT
  5
219
330
211
100
AcDbEntity
  8
DEFPOINTS
 62
     0
100
AcDbPoint
 10
24929.95765242644
 20
-14685.23875072394
 30
0.0
  0
POINT
  5
21A
330
211
100
AcDbEntity
  8
DEFPOINTS
 62
     0
100
AcDbPoint
 10
25729.95765242644
 20
-14685.23875072394
 30
0.0
  0
POINT
  5
21B
330
211
100
AcDbEntity
  8
DEFPOINTS
 62
     0
100
AcDbPoint
 10
25729.95765242644
 20
-14946.6768296533
 30
0.0
  0
ENDBLK
  5
21C
330
211
100
AcDbEntity
  8
0
100
AcDbBlockEnd
  0
BLOCK
  5
21F
330
21E
100
AcDbEntity
  8
0
100
AcDbBlockBegin
  2
*D380
 70
     1
 10
0.0
 20
0.0
 30
0.0
  3
*D380
  1
*D380
  0
LINE
  5
220
330
21E
100
AcDbEntity
  8
166-寸法B
440
 16777216
100
AcDbLine
 10
24929.95765242667
 20
-13940.63875072393
 30
0.0
 11
24929.95765242667
 21
-13698.60067179458
 31
0.0
  0
LINE
  5
221
330
21E
100
AcDbEntity
  8
166-寸法B
440
 16777216
100
AcDbLine
 10
25729.95765242644
 20
-13940.63875072393
 30
0.0
 11
25729.95765242644
 21
-13698.60067179458
 31
0.0
  0
LINE
  5
222
330
21E
100
AcDbEntity
  8
166-寸法B
440
 16777216
100
AcDbLine
 10
24941.95765242667
 20
-13704.60067179458
 30
0.0
 11
25717.95765242644
 21
-13704.60067179458
 31
0.0
  0
INSERT
  5
223
330
21E
100
AcDbEntity
  8
166-寸法B
440
 16777216
100
AcDbBlockReference
  2
_Dot
 10
24929.95765242667
 20
-13704.60067179458
 30
0.0
 41
12.0
 42
12.0
 43
12.0
 50
180.0
  0
INSERT
  5
224
330
21E
100
AcDbEntity
  8
166-寸法B
440
 16777216
100
AcDbBlockReference
  2
_Dot
 10
25729.95765242644
 20
-13704.60067179458
 30
0.0
 41
12.0
 42
12.0
 43
12.0
  0
MTEXT
  5
225
330
21E
100
AcDbEntity
  8
166-寸法B
440
 16777216
100
AcDbMText
 10
25329.95765242656
 20
-13674.60067179458
 30
0.0
 40
40.0
 41
0.0
 71
     5
 72
     1
  1
\A1;800
 73
     1
 44
1.0
  0
POINT
  5
226
330
21E
100
AcDbEntity
  8
DEFPOINTS
 62
     0
100
AcDbPoint
 10
24929.95765242667
 20
-13964.63875072393
 30
0.0
  0
POINT
  5
227
330
21E
100
AcDbEntity
  8
DEFPOINTS
 62
     0
100
AcDbPoint
 10
25729.95765242644
 20
-13964.63875072393
 30
0.0
  0
POINT
  5
228
330
21E
100
AcDbEntity
  8
DEFPOINTS
 62
     0
100
AcDbPoint
 10
25729.95765242644
 20
-13704.60067179458
 30
0.0
  0
ENDBLK
  5
229
330
21E
100
AcDbEntity
  8
0
100
AcDbBlockEnd
  0
BLOCK
  5
230
330
22F
100
AcDbEntity
  8
0
100
AcDbBlockBegin
  2
*D381
 70
     1
 10
0.0
 20
0.0
 30
0.0
  3
*D381
  1
*D381
  0
LINE
  5
231
330
22F
100
AcDbEntity
  8
166-寸法B
440
 16777216
100
AcDbLine
 10
25626.23539374105
 20
-14709.23875072393
 30
0.0
 11
25626.23539374105
 21
-14852.6768296533
 31
0.0
  0
LINE
  5
232
330
22F
100
AcDbEntity
  8
166-寸法B
440
 16777216
100
AcDbLine
 10
25729.95765242644
 20
-14709.23875072394
 30
0.0
 11
25729.95765242644
 21
-14852.6768296533
 31
0.0
  0
LINE
  5
233
330
22F
100
AcDbEntity
  8
166-寸法B
440
 16777216
100
AcDbLine
 10
25729.95765242644
 20
-14846.6768296533
 30
0.0
 11
25893.84207913248
 21
-14846.6768296533
 31
0.0
  0
LINE
  5
234
330
22F
100
AcDbEntity
  8
166-寸法B
440
 16777216
100
AcDbLine
 10
25638.23539374105
 20
-14846.6768296533
 30
0.0
 11
25717.95765242644
 21
-14846.6768296533
 31
0.0
  0
INSERT
  5
235
330
22F
100
AcDbEntity
  8
166-寸法B
440
 16777216
100
AcDbBlockReference
  2
_Dot
 10
25626.23539374105
 20
-14846.6768296533
 30
0.0
 41
12.0
 42
12.0
 43
12.0
 50
180.0
  0
INSERT
  5
236
330
22F
100
AcDbEntity
  8
166-寸法B
440
 16777216
100
AcDbBlockReference
  2
_Dot
 10
25729.95765242644
 20
-14846.6768296533
 30
0.0
 41
12.0
 42
12.0
 43
12.0
  0
MTEXT
  5
237
330
22F
100
AcDbEntity
  8
166-寸法B
440
 16777216
100
AcDbMText
 10
25823.12207913247
 20
-14816.6768296533
 30
0.0
 40
40.0
 41
0.0
 71
     5
 72
     1
  1
\A1;103.7
 73
     1
 44
1.0
  0
POINT
  5
238
330
22F
100
AcDbEntity
  8
DEFPOINTS
 62
     0
100
AcDbPoint
 10
25626.23539374105
 20
-14685.23875072393
 30
0.0
  0
POINT
  5
239
330
22F
100
AcDbEntity
  8
DEFPOINTS
 62
     0
100
AcDbPoint
 10
25729.95765242644
 20
-14685.23875072394
 30
0.0
  0
POINT
  5
23A
330
22F
100
AcDbEntity
  8
DEFPOINTS
 62
     0
100
AcDbPoint
 10
25729.95765242644
 20
-14846.6768296533
 30
0.0
  0
ENDBLK
  5
23B
330
22F
100
AcDbEntity
  8
0
100
AcDbBlockEnd
  0
BLOCK
  5
23E
330
23D
100
AcDbEntity
  8
0
100
AcDbBlockBegin
  2
*D382
 70
     1
 10
0.0
 20
0.0
 30
0.0
  3
*D382
  1
*D382
  0
LINE
  5
23F
330
23D
100
AcDbEntity
  8
166-寸法B
440
 16777216
100
AcDbLine
 10
25033.67991111195
 20
-14709.23875072393
 30
0.0
 11
25033.67991111195
 21
-14852.6768296533
 31
0.0
  0
LINE
  5
240
330
23D
100
AcDbEntity
  8
166-寸法B
440
 16777216
100
AcDbLine
 10
25626.23539374105
 20
-14709.23875072393
 30
0.0
 11
25626.23539374105
 21
-14852.6768296533
 31
0.0
  0
LINE
  5
241
330
23D
100
AcDbEntity
  8
166-寸法B
440
 16777216
100
AcDbLine
 10
25045.67991111195
 20
-14846.6768296533
 30
0.0
 11
25614.23539374105
 21
-14846.6768296533
 31
0.0
  0
INSERT
  5
242
330
23D
100
AcDbEntity
  8
166-寸法B
440
 16777216
100
AcDbBlockReference
  2
_Dot
 10
25033.67991111195
 20
-14846.6768296533
 30
0.0
 41
12.0
 42
12.0
 43
12.0
 50
180.0
  0
INSERT
  5
243
330
23D
100
AcDbEntity
  8
166-寸法B
440
 16777216
100
AcDbBlockReference
  2
_Dot
 10
25626.23539374105
 20
-14846.6768296533
 30
0.0
 41
12.0
 42
12.0
 43
12.0
  0
MTEXT
  5
244
330
23D
100
AcDbEntity
  8
166-寸法B
440
 16777216
100
AcDbMText
 10
25329.9576524265
 20
-14816.6768296533
 30
0.0
 40
40.0
 41
0.0
 71
     5
 72
     1
  1
\A1;592.6
 73
     1
 44
1.0
  0
POINT
  5
245
330
23D
100
AcDbEntity
  8
DEFPOINTS
 62
     0
100
AcDbPoint
 10
25033.67991111195
 20
-14685.23875072393
 30
0.0
  0
POINT
  5
246
330
23D
100
AcDbEntity
  8
DEFPOINTS
 62
     0
100
AcDbPoint
 10
25626.23539374105
 20
-14685.23875072393
 30
0.0
  0
POINT
  5
247
330
23D
100
AcDbEntity
  8
DEFPOINTS
 62
     0
100
AcDbPoint
 10
25626.23539374105
 20
-14846.6768296533
 30
0.0
  0
ENDBLK
  5
248
330
23D
100
AcDbEntity
  8
0
100
AcDbBlockEnd
  0
BLOCK
  5
24B
330
24A
100
AcDbEntity
  8
0
100
AcDbBlockBegin
  2
*D383
 70
     1
 10
0.0
 20
0.0
 30
0.0
  3
*D383
  1
*D383
  0
LINE
  5
24C
330
24A
100
AcDbEntity
  8
166-寸法B
440
 16777216
100
AcDbLine
 10
24929.95765242644
 20
-14709.23875072394
 30
0.0
 11
24929.95765242644
 21
-14852.6768296533
 31
0.0
  0
LINE
  5
24D
330
24A
100
AcDbEntity
  8
166-寸法B
440
 16777216
100
AcDbLine
 10
25033.67991111195
 20
-14709.23875072393
 30
0.0
 11
25033.67991111195
 21
-14852.6768296533
 31
0.0
  0
LINE
  5
24E
330
24A
100
AcDbEntity
  8
166-寸法B
440
 16777216
100
AcDbLine
 10
24929.95765242644
 20
-14846.6768296533
 30
0.0
 11
24762.26184913606
 21
-14846.6768296533
 31
0.0
  0
LINE
  5
24F
330
24A
100
AcDbEntity
  8
166-寸法B
440
 16777216
100
AcDbLine
 10
24941.95765242644
 20
-14846.6768296533
 30
0.0
 11
25021.67991111195
 21
-14846.6768296533
 31
0.0
  0
INSERT
  5
250
330
24A
100
AcDbEntity
  8
166-寸法B
440
 16777216
100
AcDbBlockReference
  2
_Dot
 10
24929.95765242644
 20
-14846.6768296533
 30
0.0
 41
12.0
 42
12.0
 43
12.0
 50
180.0
  0
INSERT
  5
251
330
24A
100
AcDbEntity
  8
166-寸法B
440
 16777216
100
AcDbBlockReference
  2
_Dot
 10
25033.67991111195
 20
-14846.6768296533
 30
0.0
 41
12.0
 42
12.0
 43
12.0
  0
MTEXT
  5
252
330
24A
100
AcDbEntity
  8
166-寸法B
440
 16777216
100
AcDbMText
 10
24832.98184913606
 20
-14816.6768296533
 30
0.0
 40
40.0
 41
0.0
 71
     5
 72
     1
  1
\A1;103.7
 73
     1
 44
1.0
  0
POINT
  5
253
330
24A
100
AcDbEntity
  8
DEFPOINTS
 62
     0
100
AcDbPoint
 10
24929.95765242644
 20
-14685.23875072394
 30
0.0
  0
POINT
  5
254
330
24A
100
AcDbEntity
  8
DEFPOINTS
 62
     0
100
AcDbPoint
 10
25033.67991111195
 20
-14685.23875072393
 30
0.0
  0
POINT
  5
255
330
24A
100
AcDbEntity
  8
DEFPOINTS
 62
     0
100
AcDbPoint
 10
25033.67991111195
 20
-14846.6768296533
 30
0.0
  0
ENDBLK
  5
256
330
24A
100
AcDbEntity
  8
0
100
AcDbBlockEnd
  0
ENDSEC
  0
SECTION
  2
ENTITIES
  0
INSERT
  5
6D
330
1D
100
AcDbEntity
  8
190-図面外枠
100
AcDbBlockReference
  2
A$C5D946DDC
 10
19631.98303028359
 20
-16159.99999996638
 30
0.0
 41
0.4000000000014552
 42
0.4000000000014552
 43
0.4000000000014552
  0
LINE
  5
7B
330
1D
100
AcDbEntity
  8
191-図面内枠
100
AcDbLine
 10
19740.37212119158
 20
-15475.11333330219
 30
0.0
 11
27839.58545449912
 21
-15475.11333330219
 31
0.0
  0
MTEXT
  5
7F
330
1D
100
AcDbEntity
  8
191-図面内枠
100
AcDbMText
 10
19772.34512319148
 20
-15526.56216663538
 30
0.0
 40
43.99999999985993
 41
384.6245729987755
 71
     4
 72
     1
  1
備考欄/NOTE 
 73
     1
 44
0.7828267384257844
  0
POINT
  5
80
330
1D
100
AcDbEntity
  8
191-図面内枠
100
AcDbPoint
 10
19740.37212119158
 20
-16019.73333330048
 30
0.0
  0
MTEXT
  5
81
330
1D
100
AcDbEntity
  8
160-文字
100
AcDbMText
 10
25802.49263563775
 20
-15796.48459996714
 30
0.0
 40
60.0
 41
0.0
 71
     5
 72
     1
  1
1/20
 73
     1
 44
0.8762322015334063
  0
MTEXT
  5
85
330
1D
100
AcDbEntity
  8
160-文字
100
AcDbMText
 10
25802.49263563775
 20
-15884.48459996714
 30
0.0
 40
60.0
 41
0.0
 71
     5
 72
     1
  1
(A3)
 73
     1
 44
0.8762322015334063
  0
MTEXT
  5
86
330
1D
100
AcDbEntity
  8
191-図面内枠
100
AcDbMText
 10
27279.12197116762
 20
-15526.56216663538
 30
0.0
 40
43.99999999985994
 41
0.0
 71
     4
 72
     1
  1
図面番号/NO.
 73
     1
 44
0.7828267384257844
  0
MTEXT
  5
87
330
1D
100
AcDbEntity
  8
191-図面内枠
100
AcDbMText
 10
26016.01763209212
 20
-15526.56216663538
 30
0.0
 40
43.99999999985994
 41
0.0
 71
     4
 72
     1
  1
図面名称/TITLE
 73
     1
 44
0.7828267384257844
  0
LINE
  5
88
330
1D
100
AcDbEntity
  8
191-図面内枠
100
AcDbLine
 10
27252.63082116772
 20
-15475.11333330219
 30
0.0
 11
27252.63082116772
 21
-16019.73333330048
 31
0.0
  0
MTEXT
  5
89
330
1D
100
AcDbEntity
  8
191-図面内枠
100
AcDbMText
 10
25815.95536144217
 20
-15526.56216663538
 30
0.0
 40
43.99999999985994
 41
0.0
 71
     5
 72
     1
  1
縮尺/SCALE
 73
     1
 44
0.7828267384257844
  0
LINE
  5
8A
330
1D
100
AcDbEntity
  8
191-図面内枠
100
AcDbLine
 10
25984.71242358838
 20
-15475.11333330219
 30
0.0
 11
25984.71242358838
 21
-16019.73333330048
 31
0.0
  0
LINE
  5
8B
330
1D
100
AcDbEntity
  8
191-図面内枠
100
AcDbLine
 10
25635.55988121661
 20
-15475.11333330219
 30
0.0
 11
25635.55988121661
 21
-16019.73333330048
 31
0.0
  0
LINE
  5
8C
330
1D
100
AcDbEntity
  8
191-図面内枠
100
AcDbLine
 10
25635.55988121661
 20
-15578.01099996854
 30
0.0
 11
25984.71242358838
 21
-15578.01099996854
 31
0.0
  0
LINE
  5
8D
330
1D
100
AcDbEntity
  8
191-図面内枠
100
AcDbLine
 10
22553.88007146388
 20
-15475.11333330219
 30
0.0
 11
22553.88007146388
 21
-16019.73333330048
 31
0.0
  0
LINE
  5
8E
330
1D
100
AcDbEntity
  8
191-図面内枠
100
AcDbLine
 10
22645.95684582472
 20
-15475.11333330219
 30
0.0
 11
22645.95684582472
 21
-16019.73333330048
 31
0.0
  0
LINE
  5
8F
330
1D
100
AcDbEntity
  8
191-図面内枠
100
AcDbLine
 10
22766.59938562464
 20
-15475.11333330219
 30
0.0
 11
22766.59938562464
 21
-16019.73333330048
 31
0.0
  0
MTEXT
  5
90
330
1D
100
AcDbEntity
  8
160-文字
100
AcDbMText
 10
22599.91845864418
 20
-15747.42333330172
 30
0.0
 40
48.0
 41
0.0
 71
     5
 72
     1
  1
改\P\P訂
 73
     1
 44
0.8762322015334063
  0
LINE
  5
91
330
1D
100
AcDbEntity
  8
DEFPOINTS
100
AcDbLine
 10
22645.95684582472
 20
-15475.11333330219
 30
0.0
 11
22553.88007146388
 21
-16019.73333330125
 31
0.0
  0
LINE
  5
92
330
1D
100
AcDbEntity
  8
191-図面内枠
100
AcDbLine
 10
22645.95684582472
 20
-15801.06666663458
 30
0.0
 11
25635.55988121661
 21
-15801.06666663458
 31
0.0
  0
LINE
  5
93
330
1D
100
AcDbEntity
  8
191-図面内枠
100
AcDbLine
 10
22645.95684582472
 20
-15910.39999996791
 30
0.0
 11
25635.55988121661
 21
-15910.39999996791
 31
0.0
  0
LINE
  5
94
330
1D
100
AcDbEntity
  8
DEFPOINTS
100
AcDbLine
 10
22766.59938562464
 20
-15910.39999996791
 30
0.0
 11
22645.95684582472
 21
-16019.73333330048
 31
0.0
  0
LINE
  5
95
330
1D
100
AcDbEntity
  8
DEFPOINTS
100
AcDbLine
 10
23203.0272739412
 20
-15910.39999996791
 30
0.0
 11
22766.59938562464
 21
-16019.73333330125
 31
0.0
  0
MTEXT
  5
96
330
1D
100
AcDbEntity
  8
160-文字
100
AcDbMText
 10
22706.2781157248
 20
-15965.06666663419
 30
0.0
 40
40.0
 41
0.0
 71
     5
 72
     1
  1
0
 73
     1
 44
0.8762322015334063
  0
LINE
  5
97
330
1D
100
AcDbEntity
  8
DEFPOINTS
100
AcDbLine
 10
22766.59938562464
 20
-15801.06666663458
 30
0.0
 11
22645.95684582472
 21
-15910.39999996714
 31
0.0
  0
MTEXT
  5
98
330
1D
100
AcDbEntity
  8
160-文字
100
AcDbMText
 10
22706.2781157248
 20
-15855.73333330086
 30
0.0
 40
40.0
 41
0.0
 71
     5
 72
     1
  1
1
 73
     1
 44
0.8762322015334063
  0
LINE
  5
99
330
1D
100
AcDbEntity
  8
191-図面内枠
100
AcDbLine
 10
22645.95684582472
 20
-15692.39999996791
 30
0.0
 11
25635.55988121685
 21
-15692.39999996791
 31
0.0
  0
LINE
  5
9A
330
1D
100
AcDbEntity
  8
DEFPOINTS
100
AcDbLine
 10
22766.59938562487
 20
-15692.39999996791
 30
0.0
 11
22645.95684582472
 21
-15801.06666663381
 31
0.0
  0
MTEXT
  5
9B
330
1D
100
AcDbEntity
  8
160-文字
100
AcDbMText
 10
22706.2781157248
 20
-15746.73333330086
 30
0.0
 40
40.0
 41
0.0
 71
     5
 72
     1
  1
2
 73
     1
 44
0.8762322015334063
  0
LINE
  5
9C
330
1D
100
AcDbEntity
  8
DEFPOINTS
100
AcDbLine
 10
22766.59938562464
 20
-15583.73333330125
 30
0.0
 11
22645.95684582472
 21
-15692.39999996789
 31
0.0
  0
MTEXT
  5
9D
330
1D
100
AcDbEntity
  8
160-文字
100
AcDbMText
 10
22706.2781157248
 20
-15638.06666663457
 30
0.0
 40
40.0
 41
0.0
 71
     5
 72
     1
  1
3
 73
     1
 44
0.8762322015334063
  0
LINE
  5
9E
330
1D
100
AcDbEntity
  8
DEFPOINTS
100
AcDbLine
 10
22766.59938562464
 20
-15475.11333330219
 30
0.0
 11
22645.95684582472
 21
-15583.77999996883
 31
0.0
  0
MTEXT
  5
9F
330
1D
100
AcDbEntity
  8
160-文字
100
AcDbMText
 10
22706.2781157248
 20
-15529.44666663551
 30
0.0
 40
40.0
 41
0.0
 71
     5
 72
     1
  1
4
 73
     1
 44
0.8762322015334063
  0
LINE
  5
A0
330
1D
100
AcDbEntity
  8
191-図面内枠
100
AcDbLine
 10
22645.95684582472
 20
-15583.73333330125
 30
0.0
 11
25635.55988121685
 21
-15583.73333330125
 31
0.0
  0
LINE
  5
A1
330
1D
100
AcDbEntity
  8
191-図面内枠
100
AcDbLine
 10
23203.0272739412
 20
-15475.11333330219
 30
0.0
 11
23203.0272739412
 21
-16019.73333330048
 31
0.0
  0
MTEXT
  5
A2
330
1D
100
AcDbEntity
  8
160-文字
100
AcDbMText
 10
26618.67162237805
 20
-15747.42333330172
 30
0.0
 40
59.99999999999999
 41
0.0
 71
     5
 72
     1
  1
{\fＭＳ ゴシック|b0|i0|c128|p0;ダイニングテーブル\PV\P2000×800}
 73
     1
 44
0.7829999999999999
1001
ACAD
1000
ACAD_MTEXT_DEFINED_HEIGHT_BEGIN
1070
    46
1040
222.66
1000
ACAD_MTEXT_DEFINED_HEIGHT_END
  0
MTEXT
  5
A3
330
1D
100
AcDbEntity
  8
160-文字
100
AcDbMText
 10
27546.1081378581
 20
-15798.8721666338
 30
0.0
 40
59.99999999999999
 41
0.0
 71
     5
 72
     1
  1
000620-2
 73
     1
 44
0.8762322015334065
1001
ACAD
1000
ACAD_MTEXT_DEFINED_HEIGHT_BEGIN
1070
    46
1040
59.99999999999999
1000
ACAD_MTEXT_DEFINED_HEIGHT_END
  0
TEXT
  5
A4
330
1D
100
AcDbEntity
  8
160-文字
100
AcDbText
 10
19804.63876841485
 20
-15617.046405819
 30
0.0
 40
47.99999999999999
  1
1、仕様は改良のため予告なく変更することがあります。
100
AcDbText
1001
ACAD
1000
ACAD_MTEXT_DEFINED_HEIGHT_BEGIN
1070
    46
1040
0.0
1000
ACAD_MTEXT_DEFINED_HEIGHT_END
  0
TEXT
  5
A5
330
1D
100
AcDbEntity
  8
DEFPOINTS
100
AcDbText
 10
19804.63876841485
 20
-15681.60105633719
 30
0.0
 40
47.99999999999999
  1
2、（　）内寸法は、ワークトップ高さ910mmの場合を示す。
100
AcDbText
1001
ACAD
1000
ACAD_MTEXT_DEFINED_HEIGHT_BEGIN
1070
    46
1040
0.0
1000
ACAD_MTEXT_DEFINED_HEIGHT_END
  0
TEXT
  5
A6
330
1D
100
AcDbEntity
  8
DEFPOINTS
100
AcDbText
 10
19804.63876841485
 20
-15754.93438967052
 30
0.0
 40
47.99999999999999
  1
3、［　］内寸法は、セットのＬ・Ｒを反転させた場合を示す。
100
AcDbText
1001
ACAD
1000
ACAD_MTEXT_DEFINED_HEIGHT_BEGIN
1070
    46
1040
0.0
1000
ACAD_MTEXT_DEFINED_HEIGHT_END
  0
TEXT
  5
A7
330
1D
100
AcDbEntity
  8
DEFPOINTS
100
AcDbText
 10
19804.63876841485
 20
-15828.26772300386
 30
0.0
 40
47.99999999999999
  1
3、クリアランスは推奨寸法で記載しております。
100
AcDbText
1001
ACAD
1000
ACAD_MTEXT_DEFINED_HEIGHT_BEGIN
1070
    46
1040
0.0
1000
ACAD_MTEXT_DEFINED_HEIGHT_END
  0
TEXT
  5
A8
330
1D
100
AcDbEntity
  8
DEFPOINTS
100
AcDbText
 10
19804.63876841485
 20
-15901.60105633719
 30
0.0
 40
47.99999999999999
  1
4、本図は、天井高2400想定で記載されておりますが、各物件ごとに高さ調整し、ご使用ください。
100
AcDbText
1001
ACAD
1000
ACAD_MTEXT_DEFINED_HEIGHT_BEGIN
1070
    46
1040
0.0
1000
ACAD_MTEXT_DEFINED_HEIGHT_END
  0
TEXT
  5
A9
330
1D
100
AcDbEntity
  8
DEFPOINTS
100
AcDbText
 10
19804.63876841485
 20
-15974.93438967052
 30
0.0
 40
47.99999999999999
  1
6、仕様は改良のため予告なく変更することがあります。
100
AcDbText
1001
ACAD
1000
ACAD_MTEXT_DEFINED_HEIGHT_BEGIN
1070
    46
1040
0.0
1000
ACAD_MTEXT_DEFINED_HEIGHT_END
  0
TEXT
  5
AA
330
1D
100
AcDbEntity
  8
160-文字
100
AcDbText
 10
19825.86527977069
 20
-10531.29373038152
 30
0.0
 40
83.33333333333331
  1
ダイニングテーブル　V　2000×800
 11
19825.86527977069
 21
-10489.62706371485
 31
0.0
100
AcDbText
 73
     2
  0
LWPOLYLINE
  5
AB
330
1D
100
AcDbEntity
  8
190-図面外枠
100
AcDbPolyline
 90
        2
 70
     0
 43
0.0
 10
19740.37212119158
 20
-10570.95892250217
 10
27839.58545451728
 20
-10570.95892250217
  0
LWPOLYLINE
  5
AC
330
1D
100
AcDbEntity
  8
160-文字
 62
     6
100
AcDbPolyline
 90
        4
 70
     1
 43
0.0
 10
26407.8690309138
 20
-10677.73225583549
 10
26548.65654660924
 20
-10677.73225583549
 10
26548.65654660924
 20
-10751.1722558355
 10
26407.8690309138
 20
-10751.1722558355
  0
MTEXT
  5
AD
330
1D
100
AcDbEntity
  8
160-文字
100
AcDbMText
 10
26478.26278876164
 20
-10714.45225583549
 30
0.0
 40
35.09999999999999
 41
0.0
 71
     5
 72
     1
  1
番号
 73
     1
 44
1.0
  0
LINE
  5
AE
330
1D
100
AcDbEntity
  8
DEFPOINTS
100
AcDbLine
 10
26548.65654660924
 20
-10677.73225583549
 30
0.0
 11
26407.8690309138
 21
-10751.1722558355
 31
0.0
  0
LWPOLYLINE
  5
AF
330
1D
100
AcDbEntity
  8
160-文字
 62
     6
100
AcDbPolyline
 90
        4
 70
     1
 43
0.0
 10
26548.65654660924
 20
-10677.73225583549
 10
27610.569041454
 20
-10677.73225583549
 10
27610.569041454
 20
-10751.1722558355
 10
26548.65654660924
 20
-10751.1722558355
  0
MTEXT
  5
B0
330
1D
100
AcDbEntity
  8
160-文字
100
AcDbMText
 10
27129.61279403162
 20
-10714.45225583549
 30
0.0
 40
35.09999999999999
 41
0.0
 71
     5
 72
     1
  1
名　称
 73
     1
 44
1.0
  0
MTEXT
  5
B1
330
1D
100
AcDbEntity
  8
160-文字
100
AcDbMText
 10
26478.26278876164
 20
-10787.8922558355
 30
0.0
 40
44.27999999999999
 41
0.0
 71
     5
 72
     1
  1
①
 73
     1
 44
1.0
  0
LINE
  5
B2
330
1D
100
AcDbEntity
  8
DEFPOINTS
100
AcDbLine
 10
26407.8690309138
 20
-10751.1722558355
 30
0.0
 11
27610.569041454
 21
-10751.1722558355
 31
0.0
  0
LINE
  5
B3
330
1D
100
AcDbEntity
  8
DEFPOINTS
100
AcDbLine
 10
26548.65654660924
 20
-10751.1722558355
 30
0.0
 11
26407.8690309138
 21
-10824.6122558355
 31
0.0
  0
LWPOLYLINE
  5
B4
330
1D
100
AcDbEntity
  8
160-文字
 62
     6
100
AcDbPolyline
 90
        4
 70
     1
 43
0.0
 10
26407.8690309138
 20
-10751.1722558355
 10
26548.65654660924
 20
-10751.1722558355
 10
26548.65654660924
 20
-10824.6122558355
 10
26407.8690309138
 20
-10824.6122558355
  0
MTEXT
  5
B5
330
1D
100
AcDbEntity
  8
160-文字
100
AcDbMText
 10
26570.25654660934
 20
-10787.8922558355
 30
0.0
 40
37.79999999999999
 41
0.0
 71
     4
 72
     1
  1
ﾃｰﾌﾞﾙﾄｯﾌﾟ
 73
     1
 44
1.0
  0
LWPOLYLINE
  5
B6
330
1D
100
AcDbEntity
  8
160-文字
 62
     6
100
AcDbPolyline
 90
        4
 70
     1
 43
0.0
 10
26548.65654660924
 20
-10751.1722558355
 10
27610.569041454
 20
-10751.1722558355
 10
27610.569041454
 20
-10824.6122558355
 10
26548.65654660924
 20
-10824.6122558355
  0
LINE
  5
B7
330
1D
100
AcDbEntity
  8
DEFPOINTS
100
AcDbLine
 10
26570.25654660934
 20
-10751.1722558355
 30
0.0
 11
26570.25654660934
 21
-11044.9322558355
 31
0.0
  0
LINE
  5
B8
330
1D
100
AcDbEntity
  8
DEFPOINTS
100
AcDbLine
 10
26548.65654660924
 20
-10751.1722558355
 30
0.0
 11
27610.569041454
 21
-10677.73225583549
 31
0.0
  0
LINE
  5
B9
330
1D
100
AcDbEntity
  8
DEFPOINTS
100
AcDbLine
 10
27266.73541185562
 20
-10751.1722558355
 30
0.0
 11
27266.73541185562
 21
-11044.9322558355
 31
0.0
  0
MTEXT
  5
BA
330
1D
100
AcDbEntity
  8
160-文字
100
AcDbMText
 10
26478.26278876164
 20
-10861.3322558355
 30
0.0
 40
44.27999999999999
 41
0.0
 71
     5
 72
     1
  1
②
 73
     1
 44
1.0
  0
LINE
  5
BB
330
1D
100
AcDbEntity
  8
DEFPOINTS
100
AcDbLine
 10
26548.65654660924
 20
-10824.6122558355
 30
0.0
 11
26407.8690309138
 21
-10898.0522558355
 31
0.0
  0
LWPOLYLINE
  5
BC
330
1D
100
AcDbEntity
  8
160-文字
 62
     6
100
AcDbPolyline
 90
        4
 70
     1
 43
0.0
 10
26407.8690309138
 20
-10824.6122558355
 10
26548.65654660924
 20
-10824.6122558355
 10
26548.65654660924
 20
-10898.0522558355
 10
26407.8690309138
 20
-10898.0522558355
  0
MTEXT
  5
BD
330
1D
100
AcDbEntity
  8
160-文字
100
AcDbMText
 10
26570.25654660934
 20
-10861.3322558355
 30
0.0
 40
37.79999999999999
 41
0.0
 71
     4
 72
     1
  1
{\fＭＳ ゴシック|b0|i0|c128|p0;補強桟}
 73
     1
 44
1.0
1001
ACAD
1000
ACAD_MTEXT_DEFINED_HEIGHT_BEGIN
1070
    46
1040
37.79999999999999
1000
ACAD_MTEXT_DEFINED_HEIGHT_END
  0
LWPOLYLINE
  5
BE
330
1D
100
AcDbEntity
  8
160-文字
 62
     6
100
AcDbPolyline
 90
        4
 70
     1
 43
0.0
 10
26548.65654660924
 20
-10824.6122558355
 10
27610.569041454
 20
-10824.6122558355
 10
27610.569041454
 20
-10898.0522558355
 10
26548.65654660924
 20
-10898.0522558355
  0
MTEXT
  5
BF
330
1D
100
AcDbEntity
  8
160-文字
100
AcDbMText
 10
26478.26278876164
 20
-10934.7722558355
 30
0.0
 40
44.27999999999999
 41
0.0
 71
     5
 72
     1
  1
③
 73
     1
 44
1.0
  0
LINE
  5
C0
330
1D
100
AcDbEntity
  8
DEFPOINTS
100
AcDbLine
 10
26548.65654660924
 20
-10898.0522558355
 30
0.0
 11
26407.8690309138
 21
-10971.4922558355
 31
0.0
  0
LWPOLYLINE
  5
C1
330
1D
100
AcDbEntity
  8
160-文字
 62
     6
100
AcDbPolyline
 90
        4
 70
     1
 43
0.0
 10
26407.8690309138
 20
-10898.0522558355
 10
26548.65654660924
 20
-10898.0522558355
 10
26548.65654660924
 20
-10971.4922558355
 10
26407.8690309138
 20
-10971.4922558355
  0
MTEXT
  5
C2
330
1D
100
AcDbEntity
  8
160-文字
100
AcDbMText
 10
26570.25654660934
 20
-10934.7722558355
 30
0.0
 40
37.79999999999999
 41
0.0
 71
     4
 72
     1
  1
{\fＭＳ ゴシック|b0|i0|c128|p0;ﾊﾟﾈﾙ脚用部材A}
 73
     1
 44
1.0
1001
ACAD
1000
ACAD_MTEXT_DEFINED_HEIGHT_BEGIN
1070
    46
1040
37.79999999999999
1000
ACAD_MTEXT_DEFINED_HEIGHT_END
  0
LWPOLYLINE
  5
C3
330
1D
100
AcDbEntity
  8
160-文字
 62
     6
100
AcDbPolyline
 90
        4
 70
     1
 43
0.0
 10
26548.65654660924
 20
-10898.0522558355
 10
27610.569041454
 20
-10898.0522558355
 10
27610.569041454
 20
-10971.4922558355
 10
26548.65654660924
 20
-10971.4922558355
  0
MTEXT
  5
C4
330
1D
100
AcDbEntity
  8
160-文字
100
AcDbMText
 10
27266.73541185562
 20
-10935.73028445508
 30
0.0
 40
37.79999999999999
 41
0.0
 71
     4
 72
     1
  1
{t19}
 73
     1
 44
1.0
1001
ACAD
1000
ACAD_MTEXT_DEFINED_HEIGHT_BEGIN
1070
    46
1040
37.79999999999999
1000
ACAD_MTEXT_DEFINED_HEIGHT_END
  0
LWPOLYLINE
  5
C5
330
1D
100
AcDbEntity
  8
160-文字
 62
     6
100
AcDbPolyline
 90
        4
 70
     1
 43
0.0
 10
26407.8690309138
 20
-11044.9322558355
 10
26548.65654660924
 20
-11044.9322558355
 10
26548.65654660924
 20
-11118.3722558355
 10
26407.8690309138
 20
-11118.3722558355
  0
MTEXT
  5
C6
330
1D
100
AcDbEntity
  8
160-文字
100
AcDbMText
 10
26570.25654660934
 20
-11081.6522558355
 30
0.0
 40
37.79999999999999
 41
0.0
 71
     4
 72
     1
  1
取付部品ｾｯﾄ
 73
     1
 44
1.0
  0
LWPOLYLINE
  5
C7
330
1D
100
AcDbEntity
  8
160-文字
 62
     6
100
AcDbPolyline
 90
        4
 70
     1
 43
0.0
 10
26548.65654660924
 20
-11044.9322558355
 10
27610.569041454
 20
-11044.9322558355
 10
27610.569041454
 20
-11118.3722558355
 10
26548.65654660924
 20
-11118.3722558355
  0
LWPOLYLINE
  5
C8
330
1D
100
AcDbEntity
  8
160-文字
 62
     6
100
AcDbPolyline
 90
        4
 70
     1
 43
0.0
 10
27610.569041454
 20
-10677.73225583549
 10
27803.15593344043
 20
-10677.73225583549
 10
27803.15593344043
 20
-10751.17225583549
 10
27610.569041454
 20
-10751.17225583549
  0
MTEXT
  5
C9
330
1D
100
AcDbEntity
  8
160-文字
100
AcDbMText
 10
27706.86248744722
 20
-10714.45225583549
 30
0.0
 40
35.09999999999999
 41
0.0
 71
     5
 72
     1
  1
数量
 73
     1
 44
1.0
  0
LINE
  5
CA
330
1D
100
AcDbEntity
  8
DEFPOINTS
100
AcDbLine
 10
27803.15593344043
 20
-10677.73225583549
 30
0.0
 11
27610.569041454
 21
-10751.1722558355
 31
0.0
  0
MTEXT
  5
CB
330
1D
100
AcDbEntity
  8
160-文字
100
AcDbMText
 10
27706.86248744722
 20
-10787.8922558355
 30
0.0
 40
44.27999999999999
 41
0.0
 71
     5
 72
     1
  1
1
 73
     1
 44
1.0
  0
LINE
  5
CC
330
1D
100
AcDbEntity
  8
DEFPOINTS
100
AcDbLine
 10
27803.15593344043
 20
-10751.1722558355
 30
0.0
 11
27610.569041454
 21
-10824.61225583549
 31
0.0
  0
LWPOLYLINE
  5
CD
330
1D
100
AcDbEntity
  8
160-文字
 62
     6
100
AcDbPolyline
 90
        4
 70
     1
 43
0.0
 10
27610.569041454
 20
-10751.17225583549
 10
27803.15593344043
 20
-10751.17225583549
 10
27803.15593344043
 20
-10824.61225583549
 10
27610.569041454
 20
-10824.61225583549
  0
LINE
  5
CE
330
1D
100
AcDbEntity
  8
DEFPOINTS
100
AcDbLine
 10
27803.15593344043
 20
-10824.61225583549
 30
0.0
 11
27610.569041454
 21
-10898.0522558355
 31
0.0
  0
LWPOLYLINE
  5
CF
330
1D
100
AcDbEntity
  8
160-文字
 62
     6
100
AcDbPolyline
 90
        4
 70
     1
 43
0.0
 10
27610.569041454
 20
-10824.61225583549
 10
27803.15593344043
 20
-10824.61225583549
 10
27803.15593344043
 20
-10898.05225583549
 10
27610.569041454
 20
-10898.05225583549
  0
LINE
  5
D0
330
1D
100
AcDbEntity
  8
DEFPOINTS
100
AcDbLine
 10
27803.15593344043
 20
-10898.0522558355
 30
0.0
 11
27610.569041454
 21
-10971.4922558355
 31
0.0
  0
LWPOLYLINE
  5
D1
330
1D
100
AcDbEntity
  8
160-文字
 62
     6
100
AcDbPolyline
 90
        4
 70
     1
 43
0.0
 10
27610.569041454
 20
-10898.05225583549
 10
27803.15593344043
 20
-10898.05225583549
 10
27803.15593344043
 20
-10971.49225583549
 10
27610.569041454
 20
-10971.49225583549
  0
LWPOLYLINE
  5
D2
330
1D
100
AcDbEntity
  8
160-文字
 62
     6
100
AcDbPolyline
 90
        4
 70
     1
 43
0.0
 10
27610.569041454
 20
-11044.93225583549
 10
27803.15593344043
 20
-11044.93225583549
 10
27803.15593344043
 20
-11118.37225583549
 10
27610.569041454
 20
-11118.37225583549
  0
LWPOLYLINE
  5
D3
330
1D
100
AcDbEntity
  8
160-文字
 62
     6
100
AcDbPolyline
 90
        4
 70
     1
 43
0.0
 10
27610.569041454
 20
-10677.73225583548
 10
27803.15593344043
 20
-10677.73225583548
 10
27803.15593344043
 20
-10677.73225583549
 10
27610.569041454
 20
-10677.73225583549
  0
LINE
  5
D4
330
1D
100
AcDbEntity
  8
DEFPOINTS
100
AcDbLine
 10
27803.15593344043
 20
-11044.9322558355
 30
0.0
 11
27610.569041454
 21
-11118.3722558355
 31
0.0
  0
MTEXT
  5
D5
330
1D
100
AcDbEntity
  8
160-文字
100
AcDbMText
 10
27706.86248744722
 20
-10934.77225583549
 30
0.0
 40
44.27999999999999
 41
0.0
 71
     5
 72
     1
  1
2
 73
     1
 44
1.0
  0
MTEXT
  5
D6
330
1D
100
AcDbEntity
  8
160-文字
100
AcDbMText
 10
27706.86248744722
 20
-11081.6522558355
 30
0.0
 40
44.27999999999999
 41
0.0
 71
     5
 72
     1
  1
1
 73
     1
 44
1.0
  0
LINE
  5
D7
330
1D
100
AcDbEntity
  8
111-壁仕上
 48
2.0
100
AcDbLine
 10
20455.95423799532
 20
-14685.23875072393
 30
0.0
 11
26530.82133667229
 21
-14685.23875072393
 31
0.0
  0
CIRCLE
  5
DB
330
1D
100
AcDbEntity
  8
166-寸法B
100
AcDbCircle
 10
22078.28162877029
 20
-13024.82798430689
 30
0.0
 40
77.11740949756849
  0
LINE
  5
E0
330
1D
100
AcDbEntity
  8
166-寸法B
100
AcDbLine
 10
22078.28162877029
 20
-12923.71057480931
 30
0.0
 11
22078.28162877029
 21
-12971.71057480931
 31
0.0
  0
LINE
  5
E1
330
1D
100
AcDbEntity
  8
166-寸法B
100
AcDbLine
 10
22025.16421927279
 20
-13024.82798430689
 30
0.0
 11
21977.16421927279
 21
-13024.82798430689
 31
0.0
  0
MTEXT
  5
E2
330
1D
100
AcDbEntity
  8
166-寸法B
100
AcDbMText
 10
22078.28162877029
 20
-12890.11057480933
 30
0.0
 40
47.99999999999999
 41
0.0
 71
     5
 72
     1
  1
{\fArial|b0|i0|c0|p32;A}
 73
     1
 44
1.0
  0
MTEXT
  5
E3
330
1D
100
AcDbEntity
  8
166-寸法B
100
AcDbMText
 10
21953.10445193993
 20
-13024.82798430689
 30
0.0
 40
47.99999999999999
 41
0.0
 71
     5
 72
     1
  1
{\fArial|b0|i0|c0|p32;B}
 73
     1
 44
1.0
  0
MTEXT
  5
E4
330
1D
100
AcDbEntity
  8
160-文字
100
AcDbMText
 10
25314.11322100752
 20
-15322.05462738913
 30
0.0
 40
45.33333333333331
 41
0.0
 71
     5
 72
     1
  1
{\fArial|b0|i0|c0|p32;B}面展開図
 73
     1
 44
1.0
  0
LWPOLYLINE
  5
E5
330
1D
100
AcDbEntity
  8
160-文字
100
AcDbPolyline
 90
        4
 70
     1
 43
0.0
 10
25124.1035520382
 20
-15278.57909921565
 10
25504.12288997683
 20
-15278.57909921565
 10
25504.12288997683
 20
-15365.53015556262
 10
25124.1035520382
 20
-15365.53015556262
  0
LINE
  5
E6
330
1D
100
AcDbEntity
  8
DEFPOINTS
100
AcDbLine
 10
25504.12288997683
 20
-15278.57909921566
 30
0.0
 11
25124.1035520382
 21
-15365.5301555626
 31
0.0
  0
MTEXT
  5
E7
330
1D
100
AcDbEntity
  8
160-文字
100
AcDbMText
 10
22102.15841149399
 20
-15322.05462738913
 30
0.0
 40
45.33333333333331
 41
0.0
 71
     5
 72
     1
  1
{\fArial|b0|i0|c0|p32;A}面展開図
 73
     1
 44
1.0
  0
LWPOLYLINE
  5
E8
330
1D
100
AcDbEntity
  8
160-文字
100
AcDbPolyline
 90
        4
 70
     1
 43
0.0
 10
21912.14874252467
 20
-15278.57909921565
 10
22292.16808046331
 20
-15278.57909921565
 10
22292.16808046331
 20
-15365.53015556262
 10
21912.14874252467
 20
-15365.53015556262
  0
LINE
  5
E9
330
1D
100
AcDbEntity
  8
DEFPOINTS
100
AcDbLine
 10
22292.16808046331
 20
-15278.57909921566
 30
0.0
 11
21912.14874252467
 21
-15365.5301555626
 31
0.0
  0
MTEXT
  5
EA
330
1D
100
AcDbEntity
  8
160-文字
100
AcDbMText
 10
22984.81332978292
 20
-15965.06666663458
 30
0.0
 40
40.0
 41
0.0
 71
     5
 72
     1
  1
{2015.07.31}
 73
     1
 44
0.8762322015334063
1001
ACAD
1000
ACAD_MTEXT_DEFINED_HEIGHT_BEGIN
1070
    46
1040
40.0
1000
ACAD_MTEXT_DEFINED_HEIGHT_END
  0
MTEXT
  5
EB
330
1D
100
AcDbEntity
  8
160-文字
100
AcDbMText
 10
23219.8997702176
 20
-15965.06666663381
 30
0.0
 40
40.0
 41
0.0
 71
     4
 72
     1
  1
{新規作成(ｸﾞﾗﾌﾃｸﾄﾘﾘｰｽに伴い複製)}
 73
     1
 44
0.8762322015334063
1001
ACAD
1000
ACAD_MTEXT_DEFINED_HEIGHT_BEGIN
1070
    46
1040
40.0
1000
ACAD_MTEXT_DEFINED_HEIGHT_END
  0
MTEXT
  5
EC
330
1D
100
AcDbEntity
  8
160-文字
100
AcDbMText
 10
26478.26278876164
 20
-11008.2122558355
 30
0.0
 40
44.27999999999999
 41
0.0
 71
     5
 72
     1
  1
{④}
 73
     1
 44
1.0
1001
ACAD
1000
ACAD_MTEXT_DEFINED_HEIGHT_BEGIN
1070
    46
1040
44.27999999999999
1000
ACAD_MTEXT_DEFINED_HEIGHT_END
  0
MTEXT
  5
ED
330
1D
100
AcDbEntity
  8
160-文字
100
AcDbMText
 10
26570.25654660934
 20
-11008.2122558355
 30
0.0
 40
37.79999999999999
 41
0.0
 71
     4
 72
     1
  1
{\fＭＳ ゴシック|b0|i0|c128|p0;ﾊﾟﾈﾙ脚用部材B}
 73
     1
 44
1.0
1001
ACAD
1000
ACAD_MTEXT_DEFINED_HEIGHT_BEGIN
1070
    46
1040
37.79999999999999
1000
ACAD_MTEXT_DEFINED_HEIGHT_END
  0
MTEXT
  5
EE
330
1D
100
AcDbEntity
  8
160-文字
100
AcDbMText
 10
27266.73541185562
 20
-11009.17028445508
 30
0.0
 40
37.79999999999999
 41
0.0
 71
     4
 72
     1
  1
{t19}
 73
     1
 44
1.0
1001
ACAD
1000
ACAD_MTEXT_DEFINED_HEIGHT_BEGIN
1070
    46
1040
37.79999999999999
1000
ACAD_MTEXT_DEFINED_HEIGHT_END
  0
MTEXT
  5
EF
330
1D
100
AcDbEntity
  8
160-文字
100
AcDbMText
 10
27706.86248744722
 20
-11008.21225583549
 30
0.0
 40
44.27999999999999
 41
0.0
 71
     5
 72
     1
  1
2
 73
     1
 44
1.0
  0
LINE
  5
F0
330
1D
100
AcDbEntity
  8
DEFPOINTS
100
AcDbLine
 10
26548.65654660924
 20
-10971.4922558355
 30
0.0
 11
26407.8690309138
 21
-11044.9322558355
 31
0.0
  0
LWPOLYLINE
  5
F1
330
1D
100
AcDbEntity
  8
160-文字
 62
     6
100
AcDbPolyline
 90
        4
 70
     1
 43
0.0
 10
26407.8690309138
 20
-10971.4922558355
 10
26548.65654660924
 20
-10971.4922558355
 10
26548.65654660924
 20
-11044.9322558355
 10
26407.8690309138
 20
-11044.9322558355
  0
LWPOLYLINE
  5
F2
330
1D
100
AcDbEntity
  8
160-文字
 62
     6
100
AcDbPolyline
 90
        4
 70
     1
 43
0.0
 10
26548.65654660924
 20
-10971.4922558355
 10
27610.569041454
 20
-10971.4922558355
 10
27610.569041454
 20
-11044.9322558355
 10
26548.65654660924
 20
-11044.9322558355
  0
LINE
  5
F3
330
1D
100
AcDbEntity
  8
DEFPOINTS
100
AcDbLine
 10
27803.15593344043
 20
-10971.4922558355
 30
0.0
 11
27610.569041454
 21
-11044.9322558355
 31
0.0
  0
LWPOLYLINE
  5
F4
330
1D
100
AcDbEntity
  8
160-文字
 62
     6
100
AcDbPolyline
 90
        4
 70
     1
 43
0.0
 10
27610.569041454
 20
-10971.49225583549
 10
27803.15593344043
 20
-10971.49225583549
 10
27803.15593344043
 20
-11044.93225583549
 10
27610.569041454
 20
-11044.93225583549
  0
MTEXT
  5
F5
330
1D
100
AcDbEntity
  8
160-文字
100
AcDbMText
 10
27706.86248744722
 20
-10861.33225583549
 30
0.0
 40
44.27999999999999
 41
0.0
 71
     5
 72
     1
  1
1
 73
     1
 44
1.0
  0
LWPOLYLINE
  5
F6
330
1D
100
AcDbEntity
  8
120-キャビネット（外）
 62
     6
100
AcDbPolyline
 90
        4
 70
   129
 43
0.0
 10
21122.30687243352
 20
-12398.16237220534
 10
23122.3068724334
 20
-12398.16237220534
 10
23122.3068724334
 20
-11598.16237220534
 10
21122.30687243352
 20
-11598.16237220534
  0
DIMENSION
  5
FA
330
1D
100
AcDbEntity
  8
166-寸法B
100
AcDbDimension
  2
*D363
 10
20734.40499666415
 20
-11598.16237220534
 30
0.0
 11
20704.40499666415
 21
-11998.16237220534
 31
0.0
 70
    32
 71
     5
 42
800.0
  3
KH1xx020
100
AcDbAlignedDimension
 13
21122.30687243352
 23
-12398.16237220534
 33
0.0
 14
21122.30687243352
 24
-11598.16237220534
 34
0.0
 50
-90.0
100
AcDbRotatedDimension
  0
DIMENSION
  5
107
330
1D
100
AcDbEntity
  8
166-寸法B
100
AcDbDimension
  2
*D364
 10
21122.30687243352
 20
-11210.26237220534
 30
0.0
 11
22122.30687243346
 21
-11177.72237220534
 31
0.0
 70
    32
 71
     5
 42
1999.999999999884
  3
KH1xx020
100
AcDbAlignedDimension
 13
23122.3068724334
 23
-11598.16237220534
 33
0.0
 14
21122.30687243352
 24
-11598.16237220534
 34
0.0
100
AcDbRotatedDimension
  0
LWPOLYLINE
  5
114
330
1D
100
AcDbEntity
  8
121-キャビネット（中）
  6
HIDDENX2
100
AcDbPolyline
 90
        4
 70
   129
 43
0.0
 10
22735.74190127593
 20
-12011.59740104799
 10
23018.58461375081
 20
-12294.44011352251
 10
23032.01964259311
 20
-12281.00508468009
 10
22749.17693011847
 20
-11998.16237220534
  0
LWPOLYLINE
  5
11A
330
1D
100
AcDbEntity
  8
121-キャビネット（中）
  6
HIDDENX2
100
AcDbPolyline
 90
        4
 70
   129
 43
0.0
 10
21522.30687243352
 20
-12017.16237220534
 10
22722.3068724334
 20
-12017.16237220534
 10
22722.3068724334
 20
-11979.16237220534
 10
21522.30687243352
 20
-11979.16237220534
  0
LWPOLYLINE
  5
11B
330
1D
100
AcDbEntity
  8
121-キャビネット（中）
  6
HIDDENX2
100
AcDbPolyline
 90
        4
 70
   129
 43
0.0
 10
21508.87184359075
 20
-11984.72734336269
 10
21226.02913111611
 20
-11701.88463088817
 10
21212.59410227346
 20
-11715.31965973058
 10
21495.43681474822
 20
-11998.16237220534
  0
LWPOLYLINE
  5
11C
330
1D
100
AcDbEntity
  8
121-キャビネット（中）
  6
HIDDENX2
100
AcDbPolyline
 90
        4
 70
   129
 43
0.0
 10
22735.74190127349
 20
-12011.59740105044
 10
23032.01964259055
 20
-11715.31965973338
 10
23018.58461374813
 20
-11701.88463089079
 10
22722.30687243061
 20
-11998.16237220802
  0
LWPOLYLINE
  5
11D
330
1D
100
AcDbEntity
  8
121-キャビネット（中）
  6
HIDDENX2
100
AcDbPolyline
 90
        4
 70
   129
 43
0.0
 10
21508.87184359343
 20
-11984.72734336024
 10
21212.59410227602
 20
-12281.00508467729
 10
21226.02913111867
 20
-12294.44011351988
 10
21522.30687243608
 20
-11998.16237220265
  0
LINE
  5
11E
330
1D
100
AcDbEntity
  8
180-補助
  6
HIDDEN
 48
2.0
100
AcDbLine
 10
22741.30687243363
 20
-11979.16237220529
 30
0.0
 11
22696.3068724334
 21
-11979.16237220541
 31
0.0
  0
LINE
  5
122
330
1D
100
AcDbEntity
  8
180-補助
  6
HIDDEN
 48
2.0
100
AcDbLine
 10
22741.30687243363
 20
-11979.16237220529
 30
0.0
 11
22766.05560977489
 21
-11954.41363486397
 31
0.0
  0
LINE
  5
123
330
1D
100
AcDbEntity
  8
180-補助
  6
HIDDEN
 48
2.0
100
AcDbLine
 10
22752.67960701091
 20
-11916.71638628986
 30
0.0
 11
22682.93086966942
 21
-11941.46512363123
 31
0.0
  0
LINE
  5
124
330
1D
100
AcDbEntity
  8
180-補助
  6
HIDDEN
 48
2.0
100
AcDbLine
 10
22696.3068724334
 20
-11979.16237220547
 30
0.0
 11
22682.93086966942
 21
-11941.46512363123
 31
0.0
  0
LINE
  5
125
330
1D
100
AcDbEntity
  8
180-補助
  6
HIDDEN
 48
2.0
100
AcDbLine
 10
22766.05560977489
 20
-11954.41363486397
 30
0.0
 11
22752.67960701091
 21
-11916.71638628986
 31
0.0
  0
CIRCLE
  5
126
330
1D
100
AcDbEntity
  8
180-補助
  6
HIDDEN
 48
2.0
100
AcDbCircle
 10
22702.08333892131
 20
-11950.58559081017
 30
0.0
 40
4.5
  0
CIRCLE
  5
127
330
1D
100
AcDbEntity
  8
180-補助
  6
HIDDEN
 48
2.0
100
AcDbCircle
 10
22743.55913983192
 20
-11935.8688555418
 30
0.0
 40
4.5
  0
LINE
  5
128
330
1D
100
AcDbEntity
  8
180-補助
  6
HIDDEN
 48
2.0
100
AcDbLine
 10
22741.30687243328
 20
-12017.16237220529
 30
0.0
 11
22696.30687243305
 21
-12017.16237220517
 31
0.0
  0
LINE
  5
129
330
1D
100
AcDbEntity
  8
180-補助
  6
HIDDEN
 48
2.0
100
AcDbLine
 10
22741.30687243328
 20
-12017.16237220529
 30
0.0
 11
22766.05560977454
 21
-12041.91110954655
 31
0.0
  0
LINE
  5
12A
330
1D
100
AcDbEntity
  8
180-補助
  6
HIDDEN
 48
2.0
100
AcDbLine
 10
22752.6796070108
 20
-12079.60835812066
 30
0.0
 11
22682.9308696693
 21
-12054.85962077929
 31
0.0
  0
LINE
  5
12B
330
1D
100
AcDbEntity
  8
180-補助
  6
HIDDEN
 48
2.0
100
AcDbLine
 10
22696.30687243305
 20
-12017.16237220517
 30
0.0
 11
22682.9308696693
 21
-12054.85962077929
 31
0.0
  0
LINE
  5
12C
330
1D
100
AcDbEntity
  8
180-補助
  6
HIDDEN
 48
2.0
100
AcDbLine
 10
22766.05560977454
 20
-12041.91110954655
 30
0.0
 11
22752.6796070108
 21
-12079.60835812066
 31
0.0
  0
CIRCLE
  5
12D
330
1D
100
AcDbEntity
  8
180-補助
  6
HIDDEN
 48
2.0
100
AcDbCircle
 10
22702.08333892096
 20
-12045.73915360036
 30
0.0
 40
4.5
  0
CIRCLE
  5
12E
330
1D
100
AcDbEntity
  8
180-補助
  6
HIDDEN
 48
2.0
100
AcDbCircle
 10
22743.55913983181
 20
-12060.45588886872
 30
0.0
 40
4.5
  0
LINE
  5
12F
330
1D
100
AcDbEntity
  8
180-補助
  6
HIDDEN
 48
2.0
100
AcDbLine
 10
21503.30687243352
 20
-11979.16237220529
 30
0.0
 11
21548.30687243398
 21
-11979.16237220541
 31
0.0
  0
LINE
  5
130
330
1D
100
AcDbEntity
  8
180-補助
  6
HIDDEN
 48
2.0
100
AcDbLine
 10
21503.30687243352
 20
-11979.16237220529
 30
0.0
 11
21478.55813509226
 21
-11954.41363486397
 31
0.0
  0
LINE
  5
131
330
1D
100
AcDbEntity
  8
180-補助
  6
HIDDEN
 48
2.0
100
AcDbLine
 10
21491.93413785635
 20
-11916.71638628986
 30
0.0
 11
21561.68287519761
 21
-11941.46512363123
 31
0.0
  0
LINE
  5
132
330
1D
100
AcDbEntity
  8
180-補助
  6
HIDDEN
 48
2.0
100
AcDbLine
 10
21548.30687243375
 20
-11979.16237220547
 30
0.0
 11
21561.68287519761
 21
-11941.46512363123
 31
0.0
  0
LINE
  5
133
330
1D
100
AcDbEntity
  8
180-補助
  6
HIDDEN
 48
2.0
100
AcDbLine
 10
21478.55813509226
 20
-11954.41363486397
 30
0.0
 11
21491.93413785635
 21
-11916.71638628986
 31
0.0
  0
CIRCLE
  5
134
330
1D
100
AcDbEntity
  8
180-補助
  6
HIDDEN
 48
2.0
100
AcDbCircle
 10
21542.53040594584
 20
-11950.58559081017
 30
0.0
 40
4.5
  0
CIRCLE
  5
135
330
1D
100
AcDbEntity
  8
180-補助
  6
HIDDEN
 48
2.0
100
AcDbCircle
 10
21501.05460503511
 20
-11935.8688555418
 30
0.0
 40
4.5
  0
LINE
  5
136
330
1D
100
AcDbEntity
  8
180-補助
  6
HIDDEN
 48
2.0
100
AcDbLine
 10
21503.30687243387
 20
-12017.16237220529
 30
0.0
 11
21548.3068724341
 21
-12017.16237220517
 31
0.0
  0
LINE
  5
137
330
1D
100
AcDbEntity
  8
180-補助
  6
HIDDEN
 48
2.0
100
AcDbLine
 10
21503.30687243387
 20
-12017.16237220529
 30
0.0
 11
21478.55813509261
 21
-12041.91110954655
 31
0.0
  0
LINE
  5
138
330
1D
100
AcDbEntity
  8
180-補助
  6
HIDDEN
 48
2.0
100
AcDbLine
 10
21491.93413785659
 20
-12079.60835812066
 30
0.0
 11
21561.68287519796
 21
-12054.85962077929
 31
0.0
  0
LINE
  5
139
330
1D
100
AcDbEntity
  8
180-補助
  6
HIDDEN
 48
2.0
100
AcDbLine
 10
21548.3068724341
 20
-12017.16237220517
 30
0.0
 11
21561.68287519796
 21
-12054.85962077929
 31
0.0
  0
LINE
  5
13A
330
1D
100
AcDbEntity
  8
180-補助
  6
HIDDEN
 48
2.0
100
AcDbLine
 10
21478.55813509261
 20
-12041.91110954655
 30
0.0
 11
21491.93413785659
 21
-12079.60835812066
 31
0.0
  0
CIRCLE
  5
13B
330
1D
100
AcDbEntity
  8
180-補助
  6
HIDDEN
 48
2.0
100
AcDbCircle
 10
21542.53040594631
 20
-12045.73915360036
 30
0.0
 40
4.5
  0
CIRCLE
  5
13C
330
1D
100
AcDbEntity
  8
180-補助
  6
HIDDEN
 48
2.0
100
AcDbCircle
 10
21501.05460503523
 20
-12060.45588886872
 30
0.0
 40
4.5
  0
LWPOLYLINE
  5
13D
330
1D
100
AcDbEntity
  8
120-キャビネット（外）
 62
     6
100
AcDbPolyline
 90
        4
 70
   129
 43
0.0
 10
21122.30687243352
 20
-13984.23875072393
 10
23122.30687243352
 20
-13984.23875072393
 10
23122.30687243352
 20
-13964.63875072393
 10
21122.30687243352
 20
-13964.63875072393
  0
DIMENSION
  5
13E
330
1D
100
AcDbEntity
  8
166-寸法B
100
AcDbDimension
  2
*D365
 10
20734.40499666415
 20
-13964.63875072393
 30
0.0
 11
20704.40499666415
 21
-14324.93875072393
 31
0.0
 70
    32
 71
     5
 42
720.6000000000113
  3
KH1xx020
100
AcDbAlignedDimension
 13
21122.30687243352
 23
-14685.23875072394
 33
0.0
 14
21122.30687243352
 24
-13964.63875072393
 34
0.0
 50
-90.0
100
AcDbRotatedDimension
  0
DIMENSION
  5
14B
330
1D
100
AcDbEntity
  8
166-寸法B
100
AcDbDimension
  2
*D366
 10
20834.40499666415
 20
-13964.63875072393
 30
0.0
 11
20807.91514894844
 21
-13881.08145346105
 31
0.0
 70
   160
 71
     5
 42
19.60000000000036
  3
KH1xx020
100
AcDbAlignedDimension
 13
21122.30687243352
 23
-13984.23875072393
 33
0.0
 14
21122.30687243352
 24
-13964.63875072393
 34
0.0
 50
-90.0
100
AcDbRotatedDimension
1001
ACAD
1000
DSTYLE
1002
{
1070
   279
1070
     1
1002
}
  0
DIMENSION
  5
15C
330
1D
100
AcDbEntity
  8
166-寸法B
100
AcDbDimension
  2
*D367
 10
20834.40499666415
 20
-13984.23875072393
 30
0.0
 11
20804.40499666415
 21
-14334.73875072394
 31
0.0
 70
    32
 71
     5
 42
701.0000000000109
  3
KH1xx020
100
AcDbAlignedDimension
 13
21122.30687243352
 23
-14685.23875072394
 33
0.0
 14
21122.30687243352
 24
-13984.23875072393
 34
0.0
 50
-90.0
100
AcDbRotatedDimension
  0
DIMENSION
  5
169
330
1D
100
AcDbEntity
  8
166-寸法B
100
AcDbDimension
  2
*D368
 10
23122.3068724334
 20
-14946.6768296533
 30
0.0
 11
22122.30687243346
 21
-14914.1368296533
 31
0.0
 70
    32
 71
     5
 42
1999.999999999884
  3
KH1xx020
100
AcDbAlignedDimension
 13
21122.30687243352
 23
-14685.23875072394
 33
0.0
 14
23122.3068724334
 24
-14685.23875072394
 34
0.0
100
AcDbRotatedDimension
  0
DIMENSION
  5
176
330
1D
100
AcDbEntity
  8
166-寸法B
100
AcDbDimension
  2
*D369
 10
23122.30687243352
 20
-13704.60067179458
 30
0.0
 11
22122.30687243352
 21
-13672.06260072859
 31
0.0
 70
    32
 71
     5
 42
2000.0
  3
KH1xx020
100
AcDbAlignedDimension
 13
21122.30687243352
 23
-13964.63875072393
 33
0.0
 14
23122.30687243352
 24
-13964.63875072393
 34
0.0
100
AcDbRotatedDimension
  0
LINE
  5
183
330
1D
100
AcDbEntity
  8
120-キャビネット（外）
 62
     6
100
AcDbLine
 10
21226.02913111867
 20
-13984.23875072393
 30
0.0
 11
21226.02913111867
 21
-14685.23875072393
 31
0.0
  0
LINE
  5
184
330
1D
100
AcDbEntity
  8
120-キャビネット（外）
 62
     6
100
AcDbLine
 10
23018.58461374673
 20
-13984.23875072393
 30
0.0
 11
23018.58461374673
 21
-14685.23875072393
 31
0.0
  0
LWPOLYLINE
  5
185
330
1D
100
AcDbEntity
  8
120-キャビネット（外）
 62
     6
100
AcDbPolyline
 90
        5
 70
   128
 43
0.0
 10
21522.30687243352
 20
-14085.23875072393
 10
21522.30687243352
 20
-14685.23875072393
 10
21212.59410227602
 20
-14685.23875072393
 10
21212.59410227602
 20
-13984.23875072393
 10
21532.3068724341
 20
-13984.23875072393
  0
LWPOLYLINE
  5
186
330
1D
100
AcDbEntity
  8
120-キャビネット（外）
 62
     6
100
AcDbPolyline
 90
        5
 70
   128
 43
0.0
 10
22722.30687243061
 20
-13984.23875072393
 10
23032.01964259311
 20
-13984.23875072393
 10
23032.01964259311
 20
-14685.23875072393
 10
22722.30687243061
 20
-14685.23875072393
 10
22722.30687243061
 20
-14085.23875072393
  0
LINE
  5
187
330
1D
100
AcDbEntity
  8
120-キャビネット（外）
 62
     6
100
AcDbLine
 10
22735.74190127349
 20
-14085.23875072393
 30
0.0
 11
22735.74190127349
 21
-14685.23875072393
 31
0.0
  0
LWPOLYLINE
  5
188
330
1D
100
AcDbEntity
  8
120-キャビネット（外）
 62
     6
100
AcDbPolyline
 90
        4
 70
   129
 43
0.0
 10
21548.3068724341
 20
-13984.23875072393
 10
22696.30687243305
 20
-13984.23875072393
 10
22696.30687243305
 20
-14084.23875072393
 10
21548.3068724341
 20
-14084.23875072393
  0
DIMENSION
  5
189
330
1D
100
AcDbEntity
  8
166-寸法B
100
AcDbDimension
  2
*D370
 10
23122.3068724334
 20
-14846.6768296533
 30
0.0
 11
23215.18972147186
 21
-14820.18698193757
 31
0.0
 70
   160
 71
     5
 42
103.7222586866701
  3
KH1xx020
100
AcDbAlignedDimension
 13
23018.58461374673
 23
-14685.23875072393
 33
0.0
 14
23122.3068724334
 24
-14685.23875072394
 34
0.0
100
AcDbRotatedDimension
1001
ACAD
1000
DSTYLE
1002
{
1070
   279
1070
     1
1002
}
  0
DIMENSION
  5
197
330
1D
100
AcDbEntity
  8
166-寸法B
100
AcDbDimension
  2
*D371
 10
23018.58461374673
 20
-14846.6768296533
 30
0.0
 11
22870.44574308867
 21
-14816.6768296533
 31
0.0
 70
    32
 71
     5
 42
296.2777413161239
  3
KH1xx020
100
AcDbAlignedDimension
 13
22722.30687243061
 23
-14685.23875072393
 33
0.0
 14
23018.58461374673
 24
-14685.23875072393
 34
0.0
100
AcDbRotatedDimension
  0
DIMENSION
  5
1A4
330
1D
100
AcDbEntity
  8
166-寸法B
100
AcDbDimension
  2
*D372
 10
22722.30687243061
 20
-14846.6768296533
 30
0.0
 11
22122.30687243206
 21
-14814.1368296533
 31
0.0
 70
    32
 71
     5
 42
1199.99999999709
  3
KH1xx020
100
AcDbAlignedDimension
 13
21522.30687243352
 23
-14685.23875072393
 33
0.0
 14
22722.30687243061
 24
-14685.23875072393
 34
0.0
100
AcDbRotatedDimension
  0
DIMENSION
  5
1B1
330
1D
100
AcDbEntity
  8
166-寸法B
100
AcDbDimension
  2
*D373
 10
21522.30687243352
 20
-14846.6768296533
 30
0.0
 11
21374.1680017761
 21
-14816.6768296533
 31
0.0
 70
    32
 71
     5
 42
296.2777413148433
  3
KH1xx020
100
AcDbAlignedDimension
 13
21226.02913111867
 23
-14685.23875072393
 33
0.0
 14
21522.30687243352
 24
-14685.23875072393
 34
0.0
100
AcDbRotatedDimension
  0
DIMENSION
  5
1BE
330
1D
100
AcDbEntity
  8
166-寸法B
100
AcDbDimension
  2
*D374
 10
21226.02913111867
 20
-14846.6768296533
 30
0.0
 11
21033.19927096984
 21
-14820.18698193757
 31
0.0
 70
   160
 71
     5
 42
103.7222586851567
  3
KH1xx020
100
AcDbAlignedDimension
 13
21122.30687243352
 23
-14685.23875072394
 33
0.0
 14
21226.02913111867
 24
-14685.23875072393
 34
0.0
100
AcDbRotatedDimension
1001
ACAD
1000
DSTYLE
1002
{
1070
   279
1070
     1
1002
}
  0
DIMENSION
  5
1CC
330
1D
100
AcDbEntity
  8
166-寸法B
100
AcDbDimension
  2
*D375
 10
22007.85151364282
 20
-14084.23875072393
 30
0.0
 11
21977.85151364282
 21
-14034.23875072393
 31
0.0
 70
    32
 71
     5
 42
100.0
  3
KH1xx020
100
AcDbAlignedDimension
 13
22028.81455738167
 23
-13984.23875072393
 33
0.0
 14
22028.81455738167
 24
-14084.23875072393
 34
0.0
 50
-90.0
100
AcDbRotatedDimension
  0
LWPOLYLINE
  5
1D9
330
1D
100
AcDbEntity
  8
141-パーツ
100
AcDbPolyline
 90
        4
 70
   129
 43
0.0
 10
22696.30687243305
 20
-13984.23875072393
 10
22766.05560977454
 20
-13984.23875072393
 10
22766.05560977454
 20
-14085.23875072393
 10
22696.30687243305
 20
-14085.23875072393
  0
CIRCLE
  5
1DD
330
1D
100
AcDbEntity
  8
141-パーツ
100
AcDbCircle
 10
22706.30687243294
 20
-14004.23875072393
 30
0.0
 40
3.5
  0
CIRCLE
  5
1DE
330
1D
100
AcDbEntity
  8
141-パーツ
100
AcDbCircle
 10
22706.30687243294
 20
-14065.23875072393
 30
0.0
 40
3.5
  0
LWPOLYLINE
  5
1DF
330
1D
100
AcDbEntity
  8
141-パーツ
100
AcDbPolyline
 90
        4
 70
   129
 43
0.0
 10
22696.30687243305
 20
-13984.23875072393
 10
22766.05560977454
 20
-13984.23875072393
 10
22766.05560977454
 20
-13986.23875072393
 10
22696.30687243305
 20
-13986.23875072393
  0
LINE
  5
1E0
330
1D
100
AcDbEntity
  8
141-パーツ
100
AcDbLine
 10
22764.64139621251
 20
-13986.23875072393
 30
0.0
 11
22764.64139621251
 21
-14085.23875072393
 31
0.0
  0
ELLIPSE
  5
1E1
330
1D
100
AcDbEntity
  8
141-パーツ
100
AcDbEllipse
 10
22757.61903548299
 20
-14065.23875072393
 30
0.0
 11
0.0
 21
3.5
 31
0.0
210
0.0
220
0.0
230
1.0
 40
0.6729474951115276
 41
0.0
 42
6.283185307179586
  0
ELLIPSE
  5
1E2
330
1D
100
AcDbEntity
  8
141-パーツ
100
AcDbEllipse
 10
22757.61903548299
 20
-14004.23875072393
 30
0.0
 11
0.0
 21
3.5
 31
0.0
210
0.0
220
0.0
230
1.0
 40
0.6729474951115276
 41
0.0
 42
6.283185307179586
  0
LINE
  5
1E3
330
1D
100
AcDbEntity
  8
141-パーツ
100
AcDbLine
 10
22740.4784453084
 20
-13984.23875072393
 30
0.0
 11
22740.4784453084
 21
-14085.23875072393
 31
0.0
  0
LWPOLYLINE
  5
1E4
330
1D
100
AcDbEntity
  8
141-パーツ
100
AcDbPolyline
 90
        5
 70
   129
 43
0.0
 10
21260.02913111867
 20
-13993.73875072393
 10
21260.02913111867
 20
-13993.73875072393
 42
-0.9999999999999999
 10
21240.02913111867
 20
-13993.73875072393
 10
21240.02913111867
 20
-13984.23875072393
 10
21260.02913111867
 20
-13984.23875072393
  0
LWPOLYLINE
  5
1E5
330
1D
100
AcDbEntity
  8
141-パーツ
100
AcDbPolyline
 90
        5
 70
   129
 43
0.0
 10
23004.58461374673
 20
-13993.73875072393
 10
23004.58461374673
 20
-13993.73875072393
 42
-0.9999999999999999
 10
22984.58461374673
 20
-13993.73875072393
 10
22984.58461374673
 20
-13984.23875072393
 10
23004.58461374673
 20
-13984.23875072393
  0
LWPOLYLINE
  5
1E6
330
1D
100
AcDbEntity
  8
120-キャビネット（外）
 62
     6
100
AcDbPolyline
 90
        4
 70
   129
 43
0.0
 10
24929.95765242667
 20
-13984.23875072393
 10
25729.95765242644
 20
-13984.23875072393
 10
25729.95765242644
 20
-13964.63875072393
 10
24929.95765242667
 20
-13964.63875072393
  0
DIMENSION
  5
1E7
330
1D
100
AcDbEntity
  8
166-寸法B
100
AcDbDimension
  2
*D376
 10
24568.53810395568
 20
-13964.63875072393
 30
0.0
 11
24538.53810395569
 21
-14324.93875072393
 31
0.0
 70
    32
 71
     5
 42
720.6000000000113
  3
KH1xx020
100
AcDbAlignedDimension
 13
24929.95765242644
 23
-14685.23875072394
 33
0.0
 14
24929.95765242667
 24
-13964.63875072393
 34
0.0
 50
-90.0
100
AcDbRotatedDimension
  0
DIMENSION
  5
1F4
330
1D
100
AcDbEntity
  8
166-寸法B
100
AcDbDimension
  2
*D377
 10
24668.53810395545
 20
-13964.63875072393
 30
0.0
 11
24668.53810395545
 21
-13882.6184461554
 31
0.0
 70
   160
 71
     5
 42
19.60000000000036
  3
KH1xx020
100
AcDbAlignedDimension
 13
24929.95765242667
 23
-13984.23875072393
 33
0.0
 14
24929.95765242667
 24
-13964.63875072393
 34
0.0
 50
-90.0
100
AcDbRotatedDimension
1001
ACAD
1000
DSTYLE
1002
{
1070
   279
1070
     0
1002
}
  0
DIMENSION
  5
203
330
1D
100
AcDbEntity
  8
166-寸法B
100
AcDbDimension
  2
*D378
 10
24668.53810395545
 20
-13984.23875072393
 30
0.0
 11
24638.53810395545
 21
-14334.73875072394
 31
0.0
 70
    32
 71
     5
 42
701.0000000000109
  3
KH1xx020
100
AcDbAlignedDimension
 13
24929.95765242644
 23
-14685.23875072394
 33
0.0
 14
24929.95765242667
 24
-13984.23875072393
 34
0.0
 50
-90.0
100
AcDbRotatedDimension
  0
DIMENSION
  5
210
330
1D
100
AcDbEntity
  8
166-寸法B
100
AcDbDimension
  2
*D379
 10
25729.95765242644
 20
-14946.6768296533
 30
0.0
 11
25329.95765242644
 21
-14916.6768296533
 31
0.0
 70
    32
 71
     5
 42
800.0
  3
KH1xx020
100
AcDbAlignedDimension
 13
24929.95765242644
 23
-14685.23875072394
 33
0.0
 14
25729.95765242644
 24
-14685.23875072394
 34
0.0
100
AcDbRotatedDimension
  0
DIMENSION
  5
21D
330
1D
100
AcDbEntity
  8
166-寸法B
100
AcDbDimension
  2
*D380
 10
25729.95765242644
 20
-13704.60067179458
 30
0.0
 11
25329.95765242656
 21
-13674.60067179458
 31
0.0
 70
    32
 71
     5
 42
799.9999999997672
  3
KH1xx020
100
AcDbAlignedDimension
 13
24929.95765242667
 23
-13964.63875072393
 33
0.0
 14
25729.95765242644
 24
-13964.63875072393
 34
0.0
100
AcDbRotatedDimension
  0
LINE
  5
22A
330
1D
100
AcDbEntity
  8
120-キャビネット（外）
 62
     6
100
AcDbLine
 10
25047.11493995448
 20
-13984.23875072393
 30
0.0
 11
25047.11493995448
 21
-14685.23875072393
 31
0.0
  0
LINE
  5
22B
330
1D
100
AcDbEntity
  8
120-キャビネット（外）
 62
     6
100
AcDbLine
 10
25612.80036489444
 20
-13984.23875072393
 30
0.0
 11
25612.80036489444
 21
-14685.23875072393
 31
0.0
  0
LWPOLYLINE
  5
22C
330
1D
100
AcDbEntity
  8
120-キャビネット（外）
 62
     6
100
AcDbPolyline
 90
        5
 70
   128
 43
0.0
 10
25329.95765242644
 20
-14084.23875072393
 10
25329.95765242644
 20
-14685.23875072393
 10
25033.67991111195
 20
-14685.23875072393
 10
25033.67991111195
 20
-13984.23875072393
 10
25329.95765242644
 20
-13984.23875072393
  0
LWPOLYLINE
  5
22D
330
1D
100
AcDbEntity
  8
120-キャビネット（外）
 62
     6
100
AcDbPolyline
 90
        5
 70
   128
 43
0.0
 10
25329.95765242644
 20
-13984.23875072393
 10
25626.23539374105
 20
-13984.23875072393
 10
25626.23539374105
 20
-14685.23875072393
 10
25329.95765242644
 20
-14685.23875072393
 10
25329.95765242644
 20
-13984.23875072393
  0
DIMENSION
  5
22E
330
1D
100
AcDbEntity
  8
166-寸法B
100
AcDbDimension
  2
*D381
 10
25729.95765242644
 20
-14846.6768296533
 30
0.0
 11
25823.12207913247
 21
-14820.18698193757
 31
0.0
 70
   160
 71
     5
 42
103.7222586853895
  3
KH1xx020
100
AcDbAlignedDimension
 13
25626.23539374105
 23
-14685.23875072393
 33
0.0
 14
25729.95765242644
 24
-14685.23875072394
 34
0.0
100
AcDbRotatedDimension
1001
ACAD
1000
DSTYLE
1002
{
1070
   279
1070
     1
1002
}
  0
DIMENSION
  5
23C
330
1D
100
AcDbEntity
  8
166-寸法B
100
AcDbDimension
  2
*D382
 10
25626.23539374105
 20
-14846.6768296533
 30
0.0
 11
25329.9576524265
 21
-14816.6768296533
 31
0.0
 70
    32
 71
     5
 42
592.5554826291045
  3
KH1xx020
100
AcDbAlignedDimension
 13
25033.67991111195
 23
-14685.23875072393
 33
0.0
 14
25626.23539374105
 24
-14685.23875072393
 34
0.0
100
AcDbRotatedDimension
  0
DIMENSION
  5
249
330
1D
100
AcDbEntity
  8
166-寸法B
100
AcDbDimension
  2
*D383
 10
25033.67991111195
 20
-14846.6768296533
 30
0.0
 11
24832.98184913606
 21
-14820.18698193757
 31
0.0
 70
   160
 71
     5
 42
103.7222586855059
  3
KH1xx020
100
AcDbAlignedDimension
 13
24929.95765242644
 23
-14685.23875072394
 33
0.0
 14
25033.67991111195
 24
-14685.23875072393
 34
0.0
100
AcDbRotatedDimension
1001
ACAD
1000
DSTYLE
1002
{
1070
   279
1070
     1
1002
}
  0
LWPOLYLINE
  5
257
330
1D
100
AcDbEntity
  8
141-パーツ
100
AcDbPolyline
 90
        4
 70
   129
 43
0.0
 10
21548.30687243398
 20
-13984.23875072393
 10
21478.55813509249
 20
-13984.23875072393
 10
21478.55813509249
 20
-14085.23875072393
 10
21548.30687243398
 20
-14085.23875072393
  0
CIRCLE
  5
258
330
1D
100
AcDbEntity
  8
141-パーツ
100
AcDbCircle
 10
21538.3068724341
 20
-14004.23875072393
 30
0.0
 40
3.5
  0
CIRCLE
  5
259
330
1D
100
AcDbEntity
  8
141-パーツ
100
AcDbCircle
 10
21538.3068724341
 20
-14065.23875072393
 30
0.0
 40
3.5
  0
LWPOLYLINE
  5
25A
330
1D
100
AcDbEntity
  8
141-パーツ
100
AcDbPolyline
 90
        4
 70
   129
 43
0.0
 10
21548.30687243398
 20
-13984.23875072393
 10
21478.55813509249
 20
-13984.23875072393
 10
21478.55813509249
 20
-13986.23875072393
 10
21548.30687243398
 20
-13986.23875072393
  0
LINE
  5
25B
330
1D
100
AcDbEntity
  8
141-パーツ
100
AcDbLine
 10
21479.97234865453
 20
-13986.23875072393
 30
0.0
 11
21479.97234865453
 21
-14085.23875072393
 31
0.0
  0
ELLIPSE
  5
25C
330
1D
100
AcDbEntity
  8
141-パーツ
100
AcDbEllipse
 10
21486.99470938405
 20
-14065.23875072393
 30
0.0
 11
0.0
 21
3.5
 31
0.0
210
0.0
220
0.0
230
-1.0
 40
0.6729474951115276
 41
0.0
 42
6.283185307179586
  0
ELLIPSE
  5
25D
330
1D
100
AcDbEntity
  8
141-パーツ
100
AcDbEllipse
 10
21486.99470938405
 20
-14004.23875072393
 30
0.0
 11
0.0
 21
3.5
 31
0.0
210
0.0
220
0.0
230
-1.0
 40
0.6729474951115276
 41
0.0
 42
6.283185307179586
  0
LINE
  5
25E
330
1D
100
AcDbEntity
  8
141-パーツ
100
AcDbLine
 10
21504.13529955863
 20
-13984.23875072393
 30
0.0
 11
21504.13529955863
 21
-14085.23875072393
 31
0.0
  0
MTEXT
  5
25F
330
1D
100
AcDbEntity
  8
161-番号
100
AcDbMText
 10
22291.16353404077
 20
-13758.22063090123
 30
0.0
 40
60.00000000000001
 41
0.0
 71
     1
 72
     1
  1
①
 73
     1
 44
1.0
  0
LEADER
  5
263
330
1D
100
AcDbEntity
  8
161-番号
100
AcDbLeader
  3
KH1xx030
 74
     0
 76
     2
 10
22232.90898092915
 20
-13976.1028900406
 30
0.0
 10
22310.9276304927
 20
-13827.42462107173
 30
0.0
1001
ACAD
1000
DSTYLE
1002
{
1070
    41
1040
2.0
1070
   341
1005
0
1070
   147
1040
0.5
1070
    77
1070
     1
1002
}
  0
LEADER
  5
265
330
1D
100
AcDbEntity
  8
161-番号
100
AcDbLeader
  3
KH1xx030
 74
     0
 76
     2
 10
22339.95366846989
 20
-14059.56909126526
 30
0.0
 10
22265.80413510578
 20
-14199.11174855105
 30
0.0
1001
ACAD
1000
DSTYLE
1002
{
1070
    41
1040
2.0
1070
   341
1005
0
1070
   147
1040
0.5
1070
    77
1070
     1
1002
}
  0
MTEXT
  5
266
330
1D
100
AcDbEntity
  8
161-番号
100
AcDbMText
 10
22212.92677187824
 20
-14193.63080518375
 30
0.0
 40
60.00000000000001
 41
0.0
 71
     1
 72
     1
  1
②
 73
     1
 44
1.0
  0
MTEXT
  5
267
330
1D
100
AcDbEntity
  8
160-文字
100
AcDbMText
 10
22984.81332978292
 20
-15855.73333330202
 30
0.0
 40
40.0
 41
0.0
 71
     5
 72
     1
  1
2015.11.20
 73
     1
 44
0.8762322015334063
1001
ACAD
1000
ACAD_MTEXT_DEFINED_HEIGHT_BEGIN
1070
    46
1040
40.0
1000
ACAD_MTEXT_DEFINED_HEIGHT_END
  0
MTEXT
  5
268
330
1D
100
AcDbEntity
  8
160-文字
100
AcDbMText
 10
23219.8997702176
 20
-15855.73333330124
 30
0.0
 40
40.0
 41
0.0
 71
     4
 72
     1
  1
ﾃｰﾌﾞﾙﾄｯﾌﾟ厚み t19 → t19.6 へ変更
 73
     1
 44
0.8762322015334063
1001
ACAD
1000
ACAD_MTEXT_DEFINED_HEIGHT_BEGIN
1070
    46
1040
40.0
1000
ACAD_MTEXT_DEFINED_HEIGHT_END
  0
MTEXT
  5
269
330
1D
100
AcDbEntity
  8
160-文字
100
AcDbMText
 10
23219.8997702176
 20
-15746.39999996792
 30
0.0
 40
40.0
 41
0.0
 71
     4
 72
     1
  1
図面名称変更
 73
     1
 44
0.8762322015334063
1001
ACAD
1000
ACAD_MTEXT_DEFINED_HEIGHT_BEGIN
1070
    46
1040
40.0
1000
ACAD_MTEXT_DEFINED_HEIGHT_END
  0
MTEXT
  5
26A
330
1D
100
AcDbEntity
  8
160-文字
100
AcDbMText
 10
22984.81332978292
 20
-15746.39999996869
 30
0.0
 40
40.0
 41
0.0
 71
     5
 72
     1
  1
2016.02.02
 73
     1
 44
0.8762322015334063
1001
ACAD
1000
ACAD_MTEXT_DEFINED_HEIGHT_BEGIN
1070
    46
1040
40.0
1000
ACAD_MTEXT_DEFINED_HEIGHT_END
  0
ENDSEC
  0
SECTION
  2
OBJECTS
  0
DICTIONARY
  5
C
330
0
100
AcDbDictionary
281
     1
  3
ACAD_COLOR
350
40
  3
ACAD_DETAILVIEWSTYLE
350
270
  3
ACAD_GROUP
350
3E
  3
ACAD_LAYOUT
350
26
  3
ACAD_MATERIAL
350
E
  3
ACAD_MLEADERSTYLE
350
26E
  3
ACAD_MLINESTYLE
350
39
  3
ACAD_PLOTSETTINGS
350
3F
  3
ACAD_PLOTSTYLENAME
350
B
  3
ACAD_SCALELIST
350
49
  3
ACAD_SECTIONVIEWSTYLE
350
271
  3
ACAD_TABLESTYLE
350
26D
  3
AcDbVariableDictionary
350
26B
  0
DICTIONARY
  5
3D
330
3C
100
AcDbDictionary
280
     1
281
     1
  0
DICTIONARY
  5
3
330
2
100
AcDbDictionary
280
     1
281
     1
  3
ACAD_LAYERFILTERS
360
4
  3
ACAD_LAYERSTATES
360
5
  3
ACLYDICTIONARY
360
6
  3
AMLAYER_GROUPCOLORS
360
9
  0
DICTIONARY
  5
22
330
21
100
AcDbDictionary
280
     1
281
     1
  3
ADSK_XREC_LAYER_RECONCILED
360
23
  0
DICTIONARY
  5
83
330
82
100
AcDbDictionary
280
     1
281
     1
  3
ADSK_XREC_LAYER_RECONCILED
360
84
  0
DICTIONARY
  5
6F
330
6E
100
AcDbDictionary
280
     1
281
     1
  3
ADSK_XREC_LAYER_RECONCILED
360
70
  0
DICTIONARY
  5
7D
330
7C
100
AcDbDictionary
280
     1
281
     1
  3
ADSK_XREC_LAYER_RECONCILED
360
7E
  0
DICTIONARY
  5
F8
330
F7
100
AcDbDictionary
280
     1
281
     1
  3
ADSK_XREC_LAYER_RECONCILED
360
F9
  0
DICTIONARY
  5
116
330
115
100
AcDbDictionary
280
     1
281
     1
  3
ADSK_XREC_LAYER_RECONCILED
360
117
  0
DICTIONARY
  5
D9
330
D8
100
AcDbDictionary
280
     1
281
     1
  3
ADSK_XREC_LAYER_RECONCILED
360
DA
  0
DICTIONARY
  5
1DB
330
1DA
100
AcDbDictionary
280
     1
281
     1
  3
ADSK_XREC_LAYER_RECONCILED
360
1DC
  0
DICTIONARY
  5
DD
330
DC
100
AcDbDictionary
280
     1
281
     1
  3
ADSK_XREC_LAYER_RECONCILED
360
DE
  0
DICTIONARY
  5
120
330
11F
100
AcDbDictionary
280
     1
281
     1
  3
ADSK_XREC_LAYER_RECONCILED
360
121
  0
DICTIONARY
  5
261
330
260
100
AcDbDictionary
280
     1
281
     1
  3
ADSK_XREC_LAYER_RECONCILED
360
262
  0
DICTIONARY
  5
1E
330
1D
100
AcDbDictionary
280
     1
281
     1
  3
ACAD_SORTENTS
360
1F
  0
DICTIONARY
  5
72
330
71
100
AcDbDictionary
280
     1
281
     1
  3
ACAD_SORTENTS
360
73
  0
DICTIONARY
  5
40
102
{ACAD_REACTORS
330
C
102
}
330
C
100
AcDbDictionary
281
     1
  0
DICTIONARY
  5
270
102
{ACAD_REACTORS
330
C
102
}
330
C
100
AcDbDictionary
281
     1
  0
DICTIONARY
  5
3E
102
{ACAD_REACTORS
330
C
102
}
330
C
100
AcDbDictionary
281
     1
  0
DICTIONARY
  5
26
102
{ACAD_REACTORS
330
C
102
}
330
C
100
AcDbDictionary
281
     1
  3
Model
350
25
  3
ﾚｲｱｳﾄ1
350
2C
  0
DICTIONARY
  5
E
102
{ACAD_REACTORS
330
C
102
}
330
C
100
AcDbDictionary
281
     1
  3
ByBlock
350
6C
  3
ByLayer
350
17
  3
Global
350
D
  0
DICTIONARY
  5
26E
102
{ACAD_REACTORS
330
C
102
}
330
C
100
AcDbDictionary
281
     1
  0
DICTIONARY
  5
39
102
{ACAD_REACTORS
330
C
102
}
330
C
100
AcDbDictionary
281
     1
  3
STANDARD
350
38
  0
DICTIONARY
  5
3F
102
{ACAD_REACTORS
330
C
102
}
330
C
100
AcDbDictionary
281
     1
  0
ACDBDICTIONARYWDFLT
  5
B
102
{ACAD_REACTORS
330
C
102
}
330
C
100
AcDbDictionary
281
     1
  3
Normal
350
A
100
AcDbDictionaryWithDefault
340
A
  0
DICTIONARY
  5
49
102
{ACAD_REACTORS
330
C
102
}
330
C
100
AcDbDictionary
281
     1
  3
*A1
350
6B
  0
DICTIONARY
  5
271
102
{ACAD_REACTORS
330
C
102
}
330
C
100
AcDbDictionary
281
     1
  0
DICTIONARY
  5
26D
102
{ACAD_REACTORS
330
C
102
}
330
C
100
AcDbDictionary
281
     1
  0
DICTIONARY
  5
26B
102
{ACAD_REACTORS
330
C
102
}
330
C
100
AcDbDictionary
281
     1
  3
CANNOSCALE
350
26C
  3
XCLIPFRAME
350
26F
  0
DICTIONARY
  5
4
102
{ACAD_REACTORS
330
3
102
}
330
3
100
AcDbDictionary
281
     1
  0
DICTIONARY
  5
5
102
{ACAD_REACTORS
330
3
102
}
330
3
100
AcDbDictionary
281
     1
  0
DICTIONARY
  5
6
102
{ACAD_REACTORS
330
3
102
}
330
3
100
AcDbDictionary
281
     1
1001
ACAD
1000
<All
  0
DICTIONARY
  5
9
102
{ACAD_REACTORS
330
3
102
}
330
3
100
AcDbDictionary
280
     1
281
     1
  0
XRECORD
  5
23
102
{ACAD_REACTORS
330
22
102
}
330
22
100
AcDbXrecord
280
     1
290
     1
  0
XRECORD
  5
84
102
{ACAD_REACTORS
330
83
102
}
330
83
100
AcDbXrecord
280
     1
290
     1
  0
XRECORD
  5
70
102
{ACAD_REACTORS
330
6F
102
}
330
6F
100
AcDbXrecord
280
     1
290
     1
  0
XRECORD
  5
7E
102
{ACAD_REACTORS
330
7D
102
}
330
7D
100
AcDbXrecord
280
     1
290
     1
  0
XRECORD
  5
F9
102
{ACAD_REACTORS
330
F8
102
}
330
F8
100
AcDbXrecord
280
     1
290
     1
  0
XRECORD
  5
117
102
{ACAD_REACTORS
330
116
102
}
330
116
100
AcDbXrecord
280
     1
290
     1
  0
XRECORD
  5
DA
102
{ACAD_REACTORS
330
D9
102
}
330
D9
100
AcDbXrecord
280
     1
290
     1
  0
XRECORD
  5
1DC
102
{ACAD_REACTORS
330
1DB
102
}
330
1DB
100
AcDbXrecord
280
     1
290
     1
  0
XRECORD
  5
DE
102
{ACAD_REACTORS
330
DD
102
}
330
DD
100
AcDbXrecord
280
     1
290
     1
  0
XRECORD
  5
121
102
{ACAD_REACTORS
330
120
102
}
330
120
100
AcDbXrecord
280
     1
290
     1
  0
XRECORD
  5
262
102
{ACAD_REACTORS
330
261
102
}
330
261
100
AcDbXrecord
280
     1
290
     1
  0
SORTENTSTABLE
  5
1F
102
{ACAD_REACTORS
330
1E
102
}
330
1E
100
AcDbSortentsTable
330
1D
  0
SORTENTSTABLE
  5
73
102
{ACAD_REACTORS
330
72
102
}
330
72
100
AcDbSortentsTable
330
71
  0
LAYOUT
  5
25
102
{ACAD_REACTORS
330
26
330
26
102
}
102
{ACAD_XDICTIONARY
360
27
102
}
330
26
100
AcDbPlotSettings
  1

  2
FX DocuPrint 205 (Type2)
  4
A4
  6

 40
4.900083065032959
 41
4.900054931640625
 42
4.90008544921875
 43
4.90008544921875
 44
210.0156707763672
 45
297.0106506347656
 46
0.0
 47
45.773957759024
 48
47230.2487178577
 49
12370.34666329797
140
50714.16023040836
141
15935.32592907822
142
1.0
143
17.80571047447212
 70
  3764
 72
     1
 73
     1
 74
     4
  7
KH1xx.ctb
 75
     0
 76
     1
 77
     2
 78
   300
147
0.056161757849185
148
-47230.2487178577
149
-12370.34666329797
100
AcDbLayout
  1
Model
 70
     1
 71
     0
 10
0.0
 20
0.0
 11
12.0
 21
9.0
 12
0.0
 22
0.0
 32
0.0
 14
-24941.00038806658
 24
-61811.18061254341
 34
0.0
 15
102221.5750418411
 25
19697.31098658771
 35
0.0
146
0.0
 13
0.0
 23
0.0
 33
0.0
 16
1.0
 26
0.0
 36
0.0
 17
0.0
 27
1.0
 37
0.0
 76
     0
330
1D
331
44
1001
ACAD_PSEXT
1000
FX DocuPrint 205 (Type2)
1000
FX DocuPrint 205 (Type2)
1000
192.168.1.161
1000

1070
     0
  0
LAYOUT
  5
2C
102
{ACAD_REACTORS
330
26
330
26
102
}
102
{ACAD_XDICTIONARY
360
2D
102
}
330
26
100
AcDbPlotSettings
  1

  2
FX DC 250/350/400 ART4-ADV
  4
A3
  6

 40
5.365749835968018
 41
5.365756511688232
 42
5.365753173828125
 43
5.365753173828125
 44
296.9259948730469
 45
420.1159973144531
 46
0.0
 47
0.0
 48
0.0
 49
0.0
140
0.0
141
0.0
142
1.0
143
1.0
 70
   688
 72
     1
 73
     1
 74
     5
  7
KH1xx.ctb
 75
    16
 76
     0
 77
     2
 78
   300
147
1.0
148
0.0
149
0.0
100
AcDbLayout
  1
ﾚｲｱｳﾄ1
 70
     0
 71
     1
 10
-5.365753173828125
 20
-5.365749835968018
 11
414.750244140625
 21
291.5602450370789
 12
0.0
 22
0.0
 32
0.0
 14
1.000000000000000E+20
 24
1.000000000000000E+20
 34
1.000000000000000E+20
 15
-1.000000000000000E+20
 25
-1.000000000000000E+20
 35
-1.000000000000000E+20
146
0.0
 13
0.0
 23
0.0
 33
0.0
 16
1.0
 26
0.0
 36
0.0
 17
0.0
 27
1.0
 37
0.0
 76
     0
330
29
  0
MATERIAL
  5
6C
102
{ACAD_REACTORS
330
E
102
}
330
E
100
AcDbMaterial
  1
ByBlock
 72
     0
 73
     2
 43
0.0208333333333333
 43
0.0
 43
0.0
 43
0.0
 43
0.0
 43
0.0208333333333333
 43
0.0
 43
0.0
 43
0.0
 43
0.0
 43
1.0
 43
0.0
 43
0.0
 43
0.0
 43
0.0
 43
1.0
 77
     0
 78
     2
 47
0.0208333333333333
 47
0.0
 47
0.0
 47
0.0
 47
0.0
 47
0.0208333333333333
 47
0.0
 47
0.0
 47
0.0
 47
0.0
 47
1.0
 47
0.0
 47
0.0
 47
0.0
 47
0.0
 47
1.0
171
     0
172
     2
 49
0.0208333333333333
 49
0.0
 49
0.0
 49
0.0
 49
0.0
 49
0.0208333333333333
 49
0.0
 49
0.0
 49
0.0
 49
0.0
 49
1.0
 49
0.0
 49
0.0
 49
0.0
 49
0.0
 49
1.0
175
     0
176
     2
142
0.0208333333333333
142
0.0
142
0.0
142
0.0
142
0.0
142
0.0208333333333333
142
0.0
142
0.0
142
0.0
142
0.0
142
1.0
142
0.0
142
0.0
142
0.0
142
0.0
142
1.0
179
     0
270
     2
144
0.0208333333333333
144
0.0
144
0.0
144
0.0
144
0.0
144
0.0208333333333333
144
0.0
144
0.0
144
0.0
144
0.0
144
1.0
144
0.0
144
0.0
144
0.0
144
0.0
144
1.0
274
     2
147
0.0208333333333333
147
0.0
147
0.0
147
0.0
147
0.0
147
0.0208333333333333
147
0.0
147
0.0
147
0.0
147
0.0
147
1.0
147
0.0
147
0.0
147
0.0
147
0.0
147
1.0
  0
MATERIAL
  5
17
102
{ACAD_REACTORS
330
E
102
}
330
E
100
AcDbMaterial
  1
ByLayer
 72
     0
 73
     2
 43
0.0208333333333333
 43
0.0
 43
0.0
 43
0.0
 43
0.0
 43
0.0208333333333333
 43
0.0
 43
0.0
 43
0.0
 43
0.0
 43
1.0
 43
0.0
 43
0.0
 43
0.0
 43
0.0
 43
1.0
 77
     0
 78
     2
 47
0.0208333333333333
 47
0.0
 47
0.0
 47
0.0
 47
0.0
 47
0.0208333333333333
 47
0.0
 47
0.0
 47
0.0
 47
0.0
 47
1.0
 47
0.0
 47
0.0
 47
0.0
 47
0.0
 47
1.0
171
     0
172
     2
 49
0.0208333333333333
 49
0.0
 49
0.0
 49
0.0
 49
0.0
 49
0.0208333333333333
 49
0.0
 49
0.0
 49
0.0
 49
0.0
 49
1.0
 49
0.0
 49
0.0
 49
0.0
 49
0.0
 49
1.0
175
     0
176
     2
142
0.0208333333333333
142
0.0
142
0.0
142
0.0
142
0.0
142
0.0208333333333333
142
0.0
142
0.0
142
0.0
142
0.0
142
1.0
142
0.0
142
0.0
142
0.0
142
0.0
142
1.0
179
     0
270
     2
144
0.0208333333333333
144
0.0
144
0.0
144
0.0
144
0.0
144
0.0208333333333333
144
0.0
144
0.0
144
0.0
144
0.0
144
1.0
144
0.0
144
0.0
144
0.0
144
0.0
144
1.0
274
     2
147
0.0208333333333333
147
0.0
147
0.0
147
0.0
147
0.0
147
0.0208333333333333
147
0.0
147
0.0
147
0.0
147
0.0
147
1.0
147
0.0
147
0.0
147
0.0
147
0.0
147
1.0
  0
MATERIAL
  5
D
102
{ACAD_REACTORS
330
E
102
}
102
{ACAD_XDICTIONARY
360
F
102
}
330
E
100
AcDbMaterial
  1
Global
 72
     0
 73
     2
 43
0.0208333333333333
 43
0.0
 43
0.0
 43
0.0
 43
0.0
 43
0.0208333333333333
 43
0.0
 43
0.0
 43
0.0
 43
0.0
 43
1.0
 43
0.0
 43
0.0
 43
0.0
 43
0.0
 43
1.0
 77
     0
 78
     2
 47
0.0208333333333333
 47
0.0
 47
0.0
 47
0.0
 47
0.0
 47
0.0208333333333333
 47
0.0
 47
0.0
 47
0.0
 47
0.0
 47
1.0
 47
0.0
 47
0.0
 47
0.0
 47
0.0
 47
1.0
171
     0
172
     2
 49
0.0208333333333333
 49
0.0
 49
0.0
 49
0.0
 49
0.0
 49
0.0208333333333333
 49
0.0
 49
0.0
 49
0.0
 49
0.0
 49
1.0
 49
0.0
 49
0.0
 49
0.0
 49
0.0
 49
1.0
175
     0
176
     2
142
0.0208333333333333
142
0.0
142
0.0
142
0.0
142
0.0
142
0.0208333333333333
142
0.0
142
0.0
142
0.0
142
0.0
142
1.0
142
0.0
142
0.0
142
0.0
142
0.0
142
1.0
179
     0
270
     2
144
0.0208333333333333
144
0.0
144
0.0
144
0.0
144
0.0
144
0.0208333333333333
144
0.0
144
0.0
144
0.0
144
0.0
144
1.0
144
0.0
144
0.0
144
0.0
144
0.0
144
1.0
274
     2
147
0.0208333333333333
147
0.0
147
0.0
147
0.0
147
0.0
147
0.0208333333333333
147
0.0
147
0.0
147
0.0
147
0.0
147
1.0
147
0.0
147
0.0
147
0.0
147
0.0
147
1.0
  0
MLINESTYLE
  5
38
102
{ACAD_REACTORS
330
39
102
}
330
39
100
AcDbMlineStyle
  2
STANDARD
 70
     0
  3

 62
     0
 51
90.0
 52
90.0
 71
     2
 49
0.5
 62
   256
  6
BYLAYER
 49
-0.5
 62
   256
  6
BYLAYER
  0
ACDBPLACEHOLDER
  5
A
102
{ACAD_REACTORS
330
B
102
}
330
B
  0
SCALE
  5
6B
102
{ACAD_REACTORS
330
49
102
}
330
49
100
AcDbScale
 70
     0
300
1/8" = 1'-0"
140
0.125
141
12.0
290
     0
  0
DICTIONARYVAR
  5
26C
102
{ACAD_REACTORS
330
26B
102
}
330
26B
100
DictionaryVariables
280
     0
  1
1/8" = 1'-0"
  0
DICTIONARYVAR
  5
26F
102
{ACAD_REACTORS
330
26B
102
}
330
26B
100
DictionaryVariables
280
     0
  1
0
  0
DICTIONARY
  5
27
330
25
100
AcDbDictionary
280
     1
281
     1
  0
DICTIONARY
  5
2D
330
2C
100
AcDbDictionary
280
     1
281
     1
  0
DICTIONARY
  5
F
330
D
100
AcDbDictionary
280
     1
281
     1
  3
FBXASSET
360
10
  0
XRECORD
  5
10
102
{ACAD_REACTORS
330
F
102
}
330
F
100
AcDbXrecord
280
     1
 70
     1
 90
1959938040
 71
     1
  1
4BF6C10E-3DD3-41AC-B3C0-57EF7624EC9A
311
504B03041400060808001988CC446B3AFE15D9000000200100004F00000043413139303946352D433432412D343545392D384135462D3633333543373330424143382F4173736574446174612F446566696E6974696F6E4974657261746F7250726F706572746965732E62696E454E3D4FC33010350C200606FE41D5DDF86C
311
B9358DDAA2D2284CB0C0C4525D9D6B89E424559C488C8CFC6B7A16453DE9DDBBCF77F72384F83D1987E282F1CDFE96F9991AEA2AFFE63FA94671952AA1DD62B83EF72E394C694E3B1C429FB65EAAE829046CA81DE2DD79745463CF7218EED3D20DE3BF1093C2FEEF58BAFFCA482F25C6F2903D628CD42FD46EFBA5AC9D805B
311
D9A974665648BB320FF2695D68699D06A7F302F259A13A8AEDD0798ACA28D89C943787665F95CB795FD5346AB0A6C5D877C43F95E3A5016D254CA536EFDA6500D9043EE62A4D1E01504B03041400060808001988CC4481012FD418010000300200004500000043413139303946352D433432412D343545392D384135462D36
311
33333543373330424143382F4173736574446174612F496E7374616E636550726F706572746965732E62696E6D513B4EC340149C00120DA00851708014A158C9F6FA235776FCA30461444563D98E4241824C245A97749C87963370008EE0861AC68EB1839CB79A7DEFCD9BD995765F01FCB4C11223A2E47ECC7C992FF3E221
311
8DD345FE984C48E85E64FAAA120A190452E8EACC179EF41561586164999A1EFAF6ECB037D616A9EA41A819B630749D16535385177981502DA9F8A64F436853D6DC8B8BFBB78FEFE9A7C3BC47AE24FEFA26B36754CE460D8C5D8C1BAAD9266E5FEFAC68DC4457EC9491EC04D53EBB9268AD5F6D3E22358CFA1DFB4977C84098
311
BDBB03EE1F31B4D6474FB7349573C0AEFEAD13227E49D6E9427845B2CCF2AC9E600D0D0A54E21A05567882E43A1F618E33DCE0167788395AE17987F4AA9547BC618ED32DFD2F504B03041400060808001988CC4428BB58AF800100009E0500003D00000043413139303946352D433432412D343545392D384135462D363333
311
3543373330424143382F536368656D61732F436F6D6D6F6E536368656D612E786D6CBD544D4FC23018BEFB2B96DE15493C78601010A34B880709DEDFB52FD0D8B54BD70DF6EFED3AC0B12E6442E2716BFB3CEFF3D18E26FB440405EA8C2B1992E1C323095052C5B8DC842437EBFB673219DF8DA659866649B798C078B48AE6
311
410122242F2A4994AC7F93815DF85C049C8564CA0A901499DD886B2EB9B1E02448F358701A9235880C49A0119892A20C89D1B9FD768815CAD268CB5E0355B40B1E47F3E37A2020464BED06AA57CE8FCC20C3C3446D46761A2632A8C1283D07031EFF2AE7CCB1BFEEE916E406DFAC8E36FFD99A9D60A6944090EEDC3B670C7D
311
C13DE86B6B2C5C240D6E503BB85ACD579D513F1B9F9A69DC9CC22AFA80C426D40AF0B21EA168559156B6276F0F726A6BFF04DCD513A87A62CAD41FB24FCB2858B3952E3D852084DA25B9303C15687973CC8E8AAE11DF2836C38C6A9E765E8C1BA1BFB1DC29CDFE518C8B5A7655A4ED7E77291ABEB80DBD82EC866ADE1B8D05
311
AF9E35CF09D7A061F38A986D9EC412B8F0F65E5D81534D9B231D1E5A8FE577A241F3A5FD01504B03041400060808001988CC442CCEBD668A040000E01200003E00000043413139303946352D433432412D343545392D384135462D3633333543373330424143382F536368656D61732F47656E65726963536368656D612E78
311
6D6CD5586D6FDB380CFE7EBF42F0F7A649B70E1B90744856B4970F450FCD7A5F05459613EDE4174872DADCAF3F522F8ED3B88D2F1D06AC4050DBA2493EE4438AF2F8EB73AEC8466823CB62928C06C384888297A92C5693A4B6D9D9E7E4EBD51FE3A931C22EF85AE4EC6AFC38BF261BA626C9AD288496DC3F4FCEAFC6336684
311
5F7A10452AF41DB320C0D44EC26EAB20918735565582695670811A6A49643A49A6E9069FA4604A64B29016DC4B48552F95E4932463CA888468C1D2B250DB4962750DF7CE273069CE8363F1FF4EDB00E0A21999574AE4A2B00C353B93F3BD4777B8A61ED8F604ABFEDD79CE56A2B7BDFBDBC50996E0ADDE16FED26223C5D309
311
56C29BDF4A55EA686E5E58B112DA45CE67F76F4FA27EFA3FB672FD7372FC388FAECDCA5209E693CAD167BADCD272F943701B3812F8A3D852008B1D2E32DB927B2F833C6EA95879925356D254582695095A3CE982924720BE5774A3CB9CDCDB350427D2DF20DA1B5532EBE2D5D6288D75D4F7E4FD9890A0EF8E3D93EBB8F8BA
311
4758158EF6FB90A6F9520281C93DE7AAC6D24607DA296BB96018123F821A7D6A5C5884050C475DA4865442732C8B95684A50165CBB3A32F25F783A4A480ED59AD7F924B968AEA50131F46303223E6A397B0E52976030DC1DCA81D7E7C1EDEEA42C19FF27635C505E2BD5198A599020DF50A2330FCB3AAF28CB012410842955
311
3EF1B228802E2265D8F7CC2401042B155BCC7070F1E5C55F13B4A9577362CCCE46C32174E010C3C378C44841A4BDA00FE3A12006CE11EE6AEC59894D3526DDE1CD59D503ECC324017F8061B7F162162FA62EDD81AE3308617770796DCBDAD2B2625C5AE8A63DE20B2C8AA5E95E76E5730823955956E33E705425A2187C185D
311
36489A1B44D3DCEC2172F6BA2105C3546287A7194B2331768EBBE64F6E70A9930ABE0ADEA89E9E2C38523B810287AD67A54A039C1606EAFE68F8304610BB9093DBDDABC0B2AE4E290DCDA15376D7E39F72B556F0B32EAB5D3D498B4C41ABADEC3A1434C422D87E8025A84BDCB2B1417ED750FAE4DA8976863974C577C7F902
311
D3F156AD354DEA3540DE6BEAE2BEA52F7A2EB4CA43802ECE5BF2CE2EDC9347179FFB023CE412E60BE16DA0BE29B374988A553F561DC04615DD35F7D2C8979F60E5955CE93DF29DED8AFA1EE6642D53418086C03C47C377910F75F7E8F5EF665F70B60FFB22AEDF897D119E8423C773E819A3C1E55E550599EE6EDCA34D0C86
311
FD72057DF2CD46F16A470682471C164E4346D5306BF12D7D12D82CFF673D41636C347443FEB51B50D72EA171A8E4A58623A4A16E0FA2B8B10A0D23268D87C33896EE8FB73305A74BF224EDBADFA0BD674AB354D63DB7BD5D83426761C077DE767728235446A552754EB93B755891C3C4CC6CADE37CF0E912A7BB38DBA010F9
311
DE1282EDF470CA69A9CDA482E334C4A6EA4107987980B17E72F31730EBF88BBD39E7C629F56797A3C0009C2C5AE7951D9A05A02773440F02EEB4DE396A3B6A570C72CCFBCD823B0B8ED3F1D5CEDDFED772FA70236C83FB7D86C385D570B87107535572A60A96035F8F7C6A7192F13007246BBE0521855E6AC46F3E27689CEE
311
7D186A6FD679D98CDCAD13333E04EBE7ED6F55FF01504B03041400060808001988CC446180134D5F0100006B0300004500000043413139303946352D433432412D343545392D384135462D3633333543373330424143382F536368656D61732F52656E6465724D6174657269616C536368656D612E786D6CA5934D6FC2300C
311
86EFFB1551EEE343DBA41D1A103009551ADAD40EAE28A4A68D9426284961FCFBE5A340113B2071746D3F765EBF4DC6BFB5407BD0862B49F0B037C0082453059725C18DDD3EBFE3F1E829991803366715D474942CD30FB4A782E00C64017A412D684E454CE3FE28995203B162A6EA5AC94B66997D225E109CD63B0135484BAD
311
1B3C07E9080CA35DB3119C11BCA5C200461A68A1A438126C75E3E230D40FF81FB3F03C91D1E3A3A0AF79FE28E25BC39EC3E17E4C2A2D94A0833A51AF55BCCA7D88572FCBAC529C4140B020FC3AAFA886621DCED7EAD7664CC86024E806DC297DA1BB393E4156543457A4537DB8817349A70F8ACBF09B3EEE2CB2F33E91B65D
311
60786E4E3B39B77E3FEEEF5650424525DA657FB8B46BE6BF064646F0A0F7327C0BC1BC1B4CBBC1C419FA3CCB23500007872A2580CAAE5461865565294E4EDB4617B62FF579DF9A5B2F54E834076A597573A020912FED777F9B3F504B03041400060808001988CC447055230851000000570000004700000043413139303946
311
352D433432412D343545392D384135462D3633333543373330424143382F4173736574446174612F41737365745461626C654F66436F6E74656E74732E62696E536160603071723373363470D535767131D635317474D675327636D035357775333733327175B6741402AACB4D2C492DCA4CCC492C28484D2C4ACC4B4E050A
311
82012F90744FCD03CA26072767A4E6260200504B03041400060808001988CC44F865834058000000680000004500000043413139303946352D433432412D343545392D384135462D3633333543373330424143382F4173736574446174612F53747265616D56657273696F6E5461626C652E696E66558CBD0A80300C06F73E
311
4B117FB66E451741D041DC5BF98480A492E4FDD18EAEC7DD4555D89EF28DF51A0B1BD8340C4DE7DD848B988C0ACF0649566493F2408C508DDEBB99D5129FF8F1AF8CF5B9503E20FAE5A16B5AF702504B03041400060808001988CC44229C9EF6340100009A0400003600000043413139303946352D433432412D343545392D
311
384135462D3633333543373330424143382F4173736574446174612F636E782E786D6CCD943F6FC32010C5BF8AC56EC051FF29C24455BB646AA5461DBA5DF03945C160C1B96ABF7D21F1D02A55A70C598F77C7E327DEA9D5E7E0AA0F8CC906DFB2864B56A137A1B37ED7B289FAFA8E552BAD6208F443C62A0F03B6AC949956
311
BB18A6712E75D8C3E44AD559BF9F8BF729216D60EBF0A97F089ED0536295719052CB9279C701384C143A4C7BDE01016F78C414A668304F223BE03CC94404C28EE9856CAE6A7953378B4D73BB9472792DDF94284AADB621B8596FF365318C9539DECAB454A21C6B35453B6BCA5B98FECB23DF5AAF44566A9528662673077D8D
311
B903C6D1590394D1896008A9CE22844189A3582B5118FC22F188BDF5B6B4ACB331A0109FB33D8C64F1E288FCE7F5FC64D63E11788397CBE3D4E1F929BC1C7ED0EB319087C45C5A4E4E1D72EBFB33A4441CD6480E4DD92AFA1B504B03041400060808001988CC44A8B09D6C070100004F030000340000004341313930394635
311
2D433432412D343545392D384135462D3633333543373330424143382F536368656D61732F636E782E786D6CCD933B4F04211485FFCA847E80D9F8CA86610B0B2B1BB5B243B8BB9205EE8487D17F2F8C14BB899D16DBC1E10B39E77011BB4FEF860F88C96298C9443919206834361C6652F27EBC23C34E8A88984F303204E5
311
61264D26521C2296A54B06F6AAB8A63A1B8E5DBC47EF313CEB77F08A0CDAA9946692D62D5525A38174A4466545271A2161891AEA0DD97AE837E8082A832172C3A7AB91DF8CD3E665BADD72BEBDE6AF8235528A3744D7791B32445C068D7511AA1D2E583B96A244DB999681C8536FB4B6215825A44839D60E3A99BF964AAA65
311
7156AB5CAB622BF8C348C15AD4B3C00F10205A7D9989CFCCFD5BE4270806E2637DA56895BBCCE4BF79FC5B016C9DFD3A02ED2BC86F504B03041400060808001988CC44410A3D5871000000A40000002C00000043413139303946352D433432412D343545392D384135462D3633333543373330424143382F636E782E786D6C
311
55CC4D0E82301086E1AB34B31774E7A22D31F1069E60020334B633A63FC6E34B0909B07DDE2F9FEE7EC1AB2FC5E4840DDC9A2B28E25E06C7938192C7CB1D54677514C9871928C640062A83D55394F2D968A0118BAFEA1DBF377CA444F98919176EAB9FEAAB9F2960DA5BBB1E2ED3FA6FFF504B03041400060808001988CC44
311
D92F79DE7E000000A300000007000000636E782E786D6C4D8CD10AC22018465F45FE7BCBE52C85E93069EF319A1B92D3B0193D7E1ABBE8EA83C3774ED77F568FDE36BD5C0C129A030164C33D4E2E2C12F236630EA8575D8A71FBBB010AE36A25540CAA5B52CCCF1D4D761EB3AFD4BBF0D8A1D18D206260D8B4278D5B761398
311
6B36E033A5CC5C28B96AC38B71AC4A995FAF6CCDAB2F504B03041400060808001988CC4416E99B5DA600000035010000130000005B436F6E74656E745F54797065735D2E786D6C9590410E82301045AFD2740F4517C6180A0BF5065E60AC53688469D30E066F6F91AD9AB89CF9FFFD3F99BA9DC7413C3026E749CB4D594981
311
64FCCD51A7E5C4B6D84BD136F5E5193089ECA5A465CF1C0E4A25D3E308A9F401292BD6C711388FB15301CC1D3A54DBAADA29E38991B8E0254336F5092D4C038BF39CD76B6FC6A538AEBEA54A4B08617006389FA516557DE4AE8E7E70DE30729138228C5F021CD93F02D4FB0DCD0B504B03041400060808001988CC443DEE33
311
6E64000000790000001B0000006175746F6465736B2D64657369676E2D7061636B6167652E786D6C35CBC10E83200C00D05F21DCA56CA76D41FC96062B120735B69A7DBE268BB7777961F8D5AF396893C2ADB70FE7ADA196782C2DF776D7A97B5933C430F15651E5469C55D70F80A4992A3ADC954792C525AE70A1E4D6AD98
311
16CC044FEFDF01FE3FDE907802504B03041400060808001988CC4428D1062BF8000000960100003700000043413139303946352D433432412D343545392D384135462D3633333543373330424143382F4173736574446174612F636F72652E786D6C8550CB6EC32010FC156BEF6070ECB88D30919B345FD0536F08888B1283
311
C5A3EAE71762576A4F3DED6A76667677D8F16BBE579FDA07E3EC001413A8B4954E193B0D90E2153D4175E4CC3B177FD1A0B262D6031418389BBC4BCB064967A3B605B54EE90D1421E80895BCE76680203FF42CB0483133C20D2F42DEC4A431C52B8FB3948CDAA44665377335DA03BF9CE8F39EEE4EE8DCF517D476B97BE929
311
41F4B569C6B6251D1D3B56173167D1CC3FDBA5D7226A05BC21B445648F68F346FB0321878EBCB3BA30390BD1E79FB7A5E53BE063B9FA2CA260F53AFDE39A16F5BF6B3236EE9ACD755504E0341FF91870569794727944986B49947F03504B03041400060808001988CC445F55755DF600000094010000350000004341313930
311
3946352D433432412D343545392D384135462D3633333543373330424143382F536368656D61732F636F72652E786D6C8550CB6EC32010FC156BEFD840ECB88D30519A363FD09E7A43405C94182C1E553FBF60BB527BEA6957B333B3BBC38E5FD3BDFAD43E1867072035864A5BE994B1E300295ED1035447CEBC73F1170D2A
311
2B263D408181B3D1BB346F9074366A5B50EB94DE4011828E50C97B6E0608F2434FA216296646B8D5B3903731EA9AD42B8FB3948CDAA44665377335DA03BF9CC9E39EECCEE8B9EB2FA8ED72F7D4138CC80BA5A7B6C51D3975AC2962CEA2997EB64BAF45D40A38C5A445788F087D23FD01E34387DF5953989C85E8F3CFDBD2F2
311
1DF0D7E5CEC09A75F6C733CDEA7FCF646CDCD1CD735504E0249FB80C386B4A46B92C01E65AF2E4DF504B03041400060808001988CC44A2943D1002010000D70100002D00000043413139303946352D433432412D343545392D384135462D3633333543373330424143382F636F72652E786D6C9591DD6E842010855FC5CC3D
311
0AFEECEA06D958D37D825EF58ECAAC25BB82116CFAF8856AD3F6AEBD821CBE33C399E1E7F7E99EBCE1E2B4352DB094428266B04A9BB185D55F490DC959F0C55AFF0383C4C8095B8832083E2E769D7769B0C6A389AAB10A77513A871E92E11E2E2DB8E1152799CAD507C2DDD2590E373962CAD28D13DCEBE9CB3A2C283D2A10
311
396525A107C2F227763C517AAAE833CF2229F8AA8D2FF2BD194E2FA8123BFB100944C5B3ED3550AB563BA355F8A3BE6A5C40F41D6B6873A9485FE61D29ABC786D45D752187A2A8FA63411FBABE0E45825970E7973099BD489CC15FED9BF157B27556FF4CB6391C08F61D2A8B63163CFBDC4138E34AC407504B030414000608
311
08001988CC44E6A1654807010000B201000008000000636F72652E786D6C8D50CB4EC33010FC156BEF4EEC3469A0725C9542BF80133713BBC16A62477E54F0F7D8AD91E0C6695733B33BB3CBF69FCB8CAECA796DCD00B422809419ADD4661A2086337E00B4E7CC591B7EC90019B1A801320C9C4DCEC6B540A33541998C1A2B
311
550185F72A001AE7D40CE0C70FB5884AC49014FE52AD62BC884955B4BAEB380B7AF9191D9D124149E00DA12D265B4C9B57DAEF08D975E48DD559C9598C5A162B2D93BB3E6BE5809F8EF4714B3747FCDCF527DC76A97BEA29C1F4A5690E6D4B3A7AE8589D8739F3C1A59BCB929433202FAED997D5778AB3776BE72248A124B2
311
66FE024E589D893FA1E32AFF115A9BB069CAC2FB84074E53A01B918CF30753B9BD37D5FC6DFE0D504B010214001400060808001988CC446B3AFE15D9000000200100004F000000000000000000000000000000000043413139303946352D433432412D343545392D384135462D3633333543373330424143382F4173736574
311
446174612F446566696E6974696F6E4974657261746F7250726F706572746965732E62696E504B010214001400060808001988CC4481012FD4180100003002000045000000000000000000000000004601000043413139303946352D433432412D343545392D384135462D3633333543373330424143382F41737365744461
311
74612F496E7374616E636550726F706572746965732E62696E504B010214001400060808001988CC4428BB58AF800100009E0500003D00000000000000000000000000C102000043413139303946352D433432412D343545392D384135462D3633333543373330424143382F536368656D61732F436F6D6D6F6E536368656D
311
612E786D6C504B010214001400060808001988CC442CCEBD668A040000E01200003E000000000000000000000000009C04000043413139303946352D433432412D343545392D384135462D3633333543373330424143382F536368656D61732F47656E65726963536368656D612E786D6C504B010214001400060808001988
311
CC446180134D5F0100006B03000045000000000000000000000000008209000043413139303946352D433432412D343545392D384135462D3633333543373330424143382F536368656D61732F52656E6465724D6174657269616C536368656D612E786D6C504B010214001400060808001988CC4470552308510000005700
311
00004700000000000000000000000000440B000043413139303946352D433432412D343545392D384135462D3633333543373330424143382F4173736574446174612F41737365745461626C654F66436F6E74656E74732E62696E504B010214001400060808001988CC44F865834058000000680000004500000000000000
311
000000000000FA0B000043413139303946352D433432412D343545392D384135462D3633333543373330424143382F4173736574446174612F53747265616D56657273696F6E5461626C652E696E66504B010214001400060808001988CC44229C9EF6340100009A0400003600000000000000000000000000B50C00004341
311
3139303946352D433432412D343545392D384135462D3633333543373330424143382F4173736574446174612F636E782E786D6C504B010214001400060808001988CC44A8B09D6C070100004F03000034000000000000000000000000003D0E000043413139303946352D433432412D343545392D384135462D3633333543
311
373330424143382F536368656D61732F636E782E786D6C504B010214001400060808001988CC44410A3D5871000000A40000002C00000000000000000000000000960F000043413139303946352D433432412D343545392D384135462D3633333543373330424143382F636E782E786D6C504B010214001400060808001988
311
CC44D92F79DE7E000000A3000000070000000000000000000000000051100000636E782E786D6C504B010214001400060808001988CC4416E99B5DA6000000350100001300000000000000000000000000F41000005B436F6E74656E745F54797065735D2E786D6C504B010214001400060808001988CC443DEE336E640000
311
00790000001B00000000000000000000000000CB1100006175746F6465736B2D64657369676E2D7061636B6167652E786D6C504B010214001400060808001988CC4428D1062BF80000009601000037000000000000000000000000006812000043413139303946352D433432412D343545392D384135462D36333335433733
311
30424143382F4173736574446174612F636F72652E786D6C504B010214001400060808001988CC445F55755DF6000000940100003500000000000000000000000000B513000043413139303946352D433432412D343545392D384135462D3633333543373330424143382F536368656D61732F636F72652E786D6C504B0102
311
14001400060808001988CC44A2943D1002010000D70100002D00000000000000000000000000FE14000043413139303946352D433432412D343545392D384135462D3633333543373330424143382F636F72652E786D6C504B010214001400060808001988CC44E6A1654807010000B2010000080000000000000000000000
311
00004B160000636F72652E786D6C504B050600000000110011005A060000781700000000
310
504B03041400060808001988CC44000000000000000000000000370000006662782F45313331384442352D343832422D343242452D384145312D4333374337433630453644372F617474726962757465732E62696E504B03041400060808001988CC44000000000000000000000000350000006662782F4531333138444235
310
2D343832422D343242452D384145312D4333374337433630453644372F76657274696365732E62696E504B03041400060808001988CC44F270F1330600000004000000360000006662782F45313331384442352D343832422D343242452D384145312D4333374337433630453644372F747269616E676C65732E62696E6366
310
60600000504B03041400060808001988CC4451464CB48900000043010000360000006662782F45313331384442352D343832422D343242452D384145312D4333374337433630453644372F6469726563746F72792E786D6C9D8F310EC2300C45AF127987122606C71DD918B841D4B851A43646695A717C52A85029031293A5
310
A76FBF6FACEF7DA7264E43906840EF0FA03836E242F406C6DCEE4EA06AC22492573150D1F66C60C640E8938CB705396EEDD86DE9B5042FE27813D640EA63BB001C722AF6E55CB61E4863F58284D5D3F53DD715CE1C3985E63FD7F1B7EBDD617E9F1E504B03041400060808001988CC44163FD6EF38070000201C0000340000
310
006662782F45313331384442352D343832422D343242452D384145312D4333374337433630453644372F6F626A656374732E786D6CDD59DB6EDB3810FD1542FBB2FBA09BAF71A1B848ECB8308AB4418D2EF64DA065DAE146379052E2ECD7EF90226549966D25DB02C52640E230D470E6CCCC99E1C8FBB88F42F44C18A7497C
310
6DB89663201207C986C6BB6B23CFB6E695813E4E91C79224ABEC33508C23726D886563EAED5892A76A6943B6380F9BAB8BDBBF100F484C0C148498F36B83078F24C216CEB36443F893B5C119B676DBBDE55AC5C6BAD81DC3E963E3A814331267A02AACC7204569E0D6FF0493ECA9678B0DB56DBD6EDBFA67B6D9D2F0BAA234
310
E6198E8323AD1A727ADDB4EABB83F95D6F3831878341DF1C8C7AAE79BBB89D9BEEB8EFCC46B3D9E4E66E62A0A9B74E92B074404AE20D78F1D598BA9E2DFE539AAF5068D33B48E298040ACDB60D1BA2E452C29B98D48075A569158714B65616FA1D8D3FB1AD132835956A686BE3F4EF6AF426EBBF0104DE254A192722CA79C6
310
C0D70AFB221F1CCF2E566B7EA11C4538238CE2108574CD300307C1D6C2413531225B84282430935ED4F2AABA42605FCEA5362DB779188AFC35A632D37CC8479271A919FD87B083F6D5D34027B036A77176A58CCD5E531031F16CB958FCAFDF53FF2C8044DB10EF205AC04CB1A9DF6BE035135CB09C1BD3CF8BF57E25F8A1FD
310
F09425296199883C99CC2AEFB4072BA105C1D7019402D7BAEF0EA87C03E8BF00F2A52EC803CF31BA1FEC07DA768663BE4D5804DE410E321DF8E120F1F1E89367970F4F11AA71E5294C216D7F10A635336A6757209D7ACF10F409EB2BE356010E21A6EF692CF21C020585092C01DF6FD77B63BA04328545780A87603D7C7BB6
310
F888E0572107F8A6E1A136FAEDE0289D30CD3C3BF8EA13C40CA341E9AA9A8DA7F01DFE107C6FE6ABCFAB9C6D7140EE5562CFC996C6348362DAAE500DF45ACA7F5F7E911979644F6D5700E7EC12411C2D7E5929BF20E9185045D4E1C23572E59E42BA87218E499273B5DE4654411226CC5FBFFA450EB79EF5A70E82E230C86F
310
1101AD6406D53D603415A01853655EC984D60127C1832A00778553FD350E9E04BC7E008CF51E3D206A316B0ACDA3D4C75192C782BE8FC3BB699AD577E497EB4E7ACEA47735196963B914AFB3475343A9BC3827C2E9894366356F29D6D0928B3C1A005BB6591040CF94677E92E28066EDB1D030426528807D56E50DDD6E730E
310
A4DE0A4B4363ABEF0E9153F9591E725E7B75884F23BC23FE168B0AD77A5E0DA052B8B6A015995D98704E63C2658772C45C0D541C0B88A0885B2DB5250829F72392E1F7C49F2C798DF063641BFAD04B65A29BBD1C7D5A41553D4F49149D5B12FBD2FE579FE3280D8B2EED12066EAF71422BAE426971C433C49B8F33DFD910D9
310
745F925EF282C6B793F4C9BBC59F8087E19F0E8F3E8242EB0D35F2B2675D6BE84EC4D71590CA68E8F6C7DA1197B0D24765A2070973E89A8257FF85D0DD633742EB740E27E1D6A76198477E510F3212410B86B39C75CAD7D1D03972BEE2854642544EDAD2101AE4CEA4297B0FDD7D8055B2F938459A9563C0281AC31DAD9321
310
4756B486B0F485BC8F8A6BD765EFBF5DEA7FE6CBEA3DE589BCBE246CD3AA69BD8DD01D986E18045DAA0A57C691943CF5AAC917C98BCB651C065A88E2B7E296A0228491672A0613F206D47A7FE02F380B804857F2B7790B19B1219B434F5113A7C61CC6140ED5D2749F5ABDE900D989F2516BBC96825023983660C1B3F7E243
310
F80D83ABA1F3E3B6EA6AEC627D290A9B058395831E67647DFDB46A488195CE4F3F088CC84B43825A9D8946EE8CA8EFCB43BFDA90A02CFABE3CF378F69847EB185351194558E04DFAE1A3BC4B5EDB7051B00783A133BE198CCC716FB2300737BD2BF376B670CDC1D875C6EE7CE1CC270B9B119EE42C20DCEED98EAF7BA734DE
310
E9C028A0EB72A380A9C2E5AB9F8EE7A683FFC7378A3059E353B1F8AB5E28CA764F34648D5CEC7AA16825EAF5DBBA7FF788A8DB8BD89B3AE76256A003FC7CD90232D2F5BE7B6BA145EB4EA25DE74A457C63E13D795BF9E935A646E8ADF5A1B6A38DF2EB5C0CB3A7962AA56FB792D706B78BD1CC75EECCFE7C0E3358F76666DE
310
F6678E391CDF2DC6A3DEE00EA6B025E2AA1676AD2BBF04876A652B63349806F324A43094271BB42309DC8060EAD0815F5944B8BCD94003A0CAB87E23D0E1E9E762A69AE175A89F0E1E310CA6435591F30086A270EBB836D43AFA0DC6A06212298753D613141E15ED06CA19BD362004320AF5C55AC3384B0E0FA5F4C6B812DC
310
86E39DB833154F957F1F1E13E840AC1CEC2AF774C14559568B4E180EA4F23D01B09D6E48DE6FBA5607E10C3EAEF3AC34E6B070B04681A05F0814C6C1D4EF49C1BB07E2396F976BC93D35483A4DE6CFC64121D5CC30DBC9F17A05EF9BF9832D26E3CBAF280DF39D70E7B97A5F93648A3E23CC8B21940781A1CC4CB1B887CF3E
310
D80F2C81574C115A500802F4FBFE6AF4873D4BA228898B25FB46BDA842AB4778EDB4B1F5C80F1A17C71DDAB2EF51637D985B7162E10D7F8205702DA362365A405C0B80929E2A01A03D227C018FD5F62FE74815814A0B5B6D5D053C72A68F2091C4BB1C9136D50D950124E4026855CC69CB0F7AC1B3190CC1A7FF02504B0304
310
1400060808001988CC44B8B961D63E01000046050000300000006662782F45313331384442352D343832422D343242452D384145312D4333374337433630453644372F636E782E786D6CCD944D6EC3201085AF82D81BE3A87F8A3091BAE809BAA8BAC378E2D260B060A89ADB1752276D55A5EA2252B243C31BE97D334F2356
310
EFA3256F10A2F1AEA50DE39480D3BE376E6869C2757547C94A8AE03D7E9351E2D4082D2D652AC5107C9AE6520F6B956CA95AE33673512106D325844889B62AC69646FD02A3622AA1EF216E58AF50B18605883E050DB91FCD0873BF0EA0107A2A17BCB9AAF84DD52C1E9BDB25E7CB6BFE2CEAA294A2F3DECE7AE310829F88F6
310
F9E1B2192EEAF22D450A66D614022ABF9CB1CE3851E77F296276EB865987DBA9E8A6C91AAD308FA9F61A01AB2C02358AFA532C455D787F503FDC3FED1D90DE04D0E8C3F64C03688E0DE0608CE524FC8F7F27FC1BDB77AF19F75CDB3E0A3BDB3A19EA3EAD31C7F5F7FE738A941BECE585FE60ECF499CFA7048DBE3CE4BDAF13
310
11D7BB9397975E2EA0FC00504B03041400060808001988CC44FD7993467E000000A30000000B0000006662782F636E782E786D6C4D8C410E83201405AF42FE9E56D40A0BC014E420A6A2215530549A1EBFD0B8E8EA259337C3FBCFB6A2B78D2F17BC0072A90059FF0893F38B8074CC9801EA258F211C7F37407EDCAC808241
310
F22586B49F68B2F398D64257E79F2734A4216C5037DCB25AE1B65606B3BB2158375453DD55A61B6836AE45C9F3EBE52D79F905504B03041400060808001988CC44A6D797065F0000008200000007000000636E782E786D6C4DCB3B0E80201045D1AD90E9FD7516806B51190811670C8A61F982B1B0BAC9C97B72CA7B1037C6
310
D3332918DA1E04D2CAC69353902EDB8C20262D23F3F59B81A079470595414B17391D1F19B4730A5583A7ED43BBE4025D9592775E5ADFFA01504B03041400060808001988CC444FEB6A7CA0000000F4000000130000005B436F6E74656E745F54797065735D2E786D6C7D8F4B0EC2300C44AF1279DFA6B0400835ED02B80117
310
30C16D239A8F121795DB93D02D6269CFBC19BBED573B8B17C564BC53B0AB1B10E4B47F18372A5878A88E20FAAEBDBD032591BD2E299898C349CAA427B2986A1FC86565F0D122E7318E32A07EE24872DF3407A9BD63725C71C980AEBDD080CBCCE2BAE6F5D69B7110E7CD57AA146008B3D1C8F92C5954F993BB1BF787F39A89
310
ABC491D09600F9FDA2FB00504B03041400060808001988CC443DEE336E64000000790000001B0000006175746F6465736B2D64657369676E2D7061636B6167652E786D6C35CBC10E83200C00D05F21DCA56CA76D41FC96062B120735B69A7DBE268BB7777961F8D5AF396893C2ADB70FE7ADA196782C2DF776D7A97B5933C4
310
30F15651E5469C55D70F80A4992A3ADC954792C525AE70A1E4D6AD9816CC044FEFDF01FE3FDE907802504B03041400060808001988CC446A695362F9000000960100003B0000006662782F45313331384442352D343832422D343242452D384145312D4333374337433630453644372F7265736F75726365732F636F72652E
310
786D6C8550CB6EC23010FC9568EF4EEC102020C72824FC414FBD59CE925A101BF951F5F36B432AB5A79E76353B33BB3BFCF4B5DC8B4F745E5BD3012B291468949DB4993B88E14A5A284E823B6BC32F1A14462ED8418641F0D9D9F85821654D40935163275C41E93D0628D43D351D78F5818B2C650C89E16FE543AA9B9CB164
310
E58B27788C7A5AA57A4A6EFAAAD18118DBB1DEB2DD4036F43292A6697B7268FB3DE92FE3B8391FE830F4675E65B1E0412F3FDB95431970025153D610BA23AC7E63FB23A5C72D7DE755660AEE834B3FAF4BF377201C7A1B9D42CFABD7F48F6B7C4CFFBB466DC2A65E5D5F0A0F82A5239F03C1AB9C522ACF0853CD898A6F504B
310
03041400060808001988CC445AE53A57F2000000B1010000310000006662782F45313331384442352D343832422D343242452D384145312D4333374337433630453644372F636F72652E786D6C8D50CB6E833010FC15B477830D0450641C15C21FF4D49B651C6A25D8C88FAA9F5F3B50A9BDE5B4D6EC8C6776E8E57B7D645F
310
D23A65740F24C790492DCCACF4D243F037D4417661D41AE3FFD020D37C953D2418185DAC09DB0109A3BDD409D5669607C89D931E32F1888F1E9CF8942BCF79F091E1EEF9C6C59D2F3227F9CE63D4ABF5572AACE45ECEC04A4C6A841B44CA77D29E313E9FF0072D1293D110D47C58A939BAAB9B9216D8442AD25D8713AABB72
310
4075394CA87B9B081AAB766CC7064FCDB5A5451233EABC8D371F9FA4EB5E95EFC27F99C336BF9059695F9587E1AE70C048CCF35C305AA402E378B61B672A9BFD00504B03041400060808001988CC442CD54AC253010000DD0200000C0000006662782F636F72652E786D6C8D52DB8E832014FC15C33B8AD65E8334B6F60FF6
310
69DF28529754C120987EFE8297B83E6C77638264CE39336726E0F3ABA9839EEB4E289981384420E092A952C82A03D63CE001046782B552E6471B08246D78063C0C08AEB4B2ED0431250D971E95AAE41348BB8E1B10B0DA5D32D0B12FDED0905AE33ABA67D852F6A4150FE370EC23D85A514EA3A2746CE221B806A43814C936
310
DE5DE106DD0A98A6871C1E0FF91EE6B7A2D85C8EE87ACD2F38F2C3041BD1CCEA4C736A78094882E214A21D8C938F787F42E8B4459F38F29D0477463BCF93A87707C8E3FEC2D188AFF86C5BFECD6785349B64E21B273A4062B7DE502038F2F9B8DF10DE3A4327ECF233F45ECF169E0EEA39334AA7AE522ABB947A5A5BEEA851
310
307C381AAB8E7920F88D2779C3F39EC3054565E556A3C65DEFD678F5F54E2DD7B037AF402ADDD07A596E5C713917A195A5799CA95AE9FF4CCF56E73023FF30C937504B03041400060808001988CC4494AA640F07010000B201000008000000636F72652E786D6C8D50C172832014FC15E6DD515093980C92319A3FE8A9372A
310
C43051700433EDDF17A29D696F3D3D6677DFDB65D9F9731CD053CD4E5B53014D0820653A2BB5E92B58FC0D9780CE9CCDD6FA5F3240468CAA82080367FD6C9769833A6BBC32113556AA0D14CE290FA81BC2A302D7DDD52812B1F8A0708F6412DD43F42AA1C9AAE3CCEBF167B59B95F04A02CF082D30D9639ABDD1C38990D38E
310
BCB3342A395B162D372B2D83BBBE6935036FCB36DBD17D8373726D715194353E96F501D7D7B6CD2F47D234F585A5719933E7E7F0E7ED48C8E99113CFE8CBD295E2ECC3DA611384501259337C01272C8DC49FD0CB24FF115A1B9F67DBC175C301A721D08B08C6B1C1305EF58619DBE6DF504B010214001400060808001988CC
310
440000000000000000000000003700000000000000000000000000000000006662782F45313331384442352D343832422D343242452D384145312D4333374337433630453644372F617474726962757465732E62696E504B010214001400060808001988CC4400000000000000000000000035000000000000000000000000
310
00550000006662782F45313331384442352D343832422D343242452D384145312D4333374337433630453644372F76657274696365732E62696E504B010214001400060808001988CC44F270F13306000000040000003600000000000000000000000000A80000006662782F45313331384442352D343832422D343242452D
310
384145312D4333374337433630453644372F747269616E676C65732E62696E504B010214001400060808001988CC4451464CB489000000430100003600000000000000000000000000020100006662782F45313331384442352D343832422D343242452D384145312D4333374337433630453644372F6469726563746F7279
310
2E786D6C504B010214001400060808001988CC44163FD6EF38070000201C00003400000000000000000000000000DF0100006662782F45313331384442352D343832422D343242452D384145312D4333374337433630453644372F6F626A656374732E786D6C504B010214001400060808001988CC44B8B961D63E01000046
310
0500003000000000000000000000000000690900006662782F45313331384442352D343832422D343242452D384145312D4333374337433630453644372F636E782E786D6C504B010214001400060808001988CC44FD7993467E000000A30000000B00000000000000000000000000F50A00006662782F636E782E786D6C50
310
4B010214001400060808001988CC44A6D797065F0000008200000007000000000000000000000000009C0B0000636E782E786D6C504B010214001400060808001988CC444FEB6A7CA0000000F40000001300000000000000000000000000200C00005B436F6E74656E745F54797065735D2E786D6C504B0102140014000608
310
08001988CC443DEE336E64000000790000001B00000000000000000000000000F10C00006175746F6465736B2D64657369676E2D7061636B6167652E786D6C504B010214001400060808001988CC446A695362F9000000960100003B000000000000000000000000008E0D00006662782F45313331384442352D343832422D
310
343242452D384145312D4333374337433630453644372F7265736F75726365732F636F72652E786D6C504B010214001400060808001988CC445AE53A57F2000000B10100003100000000000000000000000000E00E00006662782F45313331384442352D343832422D343242452D384145312D433337433743363045364437
310
2F636F72652E786D6C504B010214001400060808001988CC442CD54AC253010000DD0200000C00000000000000000000000000211000006662782F636F72652E786D6C504B010214001400060808001988CC4494AA640F07010000B201000008000000000000000000000000009E110000636F72652E786D6C504B05060000
310
00000E000E0080040000CB1200000000
  0
ENDSEC
  0
EOF
