  0
SECTION
  2
HEADER
  9
$ACADVER
  1
AC1018
  9
$ACADMAINTVER
 70
     0
  9
$DWGCODEPAGE
  3
ANSI_932
  9
$LASTSAVEDBY
  1
mitomim
  9
$INSBASE
 10
0.0
 20
0.0
 30
0.0
  9
$EXTMIN
 10
703003.0285013975
 20
-7895.927790944232
 30
0.0
  9
$EXTMAX
 10
715375.6009589364
 20
8508.22857343618
 30
0.0
  9
$LIMMIN
 10
0.0
 20
0.0
  9
$LIMMAX
 10
2969.996969696967
 20
2100.0
  9
$ORTHOMODE
 70
     1
  9
$REGENMODE
 70
     1
  9
$FILLMODE
 70
     1
  9
$QTEXTMODE
 70
     0
  9
$MIRRTEXT
 70
     0
  9
$LTSCALE
 40
50.0
  9
$ATTMODE
 70
     1
  9
$TEXTSIZE
 40
30.0
  9
$TRACEWID
 40
0.05
  9
$TEXTSTYLE
  7
スタイル1
  9
$CLAYER
  8
166-寸法B
  9
$CELTYPE
  6
BYLAYER
  9
$CECOLOR
 62
   256
  9
$CELTSCALE
 40
1.0
  9
$DISPSILH
 70
     0
  9
$DIMSCALE
 40
1.0
  9
$DIMASZ
 40
0.12
  9
$DIMEXO
 40
0.05
  9
$DIMDLI
 40
0.5
  9
$DIMRND
 40
0.0
  9
$DIMDLE
 40
0.0
  9
$DIMEXE
 40
0.1
  9
$DIMTP
 40
0.1
  9
$DIMTM
 40
0.1
  9
$DIMTXT
 40
0.12
  9
$DIMCEN
 40
0.0
  9
$DIMTSZ
 40
0.0
  9
$DIMTOL
 70
     0
  9
$DIMLIM
 70
     0
  9
$DIMTIH
 70
     1
  9
$DIMTOH
 70
     1
  9
$DIMSE1
 70
     0
  9
$DIMSE2
 70
     0
  9
$DIMTAD
 70
     0
  9
$DIMZIN
 70
     7
  9
$DIMBLK
  1

  9
$DIMASO
 70
     1
  9
$DIMSHO
 70
     1
  9
$DIMPOST
  1

  9
$DIMAPOST
  1
mm
  9
$DIMALT
 70
     0
  9
$DIMALTD
 70
     2
  9
$DIMALTF
 40
25.4
  9
$DIMLFAC
 40
1.0
  9
$DIMTOFL
 70
     0
  9
$DIMTVP
 40
0.0
  9
$DIMTIX
 70
     0
  9
$DIMSOXD
 70
     0
  9
$DIMSAH
 70
     0
  9
$DIMBLK1
  1

  9
$DIMBLK2
  1

  9
$DIMSTYLE
  2
AM_ANSI
  9
$DIMCLRD
 70
   256
  9
$DIMCLRE
 70
   256
  9
$DIMCLRT
 70
     2
  9
$DIMTFAC
 40
0.71
  9
$DIMGAP
 40
0.06
  9
$DIMJUST
 70
     0
  9
$DIMSD1
 70
     0
  9
$DIMSD2
 70
     0
  9
$DIMTOLJ
 70
     1
  9
$DIMTZIN
 70
     7
  9
$DIMALTZ
 70
     0
  9
$DIMALTTZ
 70
     0
  9
$DIMUPT
 70
     0
  9
$DIMDEC
 70
     4
  9
$DIMTDEC
 70
     4
  9
$DIMALTU
 70
     2
  9
$DIMALTTD
 70
     4
  9
$DIMTXSTY
  7
STANDARD
  9
$DIMAUNIT
 70
     0
  9
$DIMADEC
 70
     0
  9
$DIMALTRND
 40
0.0
  9
$DIMAZIN
 70
     2
  9
$DIMDSEP
 70
    46
  9
$DIMATFIT
 70
     3
  9
$DIMFRAC
 70
     0
  9
$DIMLDRBLK
  1

  9
$DIMLUNIT
 70
     2
  9
$DIMLWD
 70
    -1
  9
$DIMLWE
 70
    -1
  9
$DIMTMOVE
 70
     0
  9
$LUNITS
 70
     2
  9
$LUPREC
 70
     1
  9
$SKETCHINC
 40
0.1
  9
$FILLETRAD
 40
0.3
  9
$AUNITS
 70
     0
  9
$AUPREC
 70
     0
  9
$MENU
  1
WAVES
  9
$ELEVATION
 40
0.0
  9
$PELEVATION
 40
0.0
  9
$THICKNESS
 40
0.0
  9
$LIMCHECK
 70
     0
  9
$CHAMFERA
 40
0.0
  9
$CHAMFERB
 40
0.0
  9
$CHAMFERC
 40
0.0
  9
$CHAMFERD
 40
0.0
  9
$SKPOLY
 70
     0
  9
$TDCREATE
 40
2450631.675926736
  9
$TDUCREATE
 40
2450631.300926736
  9
$TDUPDATE
 40
2457421.739715104
  9
$TDUUPDATE
 40
2457421.364715104
  9
$TDINDWG
 40
0.0
  9
$TDUSRTIMER
 40
0.0
  9
$USRTIMER
 70
     1
  9
$ANGBASE
 50
0.0
  9
$ANGDIR
 70
     0
  9
$PDMODE
 70
     0
  9
$PDSIZE
 40
0.0
  9
$PLINEWID
 40
0.0
  9
$SPLFRAME
 70
     0
  9
$SPLINETYPE
 70
     6
  9
$SPLINESEGS
 70
     8
  9
$HANDSEED
  5
291
  9
$SURFTAB1
 70
     6
  9
$SURFTAB2
 70
     6
  9
$SURFTYPE
 70
     6
  9
$SURFU
 70
     6
  9
$SURFV
 70
     6
  9
$UCSBASE
  2

  9
$UCSNAME
  2

  9
$UCSORG
 10
0.0
 20
0.0
 30
0.0
  9
$UCSXDIR
 10
1.0
 20
0.0
 30
0.0
  9
$UCSYDIR
 10
0.0
 20
1.0
 30
0.0
  9
$UCSORTHOREF
  2

  9
$UCSORTHOVIEW
 70
     0
  9
$UCSORGTOP
 10
0.0
 20
0.0
 30
0.0
  9
$UCSORGBOTTOM
 10
0.0
 20
0.0
 30
0.0
  9
$UCSORGLEFT
 10
0.0
 20
0.0
 30
0.0
  9
$UCSORGRIGHT
 10
0.0
 20
0.0
 30
0.0
  9
$UCSORGFRONT
 10
0.0
 20
0.0
 30
0.0
  9
$UCSORGBACK
 10
0.0
 20
0.0
 30
0.0
  9
$PUCSBASE
  2

  9
$PUCSNAME
  2

  9
$PUCSORG
 10
0.0
 20
0.0
 30
0.0
  9
$PUCSXDIR
 10
1.0
 20
0.0
 30
0.0
  9
$PUCSYDIR
 10
0.0
 20
1.0
 30
0.0
  9
$PUCSORTHOREF
  2

  9
$PUCSORTHOVIEW
 70
     0
  9
$PUCSORGTOP
 10
0.0
 20
0.0
 30
0.0
  9
$PUCSORGBOTTOM
 10
0.0
 20
0.0
 30
0.0
  9
$PUCSORGLEFT
 10
0.0
 20
0.0
 30
0.0
  9
$PUCSORGRIGHT
 10
0.0
 20
0.0
 30
0.0
  9
$PUCSORGFRONT
 10
0.0
 20
0.0
 30
0.0
  9
$PUCSORGBACK
 10
0.0
 20
0.0
 30
0.0
  9
$USERI1
 70
     0
  9
$USERI2
 70
     0
  9
$USERI3
 70
     0
  9
$USERI4
 70
     0
  9
$USERI5
 70
     0
  9
$USERR1
 40
0.0
  9
$USERR2
 40
0.0
  9
$USERR3
 40
0.0
  9
$USERR4
 40
0.0
  9
$USERR5
 40
0.0
  9
$WORLDVIEW
 70
     1
  9
$SHADEDGE
 70
     3
  9
$SHADEDIF
 70
    70
  9
$TILEMODE
 70
     1
  9
$MAXACTVP
 70
    16
  9
$PINSBASE
 10
0.0
 20
0.0
 30
0.0
  9
$PLIMCHECK
 70
     0
  9
$PEXTMIN
 10
1.000000000000000E+20
 20
1.000000000000000E+20
 30
1.000000000000000E+20
  9
$PEXTMAX
 10
-1.000000000000000E+20
 20
-1.000000000000000E+20
 30
-1.000000000000000E+20
  9
$PLIMMIN
 10
-5.365753173828125
 20
-5.365749835968018
  9
$PLIMMAX
 10
414.750244140625
 20
291.5602450370789
  9
$UNITMODE
 70
     0
  9
$VISRETAIN
 70
     0
  9
$PLINEGEN
 70
     0
  9
$PSLTSCALE
 70
     0
  9
$TREEDEPTH
 70
  3020
  9
$CMLSTYLE
  2
STANDARD
  9
$CMLJUST
 70
     0
  9
$CMLSCALE
 40
1.0
  9
$PROXYGRAPHICS
 70
     1
  9
$MEASUREMENT
 70
     0
  9
$CELWEIGHT
370
    -1
  9
$ENDCAPS
280
     0
  9
$JOINSTYLE
280
     0
  9
$LWDISPLAY
290
     0
  9
$INSUNITS
 70
     0
  9
$HYPERLINKBASE
  1

  9
$STYLESHEET
  1
monochrome.ctb
  9
$XEDIT
290
     1
  9
$CEPSNTYPE
380
     0
  9
$PSTYLEMODE
290
     1
  9
$FINGERPRINTGUID
  2
{3C6CF88D-945F-41F5-84B7-6516EB46226E}
  9
$VERSIONGUID
  2
{DFB9AE85-D841-40E2-A446-E0FD2B0002C4}
  9
$EXTNAMES
290
     1
  9
$PSVPSCALE
 40
0.0
  9
$OLESTARTUP
290
     0
  9
$SORTENTS
280
   127
  9
$INDEXCTL
280
     0
  9
$HIDETEXT
280
     1
  9
$XCLIPFRAME
290
     0
  9
$HALOGAP
280
     0
  9
$OBSCOLOR
 70
   257
  9
$OBSLTYPE
280
     0
  9
$INTERSECTIONDISPLAY
280
     0
  9
$INTERSECTIONCOLOR
 70
   257
  9
$DIMASSOC
280
     1
  9
$PROJECTNAME
  1

  0
ENDSEC
  0
SECTION
  2
CLASSES
  0
CLASS
  1
ACDBDICTIONARYWDFLT
  2
AcDbDictionaryWithDefault
  3
ObjectDBX Classes
 90
        0
 91
        7
280
     0
281
     0
  0
CLASS
  1
MATERIAL
  2
AcDbMaterial
  3
ObjectDBX Classes
 90
     1153
 91
        7
280
     0
281
     0
  0
CLASS
  1
SORTENTSTABLE
  2
AcDbSortentsTable
  3
ObjectDBX Classes
 90
        0
 91
        6
280
     0
281
     0
  0
CLASS
  1
VISUALSTYLE
  2
AcDbVisualStyle
  3
ObjectDBX Classes
 90
     4095
 91
        7
280
     0
281
     0
  0
CLASS
  1
SUN
  2
AcDbSun
  3
SCENEOE
 90
     1153
 91
        7
280
     0
281
     0
  0
CLASS
  1
SCALE
  2
AcDbScale
  3
ObjectDBX Classes
 90
     1153
 91
        7
280
     0
281
     0
  0
CLASS
  1
DICTIONARYVAR
  2
AcDbDictionaryVar
  3
ObjectDBX Classes
 90
        0
 91
        5
280
     0
281
     0
  0
ENDSEC
  0
SECTION
  2
TABLES
  0
TABLE
  2
VPORT
  5
30
330
0
100
AcDbSymbolTable
 70
     4
  0
VPORT
  5
35
330
30
100
AcDbSymbolTableRecord
100
AcDbViewportTableRecord
  2
*Active
 70
     0
 10
0.0
 20
0.0
 11
1.0
 21
1.0
 12
706440.4925143311
 22
-5297.328062125878
 13
0.0
 23
0.0
 14
45.0
 24
45.0
 15
40.0
 25
40.0
 16
0.0
 26
0.0
 36
1.0
 17
0.0
 27
0.0
 37
0.0
 40
3527.99999997983
 41
1.414284271290684
 42
50.0
 43
0.0
 44
0.0
 50
0.0
 51
0.0
 71
    16
 72
   100
 73
     1
 74
     0
 75
     0
 76
     0
 77
     0
 78
     1
281
     0
 65
     0
110
0.0
120
0.0
130
0.0
111
1.0
121
0.0
131
0.0
112
0.0
122
1.0
132
0.0
 79
     0
146
0.0
  0
ENDTAB
  0
TABLE
  2
LTYPE
  5
11
330
0
100
AcDbSymbolTable
 70
    27
  0
LTYPE
  5
12
330
11
100
AcDbSymbolTableRecord
100
AcDbLinetypeTableRecord
  2
BYBLOCK
 70
     0
  3

 72
    65
 73
     0
 40
0.0
  0
LTYPE
  5
13
330
11
100
AcDbSymbolTableRecord
100
AcDbLinetypeTableRecord
  2
BYLAYER
 70
     0
  3

 72
    65
 73
     0
 40
0.0
  0
LTYPE
  5
10
330
11
100
AcDbSymbolTableRecord
100
AcDbLinetypeTableRecord
  2
CONTINUOUS
 70
     0
  3
Solid line
 72
    65
 73
     0
 40
0.0
  0
LTYPE
  5
7C
330
11
100
AcDbSymbolTableRecord
100
AcDbLinetypeTableRecord
  2
HIDDEN
 70
     0
  3
Hidden __ __ __ __ __ __ __ __ __ __ __ __ __ _
 72
    65
 73
     2
 40
0.375
 49
0.25
 74
     0
 49
-0.125
 74
     0
  0
LTYPE
  5
8D
330
11
100
AcDbSymbolTableRecord
100
AcDbLinetypeTableRecord
  2
STYLE_03
 70
     0
  3

 72
    65
 73
     2
 40
0.4166412353515625
 49
0.208282470703125
 74
     0
 49
-0.2083587646484375
 74
     0
  0
ENDTAB
  0
TABLE
  2
LAYER
  5
2
102
{ACAD_XDICTIONARY
360
3
102
}
330
0
100
AcDbSymbolTable
 70
    19
  0
LAYER
  5
21
102
{ACAD_XDICTIONARY
360
22
102
}
330
2
100
AcDbSymbolTableRecord
100
AcDbLayerTableRecord
  2
0
 70
     0
 62
     7
  6
CONTINUOUS
370
    -3
390
B
  0
LAYER
  5
6E
102
{ACAD_XDICTIONARY
360
6F
102
}
330
2
100
AcDbSymbolTableRecord
100
AcDbLayerTableRecord
  2
160-文字
 70
     0
 62
   254
  6
CONTINUOUS
370
    -3
390
B
  0
LAYER
  5
5F
102
{ACAD_XDICTIONARY
360
60
102
}
330
2
100
AcDbSymbolTableRecord
100
AcDbLayerTableRecord
  2
190-図面外枠
 70
     0
 62
     5
  6
CONTINUOUS
370
    -3
390
B
  0
LAYER
  5
150
102
{ACAD_XDICTIONARY
360
151
102
}
330
2
100
AcDbSymbolTableRecord
100
AcDbLayerTableRecord
  2
191-図面内枠
 70
     0
 62
     4
  6
CONTINUOUS
370
    -3
390
B
  0
LAYER
  5
74
102
{ACAD_XDICTIONARY
360
75
102
}
330
2
100
AcDbSymbolTableRecord
100
AcDbLayerTableRecord
  2
120-キャビネット（外）
 70
     0
 62
     7
  6
CONTINUOUS
370
    -3
390
B
  0
LAYER
  5
79
102
{ACAD_XDICTIONARY
360
7A
102
}
330
2
100
AcDbSymbolTableRecord
100
AcDbLayerTableRecord
  2
121-キャビネット（中）
 70
     0
 62
   253
  6
HIDDEN
370
    -3
390
B
  0
LAYER
  5
280
102
{ACAD_XDICTIONARY
360
281
102
}
330
2
100
AcDbSymbolTableRecord
100
AcDbLayerTableRecord
  2
111-壁仕上
 70
     0
 62
     3
  6
CONTINUOUS
370
    -3
390
B
  0
LAYER
  5
67
330
2
100
AcDbSymbolTableRecord
100
AcDbLayerTableRecord
  2
DEFPOINTS
 70
     0
 62
   146
  6
CONTINUOUS
290
     0
370
    -3
390
B
  0
LAYER
  5
91
102
{ACAD_XDICTIONARY
360
92
102
}
330
2
100
AcDbSymbolTableRecord
100
AcDbLayerTableRecord
  2
141-パーツ
 70
     0
 62
    31
  6
CONTINUOUS
370
    -3
390
B
  0
LAYER
  5
1
102
{ACAD_XDICTIONARY
360
9
102
}
330
2
100
AcDbSymbolTableRecord
100
AcDbLayerTableRecord
  2
166-寸法B
 70
     0
 62
    11
  6
CONTINUOUS
370
    -3
390
B
1001
AcAecLayerStandard
1000

1000

  0
LAYER
  5
13B
102
{ACAD_XDICTIONARY
360
13C
102
}
330
2
100
AcDbSymbolTableRecord
100
AcDbLayerTableRecord
  2
161-番号
 70
     0
 62
   110
  6
CONTINUOUS
370
    -3
390
B
1001
AcAecLayerStandard
1000

1000

  0
ENDTAB
  0
TABLE
  2
STYLE
  5
16
330
0
100
AcDbSymbolTable
 70
    10
  0
STYLE
  5
19
330
16
100
AcDbSymbolTableRecord
100
AcDbTextStyleTableRecord
  2
STANDARD
 70
     0
 40
0.0
 41
0.8
 50
0.0
 71
     0
 42
30.0
  3
simplex.shx
  4
extfont.shx
  0
STYLE
  5
71
330
16
100
AcDbSymbolTableRecord
100
AcDbTextStyleTableRecord
  2
KH001
 70
     0
 40
0.0
 41
1.0
 50
0.0
 71
     0
 42
30.0
  3

  4

1001
ACAD
1000
MS Gothic
1071
    32817
  0
STYLE
  5
15
330
16
100
AcDbSymbolTableRecord
100
AcDbTextStyleTableRecord
  2
スタイル1
 70
     0
 40
0.0
 41
0.8
 50
0.0
 71
     0
 42
30.0
  3

  4

1001
ACAD
1000
HGSGothicE
1071
    32818
  0
STYLE
  5
284
330
16
100
AcDbSymbolTableRecord
100
AcDbTextStyleTableRecord
  2
ＭＳ ゴシック
 70
     0
 40
0.0
 41
1.0
 50
0.0
 71
     0
 42
30.0
  3

  4
ＭＳ ゴシック
1001
ACAD
1000
ＭＳ ゴシック
1071
        0
  0
ENDTAB
  0
TABLE
  2
VIEW
  5
2E
330
0
100
AcDbSymbolTable
 70
     0
  0
ENDTAB
  0
TABLE
  2
UCS
  5
2F
330
0
100
AcDbSymbolTable
 70
     0
  0
ENDTAB
  0
TABLE
  2
APPID
  5
8
330
0
100
AcDbSymbolTable
 70
    23
  0
APPID
  5
7
330
8
100
AcDbSymbolTableRecord
100
AcDbRegAppTableRecord
  2
ACAD
 70
     0
  0
APPID
  5
27
330
8
100
AcDbSymbolTableRecord
100
AcDbRegAppTableRecord
  2
ACAD_PSEXT
 70
     0
  0
APPID
  5
14
330
8
100
AcDbSymbolTableRecord
100
AcDbRegAppTableRecord
  2
AcAecLayerStandard
 70
     0
  0
ENDTAB
  0
TABLE
  2
DIMSTYLE
  5
18
330
0
100
AcDbSymbolTable
 70
    20
100
AcDbDimStyleTable
  0
DIMSTYLE
105
9D
102
{ACAD_REACTORS
330
9C
330
B5
330
C6
330
D3
330
E4
330
F1
330
FE
330
10B
330
11C
330
129
330
142
330
19E
330
1AB
330
1B8
330
1C5
330
1D2
330
1E3
330
1F0
330
1FD
330
20A
330
219
330
226
330
235
330
242
330
24F
330
25C
330
269
102
}
330
18
100
AcDbSymbolTableRecord
100
AcDbDimStyleTableRecord
  2
KH1xx010
 70
     0
 40
10.0
 41
0.6
 42
1.2
 43
5.0
 44
0.3
 46
1.0
 73
     0
 74
     0
 77
     3
 78
     8
140
2.3
141
1.0
147
0.5
172
     1
174
     1
176
   256
177
   256
271
     1
178
   256
271
     1
272
     1
277
     6
279
     2
340
71
341
9E
342
A4
371
    -1
372
    -1
  0
DIMSTYLE
105
13F
330
18
100
AcDbSymbolTableRecord
100
AcDbDimStyleTableRecord
  2
KH1xx030
 70
     0
 40
30.0
 41
0.6
 42
1.2
 43
4.5
 44
0.3
 46
1.0
 73
     0
 74
     0
 77
     3
 78
     8
140
2.0
141
1.0
147
0.5
172
     1
174
     1
176
   256
177
   256
271
     1
178
   256
271
     1
272
     1
277
     6
279
     2
340
71
341
9E
342
A4
371
    -1
372
    -1
  0
DIMSTYLE
105
17
330
18
100
AcDbSymbolTableRecord
100
AcDbDimStyleTableRecord
  2
AM_ANSI
 70
     0
  4
mm
 41
0.12
 42
0.05
 43
0.5
 44
0.1
 47
0.1
 48
0.1
 78
     7
 79
     2
140
0.12
141
0.0
146
0.71
147
0.06
176
   256
177
   256
178
     2
274
     4
284
     7
340
19
371
    -1
372
    -1
  0
ENDTAB
  0
TABLE
  2
BLOCK_RECORD
  5
1C
330
0
100
AcDbSymbolTable
 70
   204
  0
BLOCK_RECORD
  5
1D
102
{ACAD_XDICTIONARY
360
1E
102
}
330
1C
100
AcDbSymbolTableRecord
100
AcDbBlockTableRecord
  2
*MODEL_SPACE
340
25
  0
BLOCK_RECORD
  5
28
330
1C
100
AcDbSymbolTableRecord
100
AcDbBlockTableRecord
  2
*PAPER_SPACE
340
2B
  0
BLOCK_RECORD
  5
9E
330
1C
100
AcDbSymbolTableRecord
100
AcDbBlockTableRecord
  2
_ClosedBlank
340
0
  0
BLOCK_RECORD
  5
A4
330
1C
100
AcDbSymbolTableRecord
100
AcDbBlockTableRecord
  2
_Dot
340
0
102
{BLKREFS
331
AE
331
AF
331
C0
331
C1
331
CC
331
CD
331
DE
331
DF
331
1A4
331
1A5
331
1B1
331
1B2
331
1BE
331
1BF
331
203
331
204
331
212
331
213
331
262
331
263
331
255
331
256
331
248
331
249
331
23B
331
23C
331
22F
331
230
331
21F
331
220
331
1E9
331
1EA
331
1CB
331
1CC
331
EA
331
EB
331
26F
331
270
331
F7
331
F8
331
104
331
105
331
116
331
117
331
122
331
123
331
134
331
135
331
148
331
149
331
1DD
331
1DE
331
1F6
331
1F7
102
}
  0
BLOCK_RECORD
  5
62
102
{ACAD_XDICTIONARY
360
63
102
}
330
1C
100
AcDbSymbolTableRecord
100
AcDbBlockTableRecord
  2
A$C5D946DDC
340
0
102
{BLKREFS
331
5E
102
}
1001
ACAD
1000
DesignCenter Data
1002
{
1070
     1
1070
     4
1002
}
  0
BLOCK_RECORD
  5
94
330
1C
100
AcDbSymbolTableRecord
100
AcDbBlockTableRecord
  2
ｱｼﾞｬｽﾀｰ
340
0
310
2800000020000000200000000100080000000000000400000000000000000000000000000000000000000000000080000080000000808000800000008000800080800000C0C0C000C0DCC000F0CAA6000020400000206000002080000020A0000020C0000020E00000400000004020000040400000406000004080000040A0
310
000040C0000040E00000600000006020000060400000606000006080000060A0000060C0000060E00000800000008020000080400000806000008080000080A0000080C0000080E00000A0000000A0200000A0400000A0600000A0800000A0A00000A0C00000A0E00000C0000000C0200000C0400000C0600000C0800000C0
310
A00000C0C00000C0E00000E0000000E0200000E0400000E0600000E0800000E0A00000E0C00000E0E00040000000400020004000400040006000400080004000A0004000C0004000E00040200000402020004020400040206000402080004020A0004020C0004020E000404000004040200040404000404060004040800040
310
40A0004040C0004040E00040600000406020004060400040606000406080004060A0004060C0004060E00040800000408020004080400040806000408080004080A0004080C0004080E00040A0000040A0200040A0400040A0600040A0800040A0A00040A0C00040A0E00040C0000040C0200040C0400040C0600040C08000
310
40C0A00040C0C00040C0E00040E0000040E0200040E0400040E0600040E0800040E0A00040E0C00040E0E00080000000800020008000400080006000800080008000A0008000C0008000E00080200000802020008020400080206000802080008020A0008020C0008020E00080400000804020008040400080406000804080
310
008040A0008040C0008040E00080600000806020008060400080606000806080008060A0008060C0008060E00080800000808020008080400080806000808080008080A0008080C0008080E00080A0000080A0200080A0400080A0600080A0800080A0A00080A0C00080A0E00080C0000080C0200080C0400080C0600080C0
310
800080C0A00080C0C00080C0E00080E0000080E0200080E0400080E0600080E0800080E0A00080E0C00080E0E000C0000000C0002000C0004000C0006000C0008000C000A000C000C000C000E000C0200000C0202000C0204000C0206000C0208000C020A000C020C000C020E000C0400000C0402000C0404000C0406000C0
310
408000C040A000C040C000C040E000C0600000C0602000C0604000C0606000C0608000C060A000C060C000C060E000C0800000C0802000C0804000C0806000C0808000C080A000C080C000C080E000C0A00000C0A02000C0A04000C0A06000C0A08000C0A0A000C0A0C000C0A0E000C0C00000C0C02000C0C04000C0C06000
310
C0C08000C0C0A000F0FBFF00A4A0A000808080000000FF0000FF000000FFFF00FF000000FF00FF00FFFF0000FFFFFF0000000000000000000000000000000000000000000000000000000000000000000000000000000000000000000000000000000000000000000000000000000000000000000000000000000000000000
310
00000000000000000000000000000000000000000000000000000000000000000000000000000000000000000000000000000000000000000000000000000000000000000000000000000000000000000000000000000000000000000000000000000000000000000000000000000000000000000000000000000000000000
310
00000000000000000000000000000000000000000000000000000000000000000000000000000000000000000000000000000000000000B7B7B7B7B7B7B7B7B7B7B7B7B7B7B7B7B7B7B7B7B7B700000000000000000000B70000000000000000000000000000000000000000B700000000000000000000B700000000000000
310
00000000000000000000000000B7000000000000B7B7B7B7B7B7B7B7B7B7B7B7B7B7B7B7B7B7B7B7B7B7B7B7B7B7B7B7B7B70000B700000000000000000000000000000000000000000000000000000000B70000B700000000000000000000000000000000000000000000000000000000B70000B700000000000000000000
310
000000000000000000000000000000000000B70000B700000000000000000000000000000000000000000000000000000000B70000B700000000000000000000000000000000000000000000000000000000B70000B700000000000000000000000000000000000000000000000000000000B70000B7000000000000000000
310
00000000000000000000000000000000000000B70000B700000000000000000000000000000000000000000000000000000000B70000B700000000000000000000000000000000000000000000000000000000B70000B700000000000000000000000000000000000000000000000000000000B70000B70000000000000000
310
0000000000000000000000000000000000000000B70000B7B7B7B7B7B7B7B7B7B7B7B7B7B7B7B7B7B7B7B7B7B7B7B7B7B7B7B7B7B70000000000000000000000000000000000000000000000000000000000000000000000000000000000000000000000000000000000000000000000000000000000000000000000000000
310
00000000000000000000000000000000000000000000000000000000000000000000000000000000000000000000000000000000000000000000000000000000000000000000000000000000000000000000000000000000000000000000000000000000000000000000000000000000000000000000000000000000000000
310
0000000000000000000000000000000000000000000000000000000000000000000000000000000000000000000000000000000000000000
102
{BLKREFS
331
90
331
99
331
9A
331
9B
102
}
  0
BLOCK_RECORD
  5
A9
330
1C
100
AcDbSymbolTableRecord
100
AcDbBlockTableRecord
  2
*D96
340
0
  0
BLOCK_RECORD
  5
B6
330
1C
100
AcDbSymbolTableRecord
100
AcDbBlockTableRecord
  2
*D97
340
0
  0
BLOCK_RECORD
  5
C7
330
1C
100
AcDbSymbolTableRecord
100
AcDbBlockTableRecord
  2
*D98
340
0
  0
BLOCK_RECORD
  5
D4
330
1C
100
AcDbSymbolTableRecord
100
AcDbBlockTableRecord
  2
*D99
340
0
  0
BLOCK_RECORD
  5
E5
330
1C
100
AcDbSymbolTableRecord
100
AcDbBlockTableRecord
  2
*D100
340
0
  0
BLOCK_RECORD
  5
F2
330
1C
100
AcDbSymbolTableRecord
100
AcDbBlockTableRecord
  2
*D101
340
0
  0
BLOCK_RECORD
  5
FF
330
1C
100
AcDbSymbolTableRecord
100
AcDbBlockTableRecord
  2
*D102
340
0
  0
BLOCK_RECORD
  5
10C
330
1C
100
AcDbSymbolTableRecord
100
AcDbBlockTableRecord
  2
*D103
340
0
  0
BLOCK_RECORD
  5
11D
330
1C
100
AcDbSymbolTableRecord
100
AcDbBlockTableRecord
  2
*D104
340
0
  0
BLOCK_RECORD
  5
12A
330
1C
100
AcDbSymbolTableRecord
100
AcDbBlockTableRecord
  2
*D105
340
0
  0
BLOCK_RECORD
  5
143
330
1C
100
AcDbSymbolTableRecord
100
AcDbBlockTableRecord
  2
*D106
340
0
  0
BLOCK_RECORD
  5
19F
330
1C
100
AcDbSymbolTableRecord
100
AcDbBlockTableRecord
  2
*D107
340
0
  0
BLOCK_RECORD
  5
1AC
330
1C
100
AcDbSymbolTableRecord
100
AcDbBlockTableRecord
  2
*D108
340
0
  0
BLOCK_RECORD
  5
1B9
330
1C
100
AcDbSymbolTableRecord
100
AcDbBlockTableRecord
  2
*D109
340
0
  0
BLOCK_RECORD
  5
1C6
330
1C
100
AcDbSymbolTableRecord
100
AcDbBlockTableRecord
  2
*D110
340
0
  0
BLOCK_RECORD
  5
1D3
330
1C
100
AcDbSymbolTableRecord
100
AcDbBlockTableRecord
  2
*D111
340
0
  0
BLOCK_RECORD
  5
1E4
330
1C
100
AcDbSymbolTableRecord
100
AcDbBlockTableRecord
  2
*D112
340
0
  0
BLOCK_RECORD
  5
1F1
330
1C
100
AcDbSymbolTableRecord
100
AcDbBlockTableRecord
  2
*D113
340
0
  0
BLOCK_RECORD
  5
1FE
330
1C
100
AcDbSymbolTableRecord
100
AcDbBlockTableRecord
  2
*D114
340
0
  0
BLOCK_RECORD
  5
20B
330
1C
100
AcDbSymbolTableRecord
100
AcDbBlockTableRecord
  2
*D115
340
0
  0
BLOCK_RECORD
  5
21A
330
1C
100
AcDbSymbolTableRecord
100
AcDbBlockTableRecord
  2
*D116
340
0
  0
BLOCK_RECORD
  5
227
330
1C
100
AcDbSymbolTableRecord
100
AcDbBlockTableRecord
  2
*D117
340
0
  0
BLOCK_RECORD
  5
236
330
1C
100
AcDbSymbolTableRecord
100
AcDbBlockTableRecord
  2
*D118
340
0
  0
BLOCK_RECORD
  5
243
330
1C
100
AcDbSymbolTableRecord
100
AcDbBlockTableRecord
  2
*D119
340
0
  0
BLOCK_RECORD
  5
250
330
1C
100
AcDbSymbolTableRecord
100
AcDbBlockTableRecord
  2
*D120
340
0
  0
BLOCK_RECORD
  5
25D
330
1C
100
AcDbSymbolTableRecord
100
AcDbBlockTableRecord
  2
*D121
340
0
  0
BLOCK_RECORD
  5
26A
330
1C
100
AcDbSymbolTableRecord
100
AcDbBlockTableRecord
  2
*D122
340
0
  0
ENDTAB
  0
ENDSEC
  0
SECTION
  2
BLOCKS
  0
BLOCK
  5
20
330
1D
100
AcDbEntity
  8
0
100
AcDbBlockBegin
  2
*MODEL_SPACE
 70
     0
 10
0.0
 20
0.0
 30
0.0
  3
*MODEL_SPACE
  1
*MODEL_SPACE
  0
ENDBLK
  5
24
330
1D
100
AcDbEntity
  8
0
100
AcDbBlockEnd
  0
BLOCK
  5
29
330
28
100
AcDbEntity
 67
     1
  8
0
100
AcDbBlockBegin
  2
*PAPER_SPACE
 70
     0
 10
0.0
 20
0.0
 30
0.0
  3
*PAPER_SPACE
  1
*PAPER_SPACE
  0
ENDBLK
  5
2A
330
28
100
AcDbEntity
 67
     1
  8
0
100
AcDbBlockEnd
  0
BLOCK
  5
9F
330
9E
100
AcDbEntity
  8
0
100
AcDbBlockBegin
  2
_ClosedBlank
 70
     0
 10
0.0
 20
0.0
 30
0.0
  3
_ClosedBlank
  1
_ClosedBlank
  0
LINE
  5
A0
330
9E
100
AcDbEntity
  8
0
  6
ByBlock
 62
     0
370
    -2
100
AcDbLine
 10
-1.0
 20
0.1666666666666667
 30
0.0
 11
0.0
 21
0.0
 31
0.0
  0
LINE
  5
A1
330
9E
100
AcDbEntity
  8
0
  6
ByBlock
 62
     0
370
    -2
100
AcDbLine
 10
0.0
 20
0.0
 30
0.0
 11
-1.0
 21
-0.1666666666666667
 31
0.0
  0
LINE
  5
A2
330
9E
100
AcDbEntity
  8
0
  6
ByBlock
 62
     0
370
    -2
100
AcDbLine
 10
-1.0
 20
0.1666666666666667
 30
0.0
 11
-1.0
 21
-0.1666666666666667
 31
0.0
  0
ENDBLK
  5
A3
330
9E
100
AcDbEntity
  8
0
100
AcDbBlockEnd
  0
BLOCK
  5
A5
330
A4
100
AcDbEntity
  8
0
100
AcDbBlockBegin
  2
_Dot
 70
     0
 10
0.0
 20
0.0
 30
0.0
  3
_Dot
  1
_Dot
  0
LWPOLYLINE
  5
A6
330
A4
100
AcDbEntity
  8
0
  6
ByBlock
 62
     0
100
AcDbPolyline
 90
        2
 70
     1
 43
0.5
 10
-0.25
 20
0.0
 42
1.0
 10
0.25
 20
0.0
 42
1.0
  0
LINE
  5
A7
330
A4
100
AcDbEntity
  8
0
  6
ByBlock
 62
     0
370
    -2
100
AcDbLine
 10
-0.5
 20
0.0
 30
0.0
 11
-1.0
 21
0.0
 31
0.0
  0
ENDBLK
  5
A8
330
A4
100
AcDbEntity
  8
0
100
AcDbBlockEnd
  0
BLOCK
  5
65
330
62
100
AcDbEntity
  8
0
100
AcDbBlockBegin
  2
A$C5D946DDC
 70
     0
 10
0.0
 20
0.0
 30
0.0
  3
A$C5D946DDC
  1
A$C5D946DDC
  0
LWPOLYLINE
  5
66
330
62
100
AcDbEntity
  8
DEFPOINTS
100
AcDbPolyline
 90
        4
 70
     1
 43
0.0
 10
0.0
 20
0.0
 10
20789.97878787337
 20
0.0
 10
20789.97878787337
 20
14699.99999999618
 10
0.0
 20
14699.99999999618
  0
LINE
  5
68
330
62
100
AcDbEntity
  8
190-図面外枠
100
AcDbLine
 10
270.9727272700184
 20
14349.33333333142
 30
0.0
 11
20519.00606060335
 21
14349.33333333142
 31
0.0
  0
LINE
  5
69
330
62
100
AcDbEntity
  8
190-図面外枠
100
AcDbLine
 10
20519.00606060335
 20
14349.33333333142
 30
0.0
 11
20519.00606060335
 21
350.6666666647579
 31
0.0
  0
LINE
  5
6A
330
62
100
AcDbEntity
  8
190-図面外枠
100
AcDbLine
 10
20519.00606060335
 20
350.6666666647579
 30
0.0
 11
270.9727272700184
 21
350.6666666647579
 31
0.0
  0
LINE
  5
6B
330
62
100
AcDbEntity
  8
190-図面外枠
100
AcDbLine
 10
270.9727272700184
 20
350.6666666647579
 30
0.0
 11
270.9727272700184
 21
14349.33333333142
 31
0.0
  0
ENDBLK
  5
6C
330
62
100
AcDbEntity
  8
0
100
AcDbBlockEnd
  0
BLOCK
  5
95
330
94
100
AcDbEntity
  8
0
100
AcDbBlockBegin
  2
ｱｼﾞｬｽﾀｰ
 70
     0
 10
0.0
 20
0.0
 30
0.0
  3
ｱｼﾞｬｽﾀｰ
  1
ｱｼﾞｬｽﾀｰ
  0
LWPOLYLINE
  5
96
330
94
100
AcDbEntity
  8
141-パーツ
100
AcDbPolyline
 90
        4
 70
     1
 43
0.0
 10
10.0
 20
-8.0
 10
-10.0
 20
-8.0
 10
-10.0
 20
0.0
 10
10.0
 20
0.0
  0
LWPOLYLINE
  5
97
330
94
100
AcDbEntity
  8
141-パーツ
100
AcDbPolyline
 90
        4
 70
     0
 43
0.0
 10
7.5
 20
-8.0
 10
7.5
 20
-10.0
 10
-7.5
 20
-10.0
 10
-7.5
 20
-8.0
  0
ENDBLK
  5
98
330
94
100
AcDbEntity
  8
0
100
AcDbBlockEnd
  0
BLOCK
  5
AA
330
A9
100
AcDbEntity
  8
0
100
AcDbBlockBegin
  2
*D96
 70
     1
 10
0.0
 20
0.0
 30
0.0
  3
*D96
  1
*D96
  0
LINE
  5
AB
330
A9
100
AcDbEntity
  8
166-寸法B
100
AcDbLine
 10
705420.9011603819
 20
-6081.803960180137
 30
0.0
 11
705420.9011603819
 21
-6232.470898007276
 31
0.0
  0
LINE
  5
AC
330
A9
100
AcDbEntity
  8
166-寸法B
100
AcDbLine
 10
705860.9011603819
 20
-6081.803960180137
 30
0.0
 11
705860.9011603819
 21
-6232.470898007276
 31
0.0
  0
LINE
  5
AD
330
A9
100
AcDbEntity
  8
166-寸法B
100
AcDbLine
 10
705426.9011603819
 20
-6229.470898007276
 30
0.0
 11
705854.9011603819
 21
-6229.470898007276
 31
0.0
  0
INSERT
  5
AE
330
A9
100
AcDbEntity
  8
166-寸法B
100
AcDbBlockReference
  2
_Dot
 10
705420.9011603819
 20
-6229.470898007276
 30
0.0
 41
6.0
 42
6.0
 43
6.0
 50
180.0
  0
INSERT
  5
AF
330
A9
100
AcDbEntity
  8
166-寸法B
100
AcDbBlockReference
  2
_Dot
 10
705860.9011603819
 20
-6229.470898007276
 30
0.0
 41
6.0
 42
6.0
 43
6.0
  0
MTEXT
  5
B0
330
A9
100
AcDbEntity
  8
166-寸法B
100
AcDbMText
 10
705640.9011603819
 20
-6212.970898007276
 30
0.0
 40
23.0
 41
0.0
 71
     5
 72
     1
  1
\A1;440
  7
KH001
 73
     1
 44
1.0
  0
POINT
  5
B1
330
A9
100
AcDbEntity
  8
DEFPOINTS
 62
     0
100
AcDbPoint
 10
705420.9011603819
 20
-6069.803960180137
 30
0.0
  0
POINT
  5
B2
330
A9
100
AcDbEntity
  8
DEFPOINTS
 62
     0
100
AcDbPoint
 10
705860.9011603819
 20
-6069.803960180137
 30
0.0
  0
POINT
  5
B3
330
A9
100
AcDbEntity
  8
DEFPOINTS
 62
     0
100
AcDbPoint
 10
705860.9011603819
 20
-6229.470898007276
 30
0.0
  0
ENDBLK
  5
B4
330
A9
100
AcDbEntity
  8
0
100
AcDbBlockEnd
  0
BLOCK
  5
B7
330
B6
100
AcDbEntity
  8
0
100
AcDbBlockBegin
  2
*D97
 70
     1
 10
0.0
 20
0.0
 30
0.0
  3
*D97
  1
*D97
  0
LINE
  5
B8
330
B6
100
AcDbEntity
  8
166-寸法B
100
AcDbLine
 10
705420.9011603819
 20
-6081.803960180137
 30
0.0
 11
705420.9011603819
 21
-6182.470898007276
 31
0.0
  0
LINE
  5
B9
330
B6
100
AcDbEntity
  8
166-寸法B
100
AcDbLine
 10
705435.9011603819
 20
-6081.803960180137
 30
0.0
 11
705435.9011603819
 21
-6182.470898007276
 31
0.0
  0
LINE
  5
BA
330
B6
100
AcDbEntity
  8
166-寸法B
100
AcDbLine
 10
705414.9011603819
 20
-6179.470898007276
 30
0.0
 11
705408.9011603819
 21
-6179.470898007276
 31
0.0
  0
LINE
  5
BB
330
B6
100
AcDbEntity
  8
166-寸法B
100
AcDbLine
 10
705441.9011603819
 20
-6179.470898007276
 30
0.0
 11
705447.9011603819
 21
-6179.470898007276
 31
0.0
  0
LINE
  5
BC
330
B6
100
AcDbEntity
  8
166-寸法B
100
AcDbLine
 10
705372.1169676203
 20
-6179.470898007276
 30
0.0
 11
705420.9011603819
 21
-6179.470898007276
 31
0.0
  0
MTEXT
  5
BD
330
B6
100
AcDbEntity
  8
166-寸法B
100
AcDbMText
 10
705389.7261046761
 20
-6162.970898007276
 30
0.0
 40
23.0
 41
0.0
 71
     5
 72
     1
  1
\A1;15
  7
KH001
 73
     1
 44
1.0
  0
LINE
  5
BE
330
B6
100
AcDbEntity
  8
166-寸法B
100
AcDbLine
 10
705420.9011603819
 20
-6179.470898007276
 30
0.0
 11
705435.9011603819
 21
-6179.470898007276
 31
0.0
  0
LINE
  5
BF
330
B6
100
AcDbEntity
  8
166-寸法B
100
AcDbLine
 10
705420.9011603819
 20
-6179.470898007276
 30
0.0
 11
705435.9011603819
 21
-6179.470898007276
 31
0.0
  0
INSERT
  5
C0
330
B6
100
AcDbEntity
  8
166-寸法B
100
AcDbBlockReference
  2
_Dot
 10
705420.9011603819
 20
-6179.470898007276
 30
0.0
 41
6.0
 42
6.0
 43
6.0
  0
INSERT
  5
C1
330
B6
100
AcDbEntity
  8
166-寸法B
100
AcDbBlockReference
  2
_Dot
 10
705435.9011603819
 20
-6179.470898007276
 30
0.0
 41
6.0
 42
6.0
 43
6.0
 50
180.0
  0
POINT
  5
C2
330
B6
100
AcDbEntity
  8
DEFPOINTS
 62
     0
100
AcDbPoint
 10
705420.9011603819
 20
-6069.803960180137
 30
0.0
  0
POINT
  5
C3
330
B6
100
AcDbEntity
  8
DEFPOINTS
 62
     0
100
AcDbPoint
 10
705435.9011603819
 20
-6069.803960180137
 30
0.0
  0
POINT
  5
C4
330
B6
100
AcDbEntity
  8
DEFPOINTS
 62
     0
100
AcDbPoint
 10
705435.9011603819
 20
-6179.470898007276
 30
0.0
  0
ENDBLK
  5
C5
330
B6
100
AcDbEntity
  8
0
100
AcDbBlockEnd
  0
BLOCK
  5
C8
330
C7
100
AcDbEntity
  8
0
100
AcDbBlockBegin
  2
*D98
 70
     1
 10
0.0
 20
0.0
 30
0.0
  3
*D98
  1
*D98
  0
LINE
  5
C9
330
C7
100
AcDbEntity
  8
166-寸法B
100
AcDbLine
 10
705435.9011603819
 20
-6081.803960180137
 30
0.0
 11
705435.9011603819
 21
-6182.470898007276
 31
0.0
  0
LINE
  5
CA
330
C7
100
AcDbEntity
  8
166-寸法B
100
AcDbLine
 10
705845.9011603819
 20
-6081.803960180137
 30
0.0
 11
705845.9011603819
 21
-6182.470898007276
 31
0.0
  0
LINE
  5
CB
330
C7
100
AcDbEntity
  8
166-寸法B
100
AcDbLine
 10
705441.9011603819
 20
-6179.470898007276
 30
0.0
 11
705839.9011603819
 21
-6179.470898007276
 31
0.0
  0
INSERT
  5
CC
330
C7
100
AcDbEntity
  8
166-寸法B
100
AcDbBlockReference
  2
_Dot
 10
705435.9011603819
 20
-6179.470898007276
 30
0.0
 41
6.0
 42
6.0
 43
6.0
 50
180.0
  0
INSERT
  5
CD
330
C7
100
AcDbEntity
  8
166-寸法B
100
AcDbBlockReference
  2
_Dot
 10
705845.9011603819
 20
-6179.470898007276
 30
0.0
 41
6.0
 42
6.0
 43
6.0
  0
MTEXT
  5
CE
330
C7
100
AcDbEntity
  8
166-寸法B
100
AcDbMText
 10
705640.9011603819
 20
-6162.970898007276
 30
0.0
 40
23.0
 41
0.0
 71
     5
 72
     1
  1
\A1;410
  7
KH001
 73
     1
 44
1.0
  0
POINT
  5
CF
330
C7
100
AcDbEntity
  8
DEFPOINTS
 62
     0
100
AcDbPoint
 10
705435.9011603819
 20
-6069.803960180137
 30
0.0
  0
POINT
  5
D0
330
C7
100
AcDbEntity
  8
DEFPOINTS
 62
     0
100
AcDbPoint
 10
705845.9011603819
 20
-6069.803960180137
 30
0.0
  0
POINT
  5
D1
330
C7
100
AcDbEntity
  8
DEFPOINTS
 62
     0
100
AcDbPoint
 10
705845.9011603819
 20
-6179.470898007276
 30
0.0
  0
ENDBLK
  5
D2
330
C7
100
AcDbEntity
  8
0
100
AcDbBlockEnd
  0
BLOCK
  5
D5
330
D4
100
AcDbEntity
  8
0
100
AcDbBlockBegin
  2
*D99
 70
     1
 10
0.0
 20
0.0
 30
0.0
  3
*D99
  1
*D99
  0
LINE
  5
D6
330
D4
100
AcDbEntity
  8
166-寸法B
100
AcDbLine
 10
705845.9011603819
 20
-6081.803960180137
 30
0.0
 11
705845.9011603819
 21
-6182.470898007276
 31
0.0
  0
LINE
  5
D7
330
D4
100
AcDbEntity
  8
166-寸法B
100
AcDbLine
 10
705860.9011603819
 20
-6081.803960180137
 30
0.0
 11
705860.9011603819
 21
-6182.470898007276
 31
0.0
  0
LINE
  5
D8
330
D4
100
AcDbEntity
  8
166-寸法B
100
AcDbLine
 10
705839.9011603819
 20
-6179.470898007276
 30
0.0
 11
705833.9011603819
 21
-6179.470898007276
 31
0.0
  0
LINE
  5
D9
330
D4
100
AcDbEntity
  8
166-寸法B
100
AcDbLine
 10
705866.9011603819
 20
-6179.470898007276
 30
0.0
 11
705872.9011603819
 21
-6179.470898007276
 31
0.0
  0
LINE
  5
DA
330
D4
100
AcDbEntity
  8
166-寸法B
100
AcDbLine
 10
705908.315868855
 20
-6179.470898007276
 30
0.0
 11
705860.9011603819
 21
-6179.470898007276
 31
0.0
  0
MTEXT
  5
DB
330
D4
100
AcDbEntity
  8
166-寸法B
100
AcDbMText
 10
705890.7067317992
 20
-6162.970898007276
 30
0.0
 40
23.0
 41
0.0
 71
     5
 72
     1
  1
\A1;15
  7
KH001
 73
     1
 44
1.0
  0
LINE
  5
DC
330
D4
100
AcDbEntity
  8
166-寸法B
100
AcDbLine
 10
705845.9011603819
 20
-6179.470898007276
 30
0.0
 11
705860.9011603819
 21
-6179.470898007276
 31
0.0
  0
LINE
  5
DD
330
D4
100
AcDbEntity
  8
166-寸法B
100
AcDbLine
 10
705845.9011603819
 20
-6179.470898007276
 30
0.0
 11
705860.9011603819
 21
-6179.470898007276
 31
0.0
  0
INSERT
  5
DE
330
D4
100
AcDbEntity
  8
166-寸法B
100
AcDbBlockReference
  2
_Dot
 10
705845.9011603819
 20
-6179.470898007276
 30
0.0
 41
6.0
 42
6.0
 43
6.0
  0
INSERT
  5
DF
330
D4
100
AcDbEntity
  8
166-寸法B
100
AcDbBlockReference
  2
_Dot
 10
705860.9011603819
 20
-6179.470898007276
 30
0.0
 41
6.0
 42
6.0
 43
6.0
 50
180.0
  0
POINT
  5
E0
330
D4
100
AcDbEntity
  8
DEFPOINTS
 62
     0
100
AcDbPoint
 10
705845.9011603819
 20
-6069.803960180137
 30
0.0
  0
POINT
  5
E1
330
D4
100
AcDbEntity
  8
DEFPOINTS
 62
     0
100
AcDbPoint
 10
705860.9011603819
 20
-6069.803960180137
 30
0.0
  0
POINT
  5
E2
330
D4
100
AcDbEntity
  8
DEFPOINTS
 62
     0
100
AcDbPoint
 10
705860.9011603819
 20
-6179.470898007276
 30
0.0
  0
ENDBLK
  5
E3
330
D4
100
AcDbEntity
  8
0
100
AcDbBlockEnd
  0
BLOCK
  5
E6
330
E5
100
AcDbEntity
  8
0
100
AcDbBlockBegin
  2
*D100
 70
     1
 10
0.0
 20
0.0
 30
0.0
  3
*D100
  1
*D100
  0
LINE
  5
E7
330
E5
100
AcDbEntity
  8
166-寸法B
100
AcDbLine
 10
705870.9011603819
 20
-5276.034477543545
 30
0.0
 11
705870.9011603819
 21
-5157.462412823917
 31
0.0
  0
LINE
  5
E8
330
E5
100
AcDbEntity
  8
166-寸法B
100
AcDbLine
 10
705410.9011603817
 20
-5275.034477543511
 30
0.0
 11
705410.9011603817
 21
-5157.462412823917
 31
0.0
  0
LINE
  5
E9
330
E5
100
AcDbEntity
  8
166-寸法B
100
AcDbLine
 10
705864.9011603819
 20
-5160.462412823917
 30
0.0
 11
705416.9011603817
 21
-5160.462412823917
 31
0.0
  0
INSERT
  5
EA
330
E5
100
AcDbEntity
  8
166-寸法B
100
AcDbBlockReference
  2
_Dot
 10
705870.9011603819
 20
-5160.462412823917
 30
0.0
 41
6.0
 42
6.0
 43
6.0
  0
INSERT
  5
EB
330
E5
100
AcDbEntity
  8
166-寸法B
100
AcDbBlockReference
  2
_Dot
 10
705410.9011603817
 20
-5160.462412823917
 30
0.0
 41
6.0
 42
6.0
 43
6.0
 50
180.0
  0
MTEXT
  5
EC
330
E5
100
AcDbEntity
  8
166-寸法B
100
AcDbMText
 10
705640.9011603817
 20
-5143.962412823917
 30
0.0
 40
23.0
 41
0.0
 71
     5
 72
     1
  1
\A1;460
  7
KH001
 73
     1
 44
1.0
  0
POINT
  5
ED
330
E5
100
AcDbEntity
  8
DEFPOINTS
 62
     0
100
AcDbPoint
 10
705870.9011603819
 20
-5288.034477543545
 30
0.0
  0
POINT
  5
EE
330
E5
100
AcDbEntity
  8
DEFPOINTS
 62
     0
100
AcDbPoint
 10
705410.9011603817
 20
-5287.034477543511
 30
0.0
  0
POINT
  5
EF
330
E5
100
AcDbEntity
  8
DEFPOINTS
 62
     0
100
AcDbPoint
 10
705410.9011603817
 20
-5160.462412823917
 30
0.0
  0
ENDBLK
  5
F0
330
E5
100
AcDbEntity
  8
0
100
AcDbBlockEnd
  0
BLOCK
  5
F3
330
F2
100
AcDbEntity
  8
0
100
AcDbBlockBegin
  2
*D101
 70
     1
 10
0.0
 20
0.0
 30
0.0
  3
*D101
  1
*D101
  0
LINE
  5
F4
330
F2
100
AcDbEntity
  8
166-寸法B
100
AcDbLine
 10
707217.2241041592
 20
-5275.03447754351
 30
0.0
 11
707217.2241041592
 21
-5157.462412823917
 31
0.0
  0
LINE
  5
F5
330
F2
100
AcDbEntity
  8
166-寸法B
100
AcDbLine
 10
707770.1994453765
 20
-5275.03447754351
 30
0.0
 11
707770.1994453765
 21
-5157.462412823917
 31
0.0
  0
LINE
  5
F6
330
F2
100
AcDbEntity
  8
166-寸法B
100
AcDbLine
 10
707223.2241041592
 20
-5160.462412823917
 30
0.0
 11
707764.1994453765
 21
-5160.462412823917
 31
0.0
  0
INSERT
  5
F7
330
F2
100
AcDbEntity
  8
166-寸法B
100
AcDbBlockReference
  2
_Dot
 10
707217.2241041592
 20
-5160.462412823917
 30
0.0
 41
6.0
 42
6.0
 43
6.0
 50
180.0
  0
INSERT
  5
F8
330
F2
100
AcDbEntity
  8
166-寸法B
100
AcDbBlockReference
  2
_Dot
 10
707770.1994453765
 20
-5160.462412823917
 30
0.0
 41
6.0
 42
6.0
 43
6.0
  0
MTEXT
  5
F9
330
F2
100
AcDbEntity
  8
166-寸法B
100
AcDbMText
 10
707493.7117747678
 20
-5143.962412823917
 30
0.0
 40
23.0
 41
0.0
 71
     5
 72
     1
  1
\A1;553
  7
KH001
 73
     1
 44
1.0
  0
POINT
  5
FA
330
F2
100
AcDbEntity
  8
DEFPOINTS
 62
     0
100
AcDbPoint
 10
707217.2241041592
 20
-5287.03447754351
 30
0.0
  0
POINT
  5
FB
330
F2
100
AcDbEntity
  8
DEFPOINTS
 62
     0
100
AcDbPoint
 10
707770.1994453765
 20
-5287.03447754351
 30
0.0
  0
POINT
  5
FC
330
F2
100
AcDbEntity
  8
DEFPOINTS
 62
     0
100
AcDbPoint
 10
707770.1994453765
 20
-5160.462412823917
 30
0.0
  0
ENDBLK
  5
FD
330
F2
100
AcDbEntity
  8
0
100
AcDbBlockEnd
  0
BLOCK
  5
100
330
FF
100
AcDbEntity
  8
0
100
AcDbBlockBegin
  2
*D102
 70
     1
 10
0.0
 20
0.0
 30
0.0
  3
*D102
  1
*D102
  0
LINE
  5
101
330
FF
100
AcDbEntity
  8
166-寸法B
100
AcDbLine
 10
707707.2241041593
 20
-6081.803960180137
 30
0.0
 11
707707.2241041593
 21
-6232.470898007276
 31
0.0
  0
LINE
  5
102
330
FF
100
AcDbEntity
  8
166-寸法B
100
AcDbLine
 10
707227.2241041592
 20
-6081.803960180137
 30
0.0
 11
707227.2241041592
 21
-6232.470898007276
 31
0.0
  0
LINE
  5
103
330
FF
100
AcDbEntity
  8
166-寸法B
100
AcDbLine
 10
707701.2241041593
 20
-6229.470898007276
 30
0.0
 11
707233.2241041592
 21
-6229.470898007276
 31
0.0
  0
INSERT
  5
104
330
FF
100
AcDbEntity
  8
166-寸法B
100
AcDbBlockReference
  2
_Dot
 10
707707.2241041593
 20
-6229.470898007276
 30
0.0
 41
6.0
 42
6.0
 43
6.0
  0
INSERT
  5
105
330
FF
100
AcDbEntity
  8
166-寸法B
100
AcDbBlockReference
  2
_Dot
 10
707227.2241041592
 20
-6229.470898007276
 30
0.0
 41
6.0
 42
6.0
 43
6.0
 50
180.0
  0
MTEXT
  5
106
330
FF
100
AcDbEntity
  8
166-寸法B
100
AcDbMText
 10
707467.2241041593
 20
-6212.970898007276
 30
0.0
 40
23.0
 41
0.0
 71
     5
 72
     1
  1
\A1;480
  7
KH001
 73
     1
 44
1.0
  0
POINT
  5
107
330
FF
100
AcDbEntity
  8
DEFPOINTS
 62
     0
100
AcDbPoint
 10
707707.2241041593
 20
-6069.803960180137
 30
0.0
  0
POINT
  5
108
330
FF
100
AcDbEntity
  8
DEFPOINTS
 62
     0
100
AcDbPoint
 10
707227.2241041592
 20
-6069.803960180137
 30
0.0
  0
POINT
  5
109
330
FF
100
AcDbEntity
  8
DEFPOINTS
 62
     0
100
AcDbPoint
 10
707227.2241041592
 20
-6229.470898007276
 30
0.0
  0
ENDBLK
  5
10A
330
FF
100
AcDbEntity
  8
0
100
AcDbBlockEnd
  0
BLOCK
  5
10D
330
10C
100
AcDbEntity
  8
0
100
AcDbBlockBegin
  2
*D103
 70
     1
 10
0.0
 20
0.0
 30
0.0
  3
*D103
  1
*D103
  0
LINE
  5
10E
330
10C
100
AcDbEntity
  8
166-寸法B
100
AcDbLine
 10
707707.2241041593
 20
-6081.803960180137
 30
0.0
 11
707707.2241041593
 21
-6182.470898007276
 31
0.0
  0
LINE
  5
10F
330
10C
100
AcDbEntity
  8
166-寸法B
100
AcDbLine
 10
707692.2241041593
 20
-6081.803960180143
 30
0.0
 11
707692.2241041593
 21
-6182.470898007276
 31
0.0
  0
LINE
  5
110
330
10C
100
AcDbEntity
  8
166-寸法B
100
AcDbLine
 10
707713.2241041593
 20
-6179.470898007276
 30
0.0
 11
707719.2241041593
 21
-6179.470898007276
 31
0.0
  0
LINE
  5
111
330
10C
100
AcDbEntity
  8
166-寸法B
100
AcDbLine
 10
707686.2241041593
 20
-6179.470898007276
 30
0.0
 11
707680.2241041593
 21
-6179.470898007276
 31
0.0
  0
LINE
  5
112
330
10C
100
AcDbEntity
  8
166-寸法B
100
AcDbLine
 10
707757.8506450691
 20
-6179.470898007276
 30
0.0
 11
707707.2241041593
 21
-6179.470898007276
 31
0.0
  0
MTEXT
  5
113
330
10C
100
AcDbEntity
  8
166-寸法B
100
AcDbMText
 10
707740.2415080133
 20
-6162.970898007276
 30
0.0
 40
23.0
 41
0.0
 71
     5
 72
     1
  1
\A1;15
  7
KH001
 73
     1
 44
1.0
  0
LINE
  5
114
330
10C
100
AcDbEntity
  8
166-寸法B
100
AcDbLine
 10
707707.2241041593
 20
-6179.470898007276
 30
0.0
 11
707692.2241041593
 21
-6179.470898007276
 31
0.0
  0
LINE
  5
115
330
10C
100
AcDbEntity
  8
166-寸法B
100
AcDbLine
 10
707707.2241041593
 20
-6179.470898007276
 30
0.0
 11
707692.2241041593
 21
-6179.470898007276
 31
0.0
  0
INSERT
  5
116
330
10C
100
AcDbEntity
  8
166-寸法B
100
AcDbBlockReference
  2
_Dot
 10
707707.2241041593
 20
-6179.470898007276
 30
0.0
 41
6.0
 42
6.0
 43
6.0
 50
180.0
  0
INSERT
  5
117
330
10C
100
AcDbEntity
  8
166-寸法B
100
AcDbBlockReference
  2
_Dot
 10
707692.2241041593
 20
-6179.470898007276
 30
0.0
 41
6.0
 42
6.0
 43
6.0
  0
POINT
  5
118
330
10C
100
AcDbEntity
  8
DEFPOINTS
 62
     0
100
AcDbPoint
 10
707707.2241041593
 20
-6069.803960180137
 30
0.0
  0
POINT
  5
119
330
10C
100
AcDbEntity
  8
DEFPOINTS
 62
     0
100
AcDbPoint
 10
707692.2241041593
 20
-6069.803960180143
 30
0.0
  0
POINT
  5
11A
330
10C
100
AcDbEntity
  8
DEFPOINTS
 62
     0
100
AcDbPoint
 10
707692.2241041593
 20
-6179.470898007276
 30
0.0
  0
ENDBLK
  5
11B
330
10C
100
AcDbEntity
  8
0
100
AcDbBlockEnd
  0
BLOCK
  5
11E
330
11D
100
AcDbEntity
  8
0
100
AcDbBlockBegin
  2
*D104
 70
     1
 10
0.0
 20
0.0
 30
0.0
  3
*D104
  1
*D104
  0
LINE
  5
11F
330
11D
100
AcDbEntity
  8
166-寸法B
100
AcDbLine
 10
707692.2241041593
 20
-6081.803960180143
 30
0.0
 11
707692.2241041593
 21
-6182.470898007276
 31
0.0
  0
LINE
  5
120
330
11D
100
AcDbEntity
  8
166-寸法B
100
AcDbLine
 10
707242.2241041592
 20
-6081.803960180137
 30
0.0
 11
707242.2241041592
 21
-6182.470898007276
 31
0.0
  0
LINE
  5
121
330
11D
100
AcDbEntity
  8
166-寸法B
100
AcDbLine
 10
707686.2241041593
 20
-6179.470898007276
 30
0.0
 11
707248.2241041592
 21
-6179.470898007276
 31
0.0
  0
INSERT
  5
122
330
11D
100
AcDbEntity
  8
166-寸法B
100
AcDbBlockReference
  2
_Dot
 10
707692.2241041593
 20
-6179.470898007276
 30
0.0
 41
6.0
 42
6.0
 43
6.0
  0
INSERT
  5
123
330
11D
100
AcDbEntity
  8
166-寸法B
100
AcDbBlockReference
  2
_Dot
 10
707242.2241041592
 20
-6179.470898007276
 30
0.0
 41
6.0
 42
6.0
 43
6.0
 50
180.0
  0
MTEXT
  5
124
330
11D
100
AcDbEntity
  8
166-寸法B
100
AcDbMText
 10
707467.2241041593
 20
-6162.970898007276
 30
0.0
 40
23.0
 41
0.0
 71
     5
 72
     1
  1
\A1;450
  7
KH001
 73
     1
 44
1.0
  0
POINT
  5
125
330
11D
100
AcDbEntity
  8
DEFPOINTS
 62
     0
100
AcDbPoint
 10
707692.2241041593
 20
-6069.803960180143
 30
0.0
  0
POINT
  5
126
330
11D
100
AcDbEntity
  8
DEFPOINTS
 62
     0
100
AcDbPoint
 10
707242.2241041592
 20
-6069.803960180137
 30
0.0
  0
POINT
  5
127
330
11D
100
AcDbEntity
  8
DEFPOINTS
 62
     0
100
AcDbPoint
 10
707242.2241041592
 20
-6179.470898007276
 30
0.0
  0
ENDBLK
  5
128
330
11D
100
AcDbEntity
  8
0
100
AcDbBlockEnd
  0
BLOCK
  5
12B
330
12A
100
AcDbEntity
  8
0
100
AcDbBlockBegin
  2
*D105
 70
     1
 10
0.0
 20
0.0
 30
0.0
  3
*D105
  1
*D105
  0
LINE
  5
12C
330
12A
100
AcDbEntity
  8
166-寸法B
100
AcDbLine
 10
707242.2241041592
 20
-6081.803960180137
 30
0.0
 11
707242.2241041592
 21
-6182.470898007276
 31
0.0
  0
LINE
  5
12D
330
12A
100
AcDbEntity
  8
166-寸法B
100
AcDbLine
 10
707227.2241041592
 20
-6081.803960180137
 30
0.0
 11
707227.2241041592
 21
-6182.470898007276
 31
0.0
  0
LINE
  5
12E
330
12A
100
AcDbEntity
  8
166-寸法B
100
AcDbLine
 10
707248.2241041592
 20
-6179.470898007276
 30
0.0
 11
707254.2241041592
 21
-6179.470898007276
 31
0.0
  0
LINE
  5
12F
330
12A
100
AcDbEntity
  8
166-寸法B
100
AcDbLine
 10
707221.2241041592
 20
-6179.470898007276
 30
0.0
 11
707215.2241041592
 21
-6179.470898007276
 31
0.0
  0
LINE
  5
130
330
12A
100
AcDbEntity
  8
166-寸法B
100
AcDbLine
 10
707179.809395686
 20
-6179.470898007276
 30
0.0
 11
707227.2241041592
 21
-6179.470898007276
 31
0.0
  0
MTEXT
  5
131
330
12A
100
AcDbEntity
  8
166-寸法B
100
AcDbMText
 10
707197.4185327418
 20
-6162.970898007276
 30
0.0
 40
23.0
 41
0.0
 71
     5
 72
     1
  1
\A1;15
  7
KH001
 73
     1
 44
1.0
  0
LINE
  5
132
330
12A
100
AcDbEntity
  8
166-寸法B
100
AcDbLine
 10
707242.2241041592
 20
-6179.470898007276
 30
0.0
 11
707227.2241041592
 21
-6179.470898007276
 31
0.0
  0
LINE
  5
133
330
12A
100
AcDbEntity
  8
166-寸法B
100
AcDbLine
 10
707242.2241041592
 20
-6179.470898007276
 30
0.0
 11
707227.2241041592
 21
-6179.470898007276
 31
0.0
  0
INSERT
  5
134
330
12A
100
AcDbEntity
  8
166-寸法B
100
AcDbBlockReference
  2
_Dot
 10
707242.2241041592
 20
-6179.470898007276
 30
0.0
 41
6.0
 42
6.0
 43
6.0
 50
180.0
  0
INSERT
  5
135
330
12A
100
AcDbEntity
  8
166-寸法B
100
AcDbBlockReference
  2
_Dot
 10
707227.2241041592
 20
-6179.470898007276
 30
0.0
 41
6.0
 42
6.0
 43
6.0
  0
POINT
  5
136
330
12A
100
AcDbEntity
  8
DEFPOINTS
 62
     0
100
AcDbPoint
 10
707242.2241041592
 20
-6069.803960180137
 30
0.0
  0
POINT
  5
137
330
12A
100
AcDbEntity
  8
DEFPOINTS
 62
     0
100
AcDbPoint
 10
707227.2241041592
 20
-6069.803960180137
 30
0.0
  0
POINT
  5
138
330
12A
100
AcDbEntity
  8
DEFPOINTS
 62
     0
100
AcDbPoint
 10
707227.2241041592
 20
-6179.470898007276
 30
0.0
  0
ENDBLK
  5
139
330
12A
100
AcDbEntity
  8
0
100
AcDbBlockEnd
  0
BLOCK
  5
144
330
143
100
AcDbEntity
  8
0
100
AcDbBlockBegin
  2
*D106
 70
     1
 10
0.0
 20
0.0
 30
0.0
  3
*D106
  1
*D106
  0
LINE
  5
145
330
143
100
AcDbEntity
  8
166-寸法B
100
AcDbLine
 10
707714.8386117347
 20
-5353.000969214627
 30
0.0
 11
707729.4981567203
 21
-5298.290802512463
 31
0.0
  0
LINE
  5
146
330
143
100
AcDbEntity
  8
166-寸法B
100
AcDbLine
 10
707772.794161312
 20
-5368.530111920845
 30
0.0
 11
707787.4537062977
 21
-5313.819945218682
 31
0.0
  0
LINE
  5
147
330
143
100
AcDbEntity
  8
166-寸法B
100
AcDbLine
 10
707734.5172545427
 20
-5302.741494261951
 30
0.0
 11
707780.8816942046
 21
-5315.164808426925
 31
0.0
  0
INSERT
  5
148
330
143
100
AcDbEntity
  8
166-寸法B
100
AcDbBlockReference
  2
_Dot
 10
707728.721699585
 20
-5301.188579991343
 30
0.0
 41
6.0
 42
6.0
 43
6.0
 50
164.9999999999709
  0
INSERT
  5
149
330
143
100
AcDbEntity
  8
166-寸法B
100
AcDbBlockReference
  2
_Dot
 10
707786.6772491623
 20
-5316.717722697562
 30
0.0
 41
6.0
 42
6.0
 43
6.0
 50
344.9999999999709
  0
MTEXT
  5
14A
330
143
100
AcDbEntity
  8
166-寸法B
100
AcDbMText
 10
707761.9699886179
 20
-5293.0153752107
 30
0.0
 40
23.0
 41
0.0
 71
     5
 72
     1
  1
\A1;60
  7
KH001
 11
0.9659258262889371
 21
-0.2588190451030112
 31
0.0
 73
     1
 44
1.0
  0
POINT
  5
14B
330
143
100
AcDbEntity
  8
DEFPOINTS
 62
     0
100
AcDbPoint
 10
707711.7327831935
 20
-5364.592079130089
 30
0.0
  0
POINT
  5
14C
330
143
100
AcDbEntity
  8
DEFPOINTS
 62
     0
100
AcDbPoint
 10
707769.6883327707
 20
-5380.121221836307
 30
0.0
  0
POINT
  5
14D
330
143
100
AcDbEntity
  8
DEFPOINTS
 62
     0
100
AcDbPoint
 10
707786.6772491623
 20
-5316.717722697562
 30
0.0
  0
ENDBLK
  5
14E
330
143
100
AcDbEntity
  8
0
100
AcDbBlockEnd
  0
BLOCK
  5
1A0
330
19F
100
AcDbEntity
  8
0
100
AcDbBlockBegin
  2
*D107
 70
     1
 10
0.0
 20
0.0
 30
0.0
  3
*D107
  1
*D107
  0
LINE
  5
1A1
330
19F
100
AcDbEntity
  8
166-寸法B
100
AcDbLine
 10
705870.9011603819
 20
-4230.849548634582
 30
0.0
 11
705870.9011603819
 21
-4112.277483914953
 31
0.0
  0
LINE
  5
1A2
330
19F
100
AcDbEntity
  8
166-寸法B
100
AcDbLine
 10
705410.9011603817
 20
-4229.849548634547
 30
0.0
 11
705410.9011603817
 21
-4112.277483914953
 31
0.0
  0
LINE
  5
1A3
330
19F
100
AcDbEntity
  8
166-寸法B
100
AcDbLine
 10
705864.9011603819
 20
-4115.277483914953
 30
0.0
 11
705416.9011603817
 21
-4115.277483914953
 31
0.0
  0
INSERT
  5
1A4
330
19F
100
AcDbEntity
  8
166-寸法B
100
AcDbBlockReference
  2
_Dot
 10
705870.9011603819
 20
-4115.277483914953
 30
0.0
 41
6.0
 42
6.0
 43
6.0
  0
INSERT
  5
1A5
330
19F
100
AcDbEntity
  8
166-寸法B
100
AcDbBlockReference
  2
_Dot
 10
705410.9011603817
 20
-4115.277483914953
 30
0.0
 41
6.0
 42
6.0
 43
6.0
 50
180.0
  0
MTEXT
  5
1A6
330
19F
100
AcDbEntity
  8
166-寸法B
100
AcDbMText
 10
705640.9011603817
 20
-4098.777483914953
 30
0.0
 40
23.0
 41
0.0
 71
     5
 72
     1
  1
\A1;460
  7
KH001
 73
     1
 44
1.0
  0
POINT
  5
1A7
330
19F
100
AcDbEntity
  8
DEFPOINTS
 62
     0
100
AcDbPoint
 10
705870.9011603819
 20
-4242.849548634582
 30
0.0
  0
POINT
  5
1A8
330
19F
100
AcDbEntity
  8
DEFPOINTS
 62
     0
100
AcDbPoint
 10
705410.9011603817
 20
-4241.849548634547
 30
0.0
  0
POINT
  5
1A9
330
19F
100
AcDbEntity
  8
DEFPOINTS
 62
     0
100
AcDbPoint
 10
705410.9011603817
 20
-4115.277483914953
 30
0.0
  0
ENDBLK
  5
1AA
330
19F
100
AcDbEntity
  8
0
100
AcDbBlockEnd
  0
BLOCK
  5
1AD
330
1AC
100
AcDbEntity
  8
0
100
AcDbBlockBegin
  2
*D108
 70
     1
 10
0.0
 20
0.0
 30
0.0
  3
*D108
  1
*D108
  0
LINE
  5
1AE
330
1AC
100
AcDbEntity
  8
166-寸法B
100
AcDbLine
 10
705328.9119469748
 20
-4800.54810996406
 30
0.0
 11
705203.8852707985
 21
-4800.54810996406
 31
0.0
  0
LINE
  5
1AF
330
1AC
100
AcDbEntity
  8
166-寸法B
100
AcDbLine
 10
705328.7975170953
 20
-4300.548109964002
 30
0.0
 11
705203.8852707985
 21
-4300.548109964002
 31
0.0
  0
LINE
  5
1B0
330
1AC
100
AcDbEntity
  8
166-寸法B
100
AcDbLine
 10
705206.8852707985
 20
-4794.54810996406
 30
0.0
 11
705206.8852707985
 21
-4306.548109964002
 31
0.0
  0
INSERT
  5
1B1
330
1AC
100
AcDbEntity
  8
166-寸法B
100
AcDbBlockReference
  2
_Dot
 10
705206.8852707985
 20
-4800.54810996406
 30
0.0
 41
6.0
 42
6.0
 43
6.0
 50
270.0
  0
INSERT
  5
1B2
330
1AC
100
AcDbEntity
  8
166-寸法B
100
AcDbBlockReference
  2
_Dot
 10
705206.8852707985
 20
-4300.548109964002
 30
0.0
 41
6.0
 42
6.0
 43
6.0
 50
90.0
  0
MTEXT
  5
1B3
330
1AC
100
AcDbEntity
  8
166-寸法B
100
AcDbMText
 10
705190.3852707985
 20
-4550.548109963917
 30
0.0
 40
23.0
 41
0.0
 71
     5
 72
     1
  1
\A1;500
  7
KH001
 11
6.123031769111886E-17
 21
1.0
 31
0.0
 73
     1
 44
1.0
  0
POINT
  5
1B4
330
1AC
100
AcDbEntity
  8
DEFPOINTS
 62
     0
100
AcDbPoint
 10
705340.9119469748
 20
-4800.54810996406
 30
0.0
  0
POINT
  5
1B5
330
1AC
100
AcDbEntity
  8
DEFPOINTS
 62
     0
100
AcDbPoint
 10
705340.7975170953
 20
-4300.548109964002
 30
0.0
  0
POINT
  5
1B6
330
1AC
100
AcDbEntity
  8
DEFPOINTS
 62
     0
100
AcDbPoint
 10
705206.8852707985
 20
-4300.548109964002
 30
0.0
  0
ENDBLK
  5
1B7
330
1AC
100
AcDbEntity
  8
0
100
AcDbBlockEnd
  0
BLOCK
  5
1BA
330
1B9
100
AcDbEntity
  8
0
100
AcDbBlockBegin
  2
*D109
 70
     1
 10
0.0
 20
0.0
 30
0.0
  3
*D109
  1
*D109
  0
LINE
  5
1BB
330
1B9
100
AcDbEntity
  8
166-寸法B
100
AcDbLine
 10
705328.9119469748
 20
-4800.54810996406
 30
0.0
 11
705153.8852707985
 21
-4800.54810996406
 31
0.0
  0
LINE
  5
1BC
330
1B9
100
AcDbEntity
  8
166-寸法B
100
AcDbLine
 10
705327.818324267
 20
-4247.572768746749
 30
0.0
 11
705153.8852707985
 21
-4247.572768746749
 31
0.0
  0
LINE
  5
1BD
330
1B9
100
AcDbEntity
  8
166-寸法B
100
AcDbLine
 10
705156.8852707985
 20
-4794.54810996406
 30
0.0
 11
705156.8852707985
 21
-4253.572768746749
 31
0.0
  0
INSERT
  5
1BE
330
1B9
100
AcDbEntity
  8
166-寸法B
100
AcDbBlockReference
  2
_Dot
 10
705156.8852707985
 20
-4800.54810996406
 30
0.0
 41
6.0
 42
6.0
 43
6.0
 50
270.0
  0
INSERT
  5
1BF
330
1B9
100
AcDbEntity
  8
166-寸法B
100
AcDbBlockReference
  2
_Dot
 10
705156.8852707985
 20
-4247.572768746749
 30
0.0
 41
6.0
 42
6.0
 43
6.0
 50
90.0
  0
MTEXT
  5
1C0
330
1B9
100
AcDbEntity
  8
166-寸法B
100
AcDbMText
 10
705140.3852707985
 20
-4524.06043935529
 30
0.0
 40
23.0
 41
0.0
 71
     5
 72
     1
  1
\A1;553
  7
KH001
 11
6.123031769111886E-17
 21
1.0
 31
0.0
 73
     1
 44
1.0
  0
POINT
  5
1C1
330
1B9
100
AcDbEntity
  8
DEFPOINTS
 62
     0
100
AcDbPoint
 10
705340.9119469748
 20
-4800.54810996406
 30
0.0
  0
POINT
  5
1C2
330
1B9
100
AcDbEntity
  8
DEFPOINTS
 62
     0
100
AcDbPoint
 10
705339.818324267
 20
-4247.572768746749
 30
0.0
  0
POINT
  5
1C3
330
1B9
100
AcDbEntity
  8
DEFPOINTS
 62
     0
100
AcDbPoint
 10
705156.8852707985
 20
-4247.572768746749
 30
0.0
  0
ENDBLK
  5
1C4
330
1B9
100
AcDbEntity
  8
0
100
AcDbBlockEnd
  0
BLOCK
  5
1C7
330
1C6
100
AcDbEntity
  8
0
100
AcDbBlockBegin
  2
*D110
 70
     1
 10
0.0
 20
0.0
 30
0.0
  3
*D110
  1
*D110
  0
LINE
  5
1C8
330
1C6
100
AcDbEntity
  8
166-寸法B
100
AcDbLine
 10
705343.9011603819
 20
-5711.901150706916
 30
0.0
 11
705153.8852707985
 21
-5711.901150706916
 31
0.0
  0
LINE
  5
1C9
330
1C6
100
AcDbEntity
  8
166-寸法B
100
AcDbLine
 10
705345.1857339457
 20
-6061.901150706916
 30
0.0
 11
705153.8852707985
 21
-6061.901150706916
 31
0.0
  0
LINE
  5
1CA
330
1C6
100
AcDbEntity
  8
166-寸法B
100
AcDbLine
 10
705156.8852707985
 20
-5717.901150706916
 30
0.0
 11
705156.8852707985
 21
-6055.901150706916
 31
0.0
  0
INSERT
  5
1CB
330
1C6
100
AcDbEntity
  8
166-寸法B
100
AcDbBlockReference
  2
_Dot
 10
705156.8852707985
 20
-5711.901150706916
 30
0.0
 41
6.0
 42
6.0
 43
6.0
 50
90.0
  0
INSERT
  5
1CC
330
1C6
100
AcDbEntity
  8
166-寸法B
100
AcDbBlockReference
  2
_Dot
 10
705156.8852707985
 20
-6061.901150706916
 30
0.0
 41
6.0
 42
6.0
 43
6.0
 50
270.0
  0
MTEXT
  5
1CD
330
1C6
100
AcDbEntity
  8
166-寸法B
100
AcDbMText
 10
705140.3852707985
 20
-5886.901150706803
 30
0.0
 40
23.0
 41
0.0
 71
     5
 72
     1
  1
\A1;350
  7
KH001
 11
6.123031769111886E-17
 21
1.0
 31
0.0
 73
     1
 44
1.0
  0
POINT
  5
1CE
330
1C6
100
AcDbEntity
  8
DEFPOINTS
 62
     0
100
AcDbPoint
 10
705355.9011603819
 20
-5711.901150706916
 30
0.0
  0
POINT
  5
1CF
330
1C6
100
AcDbEntity
  8
DEFPOINTS
 62
     0
100
AcDbPoint
 10
705357.1857339457
 20
-6061.901150706916
 30
0.0
  0
POINT
  5
1D0
330
1C6
100
AcDbEntity
  8
DEFPOINTS
 62
     0
100
AcDbPoint
 10
705156.8852707985
 20
-6061.901150706916
 30
0.0
  0
ENDBLK
  5
1D1
330
1C6
100
AcDbEntity
  8
0
100
AcDbBlockEnd
  0
BLOCK
  5
1D4
330
1D3
100
AcDbEntity
  8
0
100
AcDbBlockBegin
  2
*D111
 70
     1
 10
0.0
 20
0.0
 30
0.0
  3
*D111
  1
*D111
  0
LINE
  5
1D5
330
1D3
100
AcDbEntity
  8
166-寸法B
100
AcDbLine
 10
705345.1857339457
 20
-6051.901150706916
 30
0.0
 11
705203.8852707985
 21
-6051.901150706916
 31
0.0
  0
LINE
  5
1D6
330
1D3
100
AcDbEntity
  8
166-寸法B
100
AcDbLine
 10
705345.1857339457
 20
-6061.901150706916
 30
0.0
 11
705203.8852707985
 21
-6061.901150706916
 31
0.0
  0
LINE
  5
1D7
330
1D3
100
AcDbEntity
  8
166-寸法B
100
AcDbLine
 10
705206.8852707985
 20
-6045.901150706916
 30
0.0
 11
705206.8852707985
 21
-6039.901150706916
 31
0.0
  0
LINE
  5
1D8
330
1D3
100
AcDbEntity
  8
166-寸法B
100
AcDbLine
 10
705206.8852707985
 20
-6067.901150706916
 30
0.0
 11
705206.8852707985
 21
-6073.901150706916
 31
0.0
  0
LINE
  5
1D9
330
1D3
100
AcDbEntity
  8
166-寸法B
100
AcDbLine
 10
705206.8852707985
 20
-6196.040482391824
 30
0.0
 11
705206.8852707985
 21
-6061.901150706916
 31
0.0
  0
MTEXT
  5
1DA
330
1D3
100
AcDbEntity
  8
166-寸法B
100
AcDbMText
 10
705190.3852707985
 20
-6154.905964625214
 30
0.0
 40
23.0
 41
0.0
 71
     5
 72
     1
  1
\A1;8～20
  7
KH001
 11
6.123031769111886E-17
 21
1.0
 31
0.0
 73
     1
 44
1.0
  0
LINE
  5
1DB
330
1D3
100
AcDbEntity
  8
166-寸法B
100
AcDbLine
 10
705206.8852707985
 20
-6051.901150706916
 30
0.0
 11
705206.8852707985
 21
-6061.901150706916
 31
0.0
  0
LINE
  5
1DC
330
1D3
100
AcDbEntity
  8
166-寸法B
100
AcDbLine
 10
705206.8852707985
 20
-6051.901150706916
 30
0.0
 11
705206.8852707985
 21
-6061.901150706916
 31
0.0
  0
INSERT
  5
1DD
330
1D3
100
AcDbEntity
  8
166-寸法B
100
AcDbBlockReference
  2
_Dot
 10
705206.8852707985
 20
-6051.901150706916
 30
0.0
 41
6.0
 42
6.0
 43
6.0
 50
270.0
  0
INSERT
  5
1DE
330
1D3
100
AcDbEntity
  8
166-寸法B
100
AcDbBlockReference
  2
_Dot
 10
705206.8852707985
 20
-6061.901150706916
 30
0.0
 41
6.0
 42
6.0
 43
6.0
 50
90.0
  0
POINT
  5
1DF
330
1D3
100
AcDbEntity
  8
DEFPOINTS
 62
     0
100
AcDbPoint
 10
705357.1857339457
 20
-6051.901150706916
 30
0.0
  0
POINT
  5
1E0
330
1D3
100
AcDbEntity
  8
DEFPOINTS
 62
     0
100
AcDbPoint
 10
705357.1857339457
 20
-6061.901150706916
 30
0.0
  0
POINT
  5
1E1
330
1D3
100
AcDbEntity
  8
DEFPOINTS
 62
     0
100
AcDbPoint
 10
705206.8852707985
 20
-6061.901150706916
 30
0.0
  0
ENDBLK
  5
1E2
330
1D3
100
AcDbEntity
  8
0
100
AcDbBlockEnd
  0
BLOCK
  5
1E5
330
1E4
100
AcDbEntity
  8
0
100
AcDbBlockBegin
  2
*D112
 70
     1
 10
0.0
 20
0.0
 30
0.0
  3
*D112
  1
*D112
  0
LINE
  5
1E6
330
1E4
100
AcDbEntity
  8
166-寸法B
100
AcDbLine
 10
705343.9011603819
 20
-5711.901150706916
 30
0.0
 11
705153.8852707985
 21
-5711.901150706916
 31
0.0
  0
LINE
  5
1E7
330
1E4
100
AcDbEntity
  8
166-寸法B
100
AcDbLine
 10
705328.8071814909
 20
-5351.901150706916
 30
0.0
 11
705153.8852707985
 21
-5351.901150706916
 31
0.0
  0
LINE
  5
1E8
330
1E4
100
AcDbEntity
  8
166-寸法B
100
AcDbLine
 10
705156.8852707985
 20
-5705.901150706916
 30
0.0
 11
705156.8852707985
 21
-5357.901150706916
 31
0.0
  0
INSERT
  5
1E9
330
1E4
100
AcDbEntity
  8
166-寸法B
100
AcDbBlockReference
  2
_Dot
 10
705156.8852707985
 20
-5711.901150706916
 30
0.0
 41
6.0
 42
6.0
 43
6.0
 50
270.0
  0
INSERT
  5
1EA
330
1E4
100
AcDbEntity
  8
166-寸法B
100
AcDbBlockReference
  2
_Dot
 10
705156.8852707985
 20
-5351.901150706916
 30
0.0
 41
6.0
 42
6.0
 43
6.0
 50
90.0
  0
MTEXT
  5
1EB
330
1E4
100
AcDbEntity
  8
166-寸法B
100
AcDbMText
 10
705140.3852707985
 20
-5531.901150706803
 30
0.0
 40
23.0
 41
0.0
 71
     5
 72
     1
  1
\A1;360
  7
KH001
 11
6.123031769111886E-17
 21
1.0
 31
0.0
 73
     1
 44
1.0
  0
POINT
  5
1EC
330
1E4
100
AcDbEntity
  8
DEFPOINTS
 62
     0
100
AcDbPoint
 10
705355.9011603819
 20
-5711.901150706916
 30
0.0
  0
POINT
  5
1ED
330
1E4
100
AcDbEntity
  8
DEFPOINTS
 62
     0
100
AcDbPoint
 10
705340.8071814909
 20
-5351.901150706916
 30
0.0
  0
POINT
  5
1EE
330
1E4
100
AcDbEntity
  8
DEFPOINTS
 62
     0
100
AcDbPoint
 10
705156.8852707985
 20
-5351.901150706916
 30
0.0
  0
ENDBLK
  5
1EF
330
1E4
100
AcDbEntity
  8
0
100
AcDbBlockEnd
  0
BLOCK
  5
1F2
330
1F1
100
AcDbEntity
  8
0
100
AcDbBlockBegin
  2
*D113
 70
     1
 10
0.0
 20
0.0
 30
0.0
  3
*D113
  1
*D113
  0
LINE
  5
1F3
330
1F1
100
AcDbEntity
  8
166-寸法B
100
AcDbLine
 10
705328.8071814909
 20
-5351.901150706916
 30
0.0
 11
705103.8852707985
 21
-5351.901150706916
 31
0.0
  0
LINE
  5
1F4
330
1F1
100
AcDbEntity
  8
166-寸法B
100
AcDbLine
 10
705345.1857339457
 20
-6061.901150706916
 30
0.0
 11
705103.8852707985
 21
-6061.901150706916
 31
0.0
  0
LINE
  5
1F5
330
1F1
100
AcDbEntity
  8
166-寸法B
100
AcDbLine
 10
705106.8852707985
 20
-5357.901150706916
 30
0.0
 11
705106.8852707985
 21
-6055.901150706916
 31
0.0
  0
INSERT
  5
1F6
330
1F1
100
AcDbEntity
  8
166-寸法B
100
AcDbBlockReference
  2
_Dot
 10
705106.8852707985
 20
-5351.901150706916
 30
0.0
 41
6.0
 42
6.0
 43
6.0
 50
90.0
  0
INSERT
  5
1F7
330
1F1
100
AcDbEntity
  8
166-寸法B
100
AcDbBlockReference
  2
_Dot
 10
705106.8852707985
 20
-6061.901150706916
 30
0.0
 41
6.0
 42
6.0
 43
6.0
 50
270.0
  0
MTEXT
  5
1F8
330
1F1
100
AcDbEntity
  8
166-寸法B
100
AcDbMText
 10
705090.3852707985
 20
-5706.901150706803
 30
0.0
 40
23.0
 41
0.0
 71
     5
 72
     1
  1
\A1;710～722
  7
KH001
 11
6.123031769111886E-17
 21
1.0
 31
0.0
 73
     1
 44
1.0
  0
POINT
  5
1F9
330
1F1
100
AcDbEntity
  8
DEFPOINTS
 62
     0
100
AcDbPoint
 10
705340.8071814909
 20
-5351.901150706916
 30
0.0
  0
POINT
  5
1FA
330
1F1
100
AcDbEntity
  8
DEFPOINTS
 62
     0
100
AcDbPoint
 10
705357.1857339457
 20
-6061.901150706916
 30
0.0
  0
POINT
  5
1FB
330
1F1
100
AcDbEntity
  8
DEFPOINTS
 62
     0
100
AcDbPoint
 10
705106.8852707985
 20
-6061.901150706916
 30
0.0
  0
ENDBLK
  5
1FC
330
1F1
100
AcDbEntity
  8
0
100
AcDbBlockEnd
  0
BLOCK
  5
1FF
330
1FE
100
AcDbEntity
  8
0
100
AcDbBlockBegin
  2
*D114
 70
     1
 10
0.0
 20
0.0
 30
0.0
  3
*D114
  1
*D114
  0
LINE
  5
200
330
1FE
100
AcDbEntity
  8
166-寸法B
100
AcDbLine
 10
705345.1857339457
 20
-6051.901150706916
 30
0.0
 11
705203.8852707985
 21
-6051.901150706916
 31
0.0
  0
LINE
  5
201
330
1FE
100
AcDbEntity
  8
166-寸法B
100
AcDbLine
 10
705345.1857339457
 20
-5977.901150706916
 30
0.0
 11
705203.8852707985
 21
-5977.901150706916
 31
0.0
  0
LINE
  5
202
330
1FE
100
AcDbEntity
  8
166-寸法B
100
AcDbLine
 10
705206.8852707985
 20
-6045.901150706916
 30
0.0
 11
705206.8852707985
 21
-5983.901150706916
 31
0.0
  0
INSERT
  5
203
330
1FE
100
AcDbEntity
  8
166-寸法B
100
AcDbBlockReference
  2
_Dot
 10
705206.8852707985
 20
-6051.901150706916
 30
0.0
 41
6.0
 42
6.0
 43
6.0
 50
270.0
  0
INSERT
  5
204
330
1FE
100
AcDbEntity
  8
166-寸法B
100
AcDbBlockReference
  2
_Dot
 10
705206.8852707985
 20
-5977.901150706916
 30
0.0
 41
6.0
 42
6.0
 43
6.0
 50
90.0
  0
MTEXT
  5
205
330
1FE
100
AcDbEntity
  8
166-寸法B
100
AcDbMText
 10
705190.3852707985
 20
-6014.901150706803
 30
0.0
 40
23.0
 41
0.0
 71
     5
 72
     1
  1
\A1;74
  7
KH001
 11
6.123031769111886E-17
 21
1.0
 31
0.0
 73
     1
 44
1.0
  0
POINT
  5
206
330
1FE
100
AcDbEntity
  8
DEFPOINTS
 62
     0
100
AcDbPoint
 10
705357.1857339457
 20
-6051.901150706916
 30
0.0
  0
POINT
  5
207
330
1FE
100
AcDbEntity
  8
DEFPOINTS
 62
     0
100
AcDbPoint
 10
705357.1857339457
 20
-5977.901150706916
 30
0.0
  0
POINT
  5
208
330
1FE
100
AcDbEntity
  8
DEFPOINTS
 62
     0
100
AcDbPoint
 10
705206.8852707985
 20
-5977.901150706916
 30
0.0
  0
ENDBLK
  5
209
330
1FE
100
AcDbEntity
  8
0
100
AcDbBlockEnd
  0
BLOCK
  5
20C
330
20B
100
AcDbEntity
  8
0
100
AcDbBlockBegin
  2
*D115
 70
     1
 10
0.0
 20
0.0
 30
0.0
  3
*D115
  1
*D115
  0
LINE
  5
20D
330
20B
100
AcDbEntity
  8
166-寸法B
100
AcDbLine
 10
705345.1857339457
 20
-5977.901150706916
 30
0.0
 11
705203.8852707985
 21
-5977.901150706916
 31
0.0
  0
LINE
  5
20E
330
20B
100
AcDbEntity
  8
166-寸法B
100
AcDbLine
 10
705345.1857339457
 20
-5962.901150706916
 30
0.0
 11
705203.8852707985
 21
-5962.901150706916
 31
0.0
  0
LINE
  5
20F
330
20B
100
AcDbEntity
  8
166-寸法B
100
AcDbLine
 10
705206.8852707985
 20
-5983.901150706916
 30
0.0
 11
705206.8852707985
 21
-5989.901150706916
 31
0.0
  0
LINE
  5
210
330
20B
100
AcDbEntity
  8
166-寸法B
100
AcDbLine
 10
705206.8852707985
 20
-5956.901150706916
 30
0.0
 11
705206.8852707985
 21
-5950.901150706916
 31
0.0
  0
LINE
  5
211
330
20B
100
AcDbEntity
  8
166-寸法B
100
AcDbLine
 10
705206.8852707985
 20
-5977.901150706916
 30
0.0
 11
705206.8852707985
 21
-5962.901150706916
 31
0.0
  0
INSERT
  5
212
330
20B
100
AcDbEntity
  8
166-寸法B
100
AcDbBlockReference
  2
_Dot
 10
705206.8852707985
 20
-5977.901150706916
 30
0.0
 41
6.0
 42
6.0
 43
6.0
 50
90.0
  0
INSERT
  5
213
330
20B
100
AcDbEntity
  8
166-寸法B
100
AcDbBlockReference
  2
_Dot
 10
705206.8852707985
 20
-5962.901150706916
 30
0.0
 41
6.0
 42
6.0
 43
6.0
 50
270.0
  0
MTEXT
  5
214
330
20B
100
AcDbEntity
  8
166-寸法B
100
AcDbMText
 10
705190.3852707985
 20
-5970.401150706803
 30
0.0
 40
23.0
 41
0.0
 71
     5
 72
     1
  1
\A1;15
  7
KH001
 11
6.123031769111886E-17
 21
1.0
 31
0.0
 73
     1
 44
1.0
  0
POINT
  5
215
330
20B
100
AcDbEntity
  8
DEFPOINTS
 62
     0
100
AcDbPoint
 10
705357.1857339457
 20
-5977.901150706916
 30
0.0
  0
POINT
  5
216
330
20B
100
AcDbEntity
  8
DEFPOINTS
 62
     0
100
AcDbPoint
 10
705357.1857339457
 20
-5962.901150706916
 30
0.0
  0
POINT
  5
217
330
20B
100
AcDbEntity
  8
DEFPOINTS
 62
     0
100
AcDbPoint
 10
705206.8852707985
 20
-5962.901150706916
 30
0.0
  0
ENDBLK
  5
218
330
20B
100
AcDbEntity
  8
0
100
AcDbBlockEnd
  0
BLOCK
  5
21B
330
21A
100
AcDbEntity
  8
0
100
AcDbBlockBegin
  2
*D116
 70
     1
 10
0.0
 20
0.0
 30
0.0
  3
*D116
  1
*D116
  0
LINE
  5
21C
330
21A
100
AcDbEntity
  8
166-寸法B
100
AcDbLine
 10
705345.1857339457
 20
-5962.901150706916
 30
0.0
 11
705203.8852707985
 21
-5962.901150706916
 31
0.0
  0
LINE
  5
21D
330
21A
100
AcDbEntity
  8
166-寸法B
100
AcDbLine
 10
705343.4404798563
 20
-5726.90115070691
 30
0.0
 11
705203.8852707985
 21
-5726.90115070691
 31
0.0
  0
LINE
  5
21E
330
21A
100
AcDbEntity
  8
166-寸法B
100
AcDbLine
 10
705206.8852707985
 20
-5956.901150706916
 30
0.0
 11
705206.8852707985
 21
-5732.90115070691
 31
0.0
  0
INSERT
  5
21F
330
21A
100
AcDbEntity
  8
166-寸法B
100
AcDbBlockReference
  2
_Dot
 10
705206.8852707985
 20
-5962.901150706916
 30
0.0
 41
6.0
 42
6.0
 43
6.0
 50
270.0
  0
INSERT
  5
220
330
21A
100
AcDbEntity
  8
166-寸法B
100
AcDbBlockReference
  2
_Dot
 10
705206.8852707985
 20
-5726.90115070691
 30
0.0
 41
6.0
 42
6.0
 43
6.0
 50
90.0
  0
MTEXT
  5
221
330
21A
100
AcDbEntity
  8
166-寸法B
100
AcDbMText
 10
705190.3852707985
 20
-5844.9011507068
 30
0.0
 40
23.0
 41
0.0
 71
     5
 72
     1
  1
\A1;236
  7
KH001
 11
6.123031769111886E-17
 21
1.0
 31
0.0
 73
     1
 44
1.0
  0
POINT
  5
222
330
21A
100
AcDbEntity
  8
DEFPOINTS
 62
     0
100
AcDbPoint
 10
705357.1857339457
 20
-5962.901150706916
 30
0.0
  0
POINT
  5
223
330
21A
100
AcDbEntity
  8
DEFPOINTS
 62
     0
100
AcDbPoint
 10
705355.4404798563
 20
-5726.90115070691
 30
0.0
  0
POINT
  5
224
330
21A
100
AcDbEntity
  8
DEFPOINTS
 62
     0
100
AcDbPoint
 10
705206.8852707985
 20
-5726.90115070691
 30
0.0
  0
ENDBLK
  5
225
330
21A
100
AcDbEntity
  8
0
100
AcDbBlockEnd
  0
BLOCK
  5
228
330
227
100
AcDbEntity
  8
0
100
AcDbBlockBegin
  2
*D117
 70
     1
 10
0.0
 20
0.0
 30
0.0
  3
*D117
  1
*D117
  0
LINE
  5
229
330
227
100
AcDbEntity
  8
166-寸法B
100
AcDbLine
 10
705343.4404798563
 20
-5726.90115070691
 30
0.0
 11
705203.8852707985
 21
-5726.90115070691
 31
0.0
  0
LINE
  5
22A
330
227
100
AcDbEntity
  8
166-寸法B
100
AcDbLine
 10
705343.9011603819
 20
-5711.901150706916
 30
0.0
 11
705203.8852707985
 21
-5711.901150706916
 31
0.0
  0
LINE
  5
22B
330
227
100
AcDbEntity
  8
166-寸法B
100
AcDbLine
 10
705206.8852707985
 20
-5732.90115070691
 30
0.0
 11
705206.8852707985
 21
-5738.90115070691
 31
0.0
  0
LINE
  5
22C
330
227
100
AcDbEntity
  8
166-寸法B
100
AcDbLine
 10
705206.8852707985
 20
-5705.901150706916
 30
0.0
 11
705206.8852707985
 21
-5699.901150706916
 31
0.0
  0
MTEXT
  5
22D
330
227
100
AcDbEntity
  8
166-寸法B
100
AcDbMText
 10
705188.9583149996
 20
-5733.890700299991
 30
0.0
 40
23.0
 41
0.0
 71
     5
 72
     1
  1
\A1;15
  7
KH001
 11
6.123031769111886E-17
 21
1.0
 31
0.0
 73
     1
 44
1.0
  0
LINE
  5
22E
330
227
100
AcDbEntity
  8
166-寸法B
100
AcDbLine
 10
705206.8852707985
 20
-5726.90115070691
 30
0.0
 11
705206.8852707985
 21
-5711.901150706916
 31
0.0
  0
INSERT
  5
22F
330
227
100
AcDbEntity
  8
166-寸法B
100
AcDbBlockReference
  2
_Dot
 10
705206.8852707985
 20
-5726.90115070691
 30
0.0
 41
6.0
 42
6.0
 43
6.0
 50
90.0
  0
INSERT
  5
230
330
227
100
AcDbEntity
  8
166-寸法B
100
AcDbBlockReference
  2
_Dot
 10
705206.8852707985
 20
-5711.901150706916
 30
0.0
 41
6.0
 42
6.0
 43
6.0
 50
270.0
  0
POINT
  5
231
330
227
100
AcDbEntity
  8
DEFPOINTS
 62
     0
100
AcDbPoint
 10
705355.4404798563
 20
-5726.90115070691
 30
0.0
  0
POINT
  5
232
330
227
100
AcDbEntity
  8
DEFPOINTS
 62
     0
100
AcDbPoint
 10
705355.9011603819
 20
-5711.901150706916
 30
0.0
  0
POINT
  5
233
330
227
100
AcDbEntity
  8
DEFPOINTS
 62
     0
100
AcDbPoint
 10
705206.8852707985
 20
-5711.901150706916
 30
0.0
  0
ENDBLK
  5
234
330
227
100
AcDbEntity
  8
0
100
AcDbBlockEnd
  0
BLOCK
  5
237
330
236
100
AcDbEntity
  8
0
100
AcDbBlockBegin
  2
*D118
 70
     1
 10
0.0
 20
0.0
 30
0.0
  3
*D118
  1
*D118
  0
LINE
  5
238
330
236
100
AcDbEntity
  8
166-寸法B
100
AcDbLine
 10
705343.9011603819
 20
-5711.901150706916
 30
0.0
 11
705203.8852707985
 21
-5711.901150706916
 31
0.0
  0
LINE
  5
239
330
236
100
AcDbEntity
  8
166-寸法B
100
AcDbLine
 10
705328.6137226004
 20
-5451.951005131193
 30
0.0
 11
705203.8852707985
 21
-5451.951005131193
 31
0.0
  0
LINE
  5
23A
330
236
100
AcDbEntity
  8
166-寸法B
100
AcDbLine
 10
705206.8852707985
 20
-5705.901150706916
 30
0.0
 11
705206.8852707985
 21
-5457.951005131193
 31
0.0
  0
INSERT
  5
23B
330
236
100
AcDbEntity
  8
166-寸法B
100
AcDbBlockReference
  2
_Dot
 10
705206.8852707985
 20
-5711.901150706916
 30
0.0
 41
6.0
 42
6.0
 43
6.0
 50
270.0
  0
INSERT
  5
23C
330
236
100
AcDbEntity
  8
166-寸法B
100
AcDbBlockReference
  2
_Dot
 10
705206.8852707985
 20
-5451.951005131193
 30
0.0
 41
6.0
 42
6.0
 43
6.0
 50
90.0
  0
MTEXT
  5
23D
330
236
100
AcDbEntity
  8
166-寸法B
100
AcDbMText
 10
705190.3852707985
 20
-5581.926077918941
 30
0.0
 40
23.0
 41
0.0
 71
     5
 72
     1
  1
\A1;260
  7
KH001
 11
6.123031769111886E-17
 21
1.0
 31
0.0
 73
     1
 44
1.0
  0
POINT
  5
23E
330
236
100
AcDbEntity
  8
DEFPOINTS
 62
     0
100
AcDbPoint
 10
705355.9011603819
 20
-5711.901150706916
 30
0.0
  0
POINT
  5
23F
330
236
100
AcDbEntity
  8
DEFPOINTS
 62
     0
100
AcDbPoint
 10
705340.6137226004
 20
-5451.951005131193
 30
0.0
  0
POINT
  5
240
330
236
100
AcDbEntity
  8
DEFPOINTS
 62
     0
100
AcDbPoint
 10
705206.8852707985
 20
-5451.951005131193
 30
0.0
  0
ENDBLK
  5
241
330
236
100
AcDbEntity
  8
0
100
AcDbBlockEnd
  0
BLOCK
  5
244
330
243
100
AcDbEntity
  8
0
100
AcDbBlockBegin
  2
*D119
 70
     1
 10
0.0
 20
0.0
 30
0.0
  3
*D119
  1
*D119
  0
LINE
  5
245
330
243
100
AcDbEntity
  8
166-寸法B
100
AcDbLine
 10
705328.6137226004
 20
-5451.951005131193
 30
0.0
 11
705203.8852707985
 21
-5451.951005131193
 31
0.0
  0
LINE
  5
246
330
243
100
AcDbEntity
  8
166-寸法B
100
AcDbLine
 10
705328.8071814909
 20
-5351.901150706916
 30
0.0
 11
705203.8852707985
 21
-5351.901150706916
 31
0.0
  0
LINE
  5
247
330
243
100
AcDbEntity
  8
166-寸法B
100
AcDbLine
 10
705206.8852707985
 20
-5445.951005131193
 30
0.0
 11
705206.8852707985
 21
-5357.901150706916
 31
0.0
  0
INSERT
  5
248
330
243
100
AcDbEntity
  8
166-寸法B
100
AcDbBlockReference
  2
_Dot
 10
705206.8852707985
 20
-5451.951005131193
 30
0.0
 41
6.0
 42
6.0
 43
6.0
 50
270.0
  0
INSERT
  5
249
330
243
100
AcDbEntity
  8
166-寸法B
100
AcDbBlockReference
  2
_Dot
 10
705206.8852707985
 20
-5351.901150706916
 30
0.0
 41
6.0
 42
6.0
 43
6.0
 50
90.0
  0
MTEXT
  5
24A
330
243
100
AcDbEntity
  8
166-寸法B
100
AcDbMText
 10
705190.3852707985
 20
-5401.926077918941
 30
0.0
 40
23.0
 41
0.0
 71
     5
 72
     1
  1
\A1;100
  7
KH001
 11
6.123031769111886E-17
 21
1.0
 31
0.0
 73
     1
 44
1.0
  0
POINT
  5
24B
330
243
100
AcDbEntity
  8
DEFPOINTS
 62
     0
100
AcDbPoint
 10
705340.6137226004
 20
-5451.951005131193
 30
0.0
  0
POINT
  5
24C
330
243
100
AcDbEntity
  8
DEFPOINTS
 62
     0
100
AcDbPoint
 10
705340.8071814909
 20
-5351.901150706916
 30
0.0
  0
POINT
  5
24D
330
243
100
AcDbEntity
  8
DEFPOINTS
 62
     0
100
AcDbPoint
 10
705206.8852707985
 20
-5351.901150706916
 30
0.0
  0
ENDBLK
  5
24E
330
243
100
AcDbEntity
  8
0
100
AcDbBlockEnd
  0
BLOCK
  5
251
330
250
100
AcDbEntity
  8
0
100
AcDbBlockBegin
  2
*D120
 70
     1
 10
0.0
 20
0.0
 30
0.0
  3
*D120
  1
*D120
  0
LINE
  5
252
330
250
100
AcDbEntity
  8
166-寸法B
100
AcDbLine
 10
705343.9011603819
 20
-5711.901150706916
 30
0.0
 11
705253.8852707985
 21
-5711.901150706916
 31
0.0
  0
LINE
  5
253
330
250
100
AcDbEntity
  8
166-寸法B
100
AcDbLine
 10
705328.9011603817
 20
-5631.901150706916
 30
0.0
 11
705253.8852707985
 21
-5631.901150706916
 31
0.0
  0
LINE
  5
254
330
250
100
AcDbEntity
  8
166-寸法B
100
AcDbLine
 10
705256.8852707985
 20
-5705.901150706916
 30
0.0
 11
705256.8852707985
 21
-5637.901150706916
 31
0.0
  0
INSERT
  5
255
330
250
100
AcDbEntity
  8
166-寸法B
100
AcDbBlockReference
  2
_Dot
 10
705256.8852707985
 20
-5711.901150706916
 30
0.0
 41
6.0
 42
6.0
 43
6.0
 50
270.0
  0
INSERT
  5
256
330
250
100
AcDbEntity
  8
166-寸法B
100
AcDbBlockReference
  2
_Dot
 10
705256.8852707985
 20
-5631.901150706916
 30
0.0
 41
6.0
 42
6.0
 43
6.0
 50
90.0
  0
MTEXT
  5
257
330
250
100
AcDbEntity
  8
166-寸法B
100
AcDbMText
 10
705240.3852707985
 20
-5671.901150706803
 30
0.0
 40
23.0
 41
0.0
 71
     5
 72
     1
  1
\A1;80
  7
KH001
 11
6.123031769111886E-17
 21
1.0
 31
0.0
 73
     1
 44
1.0
  0
POINT
  5
258
330
250
100
AcDbEntity
  8
DEFPOINTS
 62
     0
100
AcDbPoint
 10
705355.9011603819
 20
-5711.901150706916
 30
0.0
  0
POINT
  5
259
330
250
100
AcDbEntity
  8
DEFPOINTS
 62
     0
100
AcDbPoint
 10
705340.9011603817
 20
-5631.901150706916
 30
0.0
  0
POINT
  5
25A
330
250
100
AcDbEntity
  8
DEFPOINTS
 62
     0
100
AcDbPoint
 10
705256.8852707985
 20
-5631.901150706916
 30
0.0
  0
ENDBLK
  5
25B
330
250
100
AcDbEntity
  8
0
100
AcDbBlockEnd
  0
BLOCK
  5
25E
330
25D
100
AcDbEntity
  8
0
100
AcDbBlockBegin
  2
*D121
 70
     1
 10
0.0
 20
0.0
 30
0.0
  3
*D121
  1
*D121
  0
LINE
  5
25F
330
25D
100
AcDbEntity
  8
166-寸法B
100
AcDbLine
 10
705328.9011603817
 20
-5631.901150706916
 30
0.0
 11
705253.8852707985
 21
-5631.901150706916
 31
0.0
  0
LINE
  5
260
330
25D
100
AcDbEntity
  8
166-寸法B
100
AcDbLine
 10
705328.6137226004
 20
-5451.951005131193
 30
0.0
 11
705253.8852707985
 21
-5451.951005131193
 31
0.0
  0
LINE
  5
261
330
25D
100
AcDbEntity
  8
166-寸法B
100
AcDbLine
 10
705256.8852707985
 20
-5625.901150706916
 30
0.0
 11
705256.8852707985
 21
-5457.951005131193
 31
0.0
  0
INSERT
  5
262
330
25D
100
AcDbEntity
  8
166-寸法B
100
AcDbBlockReference
  2
_Dot
 10
705256.8852707985
 20
-5631.901150706916
 30
0.0
 41
6.0
 42
6.0
 43
6.0
 50
270.0
  0
INSERT
  5
263
330
25D
100
AcDbEntity
  8
166-寸法B
100
AcDbBlockReference
  2
_Dot
 10
705256.8852707985
 20
-5451.951005131193
 30
0.0
 41
6.0
 42
6.0
 43
6.0
 50
90.0
  0
MTEXT
  5
264
330
25D
100
AcDbEntity
  8
166-寸法B
100
AcDbMText
 10
705240.3852707985
 20
-5541.926077918941
 30
0.0
 40
23.0
 41
0.0
 71
     5
 72
     1
  1
\A1;180
  7
KH001
 11
6.123031769111886E-17
 21
1.0
 31
0.0
 73
     1
 44
1.0
  0
POINT
  5
265
330
25D
100
AcDbEntity
  8
DEFPOINTS
 62
     0
100
AcDbPoint
 10
705340.9011603817
 20
-5631.901150706916
 30
0.0
  0
POINT
  5
266
330
25D
100
AcDbEntity
  8
DEFPOINTS
 62
     0
100
AcDbPoint
 10
705340.6137226004
 20
-5451.951005131193
 30
0.0
  0
POINT
  5
267
330
25D
100
AcDbEntity
  8
DEFPOINTS
 62
     0
100
AcDbPoint
 10
705256.8852707985
 20
-5451.951005131193
 30
0.0
  0
ENDBLK
  5
268
330
25D
100
AcDbEntity
  8
0
100
AcDbBlockEnd
  0
BLOCK
  5
26B
330
26A
100
AcDbEntity
  8
0
100
AcDbBlockBegin
  2
*D122
 70
     1
 10
0.0
 20
0.0
 30
0.0
  3
*D122
  1
*D122
  0
LINE
  5
26C
330
26A
100
AcDbEntity
  8
166-寸法B
100
AcDbLine
 10
705884.0090013104
 20
-5631.901150706916
 30
0.0
 11
705960.5893815195
 21
-5631.901150706916
 31
0.0
  0
LINE
  5
26D
330
26A
100
AcDbEntity
  8
166-寸法B
100
AcDbLine
 10
705874.5090013106
 20
-6061.901150706915
 30
0.0
 11
705960.5893815195
 21
-6061.901150706915
 31
0.0
  0
LINE
  5
26E
330
26A
100
AcDbEntity
  8
166-寸法B
100
AcDbLine
 10
705957.5893815195
 20
-5637.901150706916
 30
0.0
 11
705957.5893815195
 21
-6055.901150706915
 31
0.0
  0
INSERT
  5
26F
330
26A
100
AcDbEntity
  8
166-寸法B
100
AcDbBlockReference
  2
_Dot
 10
705957.5893815195
 20
-5631.901150706916
 30
0.0
 41
6.0
 42
6.0
 43
6.0
 50
90.0
  0
INSERT
  5
270
330
26A
100
AcDbEntity
  8
166-寸法B
100
AcDbBlockReference
  2
_Dot
 10
705957.5893815195
 20
-6061.901150706915
 30
0.0
 41
6.0
 42
6.0
 43
6.0
 50
270.0
  0
MTEXT
  5
271
330
26A
100
AcDbEntity
  8
166-寸法B
100
AcDbMText
 10
705941.0893815195
 20
-5846.901150706803
 30
0.0
 40
23.0
 41
0.0
 71
     5
 72
     1
  1
\A1;SH430～442
  7
KH001
 11
6.123031769111886E-17
 21
1.0
 31
0.0
 73
     1
 44
1.0
  0
POINT
  5
272
330
26A
100
AcDbEntity
  8
DEFPOINTS
 62
     0
100
AcDbPoint
 10
705872.0090013104
 20
-5631.901150706916
 30
0.0
  0
POINT
  5
273
330
26A
100
AcDbEntity
  8
DEFPOINTS
 62
     0
100
AcDbPoint
 10
705862.5090013106
 20
-6061.901150706915
 30
0.0
  0
POINT
  5
274
330
26A
100
AcDbEntity
  8
DEFPOINTS
 62
     0
100
AcDbPoint
 10
705957.5893815195
 20
-6061.901150706915
 30
0.0
  0
ENDBLK
  5
275
330
26A
100
AcDbEntity
  8
0
100
AcDbBlockEnd
  0
ENDSEC
  0
SECTION
  2
ENTITIES
  0
INSERT
  5
5E
330
1D
100
AcDbEntity
  8
190-図面外枠
100
AcDbBlockReference
  2
A$C5D946DDC
 10
704361.4946355458
 20
-6767.328062117474
 30
0.0
 41
0.199999999999818
 42
0.1999999999989086
 43
0.2
  0
TEXT
  5
6D
330
1D
100
AcDbEntity
  8
160-文字
100
AcDbText
 10
704458.4357602893
 20
-3952.974927325045
 30
0.0
 40
41.66666666666666
  1
ソファチェア　ロータイプ
  7
KH001
 11
704458.4357602893
 21
-3932.141593991711
 31
0.0
100
AcDbText
 73
     2
  0
LWPOLYLINE
  5
72
330
1D
100
AcDbEntity
  8
190-図面外枠
100
AcDbPolyline
 90
        2
 70
     0
 43
0.0
 10
704415.6891809998
 20
-3972.80752338537
 10
708465.2958476626
 20
-3972.80752338537
  0
LWPOLYLINE
  5
73
330
1D
100
AcDbEntity
  8
120-キャビネット（外）
 62
     6
100
AcDbPolyline
 90
        8
 70
     1
 43
0.0
 10
705418.9011603819
 20
-5711.901150706916
 10
705862.9011603819
 20
-5711.901150706916
 42
0.414213562373095
 10
705870.9011603819
 20
-5703.901150706916
 10
705870.9011603819
 20
-5639.901150706916
 42
0.414213562373095
 10
705862.9011603819
 20
-5631.901150706916
 10
705418.9011603819
 20
-5631.901150706916
 42
0.414213562373095
 10
705410.9011603819
 20
-5639.901150706916
 10
705410.9011603819
 20
-5703.901150706916
 42
0.414213562373095
  0
LWPOLYLINE
  5
77
330
1D
100
AcDbEntity
  8
120-キャビネット（外）
 62
     6
100
AcDbPolyline
 90
        8
 70
     1
 43
0.0
 10
705418.9011603819
 20
-5631.901150706916
 10
705862.9011603819
 20
-5631.901150706916
 42
0.414213562373095
 10
705870.9011603819
 20
-5623.901150706916
 10
705870.9011603819
 20
-5359.901150706916
 42
0.414213562373095
 10
705862.9011603819
 20
-5351.901150706916
 10
705418.9011603817
 20
-5351.901150706916
 42
0.414213562373095
 10
705410.9011603817
 20
-5359.901150706916
 10
705410.9011603819
 20
-5623.901150706916
 42
0.414213562373095
  0
LWPOLYLINE
  5
78
330
1D
100
AcDbEntity
  8
121-キャビネット（中）
  6
Continuous
100
AcDbPolyline
 90
        5
 70
     0
 43
0.0
 10
705420.9011603819
 20
-5711.901150706916
 10
705420.9011603819
 20
-5711.901150706916
 10
705420.9011603819
 20
-6051.901150706923
 10
705435.9011603819
 20
-6051.901150706923
 10
705435.9011603819
 20
-5977.901150706923
  0
LWPOLYLINE
  5
7D
330
1D
100
AcDbEntity
  8
121-キャビネット（中）
  6
Continuous
100
AcDbPolyline
 90
        2
 70
     0
 43
0.0
 10
705435.9011603819
 20
-5977.901150706923
 10
705435.9011603819
 20
-5726.901150706916
  0
LWPOLYLINE
  5
7E
330
1D
100
AcDbEntity
  8
121-キャビネット（中）
  6
Continuous
100
AcDbPolyline
 90
        2
 70
     0
 43
0.0
 10
705845.9011603819
 20
-5726.901150706916
 10
705845.9011603819
 20
-5977.901150706923
  0
LWPOLYLINE
  5
7F
330
1D
100
AcDbEntity
  8
121-キャビネット（中）
  6
Continuous
100
AcDbPolyline
 90
        5
 70
     0
 43
0.0
 10
705845.9011603819
 20
-5977.901150706923
 10
705845.9011603819
 20
-6051.901150706923
 10
705860.9011603819
 20
-6051.901150706923
 10
705860.9011603819
 20
-5711.901150706916
 10
705860.9011603819
 20
-5711.901150706916
  0
LWPOLYLINE
  5
80
330
1D
100
AcDbEntity
  8
121-キャビネット（中）
  6
Continuous
100
AcDbPolyline
 90
        4
 70
     0
 43
0.0
 10
705420.9011603819
 20
-5711.901150706916
 10
705420.9011603819
 20
-5711.901150706916
 10
705860.9011603819
 20
-5711.901150706916
 10
705860.9011603819
 20
-5711.901150706916
  0
LWPOLYLINE
  5
81
330
1D
100
AcDbEntity
  8
121-キャビネット（中）
  6
Continuous
100
AcDbPolyline
 90
        2
 70
     0
 43
0.0
 10
705845.9011603819
 20
-5726.901150706916
 10
705435.9011603819
 20
-5726.901150706916
  0
LWPOLYLINE
  5
82
330
1D
100
AcDbEntity
  8
121-キャビネット（中）
  6
Continuous
 62
   161
100
AcDbPolyline
 90
        2
 70
     0
 43
0.0
 10
705435.9011603819
 20
-5962.901150706923
 10
705845.9011603819
 20
-5962.901150706923
  0
LWPOLYLINE
  5
83
330
1D
100
AcDbEntity
  8
121-キャビネット（中）
  6
Continuous
 62
   161
100
AcDbPolyline
 90
        2
 70
     0
 43
0.0
 10
705845.9011603819
 20
-5977.901150706923
 10
705435.9011603819
 20
-5977.901150706923
  0
LWPOLYLINE
  5
84
330
1D
100
AcDbEntity
  8
120-キャビネット（外）
 62
     6
100
AcDbPolyline
 90
        8
 70
     1
 43
0.0
 10
707225.2241041593
 20
-5711.901150706916
 10
707709.2241041593
 20
-5711.901150706916
 42
0.414213562373095
 10
707717.2241041593
 20
-5703.901150706916
 10
707717.2241041593
 20
-5639.901150706916
 42
0.414213562373095
 10
707709.2241041593
 20
-5631.901150706916
 10
707225.2241041593
 20
-5631.901150706916
 42
0.414213562373095
 10
707217.2241041593
 20
-5639.901150706916
 10
707217.2241041593
 20
-5703.901150706916
 42
0.414213562373095
  0
LWPOLYLINE
  5
85
330
1D
100
AcDbEntity
  8
120-キャビネット（外）
 62
     6
100
AcDbPolyline
 90
        8
 70
     1
 43
0.0
 10
707648.389742778
 20
-5631.901150706909
 10
707696.0854882557
 20
-5631.901150706924
 42
0.3394542588631463
 10
707703.812894866
 20
-5625.971703067753
 10
707769.6883327708
 20
-5380.121221836305
 42
0.4142135623731367
 10
707759.0817310531
 20
-5361.75004876542
 10
707730.1039562642
 20
-5353.985477412294
 42
0.4142135623730526
 10
707711.7327831934
 20
-5364.592079130085
 10
707642.7328885286
 20
-5622.103191735762
 42
0.414213562373095
  0
LWPOLYLINE
  5
86
330
1D
100
AcDbEntity
  8
121-キャビネット（中）
  6
Continuous
100
AcDbPolyline
 90
        5
 70
     0
 43
0.0
 10
707227.2241041593
 20
-5711.901150706916
 10
707227.2241041593
 20
-5711.901150706916
 10
707227.2241041593
 20
-6051.901150706923
 10
707227.2241041593
 20
-6051.901150706923
 10
707227.2241041593
 20
-6051.901150706923
  0
LWPOLYLINE
  5
87
330
1D
100
AcDbEntity
  8
121-キャビネット（中）
  6
Continuous
100
AcDbPolyline
 90
        2
 70
     0
 43
0.0
 10
707242.2241041593
 20
-6036.901150706923
 10
707242.2241041593
 20
-5726.901150706916
  0
LWPOLYLINE
  5
88
330
1D
100
AcDbEntity
  8
121-キャビネット（中）
  6
Continuous
100
AcDbPolyline
 90
        2
 70
     0
 43
0.0
 10
707692.2241041593
 20
-5726.901150706916
 10
707692.2241041593
 20
-6036.901150706923
  0
LWPOLYLINE
  5
89
330
1D
100
AcDbEntity
  8
121-キャビネット（中）
  6
Continuous
100
AcDbPolyline
 90
        5
 70
     0
 43
0.0
 10
707707.2241041593
 20
-6051.901150706923
 10
707707.2241041593
 20
-6051.901150706923
 10
707707.2241041593
 20
-6051.901150706923
 10
707707.2241041593
 20
-5711.901150706916
 10
707707.2241041593
 20
-5711.901150706916
  0
LWPOLYLINE
  5
8A
330
1D
100
AcDbEntity
  8
121-キャビネット（中）
  6
Continuous
100
AcDbPolyline
 90
        4
 70
     0
 43
0.0
 10
707227.2241041593
 20
-5711.901150706916
 10
707227.2241041593
 20
-5711.901150706916
 10
707707.2241041593
 20
-5711.901150706916
 10
707707.2241041593
 20
-5711.901150706916
  0
LWPOLYLINE
  5
8B
330
1D
100
AcDbEntity
  8
121-キャビネット（中）
  6
Continuous
100
AcDbPolyline
 90
        2
 70
     0
 43
0.0
 10
707692.2241041593
 20
-5726.901150706916
 10
707242.2241041593
 20
-5726.901150706916
  0
LWPOLYLINE
  5
8C
330
1D
100
AcDbEntity
  8
120-キャビネット（外）
  6
STYLE_03
 62
   161
 48
0.5
100
AcDbPolyline
 90
        4
 70
     1
 43
0.0
 10
707707.2241041593
 20
-5977.901150706916
 10
707692.2241041593
 20
-5977.901150706916
 10
707692.2241041593
 20
-5962.901150706916
 10
707707.2241041593
 20
-5962.901150706916
  0
LWPOLYLINE
  5
8E
330
1D
100
AcDbEntity
  8
121-キャビネット（中）
  6
Continuous
100
AcDbPolyline
 90
        4
 70
     0
 43
0.0
 10
707227.2241041593
 20
-6051.901150706923
 10
707227.2241041593
 20
-6051.901150706923
 10
707707.2241041593
 20
-6051.901150706923
 10
707707.2241041593
 20
-6051.901150706923
  0
LWPOLYLINE
  5
8F
330
1D
100
AcDbEntity
  8
121-キャビネット（中）
  6
Continuous
100
AcDbPolyline
 90
        2
 70
     0
 43
0.0
 10
707692.2241041593
 20
-6036.901150706923
 10
707242.2241041593
 20
-6036.901150706923
  0
INSERT
  5
90
330
1D
100
AcDbEntity
  8
141-パーツ
100
AcDbBlockReference
  2
ｱｼﾞｬｽﾀｰ
 10
705428.4011603819
 20
-6051.901150706923
 30
0.0
  0
INSERT
  5
99
330
1D
100
AcDbEntity
  8
141-パーツ
100
AcDbBlockReference
  2
ｱｼﾞｬｽﾀｰ
 10
705853.4011603819
 20
-6051.901150706923
 30
0.0
  0
INSERT
  5
9A
330
1D
100
AcDbEntity
  8
141-パーツ
100
AcDbBlockReference
  2
ｱｼﾞｬｽﾀｰ
 10
707234.7241041593
 20
-6051.901150706923
 30
0.0
  0
INSERT
  5
9B
330
1D
100
AcDbEntity
  8
141-パーツ
100
AcDbBlockReference
  2
ｱｼﾞｬｽﾀｰ
 10
707699.7241041593
 20
-6051.901150706923
 30
0.0
 41
-1.0
  0
DIMENSION
  5
9C
330
1D
100
AcDbEntity
  8
166-寸法B
100
AcDbDimension
  2
*D96
 10
705860.9011603819
 20
-6229.470898007276
 30
0.0
 11
705640.9011603819
 21
-6212.970898007276
 31
0.0
 70
    32
 71
     5
 42
440.0
  3
KH1xx010
100
AcDbAlignedDimension
 13
705420.9011603819
 23
-6069.803960180137
 33
0.0
 14
705860.9011603819
 24
-6069.803960180137
 34
0.0
100
AcDbRotatedDimension
  0
DIMENSION
  5
B5
330
1D
100
AcDbEntity
  8
166-寸法B
100
AcDbDimension
  2
*D97
 10
705435.9011603819
 20
-6179.470898007276
 30
0.0
 11
705389.7261046761
 21
-6184.385996260215
 31
0.0
 70
   160
 71
     5
 42
15.0
  3
KH1xx010
100
AcDbAlignedDimension
 13
705420.9011603819
 23
-6069.803960180137
 33
0.0
 14
705435.9011603819
 24
-6069.803960180137
 34
0.0
100
AcDbRotatedDimension
1001
ACAD
1000
DSTYLE
1002
{
1070
   279
1070
     1
1002
}
  0
DIMENSION
  5
C6
330
1D
100
AcDbEntity
  8
166-寸法B
100
AcDbDimension
  2
*D98
 10
705845.9011603819
 20
-6179.470898007276
 30
0.0
 11
705640.9011603819
 21
-6162.970898007276
 31
0.0
 70
    32
 71
     5
 42
410.0
  3
KH1xx010
100
AcDbAlignedDimension
 13
705435.9011603819
 23
-6069.803960180137
 33
0.0
 14
705845.9011603819
 24
-6069.803960180137
 34
0.0
100
AcDbRotatedDimension
  0
DIMENSION
  5
D3
330
1D
100
AcDbEntity
  8
166-寸法B
100
AcDbDimension
  2
*D99
 10
705860.9011603819
 20
-6179.470898007276
 30
0.0
 11
705890.7067317992
 21
-6176.34175231983
 31
0.0
 70
   160
 71
     5
 42
15.0
  3
KH1xx010
100
AcDbAlignedDimension
 13
705845.9011603819
 23
-6069.803960180137
 33
0.0
 14
705860.9011603819
 24
-6069.803960180137
 34
0.0
100
AcDbRotatedDimension
1001
ACAD
1000
DSTYLE
1002
{
1070
   279
1070
     1
1002
}
  0
DIMENSION
  5
E4
330
1D
100
AcDbEntity
  8
166-寸法B
100
AcDbDimension
  2
*D100
 10
705410.9011603817
 20
-5160.462412823917
 30
0.0
 11
705640.9011603817
 21
-5143.962412823917
 31
0.0
 70
    32
 71
     5
 42
460.0000000001164
  3
KH1xx010
100
AcDbAlignedDimension
 13
705870.9011603819
 23
-5288.034477543545
 33
0.0
 14
705410.9011603817
 24
-5287.034477543511
 34
0.0
100
AcDbRotatedDimension
  0
DIMENSION
  5
F1
330
1D
100
AcDbEntity
  8
166-寸法B
100
AcDbDimension
  2
*D101
 10
707770.1994453765
 20
-5160.462412823917
 30
0.0
 11
707493.7117747678
 21
-5143.962412823917
 31
0.0
 70
    32
 71
     5
 42
552.9753412173595
  3
KH1xx010
100
AcDbAlignedDimension
 13
707217.2241041592
 23
-5287.03447754351
 33
0.0
 14
707770.1994453765
 24
-5287.03447754351
 34
0.0
100
AcDbRotatedDimension
  0
DIMENSION
  5
FE
330
1D
100
AcDbEntity
  8
166-寸法B
100
AcDbDimension
  2
*D102
 10
707227.2241041592
 20
-6229.470898007276
 30
0.0
 11
707467.2241041593
 21
-6212.970898007276
 31
0.0
 70
    32
 71
     5
 42
480.0000000001164
  3
KH1xx010
100
AcDbAlignedDimension
 13
707707.2241041593
 23
-6069.803960180137
 33
0.0
 14
707227.2241041592
 24
-6069.803960180137
 34
0.0
 50
180.0
100
AcDbRotatedDimension
  0
DIMENSION
  5
10B
330
1D
100
AcDbEntity
  8
166-寸法B
100
AcDbDimension
  2
*D103
 10
707692.2241041593
 20
-6179.470898007276
 30
0.0
 11
707740.2415080133
 21
-6184.385996260215
 31
0.0
 70
   160
 71
     5
 42
15.0
  3
KH1xx010
100
AcDbAlignedDimension
 13
707707.2241041593
 23
-6069.803960180137
 33
0.0
 14
707692.2241041593
 24
-6069.803960180143
 34
0.0
 50
180.0
100
AcDbRotatedDimension
1001
ACAD
1000
DSTYLE
1002
{
1070
   279
1070
     1
1002
}
  0
DIMENSION
  5
11C
330
1D
100
AcDbEntity
  8
166-寸法B
100
AcDbDimension
  2
*D104
 10
707242.2241041592
 20
-6179.470898007276
 30
0.0
 11
707467.2241041593
 21
-6162.970898007276
 31
0.0
 70
    32
 71
     5
 42
450.0000000001164
  3
KH1xx010
100
AcDbAlignedDimension
 13
707692.2241041593
 23
-6069.803960180143
 33
0.0
 14
707242.2241041592
 24
-6069.803960180137
 34
0.0
 50
180.0
100
AcDbRotatedDimension
  0
DIMENSION
  5
129
330
1D
100
AcDbEntity
  8
166-寸法B
100
AcDbDimension
  2
*D105
 10
707227.2241041592
 20
-6179.470898007276
 30
0.0
 11
707197.4185327418
 21
-6176.34175231983
 31
0.0
 70
   160
 71
     5
 42
15.0
  3
KH1xx010
100
AcDbAlignedDimension
 13
707242.2241041592
 23
-6069.803960180137
 33
0.0
 14
707227.2241041592
 24
-6069.803960180137
 34
0.0
 50
180.0
100
AcDbRotatedDimension
1001
ACAD
1000
DSTYLE
1002
{
1070
   279
1070
     1
1002
}
  0
MTEXT
  5
13A
330
1D
100
AcDbEntity
  8
161-番号
100
AcDbMText
 10
705726.7177301534
 20
-5990.788341319534
 30
0.0
 40
30.0
 41
0.0
 71
     1
 72
     1
  1
②
  7
KH001
 73
     1
 44
1.0
  0
LEADER
  5
13E
330
1D
100
AcDbEntity
  8
161-番号
100
AcDbLeader
  3
KH1xx030
 74
     0
 76
     2
 10
705852.6556854635
 20
-5807.291132668819
 30
0.0
 10
705753.1564117672
 20
-5993.528813003184
 30
0.0
1001
ACAD
1000
DSTYLE
1002
{
1070
    41
1040
1.0
1070
   341
1005
0
1070
   147
1040
0.5
1070
    77
1070
     1
1002
}
  0
MTEXT
  5
141
102
{ACAD_REACTORS
330
140
102
}
330
1D
100
AcDbEntity
  8
160-文字
100
AcDbMText
 10
705481.8848218711
 20
-6127.915254292454
 30
0.0
 40
23.0
 41
0.0
 71
     7
 72
     1
  1
\A1;ｱｼﾞｬｽﾀｰ
  7
KH001
 73
     1
 44
1.0
  0
LEADER
  5
140
330
1D
100
AcDbEntity
  8
160-文字
100
AcDbLeader
  3
KH1xx010
 73
     0
 74
     0
 75
     1
 40
27.324
 41
102.419
 76
     3
 10
705434.7301095113
 20
-6061.901150706916
 30
0.0
 10
705476.2848218711
 20
-6132.915254292454
 30
0.0
 10
705476.8848218711
 20
-6132.915254292454
 30
0.0
340
141
1001
ACAD
1000
DSTYLE
1002
{
1070
   147
1040
0.5
1070
    77
1070
     1
1002
}
  0
DIMENSION
  5
142
330
1D
100
AcDbEntity
  8
166-寸法B
100
AcDbDimension
  2
*D106
 10
707786.6772491623
 20
-5316.717722697562
 30
0.0
 11
707761.9699886179
 21
-5293.0153752107
 31
0.0
 70
    33
 71
     5
 42
60.00000000011642
  3
KH1xx010
100
AcDbAlignedDimension
 13
707711.7327831934
 23
-5364.592079130085
 33
0.0
 14
707769.6883327708
 24
-5380.121221836305
 34
0.0
  0
LINE
  5
14F
330
1D
100
AcDbEntity
  8
191-図面内枠
100
AcDbLine
 10
704415.6891809999
 20
-6424.884728785379
 30
0.0
 11
708465.2958476535
 21
-6424.884728785379
 31
0.0
  0
MTEXT
  5
153
330
1D
100
AcDbEntity
  8
191-図面内枠
100
AcDbMText
 10
704431.675682
 20
-6450.609145451972
 30
0.0
 40
21.99999999992997
 41
192.3122864993878
 71
     4
 72
     1
  1
備考欄/NOTE 
  7
KH001
 73
     1
 44
0.7828267384257844
  0
POINT
  5
154
330
1D
100
AcDbEntity
  8
191-図面内枠
100
AcDbPoint
 10
704415.6891809999
 20
-6697.194728784521
 30
0.0
  0
MTEXT
  5
155
330
1D
100
AcDbEntity
  8
160-文字
100
AcDbMText
 10
707446.7494382228
 20
-6585.570362117851
 30
0.0
 40
30.0
 41
0.0
 71
     5
 72
     1
  1
1/10
  7
KH001
 73
     1
 44
0.8762322015334063
  0
MTEXT
  5
156
330
1D
100
AcDbEntity
  8
160-文字
100
AcDbMText
 10
707446.7494382228
 20
-6629.570362117851
 30
0.0
 40
30.0
 41
0.0
 71
     5
 72
     1
  1
(A3)
  7
KH001
 73
     1
 44
0.8762322015334063
  0
MTEXT
  5
157
330
1D
100
AcDbEntity
  8
191-図面内枠
100
AcDbMText
 10
708185.0641059879
 20
-6450.609145451972
 30
0.0
 40
21.99999999992997
 41
0.0
 71
     4
 72
     1
  1
図面番号/NO.
  7
KH001
 73
     1
 44
0.7828267384257844
  0
MTEXT
  5
158
330
1D
100
AcDbEntity
  8
191-図面内枠
100
AcDbMText
 10
707553.51193645
 20
-6450.609145451972
 30
0.0
 40
21.99999999992997
 41
0.0
 71
     4
 72
     1
  1
図面名称/TITLE
  7
KH001
 73
     1
 44
0.7828267384257844
  0
LINE
  5
159
330
1D
100
AcDbEntity
  8
191-図面内枠
100
AcDbLine
 10
708171.8185309878
 20
-6424.884728785379
 30
0.0
 11
708171.8185309878
 21
-6697.194728784521
 31
0.0
  0
MTEXT
  5
15A
330
1D
100
AcDbEntity
  8
191-図面内枠
100
AcDbMText
 10
707453.4808011252
 20
-6450.609145451972
 30
0.0
 40
21.99999999992997
 41
0.0
 71
     5
 72
     1
  1
縮尺/SCALE
  7
KH001
 73
     1
 44
0.7828267384257844
  0
LINE
  5
15B
330
1D
100
AcDbEntity
  8
191-図面内枠
100
AcDbLine
 10
707537.8593321982
 20
-6424.884728785379
 30
0.0
 11
707537.8593321982
 21
-6697.194728784521
 31
0.0
  0
LINE
  5
15C
330
1D
100
AcDbEntity
  8
191-図面内枠
100
AcDbLine
 10
707363.2830610123
 20
-6424.884728785379
 30
0.0
 11
707363.2830610123
 21
-6697.194728784521
 31
0.0
  0
LINE
  5
15D
330
1D
100
AcDbEntity
  8
191-図面内枠
100
AcDbLine
 10
707363.2830610123
 20
-6476.333562118551
 30
0.0
 11
707537.8593321982
 21
-6476.333562118551
 31
0.0
  0
LINE
  5
15E
330
1D
100
AcDbEntity
  8
191-図面内枠
100
AcDbLine
 10
705822.4431561361
 20
-6424.884728785379
 30
0.0
 11
705822.4431561361
 21
-6697.194728784521
 31
0.0
  0
LINE
  5
15F
330
1D
100
AcDbEntity
  8
191-図面内枠
100
AcDbLine
 10
705868.4815433166
 20
-6424.884728785379
 30
0.0
 11
705868.4815433166
 21
-6697.194728784521
 31
0.0
  0
LINE
  5
160
330
1D
100
AcDbEntity
  8
191-図面内枠
100
AcDbLine
 10
705928.8028132165
 20
-6424.884728785379
 30
0.0
 11
705928.8028132165
 21
-6697.194728784521
 31
0.0
  0
MTEXT
  5
161
330
1D
100
AcDbEntity
  8
160-文字
100
AcDbMText
 10
705845.4623497262
 20
-6561.039728785141
 30
0.0
 40
24.0
 41
0.0
 71
     5
 72
     1
  1
改\P\P訂
  7
KH001
 73
     1
 44
0.8762322015334063
  0
LINE
  5
162
330
1D
100
AcDbEntity
  8
DEFPOINTS
100
AcDbLine
 10
705868.4815433166
 20
-6424.884728785379
 30
0.0
 11
705822.4431561361
 21
-6697.194728784907
 31
0.0
  0
LINE
  5
163
330
1D
100
AcDbEntity
  8
191-図面内枠
100
AcDbLine
 10
705868.4815433166
 20
-6587.861395451575
 30
0.0
 11
707363.2830610123
 21
-6587.861395451575
 31
0.0
  0
LINE
  5
164
330
1D
100
AcDbEntity
  8
191-図面内枠
100
AcDbLine
 10
705868.4815433166
 20
-6642.528062118239
 30
0.0
 11
707363.2830610123
 21
-6642.528062118239
 31
0.0
  0
LINE
  5
165
330
1D
100
AcDbEntity
  8
DEFPOINTS
100
AcDbLine
 10
705928.8028132165
 20
-6642.528062118239
 30
0.0
 11
705868.4815433166
 21
-6697.194728784521
 31
0.0
  0
LINE
  5
166
330
1D
100
AcDbEntity
  8
DEFPOINTS
100
AcDbLine
 10
706147.0167573747
 20
-6642.528062118239
 30
0.0
 11
705928.8028132165
 21
-6697.194728784907
 31
0.0
  0
MTEXT
  5
167
330
1D
100
AcDbEntity
  8
160-文字
100
AcDbMText
 10
705898.6421782667
 20
-6669.86139545138
 30
0.0
 40
20.0
 41
0.0
 71
     5
 72
     1
  1
0
  7
KH001
 73
     1
 44
0.8762322015334063
  0
MTEXT
  5
168
330
1D
100
AcDbEntity
  8
160-文字
100
AcDbMText
 10
706037.9097852957
 20
-6669.861395451573
 30
0.0
 40
20.0
 41
0.0
 71
     5
 72
     1
  1
2015.06.25
  7
KH001
 73
     1
 44
0.8762322015334063
  0
LINE
  5
169
330
1D
100
AcDbEntity
  8
DEFPOINTS
100
AcDbLine
 10
705928.8028132165
 20
-6587.861395451575
 30
0.0
 11
705868.4815433166
 21
-6642.528062117854
 31
0.0
  0
MTEXT
  5
16A
330
1D
100
AcDbEntity
  8
160-文字
100
AcDbMText
 10
705898.6421782667
 20
-6615.194728784713
 30
0.0
 40
20.0
 41
0.0
 71
     5
 72
     1
  1
1
  7
KH001
 73
     1
 44
0.8762322015334063
  0
LINE
  5
16B
330
1D
100
AcDbEntity
  8
191-図面内枠
100
AcDbLine
 10
705868.4815433166
 20
-6533.528062118239
 30
0.0
 11
707363.2830610125
 21
-6533.528062118239
 31
0.0
  0
LINE
  5
16C
330
1D
100
AcDbEntity
  8
DEFPOINTS
100
AcDbLine
 10
705928.8028132167
 20
-6533.528062118239
 30
0.0
 11
705868.4815433166
 21
-6587.861395451189
 31
0.0
  0
MTEXT
  5
16D
330
1D
100
AcDbEntity
  8
160-文字
100
AcDbMText
 10
705898.6421782667
 20
-6560.694728784713
 30
0.0
 40
20.0
 41
0.0
 71
     5
 72
     1
  1
2
  7
KH001
 73
     1
 44
0.8762322015334063
  0
LINE
  5
16E
330
1D
100
AcDbEntity
  8
DEFPOINTS
100
AcDbLine
 10
705928.8028132165
 20
-6479.194728784907
 30
0.0
 11
705868.4815433166
 21
-6533.528062118228
 31
0.0
  0
MTEXT
  5
16F
330
1D
100
AcDbEntity
  8
160-文字
100
AcDbMText
 10
705898.6421782667
 20
-6506.361395451567
 30
0.0
 40
20.0
 41
0.0
 71
     5
 72
     1
  1
3
  7
KH001
 73
     1
 44
0.8762322015334063
  0
LINE
  5
170
330
1D
100
AcDbEntity
  8
DEFPOINTS
100
AcDbLine
 10
705928.8028132165
 20
-6424.884728785379
 30
0.0
 11
705868.4815433166
 21
-6479.2180621187
 31
0.0
  0
MTEXT
  5
171
330
1D
100
AcDbEntity
  8
160-文字
100
AcDbMText
 10
705898.6421782667
 20
-6452.051395452038
 30
0.0
 40
20.0
 41
0.0
 71
     5
 72
     1
  1
4
  7
KH001
 73
     1
 44
0.8762322015334063
  0
LINE
  5
172
330
1D
100
AcDbEntity
  8
191-図面内枠
100
AcDbLine
 10
705868.4815433166
 20
-6479.194728784907
 30
0.0
 11
707363.2830610125
 21
-6479.194728784907
 31
0.0
  0
LINE
  5
173
330
1D
100
AcDbEntity
  8
191-図面内枠
100
AcDbLine
 10
706147.0167573747
 20
-6424.884728785379
 30
0.0
 11
706147.0167573747
 21
-6697.194728784521
 31
0.0
  0
MTEXT
  5
174
330
1D
100
AcDbEntity
  8
160-文字
100
AcDbMText
 10
706174.5678618053
 20
-6669.861395451188
 30
0.0
 40
20.0
 41
0.0
 71
     4
 72
     1
  1
新規作成
  7
KH001
 73
     1
 44
0.8762322015334063
  0
TEXT
  5
175
330
1D
100
AcDbEntity
  8
160-文字
100
AcDbText
 10
704447.8225046116
 20
-6495.851265043784
 30
0.0
 40
23.99999999999999
  1
1、仕様は改良のため予告なく変更することがあります。
  7
KH001
100
AcDbText
1001
ACAD
1000
ACAD_MTEXT_DEFINED_HEIGHT_BEGIN
1070
    46
1040
0.0
1000
ACAD_MTEXT_DEFINED_HEIGHT_END
  0
TEXT
  5
176
330
1D
100
AcDbEntity
  8
DEFPOINTS
100
AcDbText
 10
704447.8225046116
 20
-6528.12859030288
 30
0.0
 40
23.99999999999999
  1
2、（　）内寸法は、ワークトップ高さ910mmの場合を示す。
  7
KH001
100
AcDbText
1001
ACAD
1000
ACAD_MTEXT_DEFINED_HEIGHT_BEGIN
1070
    46
1040
0.0
1000
ACAD_MTEXT_DEFINED_HEIGHT_END
  0
TEXT
  5
177
330
1D
100
AcDbEntity
  8
DEFPOINTS
100
AcDbText
 10
704447.8225046116
 20
-6564.795256969544
 30
0.0
 40
23.99999999999999
  1
3、［　］内寸法は、セットのＬ・Ｒを反転させた場合を示す。
  7
KH001
100
AcDbText
1001
ACAD
1000
ACAD_MTEXT_DEFINED_HEIGHT_BEGIN
1070
    46
1040
0.0
1000
ACAD_MTEXT_DEFINED_HEIGHT_END
  0
TEXT
  5
178
330
1D
100
AcDbEntity
  8
DEFPOINTS
100
AcDbText
 10
704447.8225046116
 20
-6601.461923636212
 30
0.0
 40
23.99999999999999
  1
3、クリアランスは推奨寸法で記載しております。
  7
KH001
100
AcDbText
1001
ACAD
1000
ACAD_MTEXT_DEFINED_HEIGHT_BEGIN
1070
    46
1040
0.0
1000
ACAD_MTEXT_DEFINED_HEIGHT_END
  0
TEXT
  5
179
330
1D
100
AcDbEntity
  8
DEFPOINTS
100
AcDbText
 10
704447.8225046116
 20
-6638.12859030288
 30
0.0
 40
23.99999999999999
  1
4、本図は、天井高2400想定で記載されておりますが、各物件ごとに高さ調整し、ご使用ください。
  7
KH001
100
AcDbText
1001
ACAD
1000
ACAD_MTEXT_DEFINED_HEIGHT_BEGIN
1070
    46
1040
0.0
1000
ACAD_MTEXT_DEFINED_HEIGHT_END
  0
TEXT
  5
17A
330
1D
100
AcDbEntity
  8
DEFPOINTS
100
AcDbText
 10
704447.8225046116
 20
-6674.795256969544
 30
0.0
 40
23.99999999999999
  1
6、仕様は改良のため予告なく変更することがあります。
  7
KH001
100
AcDbText
1001
ACAD
1000
ACAD_MTEXT_DEFINED_HEIGHT_BEGIN
1070
    46
1040
0.0
1000
ACAD_MTEXT_DEFINED_HEIGHT_END
  0
MTEXT
  5
17B
330
1D
100
AcDbEntity
  8
160-文字
100
AcDbMText
 10
707854.838931593
 20
-6561.039728785142
 30
0.0
 40
29.99999999999999
 41
0.0
 71
     5
 72
     1
  1
ソファチェア\Pロータイプ
  7
KH001
 73
     1
 44
0.7829999999999999
  0
MTEXT
  5
17C
330
1D
100
AcDbEntity
  8
160-文字
100
AcDbMText
 10
708318.5571893331
 20
-6586.764145451186
 30
0.0
 40
29.99999999999999
 41
0.0
 71
     5
 72
     1
  1
000587-1
  7
KH001
 73
     1
 44
0.8762322015334065
  0
LWPOLYLINE
  5
17D
330
1D
100
AcDbEntity
  8
160-文字
 62
     6
100
AcDbPolyline
 90
        4
 70
     1
 43
0.0
 10
707749.437635861
 20
-4026.194190052031
 10
707819.8313937087
 20
-4026.194190052031
 10
707819.8313937087
 20
-4062.914190052035
 10
707749.437635861
 20
-4062.914190052035
  0
MTEXT
  5
17E
330
1D
100
AcDbEntity
  8
160-文字
100
AcDbMText
 10
707784.6345147849
 20
-4044.554190052034
 30
0.0
 40
17.55
 41
0.0
 71
     5
 72
     1
  1
番号
  7
KH001
 73
     1
 44
1.0
  0
LINE
  5
17F
330
1D
100
AcDbEntity
  8
DEFPOINTS
100
AcDbLine
 10
707819.8313937087
 20
-4026.194190052031
 30
0.0
 11
707749.437635861
 21
-4062.914190052039
 31
0.0
  0
LWPOLYLINE
  5
180
330
1D
100
AcDbEntity
  8
160-文字
 62
     6
100
AcDbPolyline
 90
        4
 70
     1
 43
0.0
 10
707819.8313937087
 20
-4026.194190052031
 10
708350.7876411311
 20
-4026.19419005203
 10
708350.7876411311
 20
-4062.914190052036
 10
707819.8313937087
 20
-4062.914190052035
  0
MTEXT
  5
181
330
1D
100
AcDbEntity
  8
160-文字
100
AcDbMText
 10
708110.3095174199
 20
-4044.554190052034
 30
0.0
 40
17.55
 41
0.0
 71
     5
 72
     1
  1
名　称
  7
KH001
 73
     1
 44
1.0
  0
LINE
  5
182
330
1D
100
AcDbEntity
  8
DEFPOINTS
100
AcDbLine
 10
707830.6313937088
 20
-4062.914190052039
 30
0.0
 11
707830.6313937088
 21
-4209.794190052036
 31
0.0
  0
LINE
  5
183
330
1D
100
AcDbEntity
  8
DEFPOINTS
100
AcDbLine
 10
707819.8313937087
 20
-4062.914190052039
 30
0.0
 11
708350.7876411311
 21
-4026.194190052031
 31
0.0
  0
LINE
  5
184
330
1D
100
AcDbEntity
  8
DEFPOINTS
100
AcDbLine
 10
708178.8708263319
 20
-4062.914190052035
 30
0.0
 11
708178.8708263319
 21
-4209.794190052036
 31
0.0
  0
MTEXT
  5
185
330
1D
100
AcDbEntity
  8
160-文字
100
AcDbMText
 10
707784.6345147849
 20
-4081.274190052035
 30
0.0
 40
22.14
 41
0.0
 71
     5
 72
     1
  1
①
  7
KH001
 73
     1
 44
1.0
  0
LINE
  5
186
330
1D
100
AcDbEntity
  8
DEFPOINTS
100
AcDbLine
 10
707819.8313937087
 20
-4062.914190052036
 30
0.0
 11
707749.437635861
 21
-4099.634190052037
 31
0.0
  0
LWPOLYLINE
  5
187
330
1D
100
AcDbEntity
  8
160-文字
 62
     6
100
AcDbPolyline
 90
        4
 70
     1
 43
0.0
 10
707749.437635861
 20
-4062.914190052035
 10
707819.8313937087
 20
-4062.914190052035
 10
707819.8313937087
 20
-4099.634190052035
 10
707749.437635861
 20
-4099.634190052035
  0
MTEXT
  5
188
330
1D
100
AcDbEntity
  8
160-文字
100
AcDbMText
 10
707830.6313937088
 20
-4081.274190052035
 30
0.0
 40
18.9
 41
0.0
 71
     4
 72
     1
  1
座
  7
KH001
 73
     1
 44
1.0
  0
LWPOLYLINE
  5
189
330
1D
100
AcDbEntity
  8
160-文字
 62
     6
100
AcDbPolyline
 90
        4
 70
     1
 43
0.0
 10
707819.8313937087
 20
-4062.914190052035
 10
708350.7876411311
 20
-4062.914190052035
 10
708350.7876411311
 20
-4099.634190052035
 10
707819.8313937087
 20
-4099.634190052035
  0
MTEXT
  5
18A
330
1D
100
AcDbEntity
  8
160-文字
100
AcDbMText
 10
707784.6345147849
 20
-4117.994190052035
 30
0.0
 40
22.14
 41
0.0
 71
     5
 72
     1
  1
②
  7
KH001
 73
     1
 44
1.0
  0
LINE
  5
18B
330
1D
100
AcDbEntity
  8
DEFPOINTS
100
AcDbLine
 10
707819.8313937087
 20
-4099.634190052037
 30
0.0
 11
707749.437635861
 21
-4136.354190052035
 31
0.0
  0
LWPOLYLINE
  5
18C
330
1D
100
AcDbEntity
  8
160-文字
 62
     6
100
AcDbPolyline
 90
        4
 70
     1
 43
0.0
 10
707749.437635861
 20
-4099.634190052035
 10
707819.8313937087
 20
-4099.634190052035
 10
707819.8313937087
 20
-4136.354190052035
 10
707749.437635861
 20
-4136.354190052035
  0
MTEXT
  5
18D
330
1D
100
AcDbEntity
  8
160-文字
100
AcDbMText
 10
707830.6313937088
 20
-4117.994190052035
 30
0.0
 40
18.9
 41
0.0
 71
     4
 72
     1
  1
脚
  7
KH001
 73
     1
 44
1.0
  0
LWPOLYLINE
  5
18E
330
1D
100
AcDbEntity
  8
160-文字
 62
     6
100
AcDbPolyline
 90
        4
 70
     1
 43
0.0
 10
707819.8313937087
 20
-4099.634190052035
 10
708350.7876411311
 20
-4099.634190052035
 10
708350.7876411311
 20
-4136.354190052036
 10
707819.8313937087
 20
-4136.354190052035
  0
MTEXT
  5
18F
330
1D
100
AcDbEntity
  8
160-文字
100
AcDbMText
 10
708178.8708263319
 20
-4118.473204361828
 30
0.0
 40
18.9
 41
0.0
 71
     4
 72
     1
  1
□15
  7
KH001
 73
     1
 44
1.0
  0
LWPOLYLINE
  5
190
330
1D
100
AcDbEntity
  8
160-文字
 62
     6
100
AcDbPolyline
 90
        4
 70
     1
 43
0.0
 10
708350.7876411311
 20
-4026.194190052032
 10
708447.0810871243
 20
-4026.194190052032
 10
708447.0810871243
 20
-4062.914190052033
 10
708350.7876411311
 20
-4062.914190052033
  0
MTEXT
  5
191
330
1D
100
AcDbEntity
  8
160-文字
100
AcDbMText
 10
708398.9343641277
 20
-4044.554190052032
 30
0.0
 40
17.55
 41
0.0
 71
     5
 72
     1
  1
数量
  7
KH001
 73
     1
 44
1.0
  0
LINE
  5
192
330
1D
100
AcDbEntity
  8
DEFPOINTS
100
AcDbLine
 10
708447.0810871243
 20
-4026.194190052031
 30
0.0
 11
708350.7876411311
 21
-4062.914190052035
 31
0.0
  0
LINE
  5
193
330
1D
100
AcDbEntity
  8
DEFPOINTS
100
AcDbLine
 10
708447.0810871243
 20
-4062.914190052033
 30
0.0
 11
708350.7876411311
 21
-4099.634190052034
 31
0.0
  0
LWPOLYLINE
  5
194
330
1D
100
AcDbEntity
  8
160-文字
 62
     6
100
AcDbPolyline
 90
        4
 70
     1
 43
0.0
 10
708350.7876411311
 20
-4062.914190052033
 10
708447.0810871243
 20
-4062.914190052033
 10
708447.0810871243
 20
-4099.634190052032
 10
708350.7876411311
 20
-4099.634190052032
  0
LINE
  5
195
330
1D
100
AcDbEntity
  8
DEFPOINTS
100
AcDbLine
 10
708447.0810871243
 20
-4099.634190052034
 30
0.0
 11
708350.7876411311
 21
-4136.354190052035
 31
0.0
  0
LWPOLYLINE
  5
196
330
1D
100
AcDbEntity
  8
160-文字
 62
     6
100
AcDbPolyline
 90
        4
 70
     1
 43
0.0
 10
708350.7876411311
 20
-4099.634190052032
 10
708447.0810871243
 20
-4099.634190052032
 10
708447.0810871243
 20
-4136.354190052032
 10
708350.7876411311
 20
-4136.354190052032
  0
LWPOLYLINE
  5
197
330
1D
100
AcDbEntity
  8
160-文字
 62
     6
100
AcDbPolyline
 90
        4
 70
     1
 43
0.0
 10
708350.7876411311
 20
-4026.194190052026
 10
708447.0810871243
 20
-4026.194190052026
 10
708447.0810871243
 20
-4026.194190052031
 10
708350.7876411311
 20
-4026.194190052031
  0
LINE
  5
198
330
1D
100
AcDbEntity
  8
DEFPOINTS
100
AcDbLine
 10
708447.0810871243
 20
-4136.354190052035
 30
0.0
 11
708350.7876411311
 21
-4173.074190052036
 31
0.0
  0
MTEXT
  5
199
330
1D
100
AcDbEntity
  8
160-文字
100
AcDbMText
 10
708398.9343641277
 20
-4081.274190052033
 30
0.0
 40
22.14
 41
0.0
 71
     5
 72
     1
  1
1
  7
KH001
 73
     1
 44
1.0
  0
MTEXT
  5
19A
330
1D
100
AcDbEntity
  8
160-文字
100
AcDbMText
 10
708398.9343641277
 20
-4117.994190052033
 30
0.0
 40
22.14
 41
0.0
 71
     5
 72
     1
  1
1
  7
KH001
 73
     1
 44
1.0
  0
LWPOLYLINE
  5
19B
330
1D
100
AcDbEntity
  8
120-キャビネット（外）
 62
     6
100
AcDbPolyline
 90
        8
 70
     1
 43
0.0
 10
705418.9011603819
 20
-4247.572768746749
 10
705862.9011603819
 20
-4247.572768746749
 42
-0.414213562373095
 10
705870.9011603819
 20
-4255.572768746749
 10
705870.9011603819
 20
-4367.311918984366
 42
-0.414213562373095
 10
705862.9011603819
 20
-4375.311918984366
 10
705418.9011603819
 20
-4375.311918984366
 42
-0.414213562373095
 10
705410.9011603819
 20
-4367.311918984366
 10
705410.9011603819
 20
-4255.572768746749
 42
-0.414213562373095
  0
LWPOLYLINE
  5
19C
330
1D
100
AcDbEntity
  8
120-キャビネット（外）
 62
     6
100
AcDbPolyline
 90
        6
 70
     0
 43
0.0
 10
705870.9011603819
 20
-4367.311918984366
 10
705870.9011603819
 20
-4792.54810996406
 42
-0.414213562373095
 10
705862.9011603819
 20
-4800.54810996406
 10
705418.9011603817
 20
-4800.54810996406
 42
-0.414213562373095
 10
705410.9011603817
 20
-4792.54810996406
 10
705410.9011603819
 20
-4367.311918984366
  0
LWPOLYLINE
  5
19D
330
1D
100
AcDbEntity
  8
120-キャビネット（外）
 62
    13
100
AcDbPolyline
 90
        4
 70
     0
 43
0.0
 10
705410.9011603819
 20
-4308.548109964002
 42
-0.4142135623730951
 10
705418.9011603819
 20
-4300.548109964002
 10
705862.9011603819
 20
-4300.548109964002
 42
-0.414213562373095
 10
705870.9011603819
 20
-4308.548109964002
  0
DIMENSION
  5
19E
330
1D
100
AcDbEntity
  8
166-寸法B
100
AcDbDimension
  2
*D107
 10
705410.9011603817
 20
-4115.277483914953
 30
0.0
 11
705640.9011603817
 21
-4098.777483914953
 31
0.0
 70
    32
 71
     5
 42
460.0000000001164
  3
KH1xx010
100
AcDbAlignedDimension
 13
705870.9011603819
 23
-4242.849548634582
 33
0.0
 14
705410.9011603817
 24
-4241.849548634547
 34
0.0
100
AcDbRotatedDimension
  0
DIMENSION
  5
1AB
330
1D
100
AcDbEntity
  8
166-寸法B
100
AcDbDimension
  2
*D108
 10
705206.8852707985
 20
-4300.548109964002
 30
0.0
 11
705190.3852707985
 21
-4550.548109963917
 31
0.0
 70
    32
 71
     5
 42
500.0000000000582
  3
KH1xx010
100
AcDbAlignedDimension
 13
705340.9119469748
 23
-4800.54810996406
 33
0.0
 14
705340.7975170953
 24
-4300.548109964002
 34
0.0
 50
90.0
100
AcDbRotatedDimension
  0
DIMENSION
  5
1B8
330
1D
100
AcDbEntity
  8
166-寸法B
100
AcDbDimension
  2
*D109
 10
705156.8852707985
 20
-4247.572768746749
 30
0.0
 11
705140.3852707985
 21
-4524.06043935529
 31
0.0
 70
    32
 71
     5
 42
552.9753412173113
  3
KH1xx010
100
AcDbAlignedDimension
 13
705340.9119469748
 23
-4800.54810996406
 33
0.0
 14
705339.818324267
 24
-4247.572768746749
 34
0.0
 50
90.0
100
AcDbRotatedDimension
  0
DIMENSION
  5
1C5
330
1D
100
AcDbEntity
  8
166-寸法B
100
AcDbDimension
  2
*D110
 10
705156.8852707985
 20
-6061.901150706916
 30
0.0
 11
705140.3852707985
 21
-5886.901150706803
 31
0.0
 70
    32
 71
     5
 42
350.0
  3
KH1xx010
100
AcDbAlignedDimension
 13
705355.9011603819
 23
-5711.901150706916
 33
0.0
 14
705357.1857339457
 24
-6061.901150706916
 34
0.0
 50
90.0
100
AcDbRotatedDimension
  0
DIMENSION
  5
1D2
330
1D
100
AcDbEntity
  8
166-寸法B
100
AcDbDimension
  2
*D111
 10
705206.8852707985
 20
-6061.901150706916
 30
0.0
 11
705205.0161554203
 21
-6154.905964625214
 31
0.0
 70
   160
  1
8～20
 71
     5
 42
10.0
  3
KH1xx010
100
AcDbAlignedDimension
 13
705357.1857339457
 23
-6051.901150706916
 33
0.0
 14
705357.1857339457
 24
-6061.901150706916
 34
0.0
 50
90.0
100
AcDbRotatedDimension
1001
ACAD
1000
DSTYLE
1002
{
1070
   279
1070
     1
1002
}
  0
DIMENSION
  5
1E3
330
1D
100
AcDbEntity
  8
166-寸法B
100
AcDbDimension
  2
*D112
 10
705156.8852707985
 20
-5351.901150706916
 30
0.0
 11
705140.3852707985
 21
-5531.901150706803
 31
0.0
 70
    32
 71
     5
 42
360.0
  3
KH1xx010
100
AcDbAlignedDimension
 13
705355.9011603819
 23
-5711.901150706916
 33
0.0
 14
705340.8071814909
 24
-5351.901150706916
 34
0.0
 50
90.0
100
AcDbRotatedDimension
  0
DIMENSION
  5
1F0
330
1D
100
AcDbEntity
  8
166-寸法B
100
AcDbDimension
  2
*D113
 10
705106.8852707985
 20
-6061.901150706916
 30
0.0
 11
705090.3852707985
 21
-5706.901150706803
 31
0.0
 70
    32
  1
710～722
 71
     5
 42
710.0
  3
KH1xx010
100
AcDbAlignedDimension
 13
705340.8071814909
 23
-5351.901150706916
 33
0.0
 14
705357.1857339457
 24
-6061.901150706916
 34
0.0
 50
90.0
100
AcDbRotatedDimension
  0
DIMENSION
  5
1FD
330
1D
100
AcDbEntity
  8
166-寸法B
100
AcDbDimension
  2
*D114
 10
705206.8852707985
 20
-5977.901150706916
 30
0.0
 11
705190.3852707985
 21
-6014.901150706803
 31
0.0
 70
    32
 71
     5
 42
74.0
  3
KH1xx010
100
AcDbAlignedDimension
 13
705357.1857339457
 23
-6051.901150706916
 33
0.0
 14
705357.1857339457
 24
-5977.901150706916
 34
0.0
 50
90.0
100
AcDbRotatedDimension
  0
DIMENSION
  5
20A
330
1D
100
AcDbEntity
  8
166-寸法B
100
AcDbDimension
  2
*D115
 10
705206.8852707985
 20
-5962.901150706916
 30
0.0
 11
705190.3852707985
 21
-5970.401150706803
 31
0.0
 70
    32
 71
     5
 42
15.0
  3
KH1xx010
100
AcDbAlignedDimension
 13
705357.1857339457
 23
-5977.901150706916
 33
0.0
 14
705357.1857339457
 24
-5962.901150706916
 34
0.0
 50
90.0
100
AcDbRotatedDimension
  0
DIMENSION
  5
219
330
1D
100
AcDbEntity
  8
166-寸法B
100
AcDbDimension
  2
*D116
 10
705206.8852707985
 20
-5726.90115070691
 30
0.0
 11
705190.3852707985
 21
-5844.9011507068
 31
0.0
 70
    32
 71
     5
 42
236.0000000000064
  3
KH1xx010
100
AcDbAlignedDimension
 13
705357.1857339457
 23
-5962.901150706916
 33
0.0
 14
705355.4404798563
 24
-5726.90115070691
 34
0.0
 50
90.0
100
AcDbRotatedDimension
  0
DIMENSION
  5
226
330
1D
100
AcDbEntity
  8
166-寸法B
100
AcDbDimension
  2
*D117
 10
705206.8852707985
 20
-5711.901150706916
 30
0.0
 11
705205.4583149996
 21
-5733.890700299991
 31
0.0
 70
   160
 71
     5
 42
14.99999999999363
  3
KH1xx010
100
AcDbAlignedDimension
 13
705355.4404798563
 23
-5726.90115070691
 33
0.0
 14
705355.9011603819
 24
-5711.901150706916
 34
0.0
 50
90.0
100
AcDbRotatedDimension
1001
ACAD
1000
DSTYLE
1002
{
1070
   279
1070
     1
1002
}
  0
DIMENSION
  5
235
330
1D
100
AcDbEntity
  8
166-寸法B
100
AcDbDimension
  2
*D118
 10
705206.8852707985
 20
-5451.951005131193
 30
0.0
 11
705190.3852707985
 21
-5581.926077918941
 31
0.0
 70
    32
 71
     5
 42
259.9501455757236
  3
KH1xx010
100
AcDbAlignedDimension
 13
705355.9011603819
 23
-5711.901150706916
 33
0.0
 14
705340.6137226004
 24
-5451.951005131193
 34
0.0
 50
90.0
100
AcDbRotatedDimension
  0
DIMENSION
  5
242
330
1D
100
AcDbEntity
  8
166-寸法B
100
AcDbDimension
  2
*D119
 10
705206.8852707985
 20
-5351.901150706916
 30
0.0
 11
705190.3852707985
 21
-5401.926077918941
 31
0.0
 70
    32
 71
     5
 42
100.0498544242764
  3
KH1xx010
100
AcDbAlignedDimension
 13
705340.6137226004
 23
-5451.951005131193
 33
0.0
 14
705340.8071814909
 24
-5351.901150706916
 34
0.0
 50
90.0
100
AcDbRotatedDimension
  0
DIMENSION
  5
24F
330
1D
100
AcDbEntity
  8
166-寸法B
100
AcDbDimension
  2
*D120
 10
705256.8852707985
 20
-5631.901150706916
 30
0.0
 11
705240.3852707985
 21
-5671.901150706803
 31
0.0
 70
    32
 71
     5
 42
80.0
  3
KH1xx010
100
AcDbAlignedDimension
 13
705355.9011603819
 23
-5711.901150706916
 33
0.0
 14
705340.9011603817
 24
-5631.901150706916
 34
0.0
 50
90.0
100
AcDbRotatedDimension
  0
DIMENSION
  5
25C
330
1D
100
AcDbEntity
  8
166-寸法B
100
AcDbDimension
  2
*D121
 10
705256.8852707985
 20
-5451.951005131193
 30
0.0
 11
705240.3852707985
 21
-5541.926077918941
 31
0.0
 70
    32
 71
     5
 42
179.9501455757236
  3
KH1xx010
100
AcDbAlignedDimension
 13
705340.9011603817
 23
-5631.901150706916
 33
0.0
 14
705340.6137226004
 24
-5451.951005131193
 34
0.0
 50
90.0
100
AcDbRotatedDimension
  0
DIMENSION
  5
269
330
1D
100
AcDbEntity
  8
166-寸法B
100
AcDbDimension
  2
*D122
 10
705957.5893815195
 20
-6061.901150706915
 30
0.0
 11
705941.0893815195
 21
-5846.901150706803
 31
0.0
 70
    32
  1
SH430～442
 71
     5
 42
429.9999999999991
  3
KH1xx010
100
AcDbAlignedDimension
 13
705872.0090013104
 23
-5631.901150706916
 33
0.0
 14
705862.5090013106
 24
-6061.901150706915
 34
0.0
 50
90.0
100
AcDbRotatedDimension
1001
ACAD
1000
DSTYLE
1002
{
1070
     3
1000
SH<>
1002
}
  0
MTEXT
  5
276
330
1D
100
AcDbEntity
  8
160-文字
100
AcDbMText
 10
705640.9011603819
 20
-6363.284881483545
 30
0.0
 40
22.66666666666666
 41
0.0
 71
     5
 72
     1
  1
{\fArial|b0|i0|c0|p32;A}面展開図
  7
KH001
 73
     1
 44
1.0
  0
LWPOLYLINE
  5
277
330
1D
100
AcDbEntity
  8
160-文字
100
AcDbPolyline
 90
        4
 70
     1
 43
0.0
 10
705545.8963258971
 20
-6341.547117396804
 10
705735.9059948664
 20
-6341.547117396804
 10
705735.9059948664
 20
-6385.022645570287
 10
705545.8963258971
 20
-6385.022645570287
  0
CIRCLE
  5
278
330
1D
100
AcDbEntity
  8
166-寸法B
100
AcDbCircle
 10
705642.0126950621
 20
-4934.583328332586
 30
0.0
 40
38.55870474878424
  0
LINE
  5
279
330
1D
100
AcDbEntity
  8
166-寸法B
100
AcDbLine
 10
705642.0126950621
 20
-4884.024623583793
 30
0.0
 11
705642.0126950621
 21
-4908.024623583804
 31
0.0
  0
LINE
  5
27A
330
1D
100
AcDbEntity
  8
166-寸法B
100
AcDbLine
 10
705615.4539903133
 20
-4934.583328332586
 30
0.0
 11
705591.4539903133
 21
-4934.583328332586
 31
0.0
  0
MTEXT
  5
27B
330
1D
100
AcDbEntity
  8
166-寸法B
100
AcDbMText
 10
705642.0126950621
 20
-4867.224623583797
 30
0.0
 40
23.99999999999999
 41
0.0
 71
     5
 72
     1
  1
{\fArial|b0|i0|c0|p32;A}
  7
KH001
 73
     1
 44
1.0
  0
MTEXT
  5
27C
330
1D
100
AcDbEntity
  8
166-寸法B
100
AcDbMText
 10
705579.4241066469
 20
-4934.583328332586
 30
0.0
 40
23.99999999999999
 41
0.0
 71
     5
 72
     1
  1
{\fArial|b0|i0|c0|p32;B}
  7
KH001
 73
     1
 44
1.0
  0
MTEXT
  5
27D
330
1D
100
AcDbEntity
  8
160-文字
100
AcDbMText
 10
707474.9421238486
 20
-6363.284881483545
 30
0.0
 40
22.66666666666666
 41
0.0
 71
     5
 72
     1
  1
{\fArial|b0|i0|c0|p32;B}面展開図
  7
KH001
 73
     1
 44
1.0
  0
LWPOLYLINE
  5
27E
330
1D
100
AcDbEntity
  8
160-文字
100
AcDbPolyline
 90
        4
 70
     1
 43
0.0
 10
707379.937289364
 20
-6341.547117396804
 10
707569.9469583334
 20
-6341.547117396804
 10
707569.9469583334
 20
-6385.022645570287
 10
707379.937289364
 20
-6385.022645570287
  0
LINE
  5
27F
330
1D
100
AcDbEntity
  8
111-壁仕上
100
AcDbLine
 10
704463.9410377812
 20
-6061.901150706915
 30
0.0
 11
706673.7610626693
 21
-6061.901150706915
 31
0.0
  0
MTEXT
  5
283
330
1D
100
AcDbEntity
  8
160-文字
 62
     4
370
     0
100
AcDbMText
 10
706664.3059044916
 20
-6031.957261235148
 30
0.0
 40
22.5
 41
0.0
 71
     3
 72
     1
  1
▼FL
  7
ＭＳ ゴシック
 73
     1
 44
0.7828267384257843
  0
LINE
  5
285
330
1D
100
AcDbEntity
  8
111-壁仕上
100
AcDbLine
 10
707102.9998095125
 20
-6061.901150706915
 30
0.0
 11
707832.9957904082
 21
-6061.901150706915
 31
0.0
  0
MTEXT
  5
286
330
1D
100
AcDbEntity
  8
161-番号
100
AcDbMText
 10
705785.3861385158
 20
-5243.847594573205
 30
0.0
 40
30.0
 41
0.0
 71
     1
 72
     1
  1
①
  7
KH001
 73
     1
 44
1.0
  0
LEADER
  5
287
330
1D
100
AcDbEntity
  8
161-番号
100
AcDbLeader
  3
KH1xx030
 74
     0
 76
     2
 10
705659.6401126466
 20
-5540.150952663266
 30
0.0
 10
705795.2681867417
 20
-5278.449589658455
 30
0.0
1001
ACAD
1000
DSTYLE
1002
{
1070
    41
1040
1.0
1070
   341
1005
0
1070
   147
1040
0.5
1070
    77
1070
     1
1002
}
  0
MTEXT
  5
288
330
1D
100
AcDbEntity
  8
160-文字
100
AcDbMText
 10
706037.9097852957
 20
-6615.194728784905
 30
0.0
 40
20.0
 41
0.0
 71
     5
 72
     1
  1
2016.02.02
  7
KH001
 73
     1
 44
0.8762322015334063
  0
MTEXT
  5
289
330
1D
100
AcDbEntity
  8
160-文字
100
AcDbMText
 10
706174.5678618053
 20
-6615.194728784521
 30
0.0
 40
20.0
 41
0.0
 71
     4
 72
     1
  1
図面名称変更
  7
KH001
 73
     1
 44
0.8762322015334063
  0
ENDSEC
  0
SECTION
  2
OBJECTS
  0
DICTIONARY
  5
D
330
0
100
AcDbDictionary
281
     1
  3
ACAD_COLOR
350
33
  3
ACAD_DETAILVIEWSTYLE
350
28F
  3
ACAD_GROUP
350
31
  3
ACAD_LAYOUT
350
26
  3
ACAD_MATERIAL
350
F
  3
ACAD_MLEADERSTYLE
350
28D
  3
ACAD_MLINESTYLE
350
1B
  3
ACAD_PLOTSETTINGS
350
32
  3
ACAD_PLOTSTYLENAME
350
C
  3
ACAD_SCALELIST
350
39
  3
ACAD_SECTIONVIEWSTYLE
350
290
  3
ACAD_TABLESTYLE
350
28C
  3
AcDbVariableDictionary
350
28A
  0
DICTIONARY
  5
3
330
2
100
AcDbDictionary
280
     1
281
     1
  3
ACAD_LAYERFILTERS
360
4
  3
ACAD_LAYERSTATES
360
5
  3
ACLYDICTIONARY
360
6
  0
DICTIONARY
  5
22
330
21
100
AcDbDictionary
280
     1
281
     1
  3
ADSK_XREC_LAYER_RECONCILED
360
23
  0
DICTIONARY
  5
6F
330
6E
100
AcDbDictionary
280
     1
281
     1
  3
ADSK_XREC_LAYER_RECONCILED
360
70
  0
DICTIONARY
  5
60
330
5F
100
AcDbDictionary
280
     1
281
     1
  3
ADSK_XREC_LAYER_RECONCILED
360
61
  0
DICTIONARY
  5
151
330
150
100
AcDbDictionary
280
     1
281
     1
  3
ADSK_XREC_LAYER_RECONCILED
360
152
  0
DICTIONARY
  5
75
330
74
100
AcDbDictionary
280
     1
281
     1
  3
ADSK_XREC_LAYER_RECONCILED
360
76
  0
DICTIONARY
  5
7A
330
79
100
AcDbDictionary
280
     1
281
     1
  3
ADSK_XREC_LAYER_RECONCILED
360
7B
  0
DICTIONARY
  5
281
330
280
100
AcDbDictionary
280
     1
281
     1
  3
ADSK_XREC_LAYER_RECONCILED
360
282
  0
DICTIONARY
  5
92
330
91
100
AcDbDictionary
280
     1
281
     1
  3
ADSK_XREC_LAYER_RECONCILED
360
93
  0
DICTIONARY
  5
9
330
1
100
AcDbDictionary
280
     1
281
     1
  3
ADSK_XREC_LAYER_RECONCILED
360
A
  0
DICTIONARY
  5
13C
330
13B
100
AcDbDictionary
280
     1
281
     1
  3
ADSK_XREC_LAYER_RECONCILED
360
13D
  0
DICTIONARY
  5
1E
330
1D
100
AcDbDictionary
280
     1
281
     1
  3
ACAD_SORTENTS
360
1F
  0
DICTIONARY
  5
63
330
62
100
AcDbDictionary
280
     1
281
     1
  3
ACAD_SORTENTS
360
64
  0
DICTIONARY
  5
33
102
{ACAD_REACTORS
330
D
102
}
330
D
100
AcDbDictionary
281
     1
  0
DICTIONARY
  5
28F
102
{ACAD_REACTORS
330
D
102
}
330
D
100
AcDbDictionary
281
     1
  0
DICTIONARY
  5
31
102
{ACAD_REACTORS
330
D
102
}
330
D
100
AcDbDictionary
281
     1
  0
DICTIONARY
  5
26
102
{ACAD_REACTORS
330
D
102
}
330
D
100
AcDbDictionary
281
     1
  3
Model
350
25
  3
ﾚｲｱｳﾄ1
350
2B
  0
DICTIONARY
  5
F
102
{ACAD_REACTORS
330
D
102
}
330
D
100
AcDbDictionary
281
     1
  3
ByBlock
350
5D
  3
ByLayer
350
5C
  3
Global
350
E
  0
DICTIONARY
  5
28D
102
{ACAD_REACTORS
330
D
102
}
330
D
100
AcDbDictionary
281
     1
  0
DICTIONARY
  5
1B
102
{ACAD_REACTORS
330
D
102
}
330
D
100
AcDbDictionary
281
     1
  3
STANDARD
350
1A
  0
DICTIONARY
  5
32
102
{ACAD_REACTORS
330
D
102
}
330
D
100
AcDbDictionary
281
     1
  0
ACDBDICTIONARYWDFLT
  5
C
102
{ACAD_REACTORS
330
D
102
}
330
D
100
AcDbDictionary
281
     1
  3
Normal
350
B
100
AcDbDictionaryWithDefault
340
B
  0
DICTIONARY
  5
39
102
{ACAD_REACTORS
330
D
102
}
330
D
100
AcDbDictionary
281
     1
  3
*A1
350
5B
  0
DICTIONARY
  5
290
102
{ACAD_REACTORS
330
D
102
}
330
D
100
AcDbDictionary
281
     1
  0
DICTIONARY
  5
28C
102
{ACAD_REACTORS
330
D
102
}
330
D
100
AcDbDictionary
281
     1
  0
DICTIONARY
  5
28A
102
{ACAD_REACTORS
330
D
102
}
330
D
100
AcDbDictionary
281
     1
  3
CANNOSCALE
350
28B
  3
XCLIPFRAME
350
28E
  0
DICTIONARY
  5
4
102
{ACAD_REACTORS
330
3
102
}
330
3
100
AcDbDictionary
281
     1
  0
DICTIONARY
  5
5
102
{ACAD_REACTORS
330
3
102
}
330
3
100
AcDbDictionary
281
     1
  0
DICTIONARY
  5
6
102
{ACAD_REACTORS
330
3
102
}
330
3
100
AcDbDictionary
281
     1
1001
ACAD
1000
<All
  0
XRECORD
  5
23
102
{ACAD_REACTORS
330
22
102
}
330
22
100
AcDbXrecord
280
     1
290
     1
  0
XRECORD
  5
70
102
{ACAD_REACTORS
330
6F
102
}
330
6F
100
AcDbXrecord
280
     1
290
     1
  0
XRECORD
  5
61
102
{ACAD_REACTORS
330
60
102
}
330
60
100
AcDbXrecord
280
     1
290
     1
  0
XRECORD
  5
152
102
{ACAD_REACTORS
330
151
102
}
330
151
100
AcDbXrecord
280
     1
290
     1
  0
XRECORD
  5
76
102
{ACAD_REACTORS
330
75
102
}
330
75
100
AcDbXrecord
280
     1
290
     1
  0
XRECORD
  5
7B
102
{ACAD_REACTORS
330
7A
102
}
330
7A
100
AcDbXrecord
280
     1
290
     1
  0
XRECORD
  5
282
102
{ACAD_REACTORS
330
281
102
}
330
281
100
AcDbXrecord
280
     1
290
     1
  0
XRECORD
  5
93
102
{ACAD_REACTORS
330
92
102
}
330
92
100
AcDbXrecord
280
     1
290
     1
  0
XRECORD
  5
A
102
{ACAD_REACTORS
330
9
102
}
330
9
100
AcDbXrecord
280
     1
290
     1
  0
XRECORD
  5
13D
102
{ACAD_REACTORS
330
13C
102
}
330
13C
100
AcDbXrecord
280
     1
290
     1
  0
SORTENTSTABLE
  5
1F
102
{ACAD_REACTORS
330
1E
102
}
330
1E
100
AcDbSortentsTable
330
1D
  0
SORTENTSTABLE
  5
64
102
{ACAD_REACTORS
330
63
102
}
330
63
100
AcDbSortentsTable
330
62
  0
LAYOUT
  5
25
102
{ACAD_REACTORS
330
26
330
26
102
}
330
26
100
AcDbPlotSettings
  1

  2
Adobe PDF
  4
A3
  6

 40
3.174999952316284
 41
3.174999952316284
 42
3.17498779296875
 43
3.17498779296875
 44
297.0318298339844
 45
420.1583251953125
 46
-1.659078954809928
 47
-0.9956191535282528
 48
709918.2707319672
 49
-1551.628362253916
140
714076.266489538
141
1388.371637729276
142
1.0
143
10.0
 70
  3236
 72
     1
 73
     1
 74
     4
  7
monochrome.ctb
 75
     0
 76
     0
 77
     2
 78
   300
147
0.098871374860667
148
-709918.2707319672
149
1551.628362253916
100
AcDbLayout
  1
Model
 70
     1
 71
     0
 10
0.0
 20
0.0
 11
12.0
 21
9.0
 12
0.0
 22
0.0
 32
0.0
 14
703003.0285013975
 24
-7895.927790944232
 34
0.0
 15
715375.6009589364
 25
8508.22857343618
 35
0.0
146
0.0
 13
0.0
 23
0.0
 33
0.0
 16
1.0
 26
0.0
 36
0.0
 17
0.0
 27
1.0
 37
0.0
 76
     0
330
1D
331
35
1001
ACAD_PSEXT
1000
Adobe PDF
1000
Adobe PDF Converter
1000
Desktop
1000

1070
     0
  0
LAYOUT
  5
2B
102
{ACAD_REACTORS
330
26
330
26
102
}
102
{ACAD_XDICTIONARY
360
2C
102
}
330
26
100
AcDbPlotSettings
  1

  2
FX DC 250/350/400 ART4-ADV
  4
A3
  6

 40
5.365749835968018
 41
5.365756511688232
 42
5.365753173828125
 43
5.365753173828125
 44
296.9259948730469
 45
420.1159973144531
 46
0.0
 47
0.0
 48
0.0
 49
0.0
140
0.0
141
0.0
142
1.0
143
1.0
 70
   688
 72
     1
 73
     1
 74
     5
  7
monochrome.ctb
 75
    16
 76
     0
 77
     2
 78
   300
147
1.0
148
0.0
149
0.0
100
AcDbLayout
  1
ﾚｲｱｳﾄ1
 70
     0
 71
     1
 10
-5.365753173828125
 20
-5.365749835968018
 11
414.750244140625
 21
291.5602450370789
 12
0.0
 22
0.0
 32
0.0
 14
1.000000000000000E+20
 24
1.000000000000000E+20
 34
1.000000000000000E+20
 15
-1.000000000000000E+20
 25
-1.000000000000000E+20
 35
-1.000000000000000E+20
146
0.0
 13
0.0
 23
0.0
 33
0.0
 16
1.0
 26
0.0
 36
0.0
 17
0.0
 27
1.0
 37
0.0
 76
     0
330
28
  0
MATERIAL
  5
5D
102
{ACAD_REACTORS
330
F
102
}
330
F
100
AcDbMaterial
  1
ByBlock
 72
     0
 73
     2
 43
0.0208333333333333
 43
0.0
 43
0.0
 43
0.0
 43
0.0
 43
0.0208333333333333
 43
0.0
 43
0.0
 43
0.0
 43
0.0
 43
1.0
 43
0.0
 43
0.0
 43
0.0
 43
0.0
 43
1.0
 77
     0
 78
     2
 47
0.0208333333333333
 47
0.0
 47
0.0
 47
0.0
 47
0.0
 47
0.0208333333333333
 47
0.0
 47
0.0
 47
0.0
 47
0.0
 47
1.0
 47
0.0
 47
0.0
 47
0.0
 47
0.0
 47
1.0
171
     0
172
     2
 49
0.0208333333333333
 49
0.0
 49
0.0
 49
0.0
 49
0.0
 49
0.0208333333333333
 49
0.0
 49
0.0
 49
0.0
 49
0.0
 49
1.0
 49
0.0
 49
0.0
 49
0.0
 49
0.0
 49
1.0
175
     0
176
     2
142
0.0208333333333333
142
0.0
142
0.0
142
0.0
142
0.0
142
0.0208333333333333
142
0.0
142
0.0
142
0.0
142
0.0
142
1.0
142
0.0
142
0.0
142
0.0
142
0.0
142
1.0
179
     0
270
     2
144
0.0208333333333333
144
0.0
144
0.0
144
0.0
144
0.0
144
0.0208333333333333
144
0.0
144
0.0
144
0.0
144
0.0
144
1.0
144
0.0
144
0.0
144
0.0
144
0.0
144
1.0
274
     2
147
0.0208333333333333
147
0.0
147
0.0
147
0.0
147
0.0
147
0.0208333333333333
147
0.0
147
0.0
147
0.0
147
0.0
147
1.0
147
0.0
147
0.0
147
0.0
147
0.0
147
1.0
  0
MATERIAL
  5
5C
102
{ACAD_REACTORS
330
F
102
}
330
F
100
AcDbMaterial
  1
ByLayer
 72
     0
 73
     2
 43
0.0208333333333333
 43
0.0
 43
0.0
 43
0.0
 43
0.0
 43
0.0208333333333333
 43
0.0
 43
0.0
 43
0.0
 43
0.0
 43
1.0
 43
0.0
 43
0.0
 43
0.0
 43
0.0
 43
1.0
 77
     0
 78
     2
 47
0.0208333333333333
 47
0.0
 47
0.0
 47
0.0
 47
0.0
 47
0.0208333333333333
 47
0.0
 47
0.0
 47
0.0
 47
0.0
 47
1.0
 47
0.0
 47
0.0
 47
0.0
 47
0.0
 47
1.0
171
     0
172
     2
 49
0.0208333333333333
 49
0.0
 49
0.0
 49
0.0
 49
0.0
 49
0.0208333333333333
 49
0.0
 49
0.0
 49
0.0
 49
0.0
 49
1.0
 49
0.0
 49
0.0
 49
0.0
 49
0.0
 49
1.0
175
     0
176
     2
142
0.0208333333333333
142
0.0
142
0.0
142
0.0
142
0.0
142
0.0208333333333333
142
0.0
142
0.0
142
0.0
142
0.0
142
1.0
142
0.0
142
0.0
142
0.0
142
0.0
142
1.0
179
     0
270
     2
144
0.0208333333333333
144
0.0
144
0.0
144
0.0
144
0.0
144
0.0208333333333333
144
0.0
144
0.0
144
0.0
144
0.0
144
1.0
144
0.0
144
0.0
144
0.0
144
0.0
144
1.0
274
     2
147
0.0208333333333333
147
0.0
147
0.0
147
0.0
147
0.0
147
0.0208333333333333
147
0.0
147
0.0
147
0.0
147
0.0
147
1.0
147
0.0
147
0.0
147
0.0
147
0.0
147
1.0
  0
MATERIAL
  5
E
102
{ACAD_REACTORS
330
F
102
}
330
F
100
AcDbMaterial
  1
Global
 72
     0
 73
     2
 43
0.0208333333333333
 43
0.0
 43
0.0
 43
0.0
 43
0.0
 43
0.0208333333333333
 43
0.0
 43
0.0
 43
0.0
 43
0.0
 43
1.0
 43
0.0
 43
0.0
 43
0.0
 43
0.0
 43
1.0
 77
     0
 78
     2
 47
0.0208333333333333
 47
0.0
 47
0.0
 47
0.0
 47
0.0
 47
0.0208333333333333
 47
0.0
 47
0.0
 47
0.0
 47
0.0
 47
1.0
 47
0.0
 47
0.0
 47
0.0
 47
0.0
 47
1.0
171
     0
172
     2
 49
0.0208333333333333
 49
0.0
 49
0.0
 49
0.0
 49
0.0
 49
0.0208333333333333
 49
0.0
 49
0.0
 49
0.0
 49
0.0
 49
1.0
 49
0.0
 49
0.0
 49
0.0
 49
0.0
 49
1.0
175
     0
176
     2
142
0.0208333333333333
142
0.0
142
0.0
142
0.0
142
0.0
142
0.0208333333333333
142
0.0
142
0.0
142
0.0
142
0.0
142
1.0
142
0.0
142
0.0
142
0.0
142
0.0
142
1.0
179
     0
270
     2
144
0.0208333333333333
144
0.0
144
0.0
144
0.0
144
0.0
144
0.0208333333333333
144
0.0
144
0.0
144
0.0
144
0.0
144
1.0
144
0.0
144
0.0
144
0.0
144
0.0
144
1.0
274
     2
147
0.0208333333333333
147
0.0
147
0.0
147
0.0
147
0.0
147
0.0208333333333333
147
0.0
147
0.0
147
0.0
147
0.0
147
1.0
147
0.0
147
0.0
147
0.0
147
0.0
147
1.0
  0
MLINESTYLE
  5
1A
102
{ACAD_REACTORS
330
1B
102
}
330
1B
100
AcDbMlineStyle
  2
STANDARD
 70
     0
  3

 62
     0
 51
90.0
 52
90.0
 71
     2
 49
0.5
 62
   256
  6
BYLAYER
 49
-0.5
 62
   256
  6
BYLAYER
  0
ACDBPLACEHOLDER
  5
B
102
{ACAD_REACTORS
330
C
102
}
330
C
  0
SCALE
  5
5B
102
{ACAD_REACTORS
330
39
102
}
330
39
100
AcDbScale
 70
     0
300
1:1
140
1.0
141
1.0
290
     1
  0
DICTIONARYVAR
  5
28B
102
{ACAD_REACTORS
330
28A
102
}
330
28A
100
DictionaryVariables
280
     0
  1
1:1
  0
DICTIONARYVAR
  5
28E
102
{ACAD_REACTORS
330
28A
102
}
330
28A
100
DictionaryVariables
280
     0
  1
0
  0
DICTIONARY
  5
2C
330
2B
100
AcDbDictionary
280
     1
281
     1
  3
ADSK_XREC_LAYOUTTHUMBNAIL
360
2D
  0
XRECORD
  5
2D
102
{ACAD_REACTORS
330
2C
102
}
330
2C
100
AcDbXrecord
280
     1
310
28000000B40000007F00000001000800000000004C590000000000000000000000010000000000000000000000000000FFFFFF000000000000000000000000000000000000000000000000000000000000000000330000006600000099000000CC000000FF00000000330000333300006633000099330000CC330000FF3300
310
0000660000336600006666000099660000CC660000FF66000000990000339900006699000099990000CC990000FF99000000CC000033CC000066CC000099CC0000CCCC0000FFCC000000FF000033FF000066FF000099FF0000CCFF0000FFFF000000003300330033006600330099003300CC003300FF003300003333003333
310
33006633330099333300CC333300FF33330000663300336633006666330099663300CC663300FF66330000993300339933006699330099993300CC993300FF99330000CC330033CC330066CC330099CC3300CCCC3300FFCC330000FF330033FF330066FF330099FF3300CCFF3300FFFF330000006600330066006600660099
310
006600CC006600FF00660000336600333366006633660099336600CC336600FF33660000666600336666006666660099666600CC666600FF66660000996600339966006699660099996600CC996600FF99660000CC660033CC660066CC660099CC6600CCCC6600FFCC660000FF660033FF660066FF660099FF6600CCFF6600
310
FFFF660000009900330099006600990099009900CC009900FF00990000339900333399006633990099339900CC339900FF33990000669900336699006666990099669900CC669900FF66990000999900339999006699990099999900CC999900FF99990000CC990033CC990066CC990099CC9900CCCC9900FFCC990000FF99
310
0033FF990066FF990099FF9900CCFF9900FFFF99000000CC003300CC006600CC009900CC00CC00CC00FF00CC000033CC003333CC006633CC009933CC00CC33CC00FF33CC000066CC003366CC006666CC009966CC00CC66CC00FF66CC000099CC003399CC006699CC009999CC00CC99CC00FF99CC0000CCCC0033CCCC0066CC
310
CC0099CCCC00CCCCCC00FFCCCC0000FFCC0033FFCC0066FFCC0099FFCC00CCFFCC00FFFFCC000000FF003300FF006600FF009900FF00CC00FF00FF00FF000033FF003333FF006633FF009933FF00CC33FF00FF33FF000066FF003366FF006666FF009966FF00CC66FF00FF66FF000099FF003399FF006699FF009999FF00CC
310
99FF00FF99FF0000CCFF0033CCFF0066CCFF0099CCFF00CCCCFF00FFCCFF0000FFFF0033FFFF0066FFFF0099FFFF00CCFFFF00FFFFFF00000000000D0D0D001A1A1A00282828003535350043434300505050005D5D5D006B6B6B00787878008686860093939300A1A1A100AEAEAE00BBBBBB00C9C9C900D6D6D600E4E4E400
310
F1F1F100FFFFFF0000000000000000000000000000000000000000000000000000000000000000000000000000000000EFF5F5F5F5F5F5F5F5F5F5F5F5F5F5F5F5F5F5F5F5F5F5F5F5F5F5F5F5F5F5F5F5F5F5F5F5F5F5F5F5F5F5F5F5F5F5F5F5F5F5F5F5F5F5F5F5F5F5F5F5F5F5F5F5F5F5F5F5F5F5F5F5F5F5F5F5F5F5
310
F5F5F5F5F5F5F5F5F5F5F5F5F5F5F5F5F5F5F5F5F5F5F5F5F5F5F5F5F5F5F5F5F5F5F5F5F5F5F5F5F5F5F5F5F5F5F5F5F5F5F5F5F5F5F5F5F5F5F5F5F5F5F5F5F5F5F5F5F5F5F5F5F5F5F5F5F5F5F5F5F5F5F5F5F5F5F5F5F5F5F5F5F5F5F5F5F5F5F5F5F5EFF5E2E2E2E2E2E2E2E2E2E2E2E2E2E2E2E2E2E2E2E2E2E2E2E2
310
E2E2E2E2E2E2E2E2E2E2E2E2E2E2E2E2E2E2E2E2E2E2E2E2E2E2E2E2E2E2E2E2E2E2E2E2E2E2E2E2E2E2E2E2E2E2E2E2E2E2E2E2E2E2E2E2E2E2E2E2E2E2E2E2E2E2E2E2E2E2E2E2E2E2E2E2E2E2E2E2E2E2E2E2E2E2E2E2E2E2E2E2E2E2E2E2E2E2E2E2E2E2E2E2E2E2E2E2E2E2E2E2E2E2E2E2E2E2E2E2E2E2E2E2E2E2E2
310
E2E2E2E2E2E2E2E2E2E2E2E2E2E2E2E2E2E2E2E2E2E2E2E2E2F5F5EFF5E2F5F5F5F5F5F5F5F5E2E2E2E2E2E2E2E2E2F5F5F5F5F5F5F5F5F5F5F5F5F5F5F5F5E2E2E2E2E2E2E2E2E2F5F5F5F5F5F5F5F5F5F5F5F5F5F5F5F5E2E2E2E2E2E2E2E2E2F5F5F5F5F5F5F5F5F5F5F5F5F5F5F5F5E2E2E2E2E2E2E2E2F5F5F5F5F5F5
310
F5F5F5F5F5F5F5F5F5F5E2E2E2E2E2E2E2E2E2F5F5F5F5F5F5F5F5F5F5F5F5F5F5F5F5E2E2E2E2E2E2E2E2E2F5F5F5F5F5F5F5F5F5F5F5F5F5F5F5F5E2E2E2E2E2E2E2E2E2F5F5F5F5F5F5F5F5E2F5F5EFF5E2F5E2E2E2E2E2E2E2E2E2E2E2E2E2E2E2E2E2E2E2E2E2E2E2E2E2E2E2E2E2E2E2E2E2E2E2E2E2E2E2E2E2E2E2
310
E2E2E2E2E2E2E2E2E2E2E2E2E2E2E2E2E2E2E2E2E2E2E2E2E2E2E2E2E2E2E2E2E2E2E2E2E2E2E2E2E2E2E2E2E2E2E2E2E2E2E2E2E2E2E2E2E2E2E2E2E2E2E2E2E2E2E2E2E2E2E2E2E2E2E2E2E2E2E2E2E2E2E2E2E2E2E2E2E2E2E2E2E2E2E2E2E2E2E2E2E2E2E2E2E2E2E2E2E2E2E2E2E2E2E2E2E2E2E2E2E2E2E2E2E2E2E2
310
E2E2F5E2F5F5EFF5E2F5E2E2E2E2E2E2E2E2E2E2E2E2E2E2E2E2E2E2E2E2E2E2E2E2E2E2E2E2E2E2E2E2E2E2E2E2E2E2E2E2E2E2E2E2E2E2E2E2E2E2E2E2E2E2E2E2E2E2E2E2E2E2E2E2E2E2E2E2E2E2E2E2E2E2E2E2E2E2E2E2E2E2E2E2E2E2E2E2E2E2E2E2E2E2E2E2E2E2E2E2E2E2E2E2E2E2E2E2E2E2E2E2E2E2E2E2E2
310
E2E2E2E2E2E2E2E2E2E2E2E2E2E2E2E2E2E2E2E2E2E2E2E2E2E2E2E2E2E2E2E2E2E2E2E2E2E2E2E2E2E2E2E2E2E2E2E2E2E2E2E2E2E2E2F5E2F5F5EFF5E2F5E2E2E2E2E2E2E2E2E2E2E2E2E2E2E2E2E2E2E2E2E2E2E2E2E2E2E2E2E2E2E2E2E2E2E2E2E2E2E2E2E2E2E2E2E2E2E2E2E2E2E2E2E2E2E2E2E2E2E2E2E2E2E2E2
310
E2E2E2E2E2E2E2E2E2E2E2E2E2E2E2E2E2E2E2E2E2E2E2E2E2E2E2E2E2E2E2E2E2E2E2E2E2E2E2E2E2E2E2E2E2E2E2E2E2E2E2E2E2E2E2E2E2E2E2E2E2E2E2E2E2E2E2E2E2E2E2E2E2E2E2E2E2E2E2E2E2E2E2E2E2E2E2E2E2E2E2E2E2E2E2E2E2E2E2E2E2E2E2E2E2E2E2E2F5E2F5F5EFF5E2F5E2E2E2E2E2E2E2E2E2E2E2
310
E2E2E2E2E2E2E2E2E2E2E2E2E2E2E2E2E2E2E2E2E2E2E2E2E2E2E2E2E2E2E2E2E2E2E2E2E2E2E2E2E2E2E2E2E2E2E2E2E2E2E2E2E2E2E2E2E2E2E2E2E2E2E2E2E2E2E2E2E2E2E2E2E2E2E2E2E2E2E2E2E2E2E2E2E2E2E2E2E2E2E2E2E2E2E2E2E2E2E2E2E2E2E2E2E2E2E2E2E2E2E2E2E2E2E2E2E2E2E2E2E2E2E2E2E2E2E2
310
E2E2E2E2E2E2E2E2E2E2E2E2E2E2E2E2E2E2E2E2E2E2E2E2E2E2E2E2E2E2E2E2E2E2F5E2F5F5EFF5E2F5E2E2E2E2E2E2E2E2E2E2E2E2E2E2E2E2E2E2E2E2E2E2E2E2E2E2E2E2E2E2E2E2E2E2E2E2E2E2E2E2E2E2E2E2E2E2E2E2E2E2E2E2E2E2E2E2E2E2E2E2E2E2E2E2E2E2E2E2E2E2E2E2E2E2E2E2E2E2E2E2E2E2E2E2E2
310
E2E2E2E2E2E2E2E2E2E2E2E2E2E2E2E2E2E2E2E2E2E2E2E2E2E2E2E2E2E2E2E2E2E2E2E2E2E2E2E2E2E2E2E2E2E2E2E2E2E2E2E2E2E2E2E2E2E2E2E2E2E2E2E2E2E2E2E2E2E2E2E2E2E2E2E2E2E2E2E2E2E2E2E2E2E2E2F5E2F5F5EFF5E2F5E2E2E2E2E2E2E2E2E2E2E2E2E2E2E2E2E2E2E2E2E2E2E2E2E2E2E2E2E2E2E2E2
310
E2E2E2E2E2E2E2E2E2E2E2E2E2E2E2E2E2E2E2E2E2E2E2E2E2E2E2E2E2E2E2E2E2E2E2E2E2E2E2E2E2E2E2E2E2E2E2E2E2E2E2E2E2E2E2E2E2E2E2E2E2E2E2E2E2E2E2E2E2E2E2E2E2E2E2E2E2E2E2E2E2E2E2E2E2E2E2E2E2E2E2E2E2E2E2E2E2E2E2E2E2E2E2E2E2E2E2E2E2E2E2E2E2E2E2E2E2E2E2E2E2E2E2E2E2E2E2
310
E2E2E2E2E2E2E2E2E2E2E2E2E2F5E2F5F5EFF5E2F5E2E2E2E2E2E2E2E2E2E2E2E2E2E2E2E2E2E2E2E2E2E2E2E2E2E2E2E2E2E2E2E2E2E2E2E2E2E2E2E2E2E2E2E2E2E2E2E2E2E2E2E2E2E2E2E2E2E2E2E2E2E2E2E2E2E2E2E2E2E2E2E2E2E2E2E2E2E2E2E2E2E2E2E2E2E2E2E2E2E2E2E2E2E2E2E2E2E2E2E2E2E2E2E2E2E2
310
E2E2E2E2E2E2E2E2E2E2E2E2E2E2E2E2E2E2E2E2E2E2E2E2E2E2E2E2E2E2E2E2E2E2E2E2E2E2E2E2E2E2E2E2E2E2E2E2E2E2E2E2E2E2E2E2E2E2E2E2E2E2E2E2E2E2F5E2F5F5EFF5E2E2E2E2E2E2E2E2E2E2E2E2E2E2E2E2E2E2E2E2E2E2E2E2E2E2E2E2E2E2E2E2E2E2E2E2E2E2E2E2E2E2E2E2E2E2E2E2E2E2E2E2E2E2E2
310
E2E2E2E2E2E2E2E2E2E2E2E2E2E2E2E2E2E2E2E2E2E2E2E2E2E2E2E2E2E2E2E2E2E2E2E2E2E2E2E2E2E2E2E2E2E2E2E2E2E2E2E2E2E2E2E2E2E2E2E2E2E2E2E2E2E2E2E2E2E2E2E2E2E2E2E2E2E2E2E2E2E2E2E2E2E2E2E2E2E2E2E2E2E2E2E2E2E2E2E2E2E2E2E2E2E2E2E2E2E2E2E2E2E2E2E2E2E2E2E2E2F5F5EFF5E2E2
310
E2E2E2E2E2E2E2E2E2E2E2E2E2E2E2E2E2E2E2E2E2E2E2E2E2E2E2E2E2E2E2E2E2E2E2E2E2E2E2E2E2E2E2E2E2E2E2E2E2E2E2E2E2E2E2E2E2E2E2E2E2E2E2E2E2E2E2E2E2E2E2E2E2E2E2E2E2E2E2E2E2E2E2E2E2E2E2E2E2E2E2E2E2E2E2E2E2E2E2E2E2E2E2E2E2E2E2E2E2E2E2E2E2E2E2E2E2E2E2E2E2E2E2E2E2E2E2
310
E2E2E2E2E2E2E2E2E2E2E2E2E2E2E2E2E2E2E2E2E2E2E2E2E2E2E2E2E2E2E2E2E2E2E2E2E2E2E2E2E2E2E2E2E2E2E2F5F5EFF5E2E2E2E2E2E2E2E2E2E2E2E2E2E2E2E2E2E2E2E2E2E2E2E2E2E2E2E2E2E2E2E2E2E2E2E2E2E2E2E2E2E2E2E2E2E2E2E2E2E2E2E2E2E2E2E2E2E2E2E2E2E2E2E2E2E2E2E2E2E2E2E2E2E2E2E2
310
E2E2E2E2E2E2E2E2E2E2E2E2E2E2E2E2E2E2E2E2E2E2E2E2E2E2E2E2E2E2E2E2E2E2E2E2E2E2E2E2E2E2E2E2E2E2E2E2E2E2E2E2E2E2E2E2E2E2E2E2E2E2E2E2E2E2E2E2E2E2E2E2E2E2E2E2E2E2E2E2E2E2E2E2E2E2E2E2E2E2E2E2E2E2E2E2E2E2E2E2F5F5EFF5E2E2E2E2E2E2E2E2E2E2E2E2E2E2E2E2E2E2E2E2E2E2E2
310
E2E2E2E2E2E2E2E2E2E2E2E2E2E2E2E2E2E2E2E2E2E2E2E2E2E2E2E2E2E2E2E2E2E2E2E2E2E2E2E2E2E2E2E2E2E2E2E2E2E2E2E2E2E2E2E2E2E2E2E2E2E2E2E2E2E2E2E2E2E2E2E2E2E2E2E2E2E2E2E2E2E2E2E2E2E2E2E2E2E2E2E2E2E2E2E2E2E2E2E2E2E2E2E2E2E2E2E2E2E2E2E2E2E2E2E2E2E2E2E2E2E2E2E2E2E2E2
310
E2E2E2E2E2E2E2E2E2E2E2E2E2E2E2E2E2E2E2E2E2E2E2E2E2E2F5F5EFF5E2E2E2E2E2E2E2E2E2E2E2E2E2E2E2E2E2E2E2E2E2E2E2E2E2E2E2E2E2E2E2E2E2E2E2E2E2E2E2E2E2E2E2E2E2E2E2E2E2E2E2E2E2E2E2E2E2E2E2E2E2E2E2E2E2E2E2E2E2E2E2E2E2E2E2E2E2E2E2E2E2E2E2E2E2E2E2E2E2E2E2E2E2E2E2E2E2
310
E2E2E2E2E2E2E2E2E2E2E2E2E2E2E2E2E2E2E2E2E2E2E2E2E2E2E2E2E2E2E2E2E2E2E2E2E2E2E2E2E2E2E2E2E2E2E2E2E2E2E2E2E2E2E2E2E2E2E2E2E2E2E2E2E2E2E2E2E2E2E2E2E2E2E2E2E2E2E2F5F5EFF5E2E2E2E2E2E2E2E2E2E2E2E2E2E2E2E2E2E2E2E2E2E2E2E2E2E2E2E2E2E2E2E2E2E2E2E2E2E2E2E2E2E2E2E2
310
E2E2E2E2E2E2E2E2E2E2E2E2E2E2E2E2E2E2E2E2E2E2E2E2E2E2E2E2E2E2E2E2E2E2E2E2E2E2E2E2E2E2E2E2E2E2E2E2E2E2E2E2E2E2E2E2E2E2E2E2E2E2E2E2E2E2E2E2E2E2E2E2E2E2E2E2E2E2E2E2E2E2E2E2E2E2E2E2E2E2E2E2E2E2E2E2E2E2E2E2E2E2E2E2E2E2E2E2E2E2E2E2E2E2E2E2E2E2E2E2E2E2E2E2E2E2E2
310
E2E2E2E2E2F5F5EFF5E2E2E2E2E2E2E2E2E2E2E2E2E2E2E2E2E2E2E2E2E2E2E2E2E2E2E2E2E2E2E2E2E2E2E2E2E2E2E2E2E2E2E2E2E2E2E2E2E2E2E2E2E2E2E2E2E2E2E2E2E2E2E2E2E2E2E2E2E2E2E2E2E2E2E2E2E2E2E2E2E2E2E2E2E2E2E2E2E2E2E2E2E2E2E2E2E2E2E2E2E2E2E2E2E2E2E2E2E2E2E2E2E2E2E2E2E2E2
310
E2E2E2E2E2E2E2E2E2E2E2E2E2E2E2E2E2E2E2E2E2E2E2E2E2E2E2E2E2E2E2E2E2E2E2E2E2E2E2E2E2E2E2E2E2E2E2E2E2E2E2E2E2E2E2E2E2E2F5F5EFF5E2E2E2E2E2E2E2E2E2E2E2E2E2E2E2E2E2E2E2E2E2E2E2E2E2E2E2E2E2E2E2E2E2E2E2E2E2E2E2E2E2E2E2E2E2E2E2E2E2E2E2E2E2E2E2E2E2E2E2E2E2E2E2E2E2
310
E2E2E2E2E2E2E2E2E2E2E2E2E2E2E2E2E2E2E2E2E2E2E2E2E2E2E2E2E2E2E2E2E2E2E2E2E2E2E2E2E2E2E2E2E2E2E2E2E2E2E2E2E2E2E2E2E2E2E2E2E2E2E2E2E2E2E2E2E2E2E2E2E2E2E2E2E2E2E2E2E2E2E2E2E2E2E2E2E2E2E2E2E2E2E2E2E2E2E2E2E2E2E2E2E2E2E2E2E2E2E2F5F5EFF5E2E2E2E2E2E2E2E2E2E2E2E2
310
E2E2E2E2E2E2E2E2E2E2E2E2E2E2E2E2E2E2E2E2E2E2E2E2E2E2E2E2E2E2E2E2E2E2E2E2E2E2E2E2E2E2E2E2E2E2E2E2E2E2E2E2E2E2E2E2E2E2E2E2E2E2E2E2E2E2E2E2E2E2E2E2E2E2E2E2E2E2E2E2E2E2E2E2E2E2E2E2E2E2E2E2E2E2E2E2E2E2E2E2E2E2E2E2E2E2E2E2E2E2E2E2E2E2E2E2E2E2E2E2E2E2E2E2E2E2E2
310
E2E2E2E2E2E2E2E2E2E2E2E2E2E2E2E2E2E2E2E2E2E2E2E2E2E2E2E2E2E2E2E2E2E2E2E2E2F5F5EFF5E2F5E2E2E2E2E2E2E2E2E2E2E2E2E2E2E2E2E2E2E2E2E2E2E2E2E2E2E2E2E2E2E2E2E2E2E2E2E2E2E2E2E2E2E2E2E2E2E2E2E2E2E2E2E2E2E2E2E2E2E2E2E2E2E2E2E2E2E2E2E2E2E2E2E2E2E2E2E2E2E2E2E2E2E2E2
310
E2E2E2E2E2E2E2E2E2E2E2E2E2E2E2E2E2E2E2E2E2E2E2E2E2E2E2E2E2E2E2E2E2E2E2E2E2E2E2E2E2E2E2E2E2E2E2E2E2E2E2E2E2E2E2E2E2E2E2E2E2E2E2E2E2E2E2E2E2E2E2E2E2E2E2E2E2E2E2E2E2E2E2E2E2E2E2E2F5E2F5F5EFF5E2F5E2E2E2E2E2E2E2E2E2E2E2E2E2E2E2E2E2E2E2E2E2E2E2E2E2E2E2E2E2E2E2
310
E2E2E2E2E2E2E2E2E2E2E2E2E2E2E2E2E2E2E2E2E2E2E2E2E2E2E2E2E2E2E2E2E2E2E2E2E2E2E2E2E2E2E2E2E2E2E2E2E2E2E2E2E2E2E2E2E2E2E2E2E2E2E2E2E2E2E2E2E2E2E2E2E2E2E2E2E2E2E2E2E2E2E2E2E2E2E2E2E2E2E2E2E2E2E2E2E2E2E2E2E2E2E2E2E2E2E2E2E2E2E2E2E2E2E2E2E2E2E2E2E2E2E2E2E2E2E2
310
E2E2E2E2E2E2E2E2E2E2E2E2E2E2F5E2F5F5EFF5E2F5E2E2E2E2E2E2E2E2E2E2E2E2E2E2E2E2E2E2E2E2E2E2E2E2E2E2E2E2E2E2E2E2E2E2E2E2E2E2E2E2E2E2E2E2E2E2E2E2E2E2E2E2E2E2E2E2E2E2E2E2E2E2E2E2E2E2E2E2E2E2E2E2E2E2E2E2E2E2E2E2E2E2E2E2E2E2E2E2E2E2E2E2E2E2E2E2E2E2E2E2E2E2E2E2E2
310
E2E2E2E2E2E2E2E2E2E2E2E2E2E2E2E2E2E2E2E2E2E2E2E2E2E2E2E2E2E2E2E2E2E2E2E2E2E2E2E2E2E2E2E2E2E2E2E2E2E2E2E2E2E2E2E2E2E2E2E2E2E2E2E2E2E2E2F5E2F5F5EFF5E2F5E2E2E2E2E2E2E2E2E2E2E2E2E2E2E2E2E2E2E2E2E2E2E2E2E2E2E2E2E2E2E2E2E2E2E2E2E2E2E2E2E2E2E2E2E2E2E2E2E2E2E2E2
310
E2E2E2E2E2E2E2E2E2E2E2E2E2E2E2E2E2E2E2E2E2E2E2E2E2E2E2E2E2E2E2E2E2E2E2E2E2E2E2E2E2E2E2E2E2E2E2E2E2E2E2E2E2E2E2E2E2E2E2E2E2E2E2E2E2E2E2E2E2E2E2E2E2E2E2E2E2E2E2E2E2E2E2E2E2E2E2E2E2E2E2E2E2E2E2E2E2E2E2E2E2E2E2E2E2E2E2E2E2E2E2E2E2E2E2E2E2E2E2E2F5E2F5F5EFF5E2
310
F5E2E2E2E2E2E2E2E2E2E2E2E2E2E2E2E2E2E2E2E2E2E2E2E2E2E2E2E2E2E2E2E2E2E2E2E2E2E2E2E2E2E2E2E2E2E2E2E2E2E2E2E2E2E2E2E2E2E2E2E2E2E2E2E2E2E2E2E2E2E2E2E2E2E2E2E2E2E2E2E2E2E2E2E2E2E2E2E2E2E2E2E2E2E2E2E2E2E2E2E2E2E2E2E2E2E2E2E2E2E2E2E2E2E2E2E2E2E2E2E2E2E2E2E2E2E2
310
E2E2E2E2E2E2E2E2E2E2E2E2E2E2E2E2E2E2E2E2E2E2E2E2E2E2E2E2E2E2E2E2E2E2E2E2E2E2E2E2E2E2E2E2E2E2F5E2F5F5EFF5E2F5E2E2E2E2E2E2E2E2E2E2E2E2E2E2E2E2E2E2E2E2E2E2E2E2E2E2E2E2E2E2E2E2E2E2E2E2E2E2E2E2E2E2E2E2E2E2E2E2E2E2E2E2E2E2E2E2E2E2E2E2E2E2E2E2E2E2E2E2E2E2E2E2E2
310
E2E2E2E2E2E2E2E2E2E2E2E2E2E2E2E2E2E2E2E2E2E2E2E2E2E2E2E2E2E2E2E2E2E2E2E2E2E2E2E2E2E2E2E2E2E2E2E2E2E2E2E2E2E2E2E2E2E2E2E2E2E2E2E2E2E2E2E2E2E2E2E2E2E2E2E2E2E2E2E2E2E2E2E2E2E2E2E2E2E2E2E2E2E2E2E2E2E2E2F5E2F5F5EFF5E2F5E2E2E2E2E2E2E2E2E2E2E2E2E2E2E2E2E2E2E2E2
310
E2E2E2E2E2E2E2E2E2E2E2E2E2E2E2E2E2E2E2E2E2E2E2E2E2E2E2E2E2E2E2E2E2E2E2E2E2E2E2E2E2E2E2E2E2E2E2E2E2E2E2E2E2E2E2E2E2E2E2E2E2E2E2E2E2E2E2E2E2E2E2E2E2E2E2E2E2E2E2E2E2E2E2E2E2E2E2E2E2E2E2E2E2E2E2E2E2E2E2E2E2E2E2E2E2E2E2E2E2E2E2E2E2E2E2E2E2E2E2E2E2E2E2E2E2E2E2
310
E2E2E2E2E2E2E2E2E2E2E2E2E2E2E2E2E2E2E2E2E2E2E2E2E2F5E2F5F5EFF5E2F5E2E2E2E2E2E2E2E2E2E2E2E2E2E2E2E2E2E2E2E2E2E2E2E2E2E2E2E2E2E2E2E2E2E2E2E2E2E2E2E2E2E2E2E2E2E2E2E2E2E2E2E2E2E2E2E2E2E2E2E2E2E2E2E2E2E2E2E2E2E2E2E2E2E2E2E2E2E2E2E2E2E2E2E2E2E2E2E2E2E2E2E2E2E2
310
E2E2E2E2E2E2E2E2E2E2E2E2E2E2E2E2E2E2E2E2E2E2E2E2E2E2E2E2E2E2E2E2E2E2E2E2E2E2E2E2E2E2E2E2E2E2E2E2E2E2E2E2E2E2E2E2E2E2E2E2E2E2E2E2E2E2E2E2E2E2E2E2E2E2E2E2E2E2F5E2F5F5EFF5E2F5E2E2E2E2E2E2E2E2E2E2E2E2E2E2E2E2E2E2E2E2E2E2E2E2E2E2E2E2E2E2E2E2E2E2E2E2E2E2E2E2E2
310
E2E2E2E2E2E2E2E2E2E2E2E2E2E2E2E2E2E2E2E2E2E2E2E2E2E2E2E2E2E2E2E2E2E2E2E2E2E2E2E2E2E2E2E2E2E2E2E2E2E2E2E2E2E2E2E2E2E2E2E2E2E2E2E2E2E2E2E2E2E2E2E2E2E2E2E2E2E2E2E2E2E2E2E2E2E2E2E2E2E2E2E2E2E2E2E2E2E2E2E2E2E2E2E2E2E2E2E2E2E2E2E2E2E2E2E2E2E2E2E2E2E2E2E2E2E2E2
310
E2E2E2E2F5E2F5F5EFF5E2F5E2E2E2E2E2E2E2E2E2E2E2E2E2E2E2E2E2E2E2E2E2E2E2E2E2E2E2E2E2E2E2E2E2E2E2E2E2E2E2E2E2E2E2E2E2E2E2E2E2E2E2E2E2E2E2E2E2E2E2E2E2E2E2E2E2E2E2E2E2E2E2E2E2E2E2E2E2E2E2E2E2E2E2E2E2E2E2E2E2E2E2E2E2E2E2E2E2E2E2E2E2E2E2E2E2E2E2E2E2E2E2E2E2E2E2
310
E2E2E2E2E2E2E2E2E2E2E2E2E2E2E2E2E2E2E2E2E2E2E2E2E2E2E2E2E2E2E2E2E2E2E2E2E2E2E2E2E2E2E2E2E2E2E2E2E2E2E2E2E2E2E2E2E2F5E2F5F5EFF5E2F5E2E2E2E2E2E2E2E2E2E2E2E2E2E2E2E2E2E2E2E2E2E2E2E2E2E2E2E2E2E2E2E2E2E2E2E2E2E2E2E2E2E2E2E2E2E2E2E2E2E2E2E2E2E2E2E2E2E2E2E2E2E2
310
E2E2E2E2E2E2E2E2E2E2E2E2E2E2E2E2E2E2E2E2E2E2E2E2E2E2E2E2E2E2E2E2E2E2E2E2E2E2E2E2E2E2E2E2E2E2E2E2E2E2E2E2E2E2E2E2E2E2E2E2E2E2E2E2E2E2E2E2E2E2E2E2E2E2E2E2E2E2E2E2E2E2E2E2E2E2E2E2E2E2E2E2E2E2E2E2E2E2E2E2E2E2E2E2E2E2E2E2E2E2F5E2F5F5EFF5E2F5E2E2E2E2E2E2E2E2E2
310
E2E2E2E2E2E2E2E2E2E2E2E2E2E2E2E2E2E2E2E2E2E2E2E2E2E2E2E2E2E2E2E2E2E2E2E2E2E2E2E2E2E2E2E2E2E2E2E2E2E2E2E2E2E2E2E2E2E2E2E2E2E2E2E2E2E2E2E2E2E2E2E2E2E2E2E2E2E2E2E2E2E2E2E2E2E2E2E2E2E2E2E2E2E2E2E2E2E2E2E2E2E2E2E2E2E2E2E2E2E2E2E2E2E2E2E2E2E2E2E2E2E2E2E2E2E2E2
310
E2E2E2E2E2E2E2E2E2E2E2E2E2E2E2E2E2E2E2E2E2E2E2E2E2E2E2E2E2E2E2E2E2E2E2E2F5E2F5F5EFF5E2F5E2E2E2E2E2E2E2E2E2E2E2E2E2E2E2E2E2E2E2E2E2E2E2E2E2E2E2E2E2E2E2E2E2E2E2E2E2E2E2E2E2E2E2E2E2E2E2E2E2E2E2E2E2E2E2E2E2E2E2E2E2E2E2E2E2E2E2E2E2E2E2E2E2E2E2E2E2E2E2E2E2E2E2
310
E2E2E2E2E2E2E2E2E2E2E2E2E2E2E2E2E2E2E2E2E2E2E2E2E2E2E2E2E2E2E2E2E2E2E2E2E2E2E2E2E2E2E2E2E2E2E2E2E2E2E2E2E2E2E2E2E2E2E2E2E2E2E2E2E2E2E2E2E2E2E2E2E2E2E2E2E2E2E2E2E2E2E2E2E2E2E2E2E2F5E2F5F5EFF5E2F5E2E2E2E2E2E2E2E2E2E2E2E2E2E2E2E2E2E2E2E2E2E2E2E2E2E2E2E2E2E2
310
E2E2E2E2E2E2E2E2E2E2E2E2E2E2E2E2E2E2E2E2E2E2E2E2E2E2E2E2E2E2E2E2E2E2E2E2E2E2E2E2E2E2E2E2E2E2E2E2E2E2E2E2E2E2E2E2E2E2E2E2E2E2E2E2E2E2E2E2E2E2E2E2E2E2E2E2E2E2E2E2E2E2E2E2E2E2E2E2E2E2E2E2E2E2E2E2E2E2E2E2E2E2E2E2E2E2E2E2E2E2E2E2E2E2E2E2E2E2E2E2E2E2E2E2E2E2E2
310
E2E2E2E2E2E2E2E2E2E2E2E2E2E2E2F5E2F5F5EFF5E2F5E2E2E2E2E2E2E2E2E2E2E2E2E2E2E2E2E2E2E2E2E2E2E2E2E2E2E2E2E2E2E2E2E2E2E2E2E2E2E2E2E2E2E2E2E2E2E2E2E2E2E2E2E2E2E2E2E2E2E2E2E2E2E2E2E2E2E2E2E2E2E2E2E2E2E2E2E2E2E2E2E2E2E2E2E2E2E2E2E2E2E2E2E2E2E2E2E2E2E2E2E2E2E2E2
310
E2E2E2E2E2E2E2E2E2E2E2E2E2E2E2E2E2E2E2E2E2E2E2E2E2E2E2E2E2E2E2E2E2E2E2E2E2E2E2E2E2E2E2E2E2E2E2E2E2E2E2E2E2E2E2E2E2E2E2E2E2E2E2E2E2E2E2E2F5E2F5F5EFF5E2F5E2E2E2E2E2E2E2E2E2E2E2E2E2E2E2E2E2E2E2E2E2E2E2E2E2E2E2E2E2E2E2E2E2E2E2E2E2E2E2E2E2E2E2E2E2E2E2E2E2E2E2
310
E2E2E2E2E2E2E2E2E2E2E2E2E2E2E2E2E2E2E2E2E2E2E2E2E2E2E2E2E2E2E2E2E2E2E2E2E2E2E2E2E2E2E2E2E2E2E2E2E2E2E2E2E2E2E2E2E2E2E2E2E2E2E2E2E2E2E2E2E2E2E2E2E2E2E2E2E2E2E2E2E2E2E2E2E2E2E2E2E2E2E2E2E2E2E2E2E2E2E2E2E2E2E2E2E2E2E2E2E2E2E2E2E2E2E2E2E2E2E2E2E2F5E2F5F5EFF5
310
E2E2E2E2E2E2E2E2E2E2E2E2E2E2E2E2E2E2E2E2E2E2E2E2E2E2E2E2E2E2E2E2E2E2E2E2E2E2E2E2E2E2E2E2E2E2E2E2E2E2E2E2E2E2E2E2E2E2E2E2E2E2E2E2E2E2E2E2E2E2E2E2E2E2E2E2E2E2E2E2E2E2E2E2E2E2E2E2E2E2E2E2E2E2E2E2E2E2E2E2E2E2E2E2E2E2E2E2E2E2E2E2E2E2E2E2E2E2E2E2E2E2E2E2E2E2E2
310
E2E2E2E2E2E2E2E2E2E2E2E2E2E2E2E2E2E2E2E2E2E2E2E2E2E2E2E2E2E2E2E2E2E2E2E2E2E2E2E2E2E2E2E2E2E2E2E2E2F5F5EFF5E2E2E2E2E2E2E2E2E2E2E2E2E2E2E2E2E2E2E2E2E2E2E2E2E2E2E2E2E2E2E2E2E2E2E2E2E2E2E2E2E2E2E2E2E2E2E2E2E2E2E2E2E2E2E2E2E2E2E2E2E2E2E2E2E2E2E2E2E2E2E2E2E2E2
310
E2E2E2E2E2E2E2E2E2E2E2E2E2E2E2E2E2E2E2E2E2E2E2E2E2E2E2E2E2E2E2E2E2E2E2E2E2E2E2E2E2E2E2E2E2E2E2E2E2E2E2E2E2E2E2E2E2E2E2E2E2E2E2E2E2E2E2E2E2E2E2E2E2E2E2E2E2E2E2E2E2E2E2E2E2E2E2E2E2E2E2E2E2E2E2E2E2E2E2E2E2E2F5F5EFF5E2E2E2E2E2E2E2E2E2E2E2E2E2E2E2E2E2E2E2E2E2
310
E2E2E2E2E2E2E2E2E2E2E2E2E2E2E2E2E2E2E2E2E2E2E2E2E2E2E2E2E2E2E2E2E2E2E2E2E2E2E2E2E2E2E2E2E2E2E2E2E2E2E2E2E2E2E2E2E2E2E2E2E2E2E2E2E2E2E2E2E2E2E2E2E2E2E2E2E2E2E2E2E2E2E2E2E2E2E2E2E2E2E2E2E2E2E2E2E2E2E2E2E2E2E2E2E2E2E2E2E2E2E2E2E2E2E2E2E2E2E2E2E2E2E2E2E2E2E2
310
E2E2E2E2E2E2E2E2E2E2E2E2E2E2E2E2E2E2E2E2E2E2E2E2E2E2E2E2F5F5EFF5E2E2E2E2E2E2E2E2E2E2E2E2E2E2E2E2E2E2E2E2E2E2E2E2E2E2E2E2E2E2E2E2E2E2E2E2E2E2E2E2E2E2E2E2E2E2E2E2E2E2E2E2E2E2E2E2E2E2E2E2E2E2E2E2E2E2E2E2E2E2E2E2E2E2E2E2E2E2E2E2E2E2E2E2E2E2E2E2E2E2E2E2E2E2E2
310
E2E2E2E2E2E2E2E2E2E2E2E2E2E2E2E2E2E2E2E2E2E2E2E2E2E2E2E2E2E2E2E2E2E2E2E2E2E2E2E2E2E2E2E2E2E2E2E2E2E2E2E2E2E2E2E2E2E2E2E2E2E2E2E2E2E2E2E2E2E2E2E2E2E2E2E2E2E2E2E2E2F5F5EFF5E2E2E2E2E2E2E2E2E2E2E2E2E2E2E2E2E2E2E2E2E2E2E2E2E2E2E2E2E2E2E2E2E2E2E2E2E2E2E2E2E2E2
310
E2E2E2E2E2E2E2E2E2E2E2E2E2E2E2E2E2E2E2E2E2E2E2E2E2E2E2E2E2E2E2E2E2E2E2E2E2E2E2E2E2E2E2E2E2E2E2E2E2E2E2E2E2E2E2E2E2E2E2E2E2E2E2E2E2E2E2E2E2E2E2E2E2E2E2E2E2E2E2E2E2E2E2E2E2E2E2E2E2E2E2E2E2E2E2E2E2E2E2E2E2E2E2E2E2E2E2E2E2E2E2E2E2E2E2E2E2E2E2E2E2E2E2E2E2E2E2
310
E2E2E2E2E2E2E2F5F5EFF5E2E2E2E2E2E2E2E2E2E2E2E2E2E2E2E2E2E2E2E2E2E2E2E2E2E2E2E2E2E2E2E2E2E2E2E2E2E2E2E2E2E2E2E2E2E2E2E2E2E2E2E2E2E2E2E2E2E2E2E2E2E2E2E2E2E2E2E2E2E2E2E2E2E2E2E2E2E2E2E2E2E2E2E2E2E2E2E2E2E2E2E2E2E2E2E2E2E2E2E2E2E2E2E2E2E2E2E2E2E2E2E2E2E2E2E2
310
E2E2E2E2E2E2E2E2E2E2E2E2E2E2E2E2E2E2E2E2E2E2E2E2E2E2E2E2E2E2E2E2E2E2E2E2E2E2E2E2E2E2E2E2E2E2E2E2E2E2E2E2E2E2E2E2E2E2E2E2F5F5EFF5E2E2E2E2E2E2E2E2E2E2E2E2E2E2E2E2E2E2E2E2E2E2E2E2E2E2E2E2E2E2E2E2E2E2E2E2E2E2E2E2E2E2E2E2E2E2E2E2E2E2E2E2E2E2E2E2E2E2E2E2E2E2E2
310
E2E2E2E2E2E2E2E2E2E2E2E2E2E2E2E2E2E2E2E2E2E2E2E2E2E2E2E2E2E2E2E2E2E2E2E2E2E2E2E2E2E2E2E2E2E2E2E2E2E2E2E2E2E2E2E2E2E2E2E2E2E2E2E2E2E2E2E2E2E2E2E2E2E2E2E2E2E2E2E2E2E2E2E2E2E2E2E2E2E2E2E2E2E2E2E2E2E2E2E2E2E2E2E2E2E2E2E2E2E2E2E2E2F5F5EFF5E2E2E2E2E2E2E2E2E2E2
310
E2E2E2E2E2E2E2E2E2E2E2E2E2E2E2E2E2E2E2E2E2E2E2E2E2E2E2E2E2E2E2E2E2E2E2E2E2E2E2E2E2E2E2E2E2E2E2E2E2E2E2E2E2E2E2E2E2E2E2E2E2E2E2E2E2E2E2E2E2E2E2E2E2E2E2E2E2E2E2E2E2E2E2E2E2E2E2E2E2E2E2E2E2E2E2E2E2E2E2E2E2E2E2E2E2E2E2E2E2E2E2E2E2E2E2E2E2E2E2E2E2E2E2E2E2E2E2
310
E2E2E2E2E2E2E2E2E2E2E2E2E2E2E2E2E2E2E2E2E2E2E2E2E2E2E2E2E2E2E2E2E2E2E2E2E2E2E2F5F5EFF5E2F5E2E2E2E2E2E2E2E2E2E2E2E2E2E2E2E2E2E2E2E2E2E2E2E2E2E2E2E2E2E2E2E2E2E2E2E2E2E2E2E2E2E2E2E2E2E2E2E2E2E2E2E2E2E2E2E2E2E2E2E2E2E2E2E2E2E2E2E2E2E2E2E2E2E2E2E2E2E2E2E2E2E2
310
E2E2E2E2E2E2E2E2E2E2E2E2E2E2E2E2E2E2E2E2E2E2E2E2E2E2E2E2E2E2E2E2E2E2E2E2E2E2E2E2E2E2E2E2E2E2E2E2E2E2E2E2E2E2E2E2E2E2E2E2E2E2E2E2E2E2E2E2E2E2E2E2E2E2E2E2E2E2E2E2E2E2E2E2E2E2E2E2E2E2F5E2F5F5EFF5E2F5E2E2E2E2E2E2E2E2E2E2E2E2E2E2E2E2E2E2E2E2E2E2E2E2E2E2E2E2E2
310
E2E2E2E2E2E2E2E2E2E2E2E2E2E2E2E2E2E2E2E2E2E2E2E2E2E2E2E2E2E2E2E2E2E2E2E2E2E2E2E2E2E2E2E2E2E2E2E2E2E2E2E2E2E2E2E2E2E2E2E2E2E2E2E2E2E2E2E2E2E2E2E2E2E2E2E2E2E2E2E2E2E2E2E2E2E2E2E2E2E2E2E2E2E2E2E2E2E2E2E2E2E2E2E2E2E2E2E2E2E2E2E2E2E2E2E2E2E2E2E2E2E2E2E2E2E2E2
310
E2E2E2E2E2E2E2E2E2E2E2E2E2E2E2E2F5E2F5F5EFF5E2F5E2E2E2E2E2E2E2E2E2E2E2E2E2E2E2E2E2E2E2E2E2E2E2E2E2E2E2E2E2E2E2E2E2E2E2E2E2E2E2E2E2E2E2E2E2E2E2E2E2E2E2E2E2E2E2E2E2E2E2E2E2E2E2E2E2E2E2E2E2E2E2E2E2E2E2E2E2E2E2E2E2E2E2E2E2E2E2E2E2E2E2E2E2E2E2E2E2E2E2E2E2E2E2
310
E2E2E2E2E2E2E2E2E2E2E2E2E2E2E2E2E2E2E2E2E2E2E2E2E2E2E2E2E2E2E2E2E2E2E2E2E2E2E2E2E2E2E2E2E2E2E2E2E2E2E2E2E2E2E2E2E2E2E2E2E2E2E2E2E2E2E2E2E2F5E2F5F5EFF5E2F5E2E2E2E2E2E2E2E2E2E2E2E2E2E2E2E2E2E2E2E2E2E2E2E2E2E2E2E2E2E2E2E2E2E2E2E2E2E2E2E2E2E2E2E2E2E2E2E2E2E2
310
E2E2E2E2E2E2E2E2E2E2E2E2E2E2E2E2E2E2E2E2E2E2E2E2E2E2E2E2E2E2E2E2E2E2E2E2E2E2E2E2E2E2E2E2E2E2E2E2E2E2E2E2E2E2E2E2E2E2E2E2E2E2E2E2E2E2E2E2E2E2E2E2E2E2E2E2E2E2E2E2E2E2E2E2E2E2E2E2E2E2E2E2E2E2E2E2E2E2E2E2E2E2E2E2E2E2E2E2E2E2E2E2E2E2E2E2E2E2E2E2E2E2F5E2F5F5EF
310
F5E2F5E2E2E2E2E2E2E2E2E2E2E2E2E2E2E2E2E2E2E2E2E2E2E2E2E2E2E2E2E2E2E2E2E2E2E2E2E2E2E2E2E2E2E2E2E2E2E2E2E2E2E2E2E2E2E2E2E2E2E2E2E2E2E2E2E2E2E2E2E2E2E2E2E2E2E2E2E2E2E2E2E2E2E2E2E2E2E2E2E2E2E2E2E2E2E2E2E2E2E2E2E2E2E2E2E2E2E2E2E2E2E2E2E2E2E2E2E2E2E2E2E2E2E2E2
310
E2E2E2E2E2E2E2E2E2E2E2E2E2E2E2E2E2E2E2E2E2E2E2E2E2E2E2E2E2E2E2E2E2E2E2E2E2E2E2E2E2E2E2E2E2E2E2E2F5E2F5F5EFF5E2F5E2E2E2E2E2E2E2E2E2E2E2E2E2E2E2E2E2E2E2E2E2E2E2E2E2E2E2E2E2E2E2E2E2E2E2E2E2E2E2E2E2E2E2E2E2E2E2E2E2E2E2E2E2E2E2E2E2E2E2E2E2E2E2E2E2E2E2E2E2E2E2
310
E2E2E2E2E2E2E2E2E2E2E2E2E2E2E2E2E2E2E2E2E2E2E2E2E2E2E2E2E2E2E2E2E2E2E2E2E2E2E2E2E2E2E2E2E2E2E2E2E2E2E2E2E2E2E2E2E2E2E2E2E2E2E2E2E2E2E2E2E2E2E2E2E2E2E2E2E2E2E2E2E2E2E2E2E2E2E2E2E2E2E2E2E2E2E2E2E2E2E2E2E2F5E2F5F5EFF5E2F5E2E2E2E2E2E2E2E2E2E2E2E2E2E2E2E2E2E2
310
E2E2E2E2E2E2E2E2E2E2E2E2E2E2E2E2E2E2E2E2E2E2E2E2E2E2E2E2E2E2E2E2E2E2E2E2E2E2E2E2E2E2E2E2E2E2E2E2E2E2E2E2E2E2E2E2E2E2E2E2E2E2E2E2E2E2E2E2E2E2E2E2E2E2E2E2E2E2E2E2E2E2E2E2E2E2E2E2E2E2E2E2E2E2E2E2E2E2E2E2E2E2E2E2E2E2E2E2E2E2E2E2E2E2E2E2E2E2E2E2E2E2E2E2E2E2E2
310
E2E2E2E2E2E2E2E2E2E2E2E2E2E2E2E2E2E2E2E2E2E2E2E2E2E2E2F5E2F5F5EFF5E2F5E2E2E2E2E2E2E2E2E2E2E2E2E2E2E2E2E2E2E2E2E2E2E2E2E2E2E2E2E2E2E2E2E2E2E2E2E2E2E2E2E2E2E2E2E2E2E2E2E2E2E2E2E2E2E2E2E2E2E2E2E2E2E2E2E2E2E2E2E2E2E2E2E2E2E2E2E2E2E2E2E2E2E2E2E2E2E2E2E2E2E2E2
310
E2E2E2E2E2E2E2E2E2E2E2E2E2E2E2E2E2E2E2E2E2E2E2E2E2E2E2E2E2E2E2E2E2E2E2E2E2E2E2E2E2E2E2E2E2E2E2E2E2E2E2E2E2E2E2E2E2E2E2E2E2E2E2E2E2E2E2E2E2E2E2E2E2E2E2E2E2E2E2E2F5E2F5F5EFF5E2F5E2E2E2E2E2E2E2E2E2E2E2E2E2E2E2E2E2E2E2E2E2E2E2E2E2E2E2E2E2E2E2E2E2E2E2E2E2E2E2
310
E2E2E2E2E2E2E2E2E2E2E2E2E2E2E2E2E2E2E2E2E2E2E2E2E2E2E2E2E2E2E2E2E2E2E2E2E2E2E2E2E2E2E2E2E2E2E2E2E2E2E2E2E2E2E2E2E2E2E2E2E2E2E2E2E2E2E2E2E2E2E2E2E2E2E2E2E2E2E2E2E2E2E2E2E2E2E2E2E2E2E2E2E2E2E2E2E2E2E2E2E2E2E2E2E2E2E2E2E2E2E2E2E2E2E2E2E2E2E2E2E2E2E2E2E2E2E2
310
E2E2E2E2E2E2F5E2F5F5EFF5E2F5E2E2E2E2E2E2E2E2E2E2E2E2E2E2E2E2E2E2E2E2E2E2E2E2E2E2E2E2E2E2E2E2E2E2E2E2E2E2E2E2E2E2E2E2E2E2E2E2E2E2E2E2E2E2E2E2E2E2E2E2E2E2E2E2E2E2E2E2E2E2E2E2E2E2E2E2E2E2E2E2E2E2E2E2E2E2E2E2E2E2E2E2E2E2E2E2E2E2E2E2E2E2E2E2E2E2E2E2E2E2E2E2E2
310
E2E2E2E2E2E2E2E2E2E2E2E2E2E2E2E2E2E2E2E2E2E2E2E2E2E2E2E2E2E2E2E2E2E2E2E2E2E2E2E2E2E2E2E2E2E2E2E2E2E2E2E2E2E2E2E2E2E2E2F5E2F5F5EFF5E2F5E2E2E2E2E2E2E2E2E2E2E2E2E2E2E2E2E2E2E2E2E2E2E2E2E2E2E2E2E2E2E2E2E2E2E2E2E2E2E2E2E2E2E2E2E2E2E2E2E2E2E2E2E2E2E2E2E2E2E2E2
310
E2E2E2E2E2E2E2E2E2E2E2E2E2E2E2E2E2E2E2E2E2E2E2E2E2E2E2E2E2E2E2E2E2E2E2E2E2E2E2E2E2E2E2E2E2E2E2E2E2E2E2E2E2E2E2E2E2E2E2E2E2E2E2E2E2E2E2E2E2E2E2E2E2E2E2E2E2E2E2E2E2E2E2E2E2E2E2E2E2E2E2E2E2E2E2E2E2E2E2E2E2E2E2E2E2E2E2E2E2E2E2E2F5E2F5F5EFF5E2F5E2E2E2E2E2E2E2
310
E2E2E2E2E2E2E2E2E2E2E2E2E2E2E2E2E2E2E2E2E2E2E2E2E2E2E2E2E2E2E2E2E2E2E2E2E2E2E2E2E2E2E2E2E2E2E2E2E2E2E2E2E2E2E2E2E2E2E2E2E2E2E2E2E2E2E2E2E2E2E2E2E2E2E2E2E2E2E2E2E2E2E2E2E2E2E2E2E2E2E2E2E2E2E2E2E2E2E2E2E2E2E2E2E2E2E2E2E2E2E2E2E2E2E2E2E2E2E2E2E2E2E2E2E2E2E2
310
E2E2E2E2E2E2E2E2E2E2E2E2E2E2E2E2E2E2E2E2E2E2E2E2E2E2E2E2E2E2E2E2E2E2E2E2E2E2F5E2F5F5EFF5E2F5E2E2E2E2E2E2E2E2E2E2E2E2E2E2E2E2E2E2E2E2E2E2E2E2E2E2E2E2E2E2E2E2E2E2E2E2E2E2E2E2E2E2E2E2E2E2E2E2E2E2E2E2E2E2E2E2E2E2E2E2E2E2E2E2E2E2E2E2E2E2E2E2E2E2E2E2E2E2E2E2E2
310
E2E2E2E2E2E2E2E2E2E2E2E2E2E2E2E2E2E2E2E2E2E2E2E2E2E2E2E2E2E2E2E2E2E2E2E2E2E2E2E2E2E2E2E2E2E2E2E2E2E2E2E2E2E2E2E2E2E2E2E2E2E2E2E2E2E2E2E2E2E2E2E2E2E2E2E2E2E2E2E2E2E2E2E2E2E2E2E2E2E2E2F5E2F5F5EFF5E2F5E2E2E2E2E2E2E2E2E2E2E2E2E2E2E2E2E2E2E2E2E2E2E2E2E2E2E2E2
310
E2E2E2E2E2E2E2E2E2E2E2E2E2E2E2E2E2E2E2E2E2E2E2E2E2E2E2E2E2E2E2E2E2E2E2E2E2E2E2E2E2E2E2E2E2E2E2E2E2E2E2E2E2E2E2E2E2E2E2E2E2E2E2E2E2E2E2E2E2E2E2E2E2E2E2E2E2E2E2E2E2E2E2E2E2E2E2E2E2E2E2E2E2E2E2E2E2E2E2E2E2E2E2E2E2E2E2E2E2E2E2E2E2E2E2E2E2E2E2E2E2E2E2E2E2E2E2
310
E2E2E2E2E2E2E2E2E2E2E2E2E2E2E2E2E2F5E2F5F5EFF5E2F5E2E2E2E2E2E2E2E2E2E2E2E2E2E2E2E2E2E2E2E2E2E2E2E2E2E2E2E2E2E2E2E2E2E2E2E2E2E2E2E2E2E2E2E2E2E2E2E2E2E2E2E2E2E2E2E2E2E2E2E2E2E2E2E2E2E2E2E2E2E2E2E2E2E2E2E2E2E2E2E2E2E2E2E2E2E2E2E2E2E2E2E2E2E2E2E2E2E2E2E2E2E2
310
E2E2E2E2E2E2E2E2E2E2E2E2E2E2E2E2E2E2E2E2E2E2E2E2E2E2E2E2E2E2E2E2E2E2E2E2E2E2E2E2E2E2E2E2E2E2E2E2E2E2E2E2E2E2E2E2E2E2E2E2E2E2E2E2E2E2E2E2E2E2F5E2F5F5EFF5E2F5E2E2E2E2E2E2E2E2E2E2E2E2E2E2E2E2E2E2E2E2E2E2E2E2E2E2E2E2E2E2E2E2E2E2E2E2E2E2E2E2E2E2E2E2E2E2E2E2E2
310
E2E2E2E2E2E2E2E2E2E2E2E2E2E2E2E2E2E2E2E2E2E2E2E2E2E2E2E2E2E2E2E2E2E2E2E2E2E2E2E2E2E2E2E2E2E2E2E2E2E2E2E2E2E2E2E2E2E2E2E2E2E2E2E2E2E2E2E2E2E2E2E2E2E2E2E2E2E2E2E2E2E2E2E2E2E2E2E2E2E2E2E2E2E2E2E2E2E2E2E2E2E2E2E2E2E2E2E2E2E2E2E2E2E2E2E2E2E2E2E2E2E2E2F5E2F5F5
310
EFF5E2E2E2E2E2E2E2E2E2E2E2E2E2E2E2E2E2E2E2E2E2E2E2E2E2E2E2E2E2E2E2E2E2E2E2E2E2E2E2E2E2E2E2E2E2E2E2E2E2E2E2E2E2E2E2E2E2E2E2E2E2E2E2E2E2E2E2E2E2E2E2E2E2E2E2E2E2E2E2E2E2E2E2E2E2E2E2E2E2E2E2E2E2E2E2E2E2E2E2E2E2E2E2E2E2E2E2E2E2E2E2E2E2E2E2E2E2E2E2E2E2E2E2E2E2
310
E2E2E2E2E2E2E2E2E2E2E2E2E2E2E2E2E2E2E2E2E2E2E2E2E2E2E2E2E2E2E2E2E2E2E2E2E2E2E2E2E2E2E2E2E2E2E2E2E2E2E2F5F5EFF5E2E2E2E2E2E2E2E2E2E2E2E2E2E2E2E2E2E2E2E2E2E2E2E2E2E2E2E2E2E2E2E2E2E2E2E2E2E2E2E2E2E2E2E2E2E2E2E2E2E2E2E2E2E2E2E2E2E2E2E2E2E2E2E2E2E2E2E2E2E2E2E2
310
E2E2E2E2E2E2E2E2E2E2E2E2E2E2E2E2E2E2E2E2E2E2E2E2E2E2E2E2E2E2E2E2E2E2E2E2E2E2E2E2E2E2E2E2E2E2E2E2E2E2E2E2E2E2E2E2E2E2E2E2E2E2E2E2E2E2E2E2E2E2E2E2E2E2E2E2E2E2E2E2E2E2E2E2E2E2E2E2E2E2E2E2E2E2E2E2E2E2E2E2E2E2E2E2F5F5EFF5E2E2E2E2E2E2E2E2E2E2E2E2E2E2E2E2E2E2E2
310
E2E2E2E2E2E2E2E2E2E2E2E2E2E2E2E2E2E2E2E2E2E2E2E2E2E2E2E2E2E2E2E2E2E2E2E2E2E2E2E2E2E2E2E2E2E2E2E2E2E2E2E2E2E2E2E2E2E2E2E2E2E2E2E2E2E2E2E2E2E2E2E2E2E2E2E2E2E2E2E2E2E2E2E2E2E2E2E2E2E2E2E2E2E2E2E2E2E2E2E2E2E2E2E2E2E2E2E2E2E2E2E2E2E2E2E2E2E2E2E2E2E2E2E2E2E2E2
310
E2E2E2E2E2E2E2E2E2E2E2E2E2E2E2E2E2E2E2E2E2E2E2E2E2E2E2E2E2E2F5F5EFF5E2E2E2E2E2E2E2E2E2E2E2E2E2E2E2E2E2E2E2E2E2E2E2E2E2E2E2E2E2E2E2E2E2E2E2E2E2E2E2E2E2E2E2E2E2E2E2E2E2E2E2E2E2E2E2E2E2E2E2E2E2E2E2E2E2E2E2E2E2E2E2E2E2E2E2E2E2E2E2E2E2E2E2E2E2E2E2E2E2E2E2E2E2
310
E2E2E2E2E2E2E2E2E2E2E2E2E2E2E2E2E2E2E2E2E2E2E2E2E2E2E2E2E2E2E2E2E2E2E2E2E2E2E2E2E2E2E2E2E2E2E2E2E2E2E2E2E2E2E2E2E2E2E2E2E2E2E2E2E2E2E2E2E2E2E2E2E2E2E2E2E2E2E2E2E2E2E2F5F5EFF5E2E2E2E2E2E2E2E2E2E2E2E2E2E2E2E2E2E2E2E2E2E2E2E2E2E2E2E2E2E2E2E2E2E2E2E2E2E2E2E2
310
E2E2E2E2E2E2E2E2E2E2E2E2E2E2E2E2E2E2E2E2E2E2E2E2E2E2E2E2E2E2E2E2E2E2E2E2E2E2E2E2E2E2E2E2E2E2E2E2E2E2E2E2E2E2E2E2E2E2E2E2E2E2E2E2E2E2E2E2E2E2E2E2E2E2E2E2E2E2E2E2E2E2E2E2E2E2E2E2E2E2E2E2E2E2E2E2E2E2E2E2E2E2E2E2E2E2E2E2E2E2E2E2E2E2E2E2E2E2E2E2E2E2E2E2E2E2E2
310
E2E2E2E2E2E2E2E2E2F5F5EFF5E2E2E2E2E2E2E2E2E2E2E2E2E2E2E2E2E2E2E2E2E2E2E2E2E2E2E2E2E2E2E2E2E2E2E2E2E2E2E2E2E2E2E2E2E2E2E2E2E2E2E2E2E2E2E2E2E2E2E2E2E2E2E2E2E2E2E2E2E2E2E2E2E2E2E2E2E2E2E2E2E2E2E2E2E2E2E2E2E2E2E2E2E2E2E2E2E2E2E2E2E2E2E2E2E2E2E2E2E2E2E2E2E2E2
310
E2E2E2E2E2E2E2E2E2E2E2E2E2E2E2E2E2E2E2E2E2E2E2E2E2E2E2E2E2E2E2E2E2E2E2E2E2E2E2E2E2E2E2E2E2E2E2E2E2E2E2E2E2E2E2E2E2E2E2E2E2E2F5F5EFF5E2E2E2E2E2E2E2E2E2E2E2E2E2E2E2E2E2E2E2E2E2E2E2E2E2E2E2E2E2E2E2E2E2E2E2E2E2E2E2E2E2E2E2E2E2E2E2E2E2E2E2E2E2E2E2E2E2E2E2E2E2
310
E2E2E2E2E2E2E2E2E2E2E2E2E2E2E2E2E2E2E2E2E2E2E2E2E2E2E2E2E2E2E2E2E2E2E2E2E2E2E2E2E2E2E2E2E2E2E2E2E2E2E2E2E2E2E2E2E2E2E2E2E2E2E2E2E2E2E2E2E2E2E2E2E2E2E2E2E2E2E2E2E2E2E2E2E2E2E2E2E2E2E2E2E2E2E2E2E2E2E2E2E2E2E2E2E2E2E2E2E2E2E2E2E2E2E2F5F5EFF5E2E2E2E2E2E2E2E2
310
E2E2E2E2E2E2E2E2E2E2E2E2E2E2E2E2E2E2E2E2E2E2E2E2E2E2E2E2E2E2E2E2E2E2E2E2E2E2E2E2E2E2E2E2E2E2E2E2E2E2E2E2E2E2E2E2E2E2E2E2E2E2E2E2E2E2E2E2E2E2E2E2E2E2E2E2E2E2E2E2E2E2E2E2E2E2E2E2E2E2E2E2E2E2E2E2E2E2E2E2E2E2E2E2E2E2E2E2E2E2E2E2E2E2E2E2E2E2E2E2E2E2E2E2E2E2E2
310
E2E2E2E2E2E2E2E2E2E2E2E2E2E2E2E2E2E2E2E2E2E2E2E2E2E2E2E2E2E2E2E2E2E2E2E2E2E2E2E2E2F5F5EFF5E2E2E2E2E2E2E2E2E2E2E2E2E2E2E2E2E2E2E2E2E2E2E2E2E2E2E2E2E2E2E2E2E2E2E2E2E2E2E2E2E2E2E2E2E2E2E2E2E2E2E2E2E2E2E2E2E2E2E2E2E2E2E2E2E2E2E2E2E2E2E2E2E2E2E2E2E2E2E2E2E2E2
310
E2E2E2E2E2E2E2E2E2E2E2E2E2E2E2E2E2E2E2E2E2E2E2E2E2E2E2E2E2E2E2E2E2E2E2E2E2E2E2E2E2E2E2E2E2E2E2E2E2E2E2E2E2E2E2E2E2E2E2E2E2E2E2E2E2E2E2E2E2E2E2E2E2E2E2E2E2E2E2E2E2E2E2E2E2E2E2E2E2E2E2E2E2E2F5F5EFF5E2F5E2E2E2E2E2E2E2E2E2E2E2E2E2E2E2E2E2E2E2E2E2E2E2E2E2E2E2
310
E2E2E2E2E2E2E2E2E2E2E2E2E2E2E2E2E2E2E2E2E2E2E2E2E2E2E2E2E2E2E2E2E2E2E2E2E2E2E2E2E2E2E2E2E2E2E2E2E2E2E2E2E2E2E2E2E2E2E2E2E2E2E2E2E2E2E2E2E2E2E2E2E2E2E2E2E2E2E2E2E2E2E2E2E2E2E2E2E2E2E2E2E2E2E2E2E2E2E2E2E2E2E2E2E2E2E2E2E2E2E2E2E2E2E2E2E2E2E2E2E2E2E2E2E2E2E2
310
E2E2E2E2E2E2E2E2E2E2E2E2E2E2E2E2E2E2F5E2F5F5EFF5E2F5E2E2E2E2E2E2E2E2E2E2E2E2E2E2E2E2E2E2E2E2E2E2E2E2E2E2E2E2E2E2E2E2E2E2E2E2E2E2E2E2E2E2E2E2E2E2E2E2E2E2E2E2E2E2E2E2E2E2E2E2E2E2E2E2E2E2E2E2E2E2E2E2E2E2E2E2E2E2E2E2E2E2E2E2E2E2E2E2E2E2E2E2E2E2E2E2E2E2E2E2E2
310
E2E2E2E2E2E2E2E2E2E2E2E2E2E2E2E2E2E2E2E2E2E2E2E2E2E2E2E2E2E2E2E2E2E2E2E2E2E2E2E2E2E2E2E2E2E2E2E2E2E2E2E2E2E2E2E2E2E2E2E2E2E2E2E2E2E2E2E2E2E2E2F5E2F5F5EFF5E2F5E2E2E2E2E2E2E2E2E2E2E2E2E2E2E2E2E2E2E2E2E2E2E2E2E2E2E2E2E2E2E2E2E2E2E2E2E2E2E2E2E2E2E2E2E2E2E2E2
310
E2E2E2E2E2E2E2E2E2E2E2E2E2E2E2E2E2E2E2E2E2E2E2E2E2E2E2E2E2E2E2E2E2E2E2E2E2E2E2E2E2E2E2E2E2E2E2E2E2E2E2E2E2E2E2E2E2E2E2E2E2E2E2E2E2E2E2E2E2E2E2E2E2E2E2E2E2E2E2E2E2E2E2E2E2E2E2E2E2E2E2E2E2E2E2E2E2E2E2E2E2E2E2E2E2E2E2E2E2E2E2E2E2E2E2E2E2E2E2E2E2E2E2E2F5E2F5
310
F5EFF5E2F5E2E2E2E2E2E2E2E2E2E2E2E2E2E2E2E2E2E2E2E2E2E2E2E2E2E2E2E2E2E2E2E2E2E2E2E2E2E2E2E2E2E2E2E2E2E2E2E2E2E2E2E2E2E2E2E2E2E2E2E2E2E2E2E2E2E2E2E2E2E2E2E2E2E2E2E2E2E2E2E2E2E2E2E2E2E2E2E2E2E2E2E2E2E2E2E2E2E2E2E2E2E2E2E2E2E2E2E2E2E2E2E2E2E2E2E2E2E2E2E2E2E2
310
E2E2E2E2E2E2E2E2E2E2E2E2E2E2E2E2E2E2E2E2E2E2E2E2E2E2E2E2E2E2E2E2E2E2E2E2E2E2E2E2E2E2E2E2E2E2E2E2E2E2F5E2F5F5EFF5E2F5E2E2E2E2E2E2E2E2E2E2E2E2E2E2E2E2E2E2E2E2E2E2E2E2E2E2E2E2E2E2E2E2E2E2E2E2E2E2E2E2E2E2E2E2E2E2E2E2E2E2E2E2E2E2E2E2E2E2E2E2E2E2E2E2E2E2E2E2E2
310
E2E2E2E2E2E2E2E2E2E2E2E2E2E2E2E2E2E2E2E2E2E2E2E2E2E2E2E2E2E2E2E2E2E2E2E2E2E2E2E2E2E2E2E2E2E2E2E2E2E2E2E2E2E2E2E2E2E2E2E2E2E2E2E2E2E2E2E2E2E2E2E2E2E2E2E2E2E2E2E2E2E2E2E2E2E2E2E2E2E2E2E2E2E2E2E2E2E2E2E2E2E2E2F5E2F5F5EFF5E2F5E2E2E2E2E2E2E2E2E2E2E2E2E2E2E2E2
310
E2E2E2E2E2E2E2E2E2E2E2E2E2E2E2E2E2E2E2E2E2E2E2E2E2E2E2E2E2E2E2E2E2E2E2E2E2E2E2E2E2E2E2E2E2E2E2E2E2E2E2E2E2E2E2E2E2E2E2E2E2E2E2E2E2E2E2E2E2E2E2E2E2E2E2E2E2E2E2E2E2E2E2E2E2E2E2E2E2E2E2E2E2E2E2E2E2E2E2E2E2E2E2E2E2E2E2E2E2E2E2E2E2E2E2E2E2E2E2E2E2E2E2E2E2E2E2
310
E2E2E2E2E2E2E2E2E2E2E2E2E2E2E2E2E2E2E2E2E2E2E2E2E2E2E2E2E2F5E2F5F5EFF5E2F5E2E2E2E2E2E2E2E2E2E2E2E2E2E2E2E2E2E2E2E2E2E2E2E2E2E2E2E2E2E2E2E2E2E2E2E2E2E2E2E2E2E2E2E2E2E2E2E2E2E2E2E2E2E2E2E2E2E2E2E2E2E2E2E2E2E2E2E2E2E2E2E2E2E2E2E2E2E2E2E2E2E2E2E2E2E2E2E2E2E2
310
E2E2E2E2E2E2E2E2E2E2E2E2E2E2E2E2E2E2E2E2E2E2E2E2E2E2E2E2E2E2E2E2E2E2E2E2E2E2E2E2E2E2E2E2E2E2E2E2E2E2E2E2E2E2E2E2E2E2E2E2E2E2E2E2E2E2E2E2E2E2E2E2E2E2E2E2E2E2E2E2E2E2F5E2F5F5EFF5E2F5E2E2E2E2E2E2E2E2E2E2E2E2E2E2E2E2E2E2E2E2E2E2E2E2E2E2E2E2E2E2E2E2E2E2E2E2E2
310
E2E2E2E2E2E2E2E2E2E2E2E2E2E2E2E2E2E2E2E2E2E2E2E2E2E2E2E2E2E2E2E2E2E2E2E2E2E2E2E2E2E2E2E2E2E2E2E2E2E2E2E2E2E2E2E2E2E2E2E2E2E2E2E2E2E2E2E2E2E2E2E2E2E2E2E2E2E2E2E2E2E2E2E2E2E2E2E2E2E2E2E2E2E2E2E2E2E2E2E2E2E2E2E2E2E2E2E2E2E2E2E2E2E2E2E2E2E2E2E2E2E2E2E2E2E2E2
310
E2E2E2E2E2E2E2E2F5E2F5F5EFF5E2F5E2E2E2E2E2E2E2E2E2E2E2E2E2E2E2E2E2E2E2E2E2E2E2E2E2E2E2E2E2E2E2E2E2E2E2E2E2E2E2E2E2E2E2E2E2E2E2E2E2E2E2E2E2E2E2E2E2E2E2E2E2E2E2E2E2E2E2E2E2E2E2E2E2E2E2E2E2E2E2E2E2E2E2E2E2E2E2E2E2E2E2E2E2E2E2E2E2E2E2E2E2E2E2E2E2E2E2E2E2E2E2
310
E2E2E2E2E2E2E2E2E2E2E2E2E2E2E2E2E2E2E2E2E2E2E2E2E2E2E2E2E2E2E2E2E2E2E2E2E2E2E2E2E2E2E2E2E2E2E2E2E2E2E2E2E2E2E2E2E2E2E2E2E2F5E2F5F5EFF5E2F5E2E2E2E2E2E2E2E2E2E2E2E2E2E2E2E2E2E2E2E2E2E2E2E2E2E2E2E2E2E2E2E2E2E2E2E2E2E2E2E2E2E2E2E2E2E2E2E2E2E2E2E2E2E2E2E2E2E2
310
E2E2E2E2E2E2E2E2E2E2E2E2E2E2E2E2E2E2E2E2E2E2E2E2E2E2E2E2E2E2E2E2E2E2E2E2E2E2E2E2E2E2E2E2E2E2E2E2E2E2E2E2E2E2E2E2E2E2E2E2E2E2E2E2E2E2E2E2E2E2E2E2E2E2E2E2E2E2E2E2E2E2E2E2E2E2E2E2E2E2E2E2E2E2E2E2E2E2E2E2E2E2E2E2E2E2E2E2E2E2E2E2E2E2F5E2F5F5EFF5E2F5E2E2E2E2E2
310
E2E2E2E2E2E2E2E2E2E2E2E2E2E2E2E2E2E2E2E2E2E2E2E2E2E2E2E2E2E2E2E2E2E2E2E2E2E2E2E2E2E2E2E2E2E2E2E2E2E2E2E2E2E2E2E2E2E2E2E2E2E2E2E2E2E2E2E2E2E2E2E2E2E2E2E2E2E2E2E2E2E2E2E2E2E2E2E2E2E2E2E2E2E2E2E2E2E2E2E2E2E2E2E2E2E2E2E2E2E2E2E2E2E2E2E2E2E2E2E2E2E2E2E2E2E2E2
310
E2E2E2E2E2E2E2E2E2E2E2E2E2E2E2E2E2E2E2E2E2E2E2E2E2E2E2E2E2E2E2E2E2E2E2E2E2E2E2E2F5E2F5F5EFF5E2F5E2E2E2E2E2E2E2E2E2E2E2E2E2E2E2E2E2E2E2E2E2E2E2E2E2E2E2E2E2E2E2E2E2E2E2E2E2E2E2E2E2E2E2E2E2E2E2E2E2E2E2E2E2E2E2E2E2E2E2E2E2E2E2E2E2E2E2E2E2E2E2E2E2E2E2E2E2E2E2
310
E2E2E2E2E2E2E2E2E2E2E2E2E2E2E2E2E2E2E2E2E2E2E2E2E2E2E2E2E2E2E2E2E2E2E2E2E2E2E2E2E2E2E2E2E2E2E2E2E2E2E2E2E2E2E2E2E2E2E2E2E2E2E2E2E2E2E2E2E2E2E2E2E2E2E2E2E2E2E2E2E2E2E2E2E2E2E2E2E2E2E2E2E2F5E2F5F5EFF5E2F5E2E2E2E2E2E2E2E2E2E2E2E2E2E2E2E2E2E2E2E2E2E2E2E2E2E2
310
E2E2E2E2E2E2E2E2E2E2E2E2E2E2E2E2E2E2E2E2E2E2E2E2E2E2E2E2E2E2E2E2E2E2E2E2E2E2E2E2E2E2E2E2E2E2E2E2E2E2E2E2E2E2E2E2E2E2E2E2E2E2E2E2E2E2E2E2E2E2E2E2E2E2E2E2E2E2E2E2E2E2E2E2E2E2E2E2E2E2E2E2E2E2E2E2E2E2E2E2E2E2E2E2E2E2E2E2E2E2E2E2E2E2E2E2E2E2E2E2E2E2E2E2E2E2E2
310
E2E2E2E2E2E2E2E2E2E2E2E2E2E2E2E2E2E2E2F5E2F5F5EFF5E2F5E2E2E2E2E2E2E2E2E2E2E2E2E2E2E2E2E2E2E2E2E2E2E2E2E2E2E2E2E2E2E2E2E2E2E2E2E2E2E2E2E2E2E2E2E2E2E2E2E2E2E2E2E2E2E2E2E2E2E2E2E2E2E2E2E2E2E2E2E2E2E2E2E2E2E2E2E2E2E2E2E2E2E2E2E2E2E2E2E2E2E2E2E2E2E2E2E2E2E2E2
310
E2E2E2E2E2E2E2E2E2E2E2E2E2E2E2E2E2E2E2E2E2E2E2E2E2E2E2E2E2E2E2E2E2E2E2E2E2E2E2E2E2E2E2E2E2E2E2E2E2E2E2E2E2E2E2E2E2E2E2E2E2E2E2E2E2E2E2E2E2E2E2E2F5E2F5F5EFF5E2F5E2E2E2E2E2E2E2E2E2E2E2E2E2E2E2E2E2E2E2E2E2E2E2E2E2E2E2E2E2E2E2E2E2E2E2E2E2E2E2E2E2E2E2E2E2E2E2
310
E2E2E2E2E2E2E2E2E2E2E2E2E2E2E2E2E2E2E2E2E2E2E2E2E2E2E2E2E2E2E2E2E2E2E2E2E2E2E2E2E2E2E2E2E2E2E2E2E2E2E2E2E2E2E2E2E2E2E2E2E2E2E2E2E2E2E2E2E2E2E2E2E2E2E2E2E2E2E2E2E2E2E2E2E2E2E2E2E2E2E2E2E2E2E2E2E2E2E2E2E2E2E2E2E2E2E2E2E2E2E2E2E2E2E2E2E2E2E2E2E2E2E2E2E2F5E2
310
F5F5EFF5E2F5E2E2E2E2E2E2E2E2E2E2E2E2E2E2E2E2E2E2E2E2E2E2E2E2E2E2E2E2E2E2E2E2E2E2E2E2E2E2E2E2E2E2E2E2E2E2E2E2E2E2E2E2E2E2E2E2E2E2E2E2E2E2E2E2E2E2E2E2E2E2E2E2E2E2E2E2E2E2E2E2E2E2E2E2E2E2E2E2E2E2E2E2E2E2E2E2E2E2E2E2E2E2E2E2E2E2E2E2E2E2E2E2E2E2E2E2E2E2E2E2E2
310
E2E2E2E2E2E2E2E2E2E2E2E2E2E2E2E2E2E2E2E2E2E2E2E2E2E2E2E2E2E2E2E2E2E2E2E2E2E2E2E2E2E2E2E2E2E2E2E2E2E2E2F5E2F5F5EFF5E2E2E2E2E2E2E2E2E2E2E2E2E2E2E2E2E2E2E2E2E2E2E2E2E2E2E2E2E2E2E2E2E2E2E2E2E2E2E2E2E2E2E2E2E2E2E2E2E2E2E2E2E2E2E2E2E2E2E2E2E2E2E2E2E2E2E2E2E2E2
310
E2E2E2E2E2E2E2E2E2E2E2E2E2E2E2E2E2E2E2E2E2E2E2E2E2E2E2E2E2E2E2E2E2E2E2E2E2E2E2E2E2E2E2E2E2E2E2E2E2E2E2E2E2E2E2E2E2E2E2E2E2E2E2E2E2E2E2E2E2E2E2E2E2E2E2E2E2E2E2E2E2E2E2E2E2E2E2E2E2E2E2E2E2E2E2E2E2E2E2E2E2E2E2E2E2E2F5F5EFF5E2E2E2E2E2E2E2E2E2E2E2E2E2E2E2E2E2
310
E2E2E2E2E2E2E2E2E2E2E2E2E2E2E2E2E2E2E2E2E2E2E2E2E2E2E2E2E2E2E2E2E2E2E2E2E2E2E2E2E2E2E2E2E2E2E2E2E2E2E2E2E2E2E2E2E2E2E2E2E2E2E2E2E2E2E2E2E2E2E2E2E2E2E2E2E2E2E2E2E2E2E2E2E2E2E2E2E2E2E2E2E2E2E2E2E2E2E2E2E2E2E2E2E2E2E2E2E2E2E2E2E2E2E2E2E2E2E2E2E2E2E2E2E2E2E2
310
E2E2E2E2E2E2E2E2E2E2E2E2E2E2E2E2E2E2E2E2E2E2E2E2E2E2E2E2E2E2E2E2F5F5EFF5E2E2E2E2E2E2E2E2E2E2E2E2E2E2E2E2E2E2E2E2E2E2E2E2E2E2E2E2E2E2E2E2E2E2E2E2E2E2E2E2E2E2E2E2E2E2E2E2E2E2E2E2E2E2E2E2E2E2E2E2E2E2E2E2E2E2E2E2E2E2E2E2E2E2E2E2E2E2E2E2E2E2E2E2E2E2E2E2E2E2E2
310
E2E2E2E2E2E2E2E2E2E2E2E2E2E2E2E2E2E2E2E2E2E2E2E2E2E2E2E2E2E2E2E2E2E2E2E2E2E2E2E2E2E2E2E2E2E2E2E2E2E2E2E2E2E2E2E2E2E2E2E2E2E2E2E2E2E2E2E2E2E2E2E2E2E2E2E2E2E2E2E2E2E2E2E2E2F5F5EFF5E2E2E2E2E2E2E2E2E2E2E2E2E2E2E2E2E2E2E2E2E2E2E2E2E2E2E2E2E2E2E2E2E2E2E2E2E2E2
310
E2E2E2E2E2E2E2E2E2E2E2E2E2E2E2E2E2E2E2E2E2E2E2E2E2E2E2E2E2E2E2E2E2E2E2E2E2E2E2E2E2E2E2E2E2E2E2E2E2E2E2E2E2E2E2E2E2E2E2E2E2E2E2E2E2E2E2E2E2E2E2E2E2E2E2E2E2E2E2E2E2E2E2E2E2E2E2E2E2E2E2E2E2E2E2E2E2E2E2E2E2E2E2E2E2E2E2E2E2E2E2E2E2E2E2E2E2E2E2E2E2E2E2E2E2E2E2
310
E2E2E2E2E2E2E2E2E2E2E2F5F5EFF5E2E2E2E2E2E2E2E2E2E2E2E2E2E2E2E2E2E2E2E2E2E2E2E2E2E2E2E2E2E2E2E2E2E2E2E2E2E2E2E2E2E2E2E2E2E2E2E2E2E2E2E2E2E2E2E2E2E2E2E2E2E2E2E2E2E2E2E2E2E2E2E2E2E2E2E2E2E2E2E2E2E2E2E2E2E2E2E2E2E2E2E2E2E2E2E2E2E2E2E2E2E2E2E2E2E2E2E2E2E2E2E2
310
E2E2E2E2E2E2E2E2E2E2E2E2E2E2E2E2E2E2E2E2E2E2E2E2E2E2E2E2E2E2E2E2E2E2E2E2E2E2E2E2E2E2E2E2E2E2E2E2E2E2E2E2E2E2E2E2E2E2E2E2E2E2E2E2F5F5EFF5E2E2E2E2E2E2E2E2E2E2E2E2E2E2E2E2E2E2E2E2E2E2E2E2E2E2E2E2E2E2E2E2E2E2E2E2E2E2E2E2E2E2E2E2E2E2E2E2E2E2E2E2E2E2E2E2E2E2E2
310
E2E2E2E2E2E2E2E2E2E2E2E2E2E2E2E2E2E2E2E2E2E2E2E2E2E2E2E2E2E2E2E2E2E2E2E2E2E2E2E2E2E2E2E2E2E2E2E2E2E2E2E2E2E2E2E2E2E2E2E2E2E2E2E2E2E2E2E2E2E2E2E2E2E2E2E2E2E2E2E2E2E2E2E2E2E2E2E2E2E2E2E2E2E2E2E2E2E2E2E2E2E2E2E2E2E2E2E2E2E2E2E2E2E2E2E2E2F5F5EFF5E2E2E2E2E2E2
310
E2E2E2E2E2E2E2E2E2E2E2E2E2E2E2E2E2E2E2E2E2E2E2E2E2E2E2E2E2E2E2E2E2E2E2E2E2E2E2E2E2E2E2E2E2E2E2E2E2E2E2E2E2E2E2E2E2E2E2E2E2E2E2E2E2E2E2E2E2E2E2E2E2E2E2E2E2E2E2E2E2E2E2E2E2E2E2E2E2E2E2E2E2E2E2E2E2E2E2E2E2E2E2E2E2E2E2E2E2E2E2E2E2E2E2E2E2E2E2E2E2E2E2E2E2E2E2
310
E2E2E2E2E2E2E2E2E2E2E2E2E2E2E2E2E2E2E2E2E2E2E2E2E2E2E2E2E2E2E2E2E2E2E2E2E2E2E2E2E2E2E2F5F5EFF5E2E2E2E2E2E2E2E2E2E2E2E2E2E2E2E2E2E2E2E2E2E2E2E2E2E2E2E2E2E2E2E2E2E2E2E2E2E2E2E2E2E2E2E2E2E2E2E2E2E2E2E2E2E2E2E2E2E2E2E2E2E2E2E2E2E2E2E2E2E2E2E2E2E2E2E2E2E2E2E2
310
E2E2E2E2E2E2E2E2E2E2E2E2E2E2E2E2E2E2E2E2E2E2E2E2E2E2E2E2E2E2E2E2E2E2E2E2E2E2E2E2E2E2E2E2E2E2E2E2E2E2E2E2E2E2E2E2E2E2E2E2E2E2E2E2E2E2E2E2E2E2E2E2E2E2E2E2E2E2E2E2E2E2E2E2E2E2E2E2E2E2E2E2E2E2E2E2F5F5EFF5E2F5E2E2E2E2E2E2E2E2E2E2E2E2E2E2E2E2E2E2E2E2E2E2E2E2E2
310
E2E2E2E2E2E2E2E2E2E2E2E2E2E2E2E2E2E2E2E2E2E2E2E2E2E2E2E2E2E2E2E2E2E2E2E2E2E2E2E2E2E2E2E2E2E2E2E2E2E2E2E2E2E2E2E2E2E2E2E2E2E2E2E2E2E2E2E2E2E2E2E2E2E2E2E2E2E2E2E2E2E2E2E2E2E2E2E2E2E2E2E2E2E2E2E2E2E2E2E2E2E2E2E2E2E2E2E2E2E2E2E2E2E2E2E2E2E2E2E2E2E2E2E2E2E2E2
310
E2E2E2E2E2E2E2E2E2E2E2E2E2E2E2E2E2E2E2E2F5E2F5F5EFF5E2F5E2E2E2E2E2E2E2E2E2E2E2E2E2E2E2E2E2E2E2E2E2E2E2E2E2E2E2E2E2E2E2E2E2E2E2E2E2E2E2E2E2E2E2E2E2E2E2E2E2E2E2E2E2E2E2E2E2E2E2E2E2E2E2E2E2E2E2E2E2E2E2E2E2E2E2E2E2E2E2E2E2E2E2E2E2E2E2E2E2E2E2E2E2E2E2E2E2E2E2
310
E2E2E2E2E2E2E2E2E2E2E2E2E2E2E2E2E2E2E2E2E2E2E2E2E2E2E2E2E2E2E2E2E2E2E2E2E2E2E2E2E2E2E2E2E2E2E2E2E2E2E2E2E2E2E2E2E2E2E2E2E2E2E2E2E2E2E2E2E2E2E2E2E2F5E2F5F5EFF5E2F5E2E2E2E2E2E2E2E2E2E2E2E2E2E2E2E2E2E2E2E2E2E2E2E2E2E2E2E2E2E2E2E2E2E2E2E2E2E2E2E2E2E2E2E2E2E2
310
E2E2E2E2E2E2E2E2E2E2E2E2E2E2E2E2E2E2E2E2E2E2E2E2E2E2E2E2E2E2E2E2E2E2E2E2E2E2E2E2E2E2E2E2E2E2E2E2E2E2E2E2E2E2E2E2E2E2E2E2E2E2E2E2E2E2E2E2E2E2E2E2E2E2E2E2E2E2E2E2E2E2E2E2E2E2E2E2E2E2E2E2E2E2E2E2E2E2E2E2E2E2E2E2E2E2E2E2E2E2E2E2E2E2E2E2E2E2E2E2E2E2E2E2E2E2F5
310
E2F5F5EFF5E2F5E2E2E2E2E2E2E2E2E2E2E2E2E2E2E2E2E2E2E2E2E2E2E2E2E2E2E2E2E2E2E2E2E2E2E2E2E2E2E2E2E2E2E2E2E2E2E2E2E2E2E2E2E2E2E2E2E2E2E2E2E2E2E2E2E2E2E2E2E2E2E2E2E2E2E2E2E2E2E2E2E2E2E2E2E2E2E2E2E2E2E2E2E2E2E2E2E2E2E2E2E2E2E2E2E2E2E2E2E2E2E2E2E2E2E2E2E2E2E2E2
310
E2E2E2E2E2E2E2E2E2E2E2E2E2E2E2E2E2E2E2E2E2E2E2E2E2E2E2E2E2E2E2E2E2E2E2E2E2E2E2E2E2E2E2E2E2E2E2E2E2E2E2E2F5E2F5F5EFF5E2F5E2E2E2E2E2E2E2E2E2E2E2E2E2E2E2E2E2E2E2E2E2E2E2E2E2E2E2E2E2E2E2E2E2E2E2E2E2E2E2E2E2E2E2E2E2E2E2E2E2E2E2E2E2E2E2E2E2E2E2E2E2E2E2E2E2E2E2
310
E2E2E2E2E2E2E2E2E2E2E2E2E2E2E2E2E2E2E2E2E2E2E2E2E2E2E2E2E2E2E2E2E2E2E2E2E2E2E2E2E2E2E2E2E2E2E2E2E2E2E2E2E2E2E2E2E2E2E2E2E2E2E2E2E2E2E2E2E2E2E2E2E2E2E2E2E2E2E2E2E2E2E2E2E2E2E2E2E2E2E2E2E2E2E2E2E2E2E2E2E2E2E2E2E2F5E2F5F5EFF5E2F5E2E2E2E2E2E2E2E2E2E2E2E2E2E2
310
E2E2E2E2E2E2E2E2E2E2E2E2E2E2E2E2E2E2E2E2E2E2E2E2E2E2E2E2E2E2E2E2E2E2E2E2E2E2E2E2E2E2E2E2E2E2E2E2E2E2E2E2E2E2E2E2E2E2E2E2E2E2E2E2E2E2E2E2E2E2E2E2E2E2E2E2E2E2E2E2E2E2E2E2E2E2E2E2E2E2E2E2E2E2E2E2E2E2E2E2E2E2E2E2E2E2E2E2E2E2E2E2E2E2E2E2E2E2E2E2E2E2E2E2E2E2E2
310
E2E2E2E2E2E2E2E2E2E2E2E2E2E2E2E2E2E2E2E2E2E2E2E2E2E2E2E2E2E2E2F5E2F5F5EFF5E2F5E2E2E2E2E2E2E2E2E2E2E2E2E2E2E2E2E2E2E2E2E2E2E2E2E2E2E2E2E2E2E2E2E2E2E2E2E2E2E2E2E2E2E2E2E2E2E2E2E2E2E2E2E2E2E2E2E2E2E2E2E2E2E2E2E2E2E2E2E2E2E2E2E2E2E2E2E2E2E2E2E2E2E2E2E2E2E2E2
310
E2E2E2E2E2E2E2E2E2E2E2E2E2E2E2E2E2E2E2E2E2E2E2E2E2E2E2E2E2E2E2E2E2E2E2E2E2E2E2E2E2E2E2E2E2E2E2E2E2E2E2E2E2E2E2E2E2E2E2E2E2E2E2E2E2E2E2E2E2E2E2E2E2E2E2E2E2E2E2E2E2E2E2E2F5E2F5F5EFF5E2F5E2E2E2E2E2E2E2E2E2E2E2E2E2E2E2E2E2E2E2E2E2E2E2E2E2E2E2E2E2E2E2E2E2E2E2
310
E2E2E2E2E2E2E2E2E2E2E2E2E2E2E2E2E2E2E2E2E2E2E2E2E2E2E2E2E2E2E2E2E2E2E2E2E2E2E2E2E2E2E2E2E2E2E2E2E2E2E2E2E2E2E2E2E2E2E2E2E2E2E2E2E2E2E2E2E2E2E2E2E2E2E2E2E2E2E2E2E2E2E2E2E2E2E2E2E2E2E2E2E2E2E2E2E2E2E2E2E2E2E2E2E2E2E2E2E2E2E2E2E2E2E2E2E2E2E2E2E2E2E2E2E2E2E2
310
E2E2E2E2E2E2E2E2E2E2F5E2F5F5EFF5E2F5E2E2E2E2E2E2E2E2E2E2E2E2E2E2E2E2E2E2E2E2E2E2E2E2E2E2E2E2E2E2E2E2E2E2E2E2E2E2E2E2E2E2E2E2E2E2E2E2E2E2E2E2E2E2E2E2E2E2E2E2E2E2E2E2E2E2E2E2E2E2E2E2E2E2E2E2E2E2E2E2E2E2E2E2E2E2E2E2E2E2E2E2E2E2E2E2E2E2E2E2E2E2E2E2E2E2E2E2E2
310
E2E2E2E2E2E2E2E2E2E2E2E2E2E2E2E2E2E2E2E2E2E2E2E2E2E2E2E2E2E2E2E2E2E2E2E2E2E2E2E2E2E2E2E2E2E2E2E2E2E2E2E2E2E2E2E2E2E2E2E2E2E2E2F5E2F5F5EFF5E2F5E2E2E2E2E2E2E2E2E2E2E2E2E2E2E2E2E2E2E2E2E2E2E2E2E2E2E2E2E2E2E2E2E2E2E2E2E2E2E2E2E2E2E2E2E2E2E2E2E2E2E2E2E2E2E2E2
310
E2E2E2E2E2E2E2E2E2E2E2E2E2E2E2E2E2E2E2E2E2E2E2E2E2E2E2E2E2E2E2E2E2E2E2E2E2E2E2E2E2E2E2E2E2E2E2E2E2E2E2E2E2E2E2E2E2E2E2E2E2E2E2E2E2E2E2E2E2E2E2E2E2E2E2E2E2E2E2E2E2E2E2E2E2E2E2E2E2E2E2E2E2E2E2E2E2E2E2E2E2E2E2E2E2E2E2E2E2E2E2E2E2E2E2E2F5E2F5F5EFF5E2F5E2E2E2
310
E2E2E2E2E2E2E2E2E2E2E2E2E2E2E2E2E2E2E2E2E2E2E2E2E2E2E2E2E2E2E2E2E2E2E2E2E2E2E2E2E2E2E2E2E2E2E2E2E2E2E2E2E2E2E2E2E2E2E2E2E2E2E2E2E2E2E2E2E2E2E2E2E2E2E2E2E2E2E2E2E2E2E2E2E2E2E2E2E2E2E2E2E2E2E2E2E2E2E2E2E2E2E2E2E2E2E2E2E2E2E2E2E2E2E2E2E2E2E2E2E2E2E2E2E2E2E2
310
E2E2E2E2E2E2E2E2E2E2E2E2E2E2E2E2E2E2E2E2E2E2E2E2E2E2E2E2E2E2E2E2E2E2E2E2E2E2E2E2E2E2F5E2F5F5EFF5E2F5E2E2E2E2E2E2E2E2E2E2E2E2E2E2E2E2E2E2E2E2E2E2E2E2E2E2E2E2E2E2E2E2E2E2E2E2E2E2E2E2E2E2E2E2E2E2E2E2E2E2E2E2E2E2E2E2E2E2E2E2E2E2E2E2E2E2E2E2E2E2E2E2E2E2E2E2E2
310
E2E2E2E2E2E2E2E2E2E2E2E2E2E2E2E2E2E2E2E2E2E2E2E2E2E2E2E2E2E2E2E2E2E2E2E2E2E2E2E2E2E2E2E2E2E2E2E2E2E2E2E2E2E2E2E2E2E2E2E2E2E2E2E2E2E2E2E2E2E2E2E2E2E2E2E2E2E2E2E2E2E2E2E2E2E2E2E2E2E2E2E2E2E2E2F5E2F5F5EFF5E2F5E2E2E2E2E2E2E2E2E2E2E2E2E2E2E2E2E2E2E2E2E2E2E2E2
310
E2E2E2E2E2E2E2E2E2E2E2E2E2E2E2E2E2E2E2E2E2E2E2E2E2E2E2E2E2E2E2E2E2E2E2E2E2E2E2E2E2E2E2E2E2E2E2E2E2E2E2E2E2E2E2E2E2E2E2E2E2E2E2E2E2E2E2E2E2E2E2E2E2E2E2E2E2E2E2E2E2E2E2E2E2E2E2E2E2E2E2E2E2E2E2E2E2E2E2E2E2E2E2E2E2E2E2E2E2E2E2E2E2E2E2E2E2E2E2E2E2E2E2E2E2E2E2
310
E2E2E2E2E2E2E2E2E2E2E2E2E2E2E2E2E2E2E2E2E2F5E2F5F5EFF5E2F5E2E2E2E2E2E2E2E2E2E2E2E2E2E2E2E2E2E2E2E2E2E2E2E2E2E2E2E2E2E2E2E2E2E2E2E2E2E2E2E2E2E2E2E2E2E2E2E2E2E2E2E2E2E2E2E2E2E2E2E2E2E2E2E2E2E2E2E2E2E2E2E2E2E2E2E2E2E2E2E2E2E2E2E2E2E2E2E2E2E2E2E2E2E2E2E2E2E2
310
E2E2E2E2E2E2E2E2E2E2E2E2E2E2E2E2E2E2E2E2E2E2E2E2E2E2E2E2E2E2E2E2E2E2E2E2E2E2E2E2E2E2E2E2E2E2E2E2E2E2E2E2E2E2E2E2E2E2E2E2E2E2E2E2E2E2E2E2E2E2E2E2E2E2F5E2F5F5EFF5E2F5E2E2E2E2E2E2E2E2E2E2E2E2E2E2E2E2E2E2E2E2E2E2E2E2E2E2E2E2E2E2E2E2E2E2E2E2E2E2E2E2E2E2E2E2E2
310
E2E2E2E2E2E2E2E2E2E2E2E2E2E2E2E2E2E2E2E2E2E2E2E2E2E2E2E2E2E2E2E2E2E2E2E2E2E2E2E2E2E2E2E2E2E2E2E2E2E2E2E2E2E2E2E2E2E2E2E2E2E2E2E2E2E2E2E2E2E2E2E2E2E2E2E2E2E2E2E2E2E2E2E2E2E2E2E2E2E2E2E2E2E2E2E2E2E2E2E2E2E2E2E2E2E2E2E2E2E2E2E2E2E2E2E2E2E2E2E2E2E2E2E2E2E2E2
310
F5E2F5F5EFF5E2F5E2E2E2E2E2E2E2E2E2E2E2E2E2E2E2E2E2E2E2E2E2E2E2E2E2E2E2E2E2E2E2E2E2E2E2E2E2E2E2E2E2E2E2E2E2E2E2E2E2E2E2E2E2E2E2E2E2E2E2E2E2E2E2E2E2E2E2E2E2E2E2E2E2E2E2E2E2E2E2E2E2E2E2E2E2E2E2E2E2E2E2E2E2E2E2E2E2E2E2E2E2E2E2E2E2E2E2E2E2E2E2E2E2E2E2E2E2E2E2
310
E2E2E2E2E2E2E2E2E2E2E2E2E2E2E2E2E2E2E2E2E2E2E2E2E2E2E2E2E2E2E2E2E2E2E2E2E2E2E2E2E2E2E2E2E2E2E2E2E2E2E2E2E2F5E2F5F5EFF5E2E2E2E2E2E2E2E2E2E2E2E2E2E2E2E2E2E2E2E2E2E2E2E2E2E2E2E2E2E2E2E2E2E2E2E2E2E2E2E2E2E2E2E2E2E2E2E2E2E2E2E2E2E2E2E2E2E2E2E2E2E2E2E2E2E2E2E2
310
E2E2E2E2E2E2E2E2E2E2E2E2E2E2E2E2E2E2E2E2E2E2E2E2E2E2E2E2E2E2E2E2E2E2E2E2E2E2E2E2E2E2E2E2E2E2E2E2E2E2E2E2E2E2E2E2E2E2E2E2E2E2E2E2E2E2E2E2E2E2E2E2E2E2E2E2E2E2E2E2E2E2E2E2E2E2E2E2E2E2E2E2E2E2E2E2E2E2E2E2E2E2E2E2E2E2E2E2F5F5EFF5E2E2E2E2E2E2E2E2E2E2E2E2E2E2E2
310
E2E2E2E2E2E2E2E2E2E2E2E2E2E2E2E2E2E2E2E2E2E2E2E2E2E2E2E2E2E2E2E2E2E2E2E2E2E2E2E2E2E2E2E2E2E2E2E2E2E2E2E2E2E2E2E2E2E2E2E2E2E2E2E2E2E2E2E2E2E2E2E2E2E2E2E2E2E2E2E2E2E2E2E2E2E2E2E2E2E2E2E2E2E2E2E2E2E2E2E2E2E2E2E2E2E2E2E2E2E2E2E2E2E2E2E2E2E2E2E2E2E2E2E2E2E2E2
310
E2E2E2E2E2E2E2E2E2E2E2E2E2E2E2E2E2E2E2E2E2E2E2E2E2E2E2E2E2E2E2E2E2E2F5F5EFF5E2E2E2E2E2E2E2E2E2E2E2E2E2E2E2E2E2E2E2E2E2E2E2E2E2E2E2E2E2E2E2E2E2E2E2E2E2E2E2E2E2E2E2E2E2E2E2E2E2E2E2E2E2E2E2E2E2E2E2E2E2E2E2E2E2E2E2E2E2E2E2E2E2E2E2E2E2E2E2E2E2E2E2E2E2E2E2E2E2
310
E2E2E2E2E2E2E2E2E2E2E2E2E2E2E2E2E2E2E2E2E2E2E2E2E2E2E2E2E2E2E2E2E2E2E2E2E2E2E2E2E2E2E2E2E2E2E2E2E2E2E2E2E2E2E2E2E2E2E2E2E2E2E2E2E2E2E2E2E2E2E2E2E2E2E2E2E2E2E2E2E2E2E2E2E2E2E2F5F5EFF5E2E2E2E2E2E2E2E2E2E2E2E2E2E2E2E2E2E2E2E2E2E2E2E2E2E2E2E2E2E2E2E2E2E2E2E2
310
E2E2E2E2E2E2E2E2E2E2E2E2E2E2E2E2E2E2E2E2E2E2E2E2E2E2E2E2E2E2E2E2E2E2E2E2E2E2E2E2E2E2E2E2E2E2E2E2E2E2E2E2E2E2E2E2E2E2E2E2E2E2E2E2E2E2E2E2E2E2E2E2E2E2E2E2E2E2E2E2E2E2E2E2E2E2E2E2E2E2E2E2E2E2E2E2E2E2E2E2E2E2E2E2E2E2E2E2E2E2E2E2E2E2E2E2E2E2E2E2E2E2E2E2E2E2E2
310
E2E2E2E2E2E2E2E2E2E2E2E2E2F5F5EFF5E2E2E2E2E2E2E2E2E2E2E2E2E2E2E2E2E2E2E2E2E2E2E2E2E2E2E2E2E2E2E2E2E2E2E2E2E2E2E2E2E2E2E2E2E2E2E2E2E2E2E2E2E2E2E2E2E2E2E2E2E2E2E2E2E2E2E2E2E2E2E2E2E2E2E2E2E2E2E2E2E2E2E2E2E2E2E2E2E2E2E2E2E2E2E2E2E2E2E2E2E2E2E2E2E2E2E2E2E2E2
310
E2E2E2E2E2E2E2E2E2E2E2E2E2E2E2E2E2E2E2E2E2E2E2E2E2E2E2E2E2E2E2E2E2E2E2E2E2E2E2E2E2E2E2E2E2E2E2E2E2E2E2E2E2E2E2E2E2E2E2E2E2E2E2E2E2E2F5F5EFF5E2E2E2E2E2E2E2E2E2E2E2E2E2E2E2E2E2E2E2E2E2E2E2E2E2E2E2E2E2E2E2E2E2E2E2E2E2E2E2E2E2E2E2E2E2E2E2E2E2E2E2E2E2E2E2E2E2
310
E2E2E2E2E2E2E2E2E2E2E2E2E2E2E2E2E2E2E2E2E2E2E2E2E2E2E2E2E2E2E2E2E2E2E2E2E2E2E2E2E2E2E2E2E2E2E2E2E2E2E2E2E2E2E2E2E2E2E2E2E2E2E2E2E2E2E2E2E2E2E2E2E2E2E2E2E2E2E2E2E2E2E2E2E2E2E2E2E2E2E2E2E2E2E2E2E2E2E2E2E2E2E2E2E2E2E2E2E2E2E2E2E2E2E2E2E2E2E2F5F5EFF5E2E2E2E2
310
E2E2E2E2E2E2E2E2E2E2E2E2E2E2E2E2E2E2E2E2E2E2E2E2E2E2E2E2E2E2E2E2E2E2E2E2E2E2E2E2E2E2E2E2E2E2E2E2E2E2E2E2E2E2E2E2E2E2E2E2E2E2E2E2E2E2E2E2E2E2E2E2E2E2E2E2E2E2E2E2E2E2E2E2E2E2E2E2E2E2E2E2E2E2E2E2E2E2E2E2E2E2E2E2E2E2E2E2E2E2E2E2E2E2E2E2E2E2E2E2E2E2E2E2E2E2E2
310
E2E2E2E2E2E2E2E2E2E2E2E2E2E2E2E2E2E2E2E2E2E2E2E2E2E2E2E2E2E2E2E2E2E2E2E2E2E2E2E2E2E2E2E2E2F5F5EFF5E2E2E2E2E2E2E2E2E2E2E2E2E2E2E2E2E2E2E2E2E2E2E2E2E2E2E2E2E2E2E2E2E2E2E2E2E2E2E2E2E2E2E2E2E2E2E2E2E2E2E2E2E2E2E2E2E2E2E2E2E2E2E2E2E2E2E2E2E2E2E2E2E2E2E2E2E2E2
310
E2E2E2E2E2E2E2E2E2E2E2E2E2E2E2E2E2E2E2E2E2E2E2E2E2E2E2E2E2E2E2E2E2E2E2E2E2E2E2E2E2E2E2E2E2E2E2E2E2E2E2E2E2E2E2E2E2E2E2E2E2E2E2E2E2E2E2E2E2E2E2E2E2E2E2E2E2E2E2E2E2E2E2E2E2E2E2E2E2E2E2E2E2E2E2E2E2E2F5F5EFF5E2E2E2E2E2E2E2E2E2E2E2E2E2E2E2E2E2E2E2E2E2E2E2E2E2
310
E2E2E2E2E2E2E2E2E2E2E2E2E2E2E2E2E2E2E2E2E2E2E2E2E2E2E2E2E2E2E2E2E2E2E2E2E2E2E2E2E2E2E2E2E2E2E2E2E2E2E2E2E2E2E2E2E2E2E2E2E2E2E2E2E2E2E2E2E2E2E2E2E2E2E2E2E2E2E2E2E2E2E2E2E2E2E2E2E2E2E2E2E2E2E2E2E2E2E2E2E2E2E2E2E2E2E2E2E2E2E2E2E2E2E2E2E2E2E2E2E2E2E2E2E2E2E2
310
E2E2E2E2E2E2E2E2E2E2E2E2E2E2E2E2E2E2E2E2E2E2E2E2F5F5EFF5E2F5E2E2E2E2E2E2E2E2E2E2E2E2E2E2E2E2E2E2E2E2E2E2E2E2E2E2E2E2E2E2E2E2E2E2E2E2E2E2E2E2E2E2E2E2E2E2E2E2E2E2E2E2E2E2E2E2E2E2E2E2E2E2E2E2E2E2E2E2E2E2E2E2E2E2E2E2E2E2E2E2E2E2E2E2E2E2E2E2E2E2E2E2E2E2E2E2E2
310
E2E2E2E2E2E2E2E2E2E2E2E2E2E2E2E2E2E2E2E2E2E2E2E2E2E2E2E2E2E2E2E2E2E2E2E2E2E2E2E2E2E2E2E2E2E2E2E2E2E2E2E2E2E2E2E2E2E2E2E2E2E2E2E2E2E2E2E2E2E2E2E2E2E2E2F5E2F5F5EFF5E2F5E2E2E2E2E2E2E2E2E2E2E2E2E2E2E2E2E2E2E2E2E2E2E2E2E2E2E2E2E2E2E2E2E2E2E2E2E2E2E2E2E2E2E2E2
310
E2E2E2E2E2E2E2E2E2E2E2E2E2E2E2E2E2E2E2E2E2E2E2E2E2E2E2E2E2E2E2E2E2E2E2E2E2E2E2E2E2E2E2E2E2E2E2E2E2E2E2E2E2E2E2E2E2E2E2E2E2E2E2E2E2E2E2E2E2E2E2E2E2E2E2E2E2E2E2E2E2E2E2E2E2E2E2E2E2E2E2E2E2E2E2E2E2E2E2E2E2E2E2E2E2E2E2E2E2E2E2E2E2E2E2E2E2E2E2E2E2E2E2E2E2E2E2
310
E2F5E2F5F5EFF5E2F5E2E2E2E2E2E2E2E2E2E2E2E2E2E2E2E2E2E2E2E2E2E2E2E2E2E2E2E2E2E2E2E2E2E2E2E2E2E2E2E2E2E2E2E2E2E2E2E2E2E2E2E2E2E2E2E2E2E2E2E2E2E2E2E2E2E2E2E2E2E2E2E2E2E2E2E2E2E2E2E2E2E2E2E2E2E2E2E2E2E2E2E2E2E2E2E2E2E2E2E2E2E2E2E2E2E2E2E2E2E2E2E2E2E2E2E2E2E2
310
E2E2E2E2E2E2E2E2E2E2E2E2E2E2E2E2E2E2E2E2E2E2E2E2E2E2E2E2E2E2E2E2E2E2E2E2E2E2E2E2E2E2E2E2E2E2E2E2E2E2E2E2E2E2F5E2F5F5EFF5E2F5E2E2E2E2E2E2E2E2E2E2E2E2E2E2E2E2E2E2E2E2E2E2E2E2E2E2E2E2E2E2E2E2E2E2E2E2E2E2E2E2E2E2E2E2E2E2E2E2E2E2E2E2E2E2E2E2E2E2E2E2E2E2E2E2E2
310
E2E2E2E2E2E2E2E2E2E2E2E2E2E2E2E2E2E2E2E2E2E2E2E2E2E2E2E2E2E2E2E2E2E2E2E2E2E2E2E2E2E2E2E2E2E2E2E2E2E2E2E2E2E2E2E2E2E2E2E2E2E2E2E2E2E2E2E2E2E2E2E2E2E2E2E2E2E2E2E2E2E2E2E2E2E2E2E2E2E2E2E2E2E2E2E2E2E2E2E2E2E2E2E2E2E2E2F5E2F5F5EFF5E2F5E2E2E2E2E2E2E2E2E2E2E2E2
310
E2E2E2E2E2E2E2E2E2E2E2E2E2E2E2E2E2E2E2E2E2E2E2E2E2E2E2E2E2E2E2E2E2E2E2E2E2E2E2E2E2E2E2E2E2E2E2E2E2E2E2E2E2E2E2E2E2E2E2E2E2E2E2E2E2E2E2E2E2E2E2E2E2E2E2E2E2E2E2E2E2E2E2E2E2E2E2E2E2E2E2E2E2E2E2E2E2E2E2E2E2E2E2E2E2E2E2E2E2E2E2E2E2E2E2E2E2E2E2E2E2E2E2E2E2E2E2
310
E2E2E2E2E2E2E2E2E2E2E2E2E2E2E2E2E2E2E2E2E2E2E2E2E2E2E2E2E2E2E2E2E2F5E2F5F5EFF5E2F5E2E2E2E2E2E2E2E2E2E2E2E2E2E2E2E2E2E2E2E2E2E2E2E2E2E2E2E2E2E2E2E2E2E2E2E2E2E2E2E2E2E2E2E2E2E2E2E2E2E2E2E2E2E2E2E2E2E2E2E2E2E2E2E2E2E2E2E2E2E2E2E2E2E2E2E2E2E2E2E2E2E2E2E2E2E2
310
E2E2E2E2E2E2E2E2E2E2E2E2E2E2E2E2E2E2E2E2E2E2E2E2E2E2E2E2E2E2E2E2E2E2E2E2E2E2E2E2E2E2E2E2E2E2E2E2E2E2E2E2E2E2E2E2E2E2E2E2E2E2E2E2E2E2E2E2E2E2E2E2E2E2E2E2E2E2E2E2E2E2E2E2E2E2F5E2F5F5EFF5E2F5E2E2E2E2E2E2E2E2E2E2E2E2E2E2E2E2E2E2E2E2E2E2E2E2E2E2E2E2E2E2E2E2E2
310
E2E2E2E2E2E2E2E2E2E2E2E2E2E2E2E2E2E2E2E2E2E2E2E2E2E2E2E2E2E2E2E2E2E2E2E2E2E2E2E2E2E2E2E2E2E2E2E2E2E2E2E2E2E2E2E2E2E2E2E2E2E2E2E2E2E2E2E2E2E2E2E2E2E2E2E2E2E2E2E2E2E2E2E2E2E2E2E2E2E2E2E2E2E2E2E2E2E2E2E2E2E2E2E2E2E2E2E2E2E2E2E2E2E2E2E2E2E2E2E2E2E2E2E2E2E2E2
310
E2E2E2E2E2E2E2E2E2E2E2E2F5E2F5F5EFF5E2F5F5F5F5F5F5F5F5E2E2E2E2E2E2E2E2E2F5F5F5F5F5F5F5F5F5F5F5F5F5F5F5F5E2E2E2E2E2E2E2E2E2F5F5F5F5F5F5F5F5F5F5F5F5F5F5F5F5E2E2E2E2E2E2E2E2E2F5F5F5F5F5F5F5F5F5F5F5F5F5F5F5F5E2E2E2E2E2E2E2E2F5F5F5F5F5F5F5F5F5F5F5F5F5F5F5F5E2
310
E2E2E2E2E2E2E2E2F5F5F5F5F5F5F5F5F5F5F5F5F5F5F5F5E2E2E2E2E2E2E2E2E2F5F5F5F5F5F5F5F5F5F5F5F5F5F5F5F5E2E2E2E2E2E2E2E2E2F5F5F5F5F5F5F5F5E2F5F5EFF5E2E2E2E2E2E2E2E2E2E2E2E2E2E2E2E2E2E2E2E2E2E2E2E2E2E2E2E2E2E2E2E2E2E2E2E2E2E2E2E2E2E2E2E2E2E2E2E2E2E2E2E2E2E2E2E2
310
E2E2E2E2E2E2E2E2E2E2E2E2E2E2E2E2E2E2E2E2E2E2E2E2E2E2E2E2E2E2E2E2E2E2E2E2E2E2E2E2E2E2E2E2E2E2E2E2E2E2E2E2E2E2E2E2E2E2E2E2E2E2E2E2E2E2E2E2E2E2E2E2E2E2E2E2E2E2E2E2E2E2E2E2E2E2E2E2E2E2E2E2E2E2E2E2E2E2E2E2E2E2E2E2E2E2E2E2E2E2E2E2E2E2E2E2E2E2E2E2F5EFEFF5F5F5F5
310
F5F5F5F5F5F5F5F5F5F5F5F5F5F5F5F5F5F5F5F5F5F5F5F5F5F5F5F5F5F5F5F5F5F5F5F5F5F5F5F5F5F5F5F5F5F5F5F5F5F5F5F5F5F5F5F5F5F5F5F5F5F5F5F5F5F5F5F5F5F5F5F5F5F5F5F5F5F5F5F5F5F5F5F5F5F5F5F5F5F5F5F5F5F5F5F5F5F5F5F5F5F5F5F5F5F5F5F5F5F5F5F5F5F5F5F5F5F5F5F5F5F5F5F5F5F5F5
310
F5F5F5F5F5F5F5F5F5F5F5F5F5F5F5F5F5F5F5F5F5F5F5F5F5F5F5F5F5F5F5F5F5F5F5F5F5F5F5F5F5F5F5F5F5F5F5EF
  0
ENDSEC
  0
EOF
