  0
SECTION
  2
HEADER
  9
$ACADVER
  1
AC1018
  9
$ACADMAINTVER
 70
     0
  9
$DWGCODEPAGE
  3
ANSI_932
  9
$LASTSAVEDBY
  1
mitomim
  9
$INSBASE
 10
0.0
 20
0.0
 30
0.0
  9
$EXTMIN
 10
703003.0285013975
 20
-7895.927790944232
 30
0.0
  9
$EXTMAX
 10
715375.6009589364
 20
8508.22857343618
 30
0.0
  9
$LIMMIN
 10
0.0
 20
0.0
  9
$LIMMAX
 10
2969.996969696967
 20
2100.0
  9
$ORTHOMODE
 70
     1
  9
$REGENMODE
 70
     1
  9
$FILLMODE
 70
     1
  9
$QTEXTMODE
 70
     0
  9
$MIRRTEXT
 70
     0
  9
$LTSCALE
 40
50.0
  9
$ATTMODE
 70
     1
  9
$TEXTSIZE
 40
30.0
  9
$TRACEWID
 40
0.05
  9
$TEXTSTYLE
  7
スタイル1
  9
$CLAYER
  8
166-寸法B
  9
$CELTYPE
  6
BYLAYER
  9
$CECOLOR
 62
   256
  9
$CELTSCALE
 40
1.0
  9
$DISPSILH
 70
     0
  9
$DIMSCALE
 40
1.0
  9
$DIMASZ
 40
0.12
  9
$DIMEXO
 40
0.05
  9
$DIMDLI
 40
0.5
  9
$DIMRND
 40
0.0
  9
$DIMDLE
 40
0.0
  9
$DIMEXE
 40
0.1
  9
$DIMTP
 40
0.1
  9
$DIMTM
 40
0.1
  9
$DIMTXT
 40
0.12
  9
$DIMCEN
 40
0.0
  9
$DIMTSZ
 40
0.0
  9
$DIMTOL
 70
     0
  9
$DIMLIM
 70
     0
  9
$DIMTIH
 70
     1
  9
$DIMTOH
 70
     1
  9
$DIMSE1
 70
     0
  9
$DIMSE2
 70
     0
  9
$DIMTAD
 70
     0
  9
$DIMZIN
 70
     7
  9
$DIMBLK
  1

  9
$DIMASO
 70
     1
  9
$DIMSHO
 70
     1
  9
$DIMPOST
  1

  9
$DIMAPOST
  1
mm
  9
$DIMALT
 70
     0
  9
$DIMALTD
 70
     2
  9
$DIMALTF
 40
25.4
  9
$DIMLFAC
 40
1.0
  9
$DIMTOFL
 70
     0
  9
$DIMTVP
 40
0.0
  9
$DIMTIX
 70
     0
  9
$DIMSOXD
 70
     0
  9
$DIMSAH
 70
     0
  9
$DIMBLK1
  1

  9
$DIMBLK2
  1

  9
$DIMSTYLE
  2
AM_ANSI
  9
$DIMCLRD
 70
   256
  9
$DIMCLRE
 70
   256
  9
$DIMCLRT
 70
     2
  9
$DIMTFAC
 40
0.71
  9
$DIMGAP
 40
0.06
  9
$DIMJUST
 70
     0
  9
$DIMSD1
 70
     0
  9
$DIMSD2
 70
     0
  9
$DIMTOLJ
 70
     1
  9
$DIMTZIN
 70
     7
  9
$DIMALTZ
 70
     0
  9
$DIMALTTZ
 70
     0
  9
$DIMUPT
 70
     0
  9
$DIMDEC
 70
     4
  9
$DIMTDEC
 70
     4
  9
$DIMALTU
 70
     2
  9
$DIMALTTD
 70
     4
  9
$DIMTXSTY
  7
STANDARD
  9
$DIMAUNIT
 70
     0
  9
$DIMADEC
 70
     0
  9
$DIMALTRND
 40
0.0
  9
$DIMAZIN
 70
     2
  9
$DIMDSEP
 70
    46
  9
$DIMATFIT
 70
     3
  9
$DIMFRAC
 70
     0
  9
$DIMLDRBLK
  1

  9
$DIMLUNIT
 70
     2
  9
$DIMLWD
 70
    -1
  9
$DIMLWE
 70
    -1
  9
$DIMTMOVE
 70
     0
  9
$LUNITS
 70
     2
  9
$LUPREC
 70
     1
  9
$SKETCHINC
 40
0.1
  9
$FILLETRAD
 40
0.3
  9
$AUNITS
 70
     0
  9
$AUPREC
 70
     0
  9
$MENU
  1
WAVES
  9
$ELEVATION
 40
0.0
  9
$PELEVATION
 40
0.0
  9
$THICKNESS
 40
0.0
  9
$LIMCHECK
 70
     0
  9
$CHAMFERA
 40
0.0
  9
$CHAMFERB
 40
0.0
  9
$CHAMFERC
 40
0.0
  9
$CHAMFERD
 40
0.0
  9
$SKPOLY
 70
     0
  9
$TDCREATE
 40
2450631.675926736
  9
$TDUCREATE
 40
2450631.300926736
  9
$TDUPDATE
 40
2457421.741221435
  9
$TDUUPDATE
 40
2457421.366221435
  9
$TDINDWG
 40
0.0
  9
$TDUSRTIMER
 40
0.0
  9
$USRTIMER
 70
     1
  9
$ANGBASE
 50
0.0
  9
$ANGDIR
 70
     0
  9
$PDMODE
 70
     0
  9
$PDSIZE
 40
0.0
  9
$PLINEWID
 40
0.0
  9
$SPLFRAME
 70
     0
  9
$SPLINETYPE
 70
     6
  9
$SPLINESEGS
 70
     8
  9
$HANDSEED
  5
292
  9
$SURFTAB1
 70
     6
  9
$SURFTAB2
 70
     6
  9
$SURFTYPE
 70
     6
  9
$SURFU
 70
     6
  9
$SURFV
 70
     6
  9
$UCSBASE
  2

  9
$UCSNAME
  2

  9
$UCSORG
 10
0.0
 20
0.0
 30
0.0
  9
$UCSXDIR
 10
1.0
 20
0.0
 30
0.0
  9
$UCSYDIR
 10
0.0
 20
1.0
 30
0.0
  9
$UCSORTHOREF
  2

  9
$UCSORTHOVIEW
 70
     0
  9
$UCSORGTOP
 10
0.0
 20
0.0
 30
0.0
  9
$UCSORGBOTTOM
 10
0.0
 20
0.0
 30
0.0
  9
$UCSORGLEFT
 10
0.0
 20
0.0
 30
0.0
  9
$UCSORGRIGHT
 10
0.0
 20
0.0
 30
0.0
  9
$UCSORGFRONT
 10
0.0
 20
0.0
 30
0.0
  9
$UCSORGBACK
 10
0.0
 20
0.0
 30
0.0
  9
$PUCSBASE
  2

  9
$PUCSNAME
  2

  9
$PUCSORG
 10
0.0
 20
0.0
 30
0.0
  9
$PUCSXDIR
 10
1.0
 20
0.0
 30
0.0
  9
$PUCSYDIR
 10
0.0
 20
1.0
 30
0.0
  9
$PUCSORTHOREF
  2

  9
$PUCSORTHOVIEW
 70
     0
  9
$PUCSORGTOP
 10
0.0
 20
0.0
 30
0.0
  9
$PUCSORGBOTTOM
 10
0.0
 20
0.0
 30
0.0
  9
$PUCSORGLEFT
 10
0.0
 20
0.0
 30
0.0
  9
$PUCSORGRIGHT
 10
0.0
 20
0.0
 30
0.0
  9
$PUCSORGFRONT
 10
0.0
 20
0.0
 30
0.0
  9
$PUCSORGBACK
 10
0.0
 20
0.0
 30
0.0
  9
$USERI1
 70
     0
  9
$USERI2
 70
     0
  9
$USERI3
 70
     0
  9
$USERI4
 70
     0
  9
$USERI5
 70
     0
  9
$USERR1
 40
0.0
  9
$USERR2
 40
0.0
  9
$USERR3
 40
0.0
  9
$USERR4
 40
0.0
  9
$USERR5
 40
0.0
  9
$WORLDVIEW
 70
     1
  9
$SHADEDGE
 70
     3
  9
$SHADEDIF
 70
    70
  9
$TILEMODE
 70
     1
  9
$MAXACTVP
 70
    16
  9
$PINSBASE
 10
0.0
 20
0.0
 30
0.0
  9
$PLIMCHECK
 70
     0
  9
$PEXTMIN
 10
1.000000000000000E+20
 20
1.000000000000000E+20
 30
1.000000000000000E+20
  9
$PEXTMAX
 10
-1.000000000000000E+20
 20
-1.000000000000000E+20
 30
-1.000000000000000E+20
  9
$PLIMMIN
 10
-5.365753173828125
 20
-5.365749835968018
  9
$PLIMMAX
 10
414.750244140625
 20
291.5602450370789
  9
$UNITMODE
 70
     0
  9
$VISRETAIN
 70
     0
  9
$PLINEGEN
 70
     0
  9
$PSLTSCALE
 70
     0
  9
$TREEDEPTH
 70
  3020
  9
$CMLSTYLE
  2
STANDARD
  9
$CMLJUST
 70
     0
  9
$CMLSCALE
 40
1.0
  9
$PROXYGRAPHICS
 70
     1
  9
$MEASUREMENT
 70
     0
  9
$CELWEIGHT
370
    -1
  9
$ENDCAPS
280
     0
  9
$JOINSTYLE
280
     0
  9
$LWDISPLAY
290
     0
  9
$INSUNITS
 70
     0
  9
$HYPERLINKBASE
  1

  9
$STYLESHEET
  1
monochrome.ctb
  9
$XEDIT
290
     1
  9
$CEPSNTYPE
380
     0
  9
$PSTYLEMODE
290
     1
  9
$FINGERPRINTGUID
  2
{3C6CF88D-945F-41F5-84B7-6516EB46226E}
  9
$VERSIONGUID
  2
{DFB9AE85-D841-40E2-A446-E0FD2B0002C4}
  9
$EXTNAMES
290
     1
  9
$PSVPSCALE
 40
0.0
  9
$OLESTARTUP
290
     0
  9
$SORTENTS
280
   127
  9
$INDEXCTL
280
     0
  9
$HIDETEXT
280
     1
  9
$XCLIPFRAME
290
     0
  9
$HALOGAP
280
     0
  9
$OBSCOLOR
 70
   257
  9
$OBSLTYPE
280
     0
  9
$INTERSECTIONDISPLAY
280
     0
  9
$INTERSECTIONCOLOR
 70
   257
  9
$DIMASSOC
280
     1
  9
$PROJECTNAME
  1

  0
ENDSEC
  0
SECTION
  2
CLASSES
  0
CLASS
  1
ACDBDICTIONARYWDFLT
  2
AcDbDictionaryWithDefault
  3
ObjectDBX Classes
 90
        0
 91
        7
280
     0
281
     0
  0
CLASS
  1
MATERIAL
  2
AcDbMaterial
  3
ObjectDBX Classes
 90
     1153
 91
        7
280
     0
281
     0
  0
CLASS
  1
SORTENTSTABLE
  2
AcDbSortentsTable
  3
ObjectDBX Classes
 90
        0
 91
        6
280
     0
281
     0
  0
CLASS
  1
VISUALSTYLE
  2
AcDbVisualStyle
  3
ObjectDBX Classes
 90
     4095
 91
        7
280
     0
281
     0
  0
CLASS
  1
SUN
  2
AcDbSun
  3
SCENEOE
 90
     1153
 91
        7
280
     0
281
     0
  0
CLASS
  1
SCALE
  2
AcDbScale
  3
ObjectDBX Classes
 90
     1153
 91
        7
280
     0
281
     0
  0
CLASS
  1
DICTIONARYVAR
  2
AcDbDictionaryVar
  3
ObjectDBX Classes
 90
        0
 91
        5
280
     0
281
     0
  0
ENDSEC
  0
SECTION
  2
TABLES
  0
TABLE
  2
VPORT
  5
30
330
0
100
AcDbSymbolTable
 70
     4
  0
VPORT
  5
35
330
30
100
AcDbSymbolTableRecord
100
AcDbViewportTableRecord
  2
*Active
 70
     0
 10
0.0
 20
0.0
 11
1.0
 21
1.0
 12
711997.2686107527
 22
-5297.328062125878
 13
0.0
 23
0.0
 14
45.0
 24
45.0
 15
40.0
 25
40.0
 16
0.0
 26
0.0
 36
1.0
 17
0.0
 27
0.0
 37
0.0
 40
3527.99999997983
 41
1.414284271290684
 42
50.0
 43
0.0
 44
0.0
 50
0.0
 51
0.0
 71
    16
 72
   100
 73
     1
 74
     0
 75
     0
 76
     0
 77
     0
 78
     1
281
     0
 65
     0
110
0.0
120
0.0
130
0.0
111
1.0
121
0.0
131
0.0
112
0.0
122
1.0
132
0.0
 79
     0
146
0.0
  0
ENDTAB
  0
TABLE
  2
LTYPE
  5
11
330
0
100
AcDbSymbolTable
 70
    27
  0
LTYPE
  5
12
330
11
100
AcDbSymbolTableRecord
100
AcDbLinetypeTableRecord
  2
BYBLOCK
 70
     0
  3

 72
    65
 73
     0
 40
0.0
  0
LTYPE
  5
13
330
11
100
AcDbSymbolTableRecord
100
AcDbLinetypeTableRecord
  2
BYLAYER
 70
     0
  3

 72
    65
 73
     0
 40
0.0
  0
LTYPE
  5
10
330
11
100
AcDbSymbolTableRecord
100
AcDbLinetypeTableRecord
  2
CONTINUOUS
 70
     0
  3
Solid line
 72
    65
 73
     0
 40
0.0
  0
LTYPE
  5
9A
330
11
100
AcDbSymbolTableRecord
100
AcDbLinetypeTableRecord
  2
HIDDEN
 70
     0
  3
Hidden __ __ __ __ __ __ __ __ __ __ __ __ __ _
 72
    65
 73
     2
 40
0.375
 49
0.25
 74
     0
 49
-0.125
 74
     0
  0
LTYPE
  5
AB
330
11
100
AcDbSymbolTableRecord
100
AcDbLinetypeTableRecord
  2
STYLE_03
 70
     0
  3

 72
    65
 73
     2
 40
0.4166412353515625
 49
0.208282470703125
 74
     0
 49
-0.2083587646484375
 74
     0
  0
ENDTAB
  0
TABLE
  2
LAYER
  5
2
102
{ACAD_XDICTIONARY
360
3
102
}
330
0
100
AcDbSymbolTable
 70
    19
  0
LAYER
  5
21
102
{ACAD_XDICTIONARY
360
22
102
}
330
2
100
AcDbSymbolTableRecord
100
AcDbLayerTableRecord
  2
0
 70
     0
 62
     7
  6
CONTINUOUS
370
    -3
390
B
  0
LAYER
  5
6E
102
{ACAD_XDICTIONARY
360
6F
102
}
330
2
100
AcDbSymbolTableRecord
100
AcDbLayerTableRecord
  2
160-文字
 70
     0
 62
   254
  6
CONTINUOUS
370
    -3
390
B
  0
LAYER
  5
5F
102
{ACAD_XDICTIONARY
360
60
102
}
330
2
100
AcDbSymbolTableRecord
100
AcDbLayerTableRecord
  2
190-図面外枠
 70
     0
 62
     5
  6
CONTINUOUS
370
    -3
390
B
  0
LAYER
  5
1FB
102
{ACAD_XDICTIONARY
360
1FC
102
}
330
2
100
AcDbSymbolTableRecord
100
AcDbLayerTableRecord
  2
191-図面内枠
 70
     0
 62
     4
  6
CONTINUOUS
370
    -3
390
B
  0
LAYER
  5
92
102
{ACAD_XDICTIONARY
360
93
102
}
330
2
100
AcDbSymbolTableRecord
100
AcDbLayerTableRecord
  2
120-キャビネット（外）
 70
     0
 62
     7
  6
CONTINUOUS
370
    -3
390
B
  0
LAYER
  5
97
102
{ACAD_XDICTIONARY
360
98
102
}
330
2
100
AcDbSymbolTableRecord
100
AcDbLayerTableRecord
  2
121-キャビネット（中）
 70
     0
 62
   253
  6
HIDDEN
370
    -3
390
B
  0
LAYER
  5
280
102
{ACAD_XDICTIONARY
360
281
102
}
330
2
100
AcDbSymbolTableRecord
100
AcDbLayerTableRecord
  2
111-壁仕上
 70
     0
 62
     3
  6
CONTINUOUS
370
    -3
390
B
  0
LAYER
  5
67
330
2
100
AcDbSymbolTableRecord
100
AcDbLayerTableRecord
  2
DEFPOINTS
 70
     0
 62
   146
  6
CONTINUOUS
290
     0
370
    -3
390
B
  0
LAYER
  5
B0
102
{ACAD_XDICTIONARY
360
B1
102
}
330
2
100
AcDbSymbolTableRecord
100
AcDbLayerTableRecord
  2
141-パーツ
 70
     0
 62
    31
  6
CONTINUOUS
370
    -3
390
B
  0
LAYER
  5
1
102
{ACAD_XDICTIONARY
360
9
102
}
330
2
100
AcDbSymbolTableRecord
100
AcDbLayerTableRecord
  2
166-寸法B
 70
     0
 62
    11
  6
CONTINUOUS
370
    -3
390
B
1001
AcAecLayerStandard
1000

1000

  0
LAYER
  5
1E4
102
{ACAD_XDICTIONARY
360
1E5
102
}
330
2
100
AcDbSymbolTableRecord
100
AcDbLayerTableRecord
  2
161-番号
 70
     0
 62
   110
  6
CONTINUOUS
370
    -3
390
B
1001
AcAecLayerStandard
1000

1000

  0
ENDTAB
  0
TABLE
  2
STYLE
  5
16
330
0
100
AcDbSymbolTable
 70
    10
  0
STYLE
  5
19
330
16
100
AcDbSymbolTableRecord
100
AcDbTextStyleTableRecord
  2
STANDARD
 70
     0
 40
0.0
 41
0.8
 50
0.0
 71
     0
 42
30.0
  3
simplex.shx
  4
extfont.shx
  0
STYLE
  5
71
330
16
100
AcDbSymbolTableRecord
100
AcDbTextStyleTableRecord
  2
KH001
 70
     0
 40
0.0
 41
1.0
 50
0.0
 71
     0
 42
30.0
  3

  4

1001
ACAD
1000
MS Gothic
1071
    32817
  0
STYLE
  5
15
330
16
100
AcDbSymbolTableRecord
100
AcDbTextStyleTableRecord
  2
スタイル1
 70
     0
 40
0.0
 41
0.8
 50
0.0
 71
     0
 42
30.0
  3

  4

1001
ACAD
1000
HGSGothicE
1071
    32818
  0
STYLE
  5
284
330
16
100
AcDbSymbolTableRecord
100
AcDbTextStyleTableRecord
  2
ＭＳ ゴシック
 70
     0
 40
0.0
 41
1.0
 50
0.0
 71
     0
 42
30.0
  3

  4
ＭＳ ゴシック
1001
ACAD
1000
ＭＳ ゴシック
1071
        0
  0
ENDTAB
  0
TABLE
  2
VIEW
  5
2E
330
0
100
AcDbSymbolTable
 70
     0
  0
ENDTAB
  0
TABLE
  2
UCS
  5
2F
330
0
100
AcDbSymbolTable
 70
     0
  0
ENDTAB
  0
TABLE
  2
APPID
  5
8
330
0
100
AcDbSymbolTable
 70
    23
  0
APPID
  5
7
330
8
100
AcDbSymbolTableRecord
100
AcDbRegAppTableRecord
  2
ACAD
 70
     0
  0
APPID
  5
27
330
8
100
AcDbSymbolTableRecord
100
AcDbRegAppTableRecord
  2
ACAD_PSEXT
 70
     0
  0
APPID
  5
14
330
8
100
AcDbSymbolTableRecord
100
AcDbRegAppTableRecord
  2
AcAecLayerStandard
 70
     0
  0
ENDTAB
  0
TABLE
  2
DIMSTYLE
  5
18
330
0
100
AcDbSymbolTable
 70
    20
100
AcDbDimStyleTable
  0
DIMSTYLE
105
BC
102
{ACAD_REACTORS
330
225
330
232
330
23F
330
24F
330
25C
330
269
330
BB
330
D4
330
E5
330
F2
330
FF
330
10C
330
119
330
128
330
135
330
144
330
155
330
162
330
173
330
180
330
18D
330
19A
330
1A7
330
1B4
330
1C5
330
1D2
330
1ED
102
}
330
18
100
AcDbSymbolTableRecord
100
AcDbDimStyleTableRecord
  2
KH1xx010
 70
     0
 40
10.0
 41
0.6
 42
1.2
 43
5.0
 44
0.3
 46
1.0
 73
     0
 74
     0
 77
     3
 78
     8
140
2.3
141
1.0
147
0.5
172
     1
174
     1
176
   256
177
   256
271
     1
178
   256
271
     1
272
     1
277
     6
279
     2
340
71
341
BD
342
C3
371
    -1
372
    -1
  0
DIMSTYLE
105
1E8
330
18
100
AcDbSymbolTableRecord
100
AcDbDimStyleTableRecord
  2
KH1xx030
 70
     0
 40
30.0
 41
0.6
 42
1.2
 43
4.5
 44
0.3
 46
1.0
 73
     0
 74
     0
 77
     3
 78
     8
140
2.0
141
1.0
147
0.5
172
     1
174
     1
176
   256
177
   256
271
     1
178
   256
271
     1
272
     1
277
     6
279
     2
340
71
341
BD
342
C3
371
    -1
372
    -1
  0
DIMSTYLE
105
17
330
18
100
AcDbSymbolTableRecord
100
AcDbDimStyleTableRecord
  2
AM_ANSI
 70
     0
  4
mm
 41
0.12
 42
0.05
 43
0.5
 44
0.1
 47
0.1
 48
0.1
 78
     7
 79
     2
140
0.12
141
0.0
146
0.71
147
0.06
176
   256
177
   256
178
     2
274
     4
284
     7
340
19
371
    -1
372
    -1
  0
ENDTAB
  0
TABLE
  2
BLOCK_RECORD
  5
1C
330
0
100
AcDbSymbolTable
 70
   204
  0
BLOCK_RECORD
  5
1D
102
{ACAD_XDICTIONARY
360
1E
102
}
330
1C
100
AcDbSymbolTableRecord
100
AcDbBlockTableRecord
  2
*MODEL_SPACE
340
25
  0
BLOCK_RECORD
  5
28
330
1C
100
AcDbSymbolTableRecord
100
AcDbBlockTableRecord
  2
*PAPER_SPACE
340
2B
  0
BLOCK_RECORD
  5
BD
330
1C
100
AcDbSymbolTableRecord
100
AcDbBlockTableRecord
  2
_ClosedBlank
340
0
  0
BLOCK_RECORD
  5
C3
330
1C
100
AcDbSymbolTableRecord
100
AcDbBlockTableRecord
  2
_Dot
340
0
102
{BLKREFS
331
22B
331
22C
331
238
331
239
331
245
331
246
331
255
331
256
331
262
331
263
331
26F
331
270
331
CD
331
CE
331
EB
331
EC
331
105
331
106
331
112
331
113
331
121
331
122
331
12E
331
12F
331
13E
331
13F
331
14F
331
150
331
15B
331
15C
331
16D
331
16E
331
179
331
17A
331
186
331
187
331
193
331
194
331
F8
331
F9
331
1A0
331
1A1
331
1AD
331
1AE
331
1BF
331
1C0
331
1CB
331
1CC
331
1DD
331
1DE
331
1F3
331
1F4
331
DF
331
E0
102
}
  0
BLOCK_RECORD
  5
62
102
{ACAD_XDICTIONARY
360
63
102
}
330
1C
100
AcDbSymbolTableRecord
100
AcDbBlockTableRecord
  2
A$C5D946DDC
340
0
102
{BLKREFS
331
5E
102
}
1001
ACAD
1000
DesignCenter Data
1002
{
1070
     1
1070
     4
1002
}
  0
BLOCK_RECORD
  5
B3
330
1C
100
AcDbSymbolTableRecord
100
AcDbBlockTableRecord
  2
ｱｼﾞｬｽﾀｰ
340
0
310
2800000020000000200000000100080000000000000400000000000000000000000000000000000000000000000080000080000000808000800000008000800080800000C0C0C000C0DCC000F0CAA6000020400000206000002080000020A0000020C0000020E00000400000004020000040400000406000004080000040A0
310
000040C0000040E00000600000006020000060400000606000006080000060A0000060C0000060E00000800000008020000080400000806000008080000080A0000080C0000080E00000A0000000A0200000A0400000A0600000A0800000A0A00000A0C00000A0E00000C0000000C0200000C0400000C0600000C0800000C0
310
A00000C0C00000C0E00000E0000000E0200000E0400000E0600000E0800000E0A00000E0C00000E0E00040000000400020004000400040006000400080004000A0004000C0004000E00040200000402020004020400040206000402080004020A0004020C0004020E000404000004040200040404000404060004040800040
310
40A0004040C0004040E00040600000406020004060400040606000406080004060A0004060C0004060E00040800000408020004080400040806000408080004080A0004080C0004080E00040A0000040A0200040A0400040A0600040A0800040A0A00040A0C00040A0E00040C0000040C0200040C0400040C0600040C08000
310
40C0A00040C0C00040C0E00040E0000040E0200040E0400040E0600040E0800040E0A00040E0C00040E0E00080000000800020008000400080006000800080008000A0008000C0008000E00080200000802020008020400080206000802080008020A0008020C0008020E00080400000804020008040400080406000804080
310
008040A0008040C0008040E00080600000806020008060400080606000806080008060A0008060C0008060E00080800000808020008080400080806000808080008080A0008080C0008080E00080A0000080A0200080A0400080A0600080A0800080A0A00080A0C00080A0E00080C0000080C0200080C0400080C0600080C0
310
800080C0A00080C0C00080C0E00080E0000080E0200080E0400080E0600080E0800080E0A00080E0C00080E0E000C0000000C0002000C0004000C0006000C0008000C000A000C000C000C000E000C0200000C0202000C0204000C0206000C0208000C020A000C020C000C020E000C0400000C0402000C0404000C0406000C0
310
408000C040A000C040C000C040E000C0600000C0602000C0604000C0606000C0608000C060A000C060C000C060E000C0800000C0802000C0804000C0806000C0808000C080A000C080C000C080E000C0A00000C0A02000C0A04000C0A06000C0A08000C0A0A000C0A0C000C0A0E000C0C00000C0C02000C0C04000C0C06000
310
C0C08000C0C0A000F0FBFF00A4A0A000808080000000FF0000FF000000FFFF00FF000000FF00FF00FFFF0000FFFFFF0000000000000000000000000000000000000000000000000000000000000000000000000000000000000000000000000000000000000000000000000000000000000000000000000000000000000000
310
00000000000000000000000000000000000000000000000000000000000000000000000000000000000000000000000000000000000000000000000000000000000000000000000000000000000000000000000000000000000000000000000000000000000000000000000000000000000000000000000000000000000000
310
00000000000000000000000000000000000000000000000000000000000000000000000000000000000000000000000000000000000000B7B7B7B7B7B7B7B7B7B7B7B7B7B7B7B7B7B7B7B7B7B700000000000000000000B70000000000000000000000000000000000000000B700000000000000000000B700000000000000
310
00000000000000000000000000B7000000000000B7B7B7B7B7B7B7B7B7B7B7B7B7B7B7B7B7B7B7B7B7B7B7B7B7B7B7B7B7B70000B700000000000000000000000000000000000000000000000000000000B70000B700000000000000000000000000000000000000000000000000000000B70000B700000000000000000000
310
000000000000000000000000000000000000B70000B700000000000000000000000000000000000000000000000000000000B70000B700000000000000000000000000000000000000000000000000000000B70000B700000000000000000000000000000000000000000000000000000000B70000B7000000000000000000
310
00000000000000000000000000000000000000B70000B700000000000000000000000000000000000000000000000000000000B70000B700000000000000000000000000000000000000000000000000000000B70000B700000000000000000000000000000000000000000000000000000000B70000B70000000000000000
310
0000000000000000000000000000000000000000B70000B7B7B7B7B7B7B7B7B7B7B7B7B7B7B7B7B7B7B7B7B7B7B7B7B7B7B7B7B7B70000000000000000000000000000000000000000000000000000000000000000000000000000000000000000000000000000000000000000000000000000000000000000000000000000
310
00000000000000000000000000000000000000000000000000000000000000000000000000000000000000000000000000000000000000000000000000000000000000000000000000000000000000000000000000000000000000000000000000000000000000000000000000000000000000000000000000000000000000
310
0000000000000000000000000000000000000000000000000000000000000000000000000000000000000000000000000000000000000000
102
{BLKREFS
331
AF
331
B8
331
B9
331
BA
102
}
  0
BLOCK_RECORD
  5
226
330
1C
100
AcDbSymbolTableRecord
100
AcDbBlockTableRecord
  2
*D177
340
0
  0
BLOCK_RECORD
  5
233
330
1C
100
AcDbSymbolTableRecord
100
AcDbBlockTableRecord
  2
*D178
340
0
  0
BLOCK_RECORD
  5
240
330
1C
100
AcDbSymbolTableRecord
100
AcDbBlockTableRecord
  2
*D179
340
0
  0
BLOCK_RECORD
  5
250
330
1C
100
AcDbSymbolTableRecord
100
AcDbBlockTableRecord
  2
*D180
340
0
  0
BLOCK_RECORD
  5
25D
330
1C
100
AcDbSymbolTableRecord
100
AcDbBlockTableRecord
  2
*D181
340
0
  0
BLOCK_RECORD
  5
26A
330
1C
100
AcDbSymbolTableRecord
100
AcDbBlockTableRecord
  2
*D182
340
0
  0
BLOCK_RECORD
  5
C8
330
1C
100
AcDbSymbolTableRecord
100
AcDbBlockTableRecord
  2
*D183
340
0
  0
BLOCK_RECORD
  5
D5
330
1C
100
AcDbSymbolTableRecord
100
AcDbBlockTableRecord
  2
*D184
340
0
  0
BLOCK_RECORD
  5
E6
330
1C
100
AcDbSymbolTableRecord
100
AcDbBlockTableRecord
  2
*D185
340
0
  0
BLOCK_RECORD
  5
F3
330
1C
100
AcDbSymbolTableRecord
100
AcDbBlockTableRecord
  2
*D186
340
0
  0
BLOCK_RECORD
  5
100
330
1C
100
AcDbSymbolTableRecord
100
AcDbBlockTableRecord
  2
*D187
340
0
  0
BLOCK_RECORD
  5
10D
330
1C
100
AcDbSymbolTableRecord
100
AcDbBlockTableRecord
  2
*D188
340
0
  0
BLOCK_RECORD
  5
11A
330
1C
100
AcDbSymbolTableRecord
100
AcDbBlockTableRecord
  2
*D189
340
0
  0
BLOCK_RECORD
  5
129
330
1C
100
AcDbSymbolTableRecord
100
AcDbBlockTableRecord
  2
*D190
340
0
  0
BLOCK_RECORD
  5
136
330
1C
100
AcDbSymbolTableRecord
100
AcDbBlockTableRecord
  2
*D191
340
0
  0
BLOCK_RECORD
  5
145
330
1C
100
AcDbSymbolTableRecord
100
AcDbBlockTableRecord
  2
*D192
340
0
  0
BLOCK_RECORD
  5
156
330
1C
100
AcDbSymbolTableRecord
100
AcDbBlockTableRecord
  2
*D193
340
0
  0
BLOCK_RECORD
  5
163
330
1C
100
AcDbSymbolTableRecord
100
AcDbBlockTableRecord
  2
*D194
340
0
  0
BLOCK_RECORD
  5
174
330
1C
100
AcDbSymbolTableRecord
100
AcDbBlockTableRecord
  2
*D195
340
0
  0
BLOCK_RECORD
  5
181
330
1C
100
AcDbSymbolTableRecord
100
AcDbBlockTableRecord
  2
*D196
340
0
  0
BLOCK_RECORD
  5
18E
330
1C
100
AcDbSymbolTableRecord
100
AcDbBlockTableRecord
  2
*D197
340
0
  0
BLOCK_RECORD
  5
19B
330
1C
100
AcDbSymbolTableRecord
100
AcDbBlockTableRecord
  2
*D198
340
0
  0
BLOCK_RECORD
  5
1A8
330
1C
100
AcDbSymbolTableRecord
100
AcDbBlockTableRecord
  2
*D199
340
0
  0
BLOCK_RECORD
  5
1B5
330
1C
100
AcDbSymbolTableRecord
100
AcDbBlockTableRecord
  2
*D200
340
0
  0
BLOCK_RECORD
  5
1C6
330
1C
100
AcDbSymbolTableRecord
100
AcDbBlockTableRecord
  2
*D201
340
0
  0
BLOCK_RECORD
  5
1D3
330
1C
100
AcDbSymbolTableRecord
100
AcDbBlockTableRecord
  2
*D202
340
0
  0
BLOCK_RECORD
  5
1EE
330
1C
100
AcDbSymbolTableRecord
100
AcDbBlockTableRecord
  2
*D203
340
0
  0
ENDTAB
  0
ENDSEC
  0
SECTION
  2
BLOCKS
  0
BLOCK
  5
20
330
1D
100
AcDbEntity
  8
0
100
AcDbBlockBegin
  2
*MODEL_SPACE
 70
     0
 10
0.0
 20
0.0
 30
0.0
  3
*MODEL_SPACE
  1
*MODEL_SPACE
  0
ENDBLK
  5
24
330
1D
100
AcDbEntity
  8
0
100
AcDbBlockEnd
  0
BLOCK
  5
29
330
28
100
AcDbEntity
 67
     1
  8
0
100
AcDbBlockBegin
  2
*PAPER_SPACE
 70
     0
 10
0.0
 20
0.0
 30
0.0
  3
*PAPER_SPACE
  1
*PAPER_SPACE
  0
ENDBLK
  5
2A
330
28
100
AcDbEntity
 67
     1
  8
0
100
AcDbBlockEnd
  0
BLOCK
  5
BE
330
BD
100
AcDbEntity
  8
0
100
AcDbBlockBegin
  2
_ClosedBlank
 70
     0
 10
0.0
 20
0.0
 30
0.0
  3
_ClosedBlank
  1
_ClosedBlank
  0
LINE
  5
BF
330
BD
100
AcDbEntity
  8
0
  6
ByBlock
 62
     0
370
    -2
100
AcDbLine
 10
-1.0
 20
0.1666666666666667
 30
0.0
 11
0.0
 21
0.0
 31
0.0
  0
LINE
  5
C0
330
BD
100
AcDbEntity
  8
0
  6
ByBlock
 62
     0
370
    -2
100
AcDbLine
 10
0.0
 20
0.0
 30
0.0
 11
-1.0
 21
-0.1666666666666667
 31
0.0
  0
LINE
  5
C1
330
BD
100
AcDbEntity
  8
0
  6
ByBlock
 62
     0
370
    -2
100
AcDbLine
 10
-1.0
 20
0.1666666666666667
 30
0.0
 11
-1.0
 21
-0.1666666666666667
 31
0.0
  0
ENDBLK
  5
C2
330
BD
100
AcDbEntity
  8
0
100
AcDbBlockEnd
  0
BLOCK
  5
C4
330
C3
100
AcDbEntity
  8
0
100
AcDbBlockBegin
  2
_Dot
 70
     0
 10
0.0
 20
0.0
 30
0.0
  3
_Dot
  1
_Dot
  0
LWPOLYLINE
  5
C5
330
C3
100
AcDbEntity
  8
0
  6
ByBlock
 62
     0
100
AcDbPolyline
 90
        2
 70
     1
 43
0.5
 10
-0.25
 20
0.0
 42
1.0
 10
0.25
 20
0.0
 42
1.0
  0
LINE
  5
C6
330
C3
100
AcDbEntity
  8
0
  6
ByBlock
 62
     0
370
    -2
100
AcDbLine
 10
-0.5
 20
0.0
 30
0.0
 11
-1.0
 21
0.0
 31
0.0
  0
ENDBLK
  5
C7
330
C3
100
AcDbEntity
  8
0
100
AcDbBlockEnd
  0
BLOCK
  5
65
330
62
100
AcDbEntity
  8
0
100
AcDbBlockBegin
  2
A$C5D946DDC
 70
     0
 10
0.0
 20
0.0
 30
0.0
  3
A$C5D946DDC
  1
A$C5D946DDC
  0
LWPOLYLINE
  5
66
330
62
100
AcDbEntity
  8
DEFPOINTS
100
AcDbPolyline
 90
        4
 70
     1
 43
0.0
 10
0.0
 20
0.0
 10
20789.97878787337
 20
0.0
 10
20789.97878787337
 20
14699.99999999618
 10
0.0
 20
14699.99999999618
  0
LINE
  5
68
330
62
100
AcDbEntity
  8
190-図面外枠
100
AcDbLine
 10
270.9727272700184
 20
14349.33333333142
 30
0.0
 11
20519.00606060335
 21
14349.33333333142
 31
0.0
  0
LINE
  5
69
330
62
100
AcDbEntity
  8
190-図面外枠
100
AcDbLine
 10
20519.00606060335
 20
14349.33333333142
 30
0.0
 11
20519.00606060335
 21
350.6666666647579
 31
0.0
  0
LINE
  5
6A
330
62
100
AcDbEntity
  8
190-図面外枠
100
AcDbLine
 10
20519.00606060335
 20
350.6666666647579
 30
0.0
 11
270.9727272700184
 21
350.6666666647579
 31
0.0
  0
LINE
  5
6B
330
62
100
AcDbEntity
  8
190-図面外枠
100
AcDbLine
 10
270.9727272700184
 20
350.6666666647579
 30
0.0
 11
270.9727272700184
 21
14349.33333333142
 31
0.0
  0
ENDBLK
  5
6C
330
62
100
AcDbEntity
  8
0
100
AcDbBlockEnd
  0
BLOCK
  5
B4
330
B3
100
AcDbEntity
  8
0
100
AcDbBlockBegin
  2
ｱｼﾞｬｽﾀｰ
 70
     0
 10
0.0
 20
0.0
 30
0.0
  3
ｱｼﾞｬｽﾀｰ
  1
ｱｼﾞｬｽﾀｰ
  0
LWPOLYLINE
  5
B5
330
B3
100
AcDbEntity
  8
141-パーツ
100
AcDbPolyline
 90
        4
 70
     1
 43
0.0
 10
10.0
 20
-8.0
 10
-10.0
 20
-8.0
 10
-10.0
 20
0.0
 10
10.0
 20
0.0
  0
LWPOLYLINE
  5
B6
330
B3
100
AcDbEntity
  8
141-パーツ
100
AcDbPolyline
 90
        4
 70
     0
 43
0.0
 10
7.5
 20
-8.0
 10
7.5
 20
-10.0
 10
-7.5
 20
-10.0
 10
-7.5
 20
-8.0
  0
ENDBLK
  5
B7
330
B3
100
AcDbEntity
  8
0
100
AcDbBlockEnd
  0
BLOCK
  5
227
330
226
100
AcDbEntity
  8
0
100
AcDbBlockBegin
  2
*D177
 70
     1
 10
0.0
 20
0.0
 30
0.0
  3
*D177
  1
*D177
  0
LINE
  5
228
330
226
100
AcDbEntity
  8
166-寸法B
100
AcDbLine
 10
710900.6772568033
 20
-5531.901150706923
 30
0.0
 11
710810.66136722
 21
-5531.901150706923
 31
0.0
  0
LINE
  5
229
330
226
100
AcDbEntity
  8
166-寸法B
100
AcDbLine
 10
710885.6772568033
 20
-5451.901150706923
 30
0.0
 11
710810.66136722
 21
-5451.901150706923
 31
0.0
  0
LINE
  5
22A
330
226
100
AcDbEntity
  8
166-寸法B
100
AcDbLine
 10
710813.66136722
 20
-5525.901150706923
 30
0.0
 11
710813.66136722
 21
-5457.901150706923
 31
0.0
  0
INSERT
  5
22B
330
226
100
AcDbEntity
  8
166-寸法B
100
AcDbBlockReference
  2
_Dot
 10
710813.66136722
 20
-5531.901150706923
 30
0.0
 41
6.0
 42
6.0
 43
6.0
 50
270.0
  0
INSERT
  5
22C
330
226
100
AcDbEntity
  8
166-寸法B
100
AcDbBlockReference
  2
_Dot
 10
710813.66136722
 20
-5451.901150706923
 30
0.0
 41
6.0
 42
6.0
 43
6.0
 50
90.0
  0
MTEXT
  5
22D
330
226
100
AcDbEntity
  8
166-寸法B
100
AcDbMText
 10
710797.16136722
 20
-5491.901150706808
 30
0.0
 40
23.0
 41
0.0
 71
     5
 72
     1
  1
\A1;80
  7
KH001
 11
6.123031769111886E-17
 21
1.0
 31
0.0
 73
     1
 44
1.0
  0
POINT
  5
22E
330
226
100
AcDbEntity
  8
DEFPOINTS
 62
     0
100
AcDbPoint
 10
710912.6772568033
 20
-5531.901150706923
 30
0.0
  0
POINT
  5
22F
330
226
100
AcDbEntity
  8
DEFPOINTS
 62
     0
100
AcDbPoint
 10
710897.6772568033
 20
-5451.901150706923
 30
0.0
  0
POINT
  5
230
330
226
100
AcDbEntity
  8
DEFPOINTS
 62
     0
100
AcDbPoint
 10
710813.66136722
 20
-5451.901150706923
 30
0.0
  0
ENDBLK
  5
231
330
226
100
AcDbEntity
  8
0
100
AcDbBlockEnd
  0
BLOCK
  5
234
330
233
100
AcDbEntity
  8
0
100
AcDbBlockBegin
  2
*D178
 70
     1
 10
0.0
 20
0.0
 30
0.0
  3
*D178
  1
*D178
  0
LINE
  5
235
330
233
100
AcDbEntity
  8
166-寸法B
100
AcDbLine
 10
710885.6772568033
 20
-5451.901150706923
 30
0.0
 11
710810.66136722
 21
-5451.901150706923
 31
0.0
  0
LINE
  5
236
330
233
100
AcDbEntity
  8
166-寸法B
100
AcDbLine
 10
710886.3737031752
 20
-5271.901150706923
 30
0.0
 11
710810.66136722
 21
-5271.901150706923
 31
0.0
  0
LINE
  5
237
330
233
100
AcDbEntity
  8
166-寸法B
100
AcDbLine
 10
710813.66136722
 20
-5445.901150706923
 30
0.0
 11
710813.66136722
 21
-5277.901150706923
 31
0.0
  0
INSERT
  5
238
330
233
100
AcDbEntity
  8
166-寸法B
100
AcDbBlockReference
  2
_Dot
 10
710813.66136722
 20
-5451.901150706923
 30
0.0
 41
6.0
 42
6.0
 43
6.0
 50
270.0
  0
INSERT
  5
239
330
233
100
AcDbEntity
  8
166-寸法B
100
AcDbBlockReference
  2
_Dot
 10
710813.66136722
 20
-5271.901150706923
 30
0.0
 41
6.0
 42
6.0
 43
6.0
 50
90.0
  0
MTEXT
  5
23A
330
233
100
AcDbEntity
  8
166-寸法B
100
AcDbMText
 10
710797.16136722
 20
-5361.901150706808
 30
0.0
 40
23.0
 41
0.0
 71
     5
 72
     1
  1
\A1;180
  7
KH001
 11
6.123031769111886E-17
 21
1.0
 31
0.0
 73
     1
 44
1.0
  0
POINT
  5
23B
330
233
100
AcDbEntity
  8
DEFPOINTS
 62
     0
100
AcDbPoint
 10
710897.6772568033
 20
-5451.901150706923
 30
0.0
  0
POINT
  5
23C
330
233
100
AcDbEntity
  8
DEFPOINTS
 62
     0
100
AcDbPoint
 10
710898.3737031752
 20
-5271.901150706923
 30
0.0
  0
POINT
  5
23D
330
233
100
AcDbEntity
  8
DEFPOINTS
 62
     0
100
AcDbPoint
 10
710813.66136722
 20
-5271.901150706923
 30
0.0
  0
ENDBLK
  5
23E
330
233
100
AcDbEntity
  8
0
100
AcDbBlockEnd
  0
BLOCK
  5
241
330
240
100
AcDbEntity
  8
0
100
AcDbBlockBegin
  2
*D179
 70
     1
 10
0.0
 20
0.0
 30
0.0
  3
*D179
  1
*D179
  0
LINE
  5
242
330
240
100
AcDbEntity
  8
166-寸法B
100
AcDbLine
 10
711434.1939193893
 20
-5451.901150706913
 30
0.0
 11
711510.7742995983
 21
-5451.901150706913
 31
0.0
  0
LINE
  5
243
330
240
100
AcDbEntity
  8
166-寸法B
100
AcDbLine
 10
711424.6939193894
 20
-6061.901150706915
 30
0.0
 11
711510.7742995983
 21
-6061.901150706915
 31
0.0
  0
LINE
  5
244
330
240
100
AcDbEntity
  8
166-寸法B
100
AcDbLine
 10
711507.7742995983
 20
-5457.901150706913
 30
0.0
 11
711507.7742995983
 21
-6055.901150706915
 31
0.0
  0
INSERT
  5
245
330
240
100
AcDbEntity
  8
166-寸法B
100
AcDbBlockReference
  2
_Dot
 10
711507.7742995983
 20
-5451.901150706913
 30
0.0
 41
6.0
 42
6.0
 43
6.0
 50
90.0
  0
INSERT
  5
246
330
240
100
AcDbEntity
  8
166-寸法B
100
AcDbBlockReference
  2
_Dot
 10
711507.7742995983
 20
-6061.901150706915
 30
0.0
 41
6.0
 42
6.0
 43
6.0
 50
270.0
  0
MTEXT
  5
247
330
240
100
AcDbEntity
  8
166-寸法B
100
AcDbMText
 10
711491.2742995983
 20
-5756.901150706799
 30
0.0
 40
23.0
 41
0.0
 71
     5
 72
     1
  1
\A1;SH610～622
  7
KH001
 11
6.123031769111886E-17
 21
1.0
 31
0.0
 73
     1
 44
1.0
  0
POINT
  5
248
330
240
100
AcDbEntity
  8
DEFPOINTS
 62
     0
100
AcDbPoint
 10
711422.1939193893
 20
-5451.901150706913
 30
0.0
  0
POINT
  5
249
330
240
100
AcDbEntity
  8
DEFPOINTS
 62
     0
100
AcDbPoint
 10
711412.6939193894
 20
-6061.901150706915
 30
0.0
  0
POINT
  5
24A
330
240
100
AcDbEntity
  8
DEFPOINTS
 62
     0
100
AcDbPoint
 10
711507.7742995983
 20
-6061.901150706915
 30
0.0
  0
ENDBLK
  5
24B
330
240
100
AcDbEntity
  8
0
100
AcDbBlockEnd
  0
BLOCK
  5
251
330
250
100
AcDbEntity
  8
0
100
AcDbBlockBegin
  2
*D180
 70
     1
 10
0.0
 20
0.0
 30
0.0
  3
*D180
  1
*D180
  0
LINE
  5
252
330
250
100
AcDbEntity
  8
166-寸法B
100
AcDbLine
 10
711427.6772568035
 20
-4191.5972585085
 30
0.0
 11
711427.6772568035
 21
-4073.025193788872
 31
0.0
  0
LINE
  5
253
330
250
100
AcDbEntity
  8
166-寸法B
100
AcDbLine
 10
710967.6772568034
 20
-4190.597258508465
 30
0.0
 11
710967.6772568034
 21
-4073.025193788872
 31
0.0
  0
LINE
  5
254
330
250
100
AcDbEntity
  8
166-寸法B
100
AcDbLine
 10
711421.6772568035
 20
-4076.025193788872
 30
0.0
 11
710973.6772568034
 21
-4076.025193788872
 31
0.0
  0
INSERT
  5
255
330
250
100
AcDbEntity
  8
166-寸法B
100
AcDbBlockReference
  2
_Dot
 10
711427.6772568035
 20
-4076.025193788872
 30
0.0
 41
6.0
 42
6.0
 43
6.0
  0
INSERT
  5
256
330
250
100
AcDbEntity
  8
166-寸法B
100
AcDbBlockReference
  2
_Dot
 10
710967.6772568034
 20
-4076.025193788872
 30
0.0
 41
6.0
 42
6.0
 43
6.0
 50
180.0
  0
MTEXT
  5
257
330
250
100
AcDbEntity
  8
166-寸法B
100
AcDbMText
 10
711197.6772568035
 20
-4059.525193788872
 30
0.0
 40
23.0
 41
0.0
 71
     5
 72
     1
  1
\A1;460
  7
KH001
 73
     1
 44
1.0
  0
POINT
  5
258
330
250
100
AcDbEntity
  8
DEFPOINTS
 62
     0
100
AcDbPoint
 10
711427.6772568035
 20
-4203.5972585085
 30
0.0
  0
POINT
  5
259
330
250
100
AcDbEntity
  8
DEFPOINTS
 62
     0
100
AcDbPoint
 10
710967.6772568034
 20
-4202.597258508465
 30
0.0
  0
POINT
  5
25A
330
250
100
AcDbEntity
  8
DEFPOINTS
 62
     0
100
AcDbPoint
 10
710967.6772568034
 20
-4076.025193788872
 30
0.0
  0
ENDBLK
  5
25B
330
250
100
AcDbEntity
  8
0
100
AcDbBlockEnd
  0
BLOCK
  5
25E
330
25D
100
AcDbEntity
  8
0
100
AcDbBlockBegin
  2
*D181
 70
     1
 10
0.0
 20
0.0
 30
0.0
  3
*D181
  1
*D181
  0
LINE
  5
25F
330
25D
100
AcDbEntity
  8
166-寸法B
100
AcDbLine
 10
710885.6880433965
 20
-4761.295819837978
 30
0.0
 11
710760.6613672201
 21
-4761.295819837978
 31
0.0
  0
LINE
  5
260
330
25D
100
AcDbEntity
  8
166-寸法B
100
AcDbLine
 10
710885.573613517
 20
-4261.29581983792
 30
0.0
 11
710760.6613672201
 21
-4261.29581983792
 31
0.0
  0
LINE
  5
261
330
25D
100
AcDbEntity
  8
166-寸法B
100
AcDbLine
 10
710763.6613672201
 20
-4755.295819837978
 30
0.0
 11
710763.6613672201
 21
-4267.29581983792
 31
0.0
  0
INSERT
  5
262
330
25D
100
AcDbEntity
  8
166-寸法B
100
AcDbBlockReference
  2
_Dot
 10
710763.6613672201
 20
-4761.295819837978
 30
0.0
 41
6.0
 42
6.0
 43
6.0
 50
270.0
  0
INSERT
  5
263
330
25D
100
AcDbEntity
  8
166-寸法B
100
AcDbBlockReference
  2
_Dot
 10
710763.6613672201
 20
-4261.29581983792
 30
0.0
 41
6.0
 42
6.0
 43
6.0
 50
90.0
  0
MTEXT
  5
264
330
25D
100
AcDbEntity
  8
166-寸法B
100
AcDbMText
 10
710747.1613672201
 20
-4511.295819837835
 30
0.0
 40
23.0
 41
0.0
 71
     5
 72
     1
  1
\A1;500
  7
KH001
 11
6.123031769111886E-17
 21
1.0
 31
0.0
 73
     1
 44
1.0
  0
POINT
  5
265
330
25D
100
AcDbEntity
  8
DEFPOINTS
 62
     0
100
AcDbPoint
 10
710897.6880433965
 20
-4761.295819837978
 30
0.0
  0
POINT
  5
266
330
25D
100
AcDbEntity
  8
DEFPOINTS
 62
     0
100
AcDbPoint
 10
710897.573613517
 20
-4261.29581983792
 30
0.0
  0
POINT
  5
267
330
25D
100
AcDbEntity
  8
DEFPOINTS
 62
     0
100
AcDbPoint
 10
710763.6613672201
 20
-4261.29581983792
 30
0.0
  0
ENDBLK
  5
268
330
25D
100
AcDbEntity
  8
0
100
AcDbBlockEnd
  0
BLOCK
  5
26B
330
26A
100
AcDbEntity
  8
0
100
AcDbBlockBegin
  2
*D182
 70
     1
 10
0.0
 20
0.0
 30
0.0
  3
*D182
  1
*D182
  0
LINE
  5
26C
330
26A
100
AcDbEntity
  8
166-寸法B
100
AcDbLine
 10
710885.6880433965
 20
-4761.295819837978
 30
0.0
 11
710710.6613672201
 21
-4761.295819837978
 31
0.0
  0
LINE
  5
26D
330
26A
100
AcDbEntity
  8
166-寸法B
100
AcDbLine
 10
710884.5944206887
 20
-4208.320478620667
 30
0.0
 11
710710.6613672201
 21
-4208.320478620667
 31
0.0
  0
LINE
  5
26E
330
26A
100
AcDbEntity
  8
166-寸法B
100
AcDbLine
 10
710713.6613672201
 20
-4755.295819837978
 30
0.0
 11
710713.6613672201
 21
-4214.320478620667
 31
0.0
  0
INSERT
  5
26F
330
26A
100
AcDbEntity
  8
166-寸法B
100
AcDbBlockReference
  2
_Dot
 10
710713.6613672201
 20
-4761.295819837978
 30
0.0
 41
6.0
 42
6.0
 43
6.0
 50
270.0
  0
INSERT
  5
270
330
26A
100
AcDbEntity
  8
166-寸法B
100
AcDbBlockReference
  2
_Dot
 10
710713.6613672201
 20
-4208.320478620667
 30
0.0
 41
6.0
 42
6.0
 43
6.0
 50
90.0
  0
MTEXT
  5
271
330
26A
100
AcDbEntity
  8
166-寸法B
100
AcDbMText
 10
710697.1613672201
 20
-4484.808149229208
 30
0.0
 40
23.0
 41
0.0
 71
     5
 72
     1
  1
\A1;553
  7
KH001
 11
6.123031769111886E-17
 21
1.0
 31
0.0
 73
     1
 44
1.0
  0
POINT
  5
272
330
26A
100
AcDbEntity
  8
DEFPOINTS
 62
     0
100
AcDbPoint
 10
710897.6880433965
 20
-4761.295819837978
 30
0.0
  0
POINT
  5
273
330
26A
100
AcDbEntity
  8
DEFPOINTS
 62
     0
100
AcDbPoint
 10
710896.5944206887
 20
-4208.320478620667
 30
0.0
  0
POINT
  5
274
330
26A
100
AcDbEntity
  8
DEFPOINTS
 62
     0
100
AcDbPoint
 10
710713.6613672201
 20
-4208.320478620667
 30
0.0
  0
ENDBLK
  5
275
330
26A
100
AcDbEntity
  8
0
100
AcDbBlockEnd
  0
BLOCK
  5
C9
330
C8
100
AcDbEntity
  8
0
100
AcDbBlockBegin
  2
*D183
 70
     1
 10
0.0
 20
0.0
 30
0.0
  3
*D183
  1
*D183
  0
LINE
  5
CA
330
C8
100
AcDbEntity
  8
166-寸法B
100
AcDbLine
 10
710900.6772568033
 20
-5531.901150706923
 30
0.0
 11
710710.66136722
 21
-5531.901150706923
 31
0.0
  0
LINE
  5
CB
330
C8
100
AcDbEntity
  8
166-寸法B
100
AcDbLine
 10
710940.8776135192
 20
-6061.901150706916
 30
0.0
 11
710710.66136722
 21
-6061.901150706916
 31
0.0
  0
LINE
  5
CC
330
C8
100
AcDbEntity
  8
166-寸法B
100
AcDbLine
 10
710713.66136722
 20
-5537.901150706923
 30
0.0
 11
710713.66136722
 21
-6055.901150706916
 31
0.0
  0
INSERT
  5
CD
330
C8
100
AcDbEntity
  8
166-寸法B
100
AcDbBlockReference
  2
_Dot
 10
710713.66136722
 20
-5531.901150706923
 30
0.0
 41
6.0
 42
6.0
 43
6.0
 50
90.0
  0
INSERT
  5
CE
330
C8
100
AcDbEntity
  8
166-寸法B
100
AcDbBlockReference
  2
_Dot
 10
710713.66136722
 20
-6061.901150706916
 30
0.0
 41
6.0
 42
6.0
 43
6.0
 50
270.0
  0
MTEXT
  5
CF
330
C8
100
AcDbEntity
  8
166-寸法B
100
AcDbMText
 10
710697.16136722
 20
-5796.901150706804
 30
0.0
 40
23.0
 41
0.0
 71
     5
 72
     1
  1
\A1;530
  7
KH001
 11
6.123031769111886E-17
 21
1.0
 31
0.0
 73
     1
 44
1.0
  0
POINT
  5
D0
330
C8
100
AcDbEntity
  8
DEFPOINTS
 62
     0
100
AcDbPoint
 10
710912.6772568033
 20
-5531.901150706923
 30
0.0
  0
POINT
  5
D1
330
C8
100
AcDbEntity
  8
DEFPOINTS
 62
     0
100
AcDbPoint
 10
710952.8776135192
 20
-6061.901150706916
 30
0.0
  0
POINT
  5
D2
330
C8
100
AcDbEntity
  8
DEFPOINTS
 62
     0
100
AcDbPoint
 10
710713.66136722
 20
-6061.901150706916
 30
0.0
  0
ENDBLK
  5
D3
330
C8
100
AcDbEntity
  8
0
100
AcDbBlockEnd
  0
BLOCK
  5
D6
330
D5
100
AcDbEntity
  8
0
100
AcDbBlockBegin
  2
*D184
 70
     1
 10
0.0
 20
0.0
 30
0.0
  3
*D184
  1
*D184
  0
LINE
  5
D7
330
D5
100
AcDbEntity
  8
166-寸法B
100
AcDbLine
 10
710940.8776135192
 20
-6051.901150706916
 30
0.0
 11
710760.66136722
 21
-6051.901150706916
 31
0.0
  0
LINE
  5
D8
330
D5
100
AcDbEntity
  8
166-寸法B
100
AcDbLine
 10
710940.8776135192
 20
-6061.901150706916
 30
0.0
 11
710760.66136722
 21
-6061.901150706916
 31
0.0
  0
LINE
  5
D9
330
D5
100
AcDbEntity
  8
166-寸法B
100
AcDbLine
 10
710763.66136722
 20
-6045.901150706916
 30
0.0
 11
710763.66136722
 21
-6039.901150706916
 31
0.0
  0
LINE
  5
DA
330
D5
100
AcDbEntity
  8
166-寸法B
100
AcDbLine
 10
710763.66136722
 20
-6067.901150706916
 30
0.0
 11
710763.66136722
 21
-6073.901150706916
 31
0.0
  0
LINE
  5
DB
330
D5
100
AcDbEntity
  8
166-寸法B
100
AcDbLine
 10
710763.66136722
 20
-6196.705003786945
 30
0.0
 11
710763.66136722
 21
-6061.901150706916
 31
0.0
  0
MTEXT
  5
DC
330
D5
100
AcDbEntity
  8
166-寸法B
100
AcDbMText
 10
710747.16136722
 20
-6155.570486020333
 30
0.0
 40
23.0
 41
0.0
 71
     5
 72
     1
  1
\A1;8～20
  7
KH001
 11
6.123031769111886E-17
 21
1.0
 31
0.0
 73
     1
 44
1.0
  0
LINE
  5
DD
330
D5
100
AcDbEntity
  8
166-寸法B
100
AcDbLine
 10
710763.66136722
 20
-6051.901150706916
 30
0.0
 11
710763.66136722
 21
-6061.901150706916
 31
0.0
  0
LINE
  5
DE
330
D5
100
AcDbEntity
  8
166-寸法B
100
AcDbLine
 10
710763.66136722
 20
-6051.901150706916
 30
0.0
 11
710763.66136722
 21
-6061.901150706916
 31
0.0
  0
INSERT
  5
DF
330
D5
100
AcDbEntity
  8
166-寸法B
100
AcDbBlockReference
  2
_Dot
 10
710763.66136722
 20
-6051.901150706916
 30
0.0
 41
6.0
 42
6.0
 43
6.0
 50
270.0
  0
INSERT
  5
E0
330
D5
100
AcDbEntity
  8
166-寸法B
100
AcDbBlockReference
  2
_Dot
 10
710763.66136722
 20
-6061.901150706916
 30
0.0
 41
6.0
 42
6.0
 43
6.0
 50
90.0
  0
POINT
  5
E1
330
D5
100
AcDbEntity
  8
DEFPOINTS
 62
     0
100
AcDbPoint
 10
710952.8776135192
 20
-6051.901150706916
 30
0.0
  0
POINT
  5
E2
330
D5
100
AcDbEntity
  8
DEFPOINTS
 62
     0
100
AcDbPoint
 10
710952.8776135192
 20
-6061.901150706916
 30
0.0
  0
POINT
  5
E3
330
D5
100
AcDbEntity
  8
DEFPOINTS
 62
     0
100
AcDbPoint
 10
710763.66136722
 20
-6061.901150706916
 30
0.0
  0
ENDBLK
  5
E4
330
D5
100
AcDbEntity
  8
0
100
AcDbBlockEnd
  0
BLOCK
  5
E7
330
E6
100
AcDbEntity
  8
0
100
AcDbBlockBegin
  2
*D185
 70
     1
 10
0.0
 20
0.0
 30
0.0
  3
*D185
  1
*D185
  0
LINE
  5
E8
330
E6
100
AcDbEntity
  8
166-寸法B
100
AcDbLine
 10
710900.6772568033
 20
-5531.901150706923
 30
0.0
 11
710710.66136722
 21
-5531.901150706923
 31
0.0
  0
LINE
  5
E9
330
E6
100
AcDbEntity
  8
166-寸法B
100
AcDbLine
 10
710859.1654961867
 20
-5171.901150706923
 30
0.0
 11
710710.66136722
 21
-5171.901150706923
 31
0.0
  0
LINE
  5
EA
330
E6
100
AcDbEntity
  8
166-寸法B
100
AcDbLine
 10
710713.66136722
 20
-5525.901150706923
 30
0.0
 11
710713.66136722
 21
-5177.901150706923
 31
0.0
  0
INSERT
  5
EB
330
E6
100
AcDbEntity
  8
166-寸法B
100
AcDbBlockReference
  2
_Dot
 10
710713.66136722
 20
-5531.901150706923
 30
0.0
 41
6.0
 42
6.0
 43
6.0
 50
270.0
  0
INSERT
  5
EC
330
E6
100
AcDbEntity
  8
166-寸法B
100
AcDbBlockReference
  2
_Dot
 10
710713.66136722
 20
-5171.901150706923
 30
0.0
 41
6.0
 42
6.0
 43
6.0
 50
90.0
  0
MTEXT
  5
ED
330
E6
100
AcDbEntity
  8
166-寸法B
100
AcDbMText
 10
710697.16136722
 20
-5351.901150706808
 30
0.0
 40
23.0
 41
0.0
 71
     5
 72
     1
  1
\A1;360
  7
KH001
 11
6.123031769111886E-17
 21
1.0
 31
0.0
 73
     1
 44
1.0
  0
POINT
  5
EE
330
E6
100
AcDbEntity
  8
DEFPOINTS
 62
     0
100
AcDbPoint
 10
710912.6772568033
 20
-5531.901150706923
 30
0.0
  0
POINT
  5
EF
330
E6
100
AcDbEntity
  8
DEFPOINTS
 62
     0
100
AcDbPoint
 10
710871.1654961867
 20
-5171.901150706923
 30
0.0
  0
POINT
  5
F0
330
E6
100
AcDbEntity
  8
DEFPOINTS
 62
     0
100
AcDbPoint
 10
710713.66136722
 20
-5171.901150706923
 30
0.0
  0
ENDBLK
  5
F1
330
E6
100
AcDbEntity
  8
0
100
AcDbBlockEnd
  0
BLOCK
  5
F4
330
F3
100
AcDbEntity
  8
0
100
AcDbBlockBegin
  2
*D186
 70
     1
 10
0.0
 20
0.0
 30
0.0
  3
*D186
  1
*D186
  0
LINE
  5
F5
330
F3
100
AcDbEntity
  8
166-寸法B
100
AcDbLine
 10
710859.1654961867
 20
-5171.901150706923
 30
0.0
 11
710660.66136722
 21
-5171.901150706923
 31
0.0
  0
LINE
  5
F6
330
F3
100
AcDbEntity
  8
166-寸法B
100
AcDbLine
 10
710948.3776135192
 20
-6061.901150706916
 30
0.0
 11
710660.66136722
 21
-6061.901150706916
 31
0.0
  0
LINE
  5
F7
330
F3
100
AcDbEntity
  8
166-寸法B
100
AcDbLine
 10
710663.66136722
 20
-5177.901150706923
 30
0.0
 11
710663.66136722
 21
-6055.901150706916
 31
0.0
  0
INSERT
  5
F8
330
F3
100
AcDbEntity
  8
166-寸法B
100
AcDbBlockReference
  2
_Dot
 10
710663.66136722
 20
-5171.901150706923
 30
0.0
 41
6.0
 42
6.0
 43
6.0
 50
90.0
  0
INSERT
  5
F9
330
F3
100
AcDbEntity
  8
166-寸法B
100
AcDbBlockReference
  2
_Dot
 10
710663.66136722
 20
-6061.901150706916
 30
0.0
 41
6.0
 42
6.0
 43
6.0
 50
270.0
  0
MTEXT
  5
FA
330
F3
100
AcDbEntity
  8
166-寸法B
100
AcDbMText
 10
710647.16136722
 20
-5616.901150706804
 30
0.0
 40
23.0
 41
0.0
 71
     5
 72
     1
  1
\A1;890～902
  7
KH001
 11
6.123031769111886E-17
 21
1.0
 31
0.0
 73
     1
 44
1.0
  0
POINT
  5
FB
330
F3
100
AcDbEntity
  8
DEFPOINTS
 62
     0
100
AcDbPoint
 10
710871.1654961867
 20
-5171.901150706923
 30
0.0
  0
POINT
  5
FC
330
F3
100
AcDbEntity
  8
DEFPOINTS
 62
     0
100
AcDbPoint
 10
710960.3776135192
 20
-6061.901150706916
 30
0.0
  0
POINT
  5
FD
330
F3
100
AcDbEntity
  8
DEFPOINTS
 62
     0
100
AcDbPoint
 10
710663.66136722
 20
-6061.901150706916
 30
0.0
  0
ENDBLK
  5
FE
330
F3
100
AcDbEntity
  8
0
100
AcDbBlockEnd
  0
BLOCK
  5
101
330
100
100
AcDbEntity
  8
0
100
AcDbBlockBegin
  2
*D187
 70
     1
 10
0.0
 20
0.0
 30
0.0
  3
*D187
  1
*D187
  0
LINE
  5
102
330
100
100
AcDbEntity
  8
166-寸法B
100
AcDbLine
 10
710977.6772568034
 20
-6079.803960180137
 30
0.0
 11
710977.6772568034
 21
-6232.470898007276
 31
0.0
  0
LINE
  5
103
330
100
100
AcDbEntity
  8
166-寸法B
100
AcDbLine
 10
711417.6772568034
 20
-6079.803960180137
 30
0.0
 11
711417.6772568034
 21
-6232.470898007276
 31
0.0
  0
LINE
  5
104
330
100
100
AcDbEntity
  8
166-寸法B
100
AcDbLine
 10
710983.6772568034
 20
-6229.470898007276
 30
0.0
 11
711411.6772568034
 21
-6229.470898007276
 31
0.0
  0
INSERT
  5
105
330
100
100
AcDbEntity
  8
166-寸法B
100
AcDbBlockReference
  2
_Dot
 10
710977.6772568034
 20
-6229.470898007276
 30
0.0
 41
6.0
 42
6.0
 43
6.0
 50
180.0
  0
INSERT
  5
106
330
100
100
AcDbEntity
  8
166-寸法B
100
AcDbBlockReference
  2
_Dot
 10
711417.6772568034
 20
-6229.470898007276
 30
0.0
 41
6.0
 42
6.0
 43
6.0
  0
MTEXT
  5
107
330
100
100
AcDbEntity
  8
166-寸法B
100
AcDbMText
 10
711197.6772568034
 20
-6212.970898007276
 30
0.0
 40
23.0
 41
0.0
 71
     5
 72
     1
  1
\A1;440
  7
KH001
 73
     1
 44
1.0
  0
POINT
  5
108
330
100
100
AcDbEntity
  8
DEFPOINTS
 62
     0
100
AcDbPoint
 10
710977.6772568034
 20
-6067.803960180137
 30
0.0
  0
POINT
  5
109
330
100
100
AcDbEntity
  8
DEFPOINTS
 62
     0
100
AcDbPoint
 10
711417.6772568034
 20
-6067.803960180137
 30
0.0
  0
POINT
  5
10A
330
100
100
AcDbEntity
  8
DEFPOINTS
 62
     0
100
AcDbPoint
 10
711417.6772568034
 20
-6229.470898007276
 30
0.0
  0
ENDBLK
  5
10B
330
100
100
AcDbEntity
  8
0
100
AcDbBlockEnd
  0
BLOCK
  5
10E
330
10D
100
AcDbEntity
  8
0
100
AcDbBlockBegin
  2
*D188
 70
     1
 10
0.0
 20
0.0
 30
0.0
  3
*D188
  1
*D188
  0
LINE
  5
10F
330
10D
100
AcDbEntity
  8
166-寸法B
100
AcDbLine
 10
710940.8776135192
 20
-6051.901150706916
 30
0.0
 11
710760.66136722
 21
-6051.901150706916
 31
0.0
  0
LINE
  5
110
330
10D
100
AcDbEntity
  8
166-寸法B
100
AcDbLine
 10
710940.8776135192
 20
-5897.901150706916
 30
0.0
 11
710760.66136722
 21
-5897.901150706916
 31
0.0
  0
LINE
  5
111
330
10D
100
AcDbEntity
  8
166-寸法B
100
AcDbLine
 10
710763.66136722
 20
-6045.901150706916
 30
0.0
 11
710763.66136722
 21
-5903.901150706916
 31
0.0
  0
INSERT
  5
112
330
10D
100
AcDbEntity
  8
166-寸法B
100
AcDbBlockReference
  2
_Dot
 10
710763.66136722
 20
-6051.901150706916
 30
0.0
 41
6.0
 42
6.0
 43
6.0
 50
270.0
  0
INSERT
  5
113
330
10D
100
AcDbEntity
  8
166-寸法B
100
AcDbBlockReference
  2
_Dot
 10
710763.66136722
 20
-5897.901150706916
 30
0.0
 41
6.0
 42
6.0
 43
6.0
 50
90.0
  0
MTEXT
  5
114
330
10D
100
AcDbEntity
  8
166-寸法B
100
AcDbMText
 10
710747.16136722
 20
-5974.901150706802
 30
0.0
 40
23.0
 41
0.0
 71
     5
 72
     1
  1
\A1;154
  7
KH001
 11
6.123031769111886E-17
 21
1.0
 31
0.0
 73
     1
 44
1.0
  0
POINT
  5
115
330
10D
100
AcDbEntity
  8
DEFPOINTS
 62
     0
100
AcDbPoint
 10
710952.8776135192
 20
-6051.901150706916
 30
0.0
  0
POINT
  5
116
330
10D
100
AcDbEntity
  8
DEFPOINTS
 62
     0
100
AcDbPoint
 10
710952.8776135192
 20
-5897.901150706916
 30
0.0
  0
POINT
  5
117
330
10D
100
AcDbEntity
  8
DEFPOINTS
 62
     0
100
AcDbPoint
 10
710763.66136722
 20
-5897.901150706916
 30
0.0
  0
ENDBLK
  5
118
330
10D
100
AcDbEntity
  8
0
100
AcDbBlockEnd
  0
BLOCK
  5
11B
330
11A
100
AcDbEntity
  8
0
100
AcDbBlockBegin
  2
*D189
 70
     1
 10
0.0
 20
0.0
 30
0.0
  3
*D189
  1
*D189
  0
LINE
  5
11C
330
11A
100
AcDbEntity
  8
166-寸法B
100
AcDbLine
 10
710940.8776135192
 20
-5897.901150706916
 30
0.0
 11
710760.66136722
 21
-5897.901150706916
 31
0.0
  0
LINE
  5
11D
330
11A
100
AcDbEntity
  8
166-寸法B
100
AcDbLine
 10
710940.8776135192
 20
-5882.901150706916
 30
0.0
 11
710760.66136722
 21
-5882.901150706916
 31
0.0
  0
LINE
  5
11E
330
11A
100
AcDbEntity
  8
166-寸法B
100
AcDbLine
 10
710763.66136722
 20
-5903.901150706916
 30
0.0
 11
710763.66136722
 21
-5909.901150706916
 31
0.0
  0
LINE
  5
11F
330
11A
100
AcDbEntity
  8
166-寸法B
100
AcDbLine
 10
710763.66136722
 20
-5876.901150706916
 30
0.0
 11
710763.66136722
 21
-5870.901150706916
 31
0.0
  0
LINE
  5
120
330
11A
100
AcDbEntity
  8
166-寸法B
100
AcDbLine
 10
710763.66136722
 20
-5897.901150706916
 30
0.0
 11
710763.66136722
 21
-5882.901150706916
 31
0.0
  0
INSERT
  5
121
330
11A
100
AcDbEntity
  8
166-寸法B
100
AcDbBlockReference
  2
_Dot
 10
710763.66136722
 20
-5897.901150706916
 30
0.0
 41
6.0
 42
6.0
 43
6.0
 50
90.0
  0
INSERT
  5
122
330
11A
100
AcDbEntity
  8
166-寸法B
100
AcDbBlockReference
  2
_Dot
 10
710763.66136722
 20
-5882.901150706916
 30
0.0
 41
6.0
 42
6.0
 43
6.0
 50
270.0
  0
MTEXT
  5
123
330
11A
100
AcDbEntity
  8
166-寸法B
100
AcDbMText
 10
710747.16136722
 20
-5890.401150706802
 30
0.0
 40
23.0
 41
0.0
 71
     5
 72
     1
  1
\A1;15
  7
KH001
 11
6.123031769111886E-17
 21
1.0
 31
0.0
 73
     1
 44
1.0
  0
POINT
  5
124
330
11A
100
AcDbEntity
  8
DEFPOINTS
 62
     0
100
AcDbPoint
 10
710952.8776135192
 20
-5897.901150706916
 30
0.0
  0
POINT
  5
125
330
11A
100
AcDbEntity
  8
DEFPOINTS
 62
     0
100
AcDbPoint
 10
710952.8776135192
 20
-5882.901150706916
 30
0.0
  0
POINT
  5
126
330
11A
100
AcDbEntity
  8
DEFPOINTS
 62
     0
100
AcDbPoint
 10
710763.66136722
 20
-5882.901150706916
 30
0.0
  0
ENDBLK
  5
127
330
11A
100
AcDbEntity
  8
0
100
AcDbBlockEnd
  0
BLOCK
  5
12A
330
129
100
AcDbEntity
  8
0
100
AcDbBlockBegin
  2
*D190
 70
     1
 10
0.0
 20
0.0
 30
0.0
  3
*D190
  1
*D190
  0
LINE
  5
12B
330
129
100
AcDbEntity
  8
166-寸法B
100
AcDbLine
 10
710940.8776135192
 20
-5882.901150706916
 30
0.0
 11
710760.66136722
 21
-5882.901150706916
 31
0.0
  0
LINE
  5
12C
330
129
100
AcDbEntity
  8
166-寸法B
100
AcDbLine
 10
710879.4122652829
 20
-5546.901150706916
 30
0.0
 11
710760.66136722
 21
-5546.901150706916
 31
0.0
  0
LINE
  5
12D
330
129
100
AcDbEntity
  8
166-寸法B
100
AcDbLine
 10
710763.66136722
 20
-5876.901150706916
 30
0.0
 11
710763.66136722
 21
-5552.901150706916
 31
0.0
  0
INSERT
  5
12E
330
129
100
AcDbEntity
  8
166-寸法B
100
AcDbBlockReference
  2
_Dot
 10
710763.66136722
 20
-5882.901150706916
 30
0.0
 41
6.0
 42
6.0
 43
6.0
 50
270.0
  0
INSERT
  5
12F
330
129
100
AcDbEntity
  8
166-寸法B
100
AcDbBlockReference
  2
_Dot
 10
710763.66136722
 20
-5546.901150706916
 30
0.0
 41
6.0
 42
6.0
 43
6.0
 50
90.0
  0
MTEXT
  5
130
330
129
100
AcDbEntity
  8
166-寸法B
100
AcDbMText
 10
710747.16136722
 20
-5714.901150706802
 30
0.0
 40
23.0
 41
0.0
 71
     5
 72
     1
  1
\A1;336
  7
KH001
 11
6.123031769111886E-17
 21
1.0
 31
0.0
 73
     1
 44
1.0
  0
POINT
  5
131
330
129
100
AcDbEntity
  8
DEFPOINTS
 62
     0
100
AcDbPoint
 10
710952.8776135192
 20
-5882.901150706916
 30
0.0
  0
POINT
  5
132
330
129
100
AcDbEntity
  8
DEFPOINTS
 62
     0
100
AcDbPoint
 10
710891.4122652829
 20
-5546.901150706916
 30
0.0
  0
POINT
  5
133
330
129
100
AcDbEntity
  8
DEFPOINTS
 62
     0
100
AcDbPoint
 10
710763.66136722
 20
-5546.901150706916
 30
0.0
  0
ENDBLK
  5
134
330
129
100
AcDbEntity
  8
0
100
AcDbBlockEnd
  0
BLOCK
  5
137
330
136
100
AcDbEntity
  8
0
100
AcDbBlockBegin
  2
*D191
 70
     1
 10
0.0
 20
0.0
 30
0.0
  3
*D191
  1
*D191
  0
LINE
  5
138
330
136
100
AcDbEntity
  8
166-寸法B
100
AcDbLine
 10
710879.4122652829
 20
-5546.901150706916
 30
0.0
 11
710760.66136722
 21
-5546.901150706916
 31
0.0
  0
LINE
  5
139
330
136
100
AcDbEntity
  8
166-寸法B
100
AcDbLine
 10
710875.8776135192
 20
-5531.901150706923
 30
0.0
 11
710760.66136722
 21
-5531.901150706923
 31
0.0
  0
LINE
  5
13A
330
136
100
AcDbEntity
  8
166-寸法B
100
AcDbLine
 10
710763.66136722
 20
-5552.901150706916
 30
0.0
 11
710763.66136722
 21
-5558.901150706916
 31
0.0
  0
LINE
  5
13B
330
136
100
AcDbEntity
  8
166-寸法B
100
AcDbLine
 10
710763.66136722
 20
-5525.901150706923
 30
0.0
 11
710763.66136722
 21
-5519.901150706923
 31
0.0
  0
MTEXT
  5
13C
330
136
100
AcDbEntity
  8
166-寸法B
100
AcDbMText
 10
710745.7344114211
 20
-5546.438768669969
 30
0.0
 40
23.0
 41
0.0
 71
     5
 72
     1
  1
\A1;15
  7
KH001
 11
6.123031769111886E-17
 21
1.0
 31
0.0
 73
     1
 44
1.0
  0
LINE
  5
13D
330
136
100
AcDbEntity
  8
166-寸法B
100
AcDbLine
 10
710763.66136722
 20
-5546.901150706916
 30
0.0
 11
710763.66136722
 21
-5531.901150706923
 31
0.0
  0
INSERT
  5
13E
330
136
100
AcDbEntity
  8
166-寸法B
100
AcDbBlockReference
  2
_Dot
 10
710763.66136722
 20
-5546.901150706916
 30
0.0
 41
6.0
 42
6.0
 43
6.0
 50
90.0
  0
INSERT
  5
13F
330
136
100
AcDbEntity
  8
166-寸法B
100
AcDbBlockReference
  2
_Dot
 10
710763.66136722
 20
-5531.901150706923
 30
0.0
 41
6.0
 42
6.0
 43
6.0
 50
270.0
  0
POINT
  5
140
330
136
100
AcDbEntity
  8
DEFPOINTS
 62
     0
100
AcDbPoint
 10
710891.4122652829
 20
-5546.901150706916
 30
0.0
  0
POINT
  5
141
330
136
100
AcDbEntity
  8
DEFPOINTS
 62
     0
100
AcDbPoint
 10
710887.8776135192
 20
-5531.901150706923
 30
0.0
  0
POINT
  5
142
330
136
100
AcDbEntity
  8
DEFPOINTS
 62
     0
100
AcDbPoint
 10
710763.66136722
 20
-5531.901150706923
 30
0.0
  0
ENDBLK
  5
143
330
136
100
AcDbEntity
  8
0
100
AcDbBlockEnd
  0
BLOCK
  5
146
330
145
100
AcDbEntity
  8
0
100
AcDbBlockBegin
  2
*D192
 70
     1
 10
0.0
 20
0.0
 30
0.0
  3
*D192
  1
*D192
  0
LINE
  5
147
330
145
100
AcDbEntity
  8
166-寸法B
100
AcDbLine
 10
710977.6772568034
 20
-6079.803960180137
 30
0.0
 11
710977.6772568034
 21
-6182.470898007276
 31
0.0
  0
LINE
  5
148
330
145
100
AcDbEntity
  8
166-寸法B
100
AcDbLine
 10
710992.6772568034
 20
-6079.803960180137
 30
0.0
 11
710992.6772568034
 21
-6182.470898007276
 31
0.0
  0
LINE
  5
149
330
145
100
AcDbEntity
  8
166-寸法B
100
AcDbLine
 10
710971.6772568034
 20
-6179.470898007276
 30
0.0
 11
710965.6772568034
 21
-6179.470898007276
 31
0.0
  0
LINE
  5
14A
330
145
100
AcDbEntity
  8
166-寸法B
100
AcDbLine
 10
710998.6772568034
 20
-6179.470898007276
 30
0.0
 11
711004.6772568034
 21
-6179.470898007276
 31
0.0
  0
LINE
  5
14B
330
145
100
AcDbEntity
  8
166-寸法B
100
AcDbLine
 10
710928.8930640419
 20
-6179.470898007276
 30
0.0
 11
710977.6772568034
 21
-6179.470898007276
 31
0.0
  0
MTEXT
  5
14C
330
145
100
AcDbEntity
  8
166-寸法B
100
AcDbMText
 10
710946.5022010977
 20
-6162.970898007276
 30
0.0
 40
23.0
 41
0.0
 71
     5
 72
     1
  1
\A1;15
  7
KH001
 73
     1
 44
1.0
  0
LINE
  5
14D
330
145
100
AcDbEntity
  8
166-寸法B
100
AcDbLine
 10
710977.6772568034
 20
-6179.470898007276
 30
0.0
 11
710992.6772568034
 21
-6179.470898007276
 31
0.0
  0
LINE
  5
14E
330
145
100
AcDbEntity
  8
166-寸法B
100
AcDbLine
 10
710977.6772568034
 20
-6179.470898007276
 30
0.0
 11
710992.6772568034
 21
-6179.470898007276
 31
0.0
  0
INSERT
  5
14F
330
145
100
AcDbEntity
  8
166-寸法B
100
AcDbBlockReference
  2
_Dot
 10
710977.6772568034
 20
-6179.470898007276
 30
0.0
 41
6.0
 42
6.0
 43
6.0
  0
INSERT
  5
150
330
145
100
AcDbEntity
  8
166-寸法B
100
AcDbBlockReference
  2
_Dot
 10
710992.6772568034
 20
-6179.470898007276
 30
0.0
 41
6.0
 42
6.0
 43
6.0
 50
180.0
  0
POINT
  5
151
330
145
100
AcDbEntity
  8
DEFPOINTS
 62
     0
100
AcDbPoint
 10
710977.6772568034
 20
-6067.803960180137
 30
0.0
  0
POINT
  5
152
330
145
100
AcDbEntity
  8
DEFPOINTS
 62
     0
100
AcDbPoint
 10
710992.6772568034
 20
-6067.803960180137
 30
0.0
  0
POINT
  5
153
330
145
100
AcDbEntity
  8
DEFPOINTS
 62
     0
100
AcDbPoint
 10
710992.6772568034
 20
-6179.470898007276
 30
0.0
  0
ENDBLK
  5
154
330
145
100
AcDbEntity
  8
0
100
AcDbBlockEnd
  0
BLOCK
  5
157
330
156
100
AcDbEntity
  8
0
100
AcDbBlockBegin
  2
*D193
 70
     1
 10
0.0
 20
0.0
 30
0.0
  3
*D193
  1
*D193
  0
LINE
  5
158
330
156
100
AcDbEntity
  8
166-寸法B
100
AcDbLine
 10
710992.6772568034
 20
-6079.803960180137
 30
0.0
 11
710992.6772568034
 21
-6182.470898007276
 31
0.0
  0
LINE
  5
159
330
156
100
AcDbEntity
  8
166-寸法B
100
AcDbLine
 10
711402.6772568034
 20
-6079.803960180137
 30
0.0
 11
711402.6772568034
 21
-6182.470898007276
 31
0.0
  0
LINE
  5
15A
330
156
100
AcDbEntity
  8
166-寸法B
100
AcDbLine
 10
710998.6772568034
 20
-6179.470898007276
 30
0.0
 11
711396.6772568034
 21
-6179.470898007276
 31
0.0
  0
INSERT
  5
15B
330
156
100
AcDbEntity
  8
166-寸法B
100
AcDbBlockReference
  2
_Dot
 10
710992.6772568034
 20
-6179.470898007276
 30
0.0
 41
6.0
 42
6.0
 43
6.0
 50
180.0
  0
INSERT
  5
15C
330
156
100
AcDbEntity
  8
166-寸法B
100
AcDbBlockReference
  2
_Dot
 10
711402.6772568034
 20
-6179.470898007276
 30
0.0
 41
6.0
 42
6.0
 43
6.0
  0
MTEXT
  5
15D
330
156
100
AcDbEntity
  8
166-寸法B
100
AcDbMText
 10
711197.6772568034
 20
-6162.970898007276
 30
0.0
 40
23.0
 41
0.0
 71
     5
 72
     1
  1
\A1;410
  7
KH001
 73
     1
 44
1.0
  0
POINT
  5
15E
330
156
100
AcDbEntity
  8
DEFPOINTS
 62
     0
100
AcDbPoint
 10
710992.6772568034
 20
-6067.803960180137
 30
0.0
  0
POINT
  5
15F
330
156
100
AcDbEntity
  8
DEFPOINTS
 62
     0
100
AcDbPoint
 10
711402.6772568034
 20
-6067.803960180137
 30
0.0
  0
POINT
  5
160
330
156
100
AcDbEntity
  8
DEFPOINTS
 62
     0
100
AcDbPoint
 10
711402.6772568034
 20
-6179.470898007276
 30
0.0
  0
ENDBLK
  5
161
330
156
100
AcDbEntity
  8
0
100
AcDbBlockEnd
  0
BLOCK
  5
164
330
163
100
AcDbEntity
  8
0
100
AcDbBlockBegin
  2
*D194
 70
     1
 10
0.0
 20
0.0
 30
0.0
  3
*D194
  1
*D194
  0
LINE
  5
165
330
163
100
AcDbEntity
  8
166-寸法B
100
AcDbLine
 10
711402.6772568034
 20
-6079.803960180137
 30
0.0
 11
711402.6772568034
 21
-6182.470898007276
 31
0.0
  0
LINE
  5
166
330
163
100
AcDbEntity
  8
166-寸法B
100
AcDbLine
 10
711417.6772568034
 20
-6079.803960180137
 30
0.0
 11
711417.6772568034
 21
-6182.470898007276
 31
0.0
  0
LINE
  5
167
330
163
100
AcDbEntity
  8
166-寸法B
100
AcDbLine
 10
711396.6772568034
 20
-6179.470898007276
 30
0.0
 11
711390.6772568034
 21
-6179.470898007276
 31
0.0
  0
LINE
  5
168
330
163
100
AcDbEntity
  8
166-寸法B
100
AcDbLine
 10
711423.6772568034
 20
-6179.470898007276
 30
0.0
 11
711429.6772568034
 21
-6179.470898007276
 31
0.0
  0
LINE
  5
169
330
163
100
AcDbEntity
  8
166-寸法B
100
AcDbLine
 10
711465.0919652765
 20
-6179.470898007276
 30
0.0
 11
711417.6772568034
 21
-6179.470898007276
 31
0.0
  0
MTEXT
  5
16A
330
163
100
AcDbEntity
  8
166-寸法B
100
AcDbMText
 10
711447.4828282207
 20
-6162.970898007276
 30
0.0
 40
23.0
 41
0.0
 71
     5
 72
     1
  1
\A1;15
  7
KH001
 73
     1
 44
1.0
  0
LINE
  5
16B
330
163
100
AcDbEntity
  8
166-寸法B
100
AcDbLine
 10
711402.6772568034
 20
-6179.470898007276
 30
0.0
 11
711417.6772568034
 21
-6179.470898007276
 31
0.0
  0
LINE
  5
16C
330
163
100
AcDbEntity
  8
166-寸法B
100
AcDbLine
 10
711402.6772568034
 20
-6179.470898007276
 30
0.0
 11
711417.6772568034
 21
-6179.470898007276
 31
0.0
  0
INSERT
  5
16D
330
163
100
AcDbEntity
  8
166-寸法B
100
AcDbBlockReference
  2
_Dot
 10
711402.6772568034
 20
-6179.470898007276
 30
0.0
 41
6.0
 42
6.0
 43
6.0
  0
INSERT
  5
16E
330
163
100
AcDbEntity
  8
166-寸法B
100
AcDbBlockReference
  2
_Dot
 10
711417.6772568034
 20
-6179.470898007276
 30
0.0
 41
6.0
 42
6.0
 43
6.0
 50
180.0
  0
POINT
  5
16F
330
163
100
AcDbEntity
  8
DEFPOINTS
 62
     0
100
AcDbPoint
 10
711402.6772568034
 20
-6067.803960180137
 30
0.0
  0
POINT
  5
170
330
163
100
AcDbEntity
  8
DEFPOINTS
 62
     0
100
AcDbPoint
 10
711417.6772568034
 20
-6067.803960180137
 30
0.0
  0
POINT
  5
171
330
163
100
AcDbEntity
  8
DEFPOINTS
 62
     0
100
AcDbPoint
 10
711417.6772568034
 20
-6179.470898007276
 30
0.0
  0
ENDBLK
  5
172
330
163
100
AcDbEntity
  8
0
100
AcDbBlockEnd
  0
BLOCK
  5
175
330
174
100
AcDbEntity
  8
0
100
AcDbBlockBegin
  2
*D195
 70
     1
 10
0.0
 20
0.0
 30
0.0
  3
*D195
  1
*D195
  0
LINE
  5
176
330
174
100
AcDbEntity
  8
166-寸法B
100
AcDbLine
 10
711427.6772568034
 20
-5096.034477543551
 30
0.0
 11
711427.6772568034
 21
-4977.462412823923
 31
0.0
  0
LINE
  5
177
330
174
100
AcDbEntity
  8
166-寸法B
100
AcDbLine
 10
710967.6772568033
 20
-5095.034477543516
 30
0.0
 11
710967.6772568033
 21
-4977.462412823923
 31
0.0
  0
LINE
  5
178
330
174
100
AcDbEntity
  8
166-寸法B
100
AcDbLine
 10
711421.6772568034
 20
-4980.462412823923
 30
0.0
 11
710973.6772568033
 21
-4980.462412823923
 31
0.0
  0
INSERT
  5
179
330
174
100
AcDbEntity
  8
166-寸法B
100
AcDbBlockReference
  2
_Dot
 10
711427.6772568034
 20
-4980.462412823923
 30
0.0
 41
6.0
 42
6.0
 43
6.0
  0
INSERT
  5
17A
330
174
100
AcDbEntity
  8
166-寸法B
100
AcDbBlockReference
  2
_Dot
 10
710967.6772568033
 20
-4980.462412823923
 30
0.0
 41
6.0
 42
6.0
 43
6.0
 50
180.0
  0
MTEXT
  5
17B
330
174
100
AcDbEntity
  8
166-寸法B
100
AcDbMText
 10
711197.6772568033
 20
-4963.962412823923
 30
0.0
 40
23.0
 41
0.0
 71
     5
 72
     1
  1
\A1;460
  7
KH001
 73
     1
 44
1.0
  0
POINT
  5
17C
330
174
100
AcDbEntity
  8
DEFPOINTS
 62
     0
100
AcDbPoint
 10
711427.6772568034
 20
-5108.034477543551
 30
0.0
  0
POINT
  5
17D
330
174
100
AcDbEntity
  8
DEFPOINTS
 62
     0
100
AcDbPoint
 10
710967.6772568033
 20
-5107.034477543516
 30
0.0
  0
POINT
  5
17E
330
174
100
AcDbEntity
  8
DEFPOINTS
 62
     0
100
AcDbPoint
 10
710967.6772568033
 20
-4980.462412823923
 30
0.0
  0
ENDBLK
  5
17F
330
174
100
AcDbEntity
  8
0
100
AcDbBlockEnd
  0
BLOCK
  5
182
330
181
100
AcDbEntity
  8
0
100
AcDbBlockBegin
  2
*D196
 70
     1
 10
0.0
 20
0.0
 30
0.0
  3
*D196
  1
*D196
  0
LINE
  5
183
330
181
100
AcDbEntity
  8
166-寸法B
100
AcDbLine
 10
710900.6772568033
 20
-5531.901150706923
 30
0.0
 11
710760.66136722
 21
-5531.901150706923
 31
0.0
  0
LINE
  5
184
330
181
100
AcDbEntity
  8
166-寸法B
100
AcDbLine
 10
710859.0516347968
 20
-5271.901150706923
 30
0.0
 11
710760.66136722
 21
-5271.901150706923
 31
0.0
  0
LINE
  5
185
330
181
100
AcDbEntity
  8
166-寸法B
100
AcDbLine
 10
710763.66136722
 20
-5525.901150706923
 30
0.0
 11
710763.66136722
 21
-5277.901150706923
 31
0.0
  0
INSERT
  5
186
330
181
100
AcDbEntity
  8
166-寸法B
100
AcDbBlockReference
  2
_Dot
 10
710763.66136722
 20
-5531.901150706923
 30
0.0
 41
6.0
 42
6.0
 43
6.0
 50
270.0
  0
INSERT
  5
187
330
181
100
AcDbEntity
  8
166-寸法B
100
AcDbBlockReference
  2
_Dot
 10
710763.66136722
 20
-5271.901150706923
 30
0.0
 41
6.0
 42
6.0
 43
6.0
 50
90.0
  0
MTEXT
  5
188
330
181
100
AcDbEntity
  8
166-寸法B
100
AcDbMText
 10
710747.16136722
 20
-5401.901150706808
 30
0.0
 40
23.0
 41
0.0
 71
     5
 72
     1
  1
\A1;260
  7
KH001
 11
6.123031769111886E-17
 21
1.0
 31
0.0
 73
     1
 44
1.0
  0
POINT
  5
189
330
181
100
AcDbEntity
  8
DEFPOINTS
 62
     0
100
AcDbPoint
 10
710912.6772568033
 20
-5531.901150706923
 30
0.0
  0
POINT
  5
18A
330
181
100
AcDbEntity
  8
DEFPOINTS
 62
     0
100
AcDbPoint
 10
710871.0516347968
 20
-5271.901150706923
 30
0.0
  0
POINT
  5
18B
330
181
100
AcDbEntity
  8
DEFPOINTS
 62
     0
100
AcDbPoint
 10
710763.66136722
 20
-5271.901150706923
 30
0.0
  0
ENDBLK
  5
18C
330
181
100
AcDbEntity
  8
0
100
AcDbBlockEnd
  0
BLOCK
  5
18F
330
18E
100
AcDbEntity
  8
0
100
AcDbBlockBegin
  2
*D197
 70
     1
 10
0.0
 20
0.0
 30
0.0
  3
*D197
  1
*D197
  0
LINE
  5
190
330
18E
100
AcDbEntity
  8
166-寸法B
100
AcDbLine
 10
710859.0516347968
 20
-5271.901150706923
 30
0.0
 11
710760.66136722
 21
-5271.901150706923
 31
0.0
  0
LINE
  5
191
330
18E
100
AcDbEntity
  8
166-寸法B
100
AcDbLine
 10
710859.1654961867
 20
-5171.901150706923
 30
0.0
 11
710760.66136722
 21
-5171.901150706923
 31
0.0
  0
LINE
  5
192
330
18E
100
AcDbEntity
  8
166-寸法B
100
AcDbLine
 10
710763.66136722
 20
-5265.901150706923
 30
0.0
 11
710763.66136722
 21
-5177.901150706923
 31
0.0
  0
INSERT
  5
193
330
18E
100
AcDbEntity
  8
166-寸法B
100
AcDbBlockReference
  2
_Dot
 10
710763.66136722
 20
-5271.901150706923
 30
0.0
 41
6.0
 42
6.0
 43
6.0
 50
270.0
  0
INSERT
  5
194
330
18E
100
AcDbEntity
  8
166-寸法B
100
AcDbBlockReference
  2
_Dot
 10
710763.66136722
 20
-5171.901150706923
 30
0.0
 41
6.0
 42
6.0
 43
6.0
 50
90.0
  0
MTEXT
  5
195
330
18E
100
AcDbEntity
  8
166-寸法B
100
AcDbMText
 10
710747.16136722
 20
-5221.901150706808
 30
0.0
 40
23.0
 41
0.0
 71
     5
 72
     1
  1
\A1;100
  7
KH001
 11
6.123031769111886E-17
 21
1.0
 31
0.0
 73
     1
 44
1.0
  0
POINT
  5
196
330
18E
100
AcDbEntity
  8
DEFPOINTS
 62
     0
100
AcDbPoint
 10
710871.0516347968
 20
-5271.901150706923
 30
0.0
  0
POINT
  5
197
330
18E
100
AcDbEntity
  8
DEFPOINTS
 62
     0
100
AcDbPoint
 10
710871.1654961867
 20
-5171.901150706923
 30
0.0
  0
POINT
  5
198
330
18E
100
AcDbEntity
  8
DEFPOINTS
 62
     0
100
AcDbPoint
 10
710763.66136722
 20
-5171.901150706923
 30
0.0
  0
ENDBLK
  5
199
330
18E
100
AcDbEntity
  8
0
100
AcDbBlockEnd
  0
BLOCK
  5
19C
330
19B
100
AcDbEntity
  8
0
100
AcDbBlockBegin
  2
*D198
 70
     1
 10
0.0
 20
0.0
 30
0.0
  3
*D198
  1
*D198
  0
LINE
  5
19D
330
19B
100
AcDbEntity
  8
166-寸法B
100
AcDbLine
 10
712774.0002005807
 20
-5095.034477543516
 30
0.0
 11
712774.0002005807
 21
-4977.462412823923
 31
0.0
  0
LINE
  5
19E
330
19B
100
AcDbEntity
  8
166-寸法B
100
AcDbLine
 10
713326.975541798
 20
-5095.034477543516
 30
0.0
 11
713326.975541798
 21
-4977.462412823923
 31
0.0
  0
LINE
  5
19F
330
19B
100
AcDbEntity
  8
166-寸法B
100
AcDbLine
 10
712780.0002005807
 20
-4980.462412823923
 30
0.0
 11
713320.975541798
 21
-4980.462412823923
 31
0.0
  0
INSERT
  5
1A0
330
19B
100
AcDbEntity
  8
166-寸法B
100
AcDbBlockReference
  2
_Dot
 10
712774.0002005807
 20
-4980.462412823923
 30
0.0
 41
6.0
 42
6.0
 43
6.0
 50
180.0
  0
INSERT
  5
1A1
330
19B
100
AcDbEntity
  8
166-寸法B
100
AcDbBlockReference
  2
_Dot
 10
713326.975541798
 20
-4980.462412823923
 30
0.0
 41
6.0
 42
6.0
 43
6.0
  0
MTEXT
  5
1A2
330
19B
100
AcDbEntity
  8
166-寸法B
100
AcDbMText
 10
713050.4878711894
 20
-4963.962412823923
 30
0.0
 40
23.0
 41
0.0
 71
     5
 72
     1
  1
\A1;553
  7
KH001
 73
     1
 44
1.0
  0
POINT
  5
1A3
330
19B
100
AcDbEntity
  8
DEFPOINTS
 62
     0
100
AcDbPoint
 10
712774.0002005807
 20
-5107.034477543516
 30
0.0
  0
POINT
  5
1A4
330
19B
100
AcDbEntity
  8
DEFPOINTS
 62
     0
100
AcDbPoint
 10
713326.975541798
 20
-5107.034477543516
 30
0.0
  0
POINT
  5
1A5
330
19B
100
AcDbEntity
  8
DEFPOINTS
 62
     0
100
AcDbPoint
 10
713326.975541798
 20
-4980.462412823923
 30
0.0
  0
ENDBLK
  5
1A6
330
19B
100
AcDbEntity
  8
0
100
AcDbBlockEnd
  0
BLOCK
  5
1A9
330
1A8
100
AcDbEntity
  8
0
100
AcDbBlockBegin
  2
*D199
 70
     1
 10
0.0
 20
0.0
 30
0.0
  3
*D199
  1
*D199
  0
LINE
  5
1AA
330
1A8
100
AcDbEntity
  8
166-寸法B
100
AcDbLine
 10
713264.0002005808
 20
-6079.803960180137
 30
0.0
 11
713264.0002005808
 21
-6232.470898007276
 31
0.0
  0
LINE
  5
1AB
330
1A8
100
AcDbEntity
  8
166-寸法B
100
AcDbLine
 10
712784.0002005807
 20
-6079.803960180137
 30
0.0
 11
712784.0002005807
 21
-6232.470898007276
 31
0.0
  0
LINE
  5
1AC
330
1A8
100
AcDbEntity
  8
166-寸法B
100
AcDbLine
 10
713258.0002005808
 20
-6229.470898007276
 30
0.0
 11
712790.0002005807
 21
-6229.470898007276
 31
0.0
  0
INSERT
  5
1AD
330
1A8
100
AcDbEntity
  8
166-寸法B
100
AcDbBlockReference
  2
_Dot
 10
713264.0002005808
 20
-6229.470898007276
 30
0.0
 41
6.0
 42
6.0
 43
6.0
  0
INSERT
  5
1AE
330
1A8
100
AcDbEntity
  8
166-寸法B
100
AcDbBlockReference
  2
_Dot
 10
712784.0002005807
 20
-6229.470898007276
 30
0.0
 41
6.0
 42
6.0
 43
6.0
 50
180.0
  0
MTEXT
  5
1AF
330
1A8
100
AcDbEntity
  8
166-寸法B
100
AcDbMText
 10
713024.0002005808
 20
-6212.970898007276
 30
0.0
 40
23.0
 41
0.0
 71
     5
 72
     1
  1
\A1;480
  7
KH001
 73
     1
 44
1.0
  0
POINT
  5
1B0
330
1A8
100
AcDbEntity
  8
DEFPOINTS
 62
     0
100
AcDbPoint
 10
713264.0002005808
 20
-6067.803960180137
 30
0.0
  0
POINT
  5
1B1
330
1A8
100
AcDbEntity
  8
DEFPOINTS
 62
     0
100
AcDbPoint
 10
712784.0002005807
 20
-6067.803960180137
 30
0.0
  0
POINT
  5
1B2
330
1A8
100
AcDbEntity
  8
DEFPOINTS
 62
     0
100
AcDbPoint
 10
712784.0002005807
 20
-6229.470898007276
 30
0.0
  0
ENDBLK
  5
1B3
330
1A8
100
AcDbEntity
  8
0
100
AcDbBlockEnd
  0
BLOCK
  5
1B6
330
1B5
100
AcDbEntity
  8
0
100
AcDbBlockBegin
  2
*D200
 70
     1
 10
0.0
 20
0.0
 30
0.0
  3
*D200
  1
*D200
  0
LINE
  5
1B7
330
1B5
100
AcDbEntity
  8
166-寸法B
100
AcDbLine
 10
713264.0002005808
 20
-6079.803960180137
 30
0.0
 11
713264.0002005808
 21
-6182.470898007276
 31
0.0
  0
LINE
  5
1B8
330
1B5
100
AcDbEntity
  8
166-寸法B
100
AcDbLine
 10
713249.0002005808
 20
-6079.803960180143
 30
0.0
 11
713249.0002005808
 21
-6182.470898007276
 31
0.0
  0
LINE
  5
1B9
330
1B5
100
AcDbEntity
  8
166-寸法B
100
AcDbLine
 10
713270.0002005808
 20
-6179.470898007276
 30
0.0
 11
713276.0002005808
 21
-6179.470898007276
 31
0.0
  0
LINE
  5
1BA
330
1B5
100
AcDbEntity
  8
166-寸法B
100
AcDbLine
 10
713243.0002005808
 20
-6179.470898007276
 30
0.0
 11
713237.0002005808
 21
-6179.470898007276
 31
0.0
  0
LINE
  5
1BB
330
1B5
100
AcDbEntity
  8
166-寸法B
100
AcDbLine
 10
713314.6267414907
 20
-6179.470898007276
 30
0.0
 11
713264.0002005808
 21
-6179.470898007276
 31
0.0
  0
MTEXT
  5
1BC
330
1B5
100
AcDbEntity
  8
166-寸法B
100
AcDbMText
 10
713297.0176044349
 20
-6162.970898007276
 30
0.0
 40
23.0
 41
0.0
 71
     5
 72
     1
  1
\A1;15
  7
KH001
 73
     1
 44
1.0
  0
LINE
  5
1BD
330
1B5
100
AcDbEntity
  8
166-寸法B
100
AcDbLine
 10
713264.0002005808
 20
-6179.470898007276
 30
0.0
 11
713249.0002005808
 21
-6179.470898007276
 31
0.0
  0
LINE
  5
1BE
330
1B5
100
AcDbEntity
  8
166-寸法B
100
AcDbLine
 10
713264.0002005808
 20
-6179.470898007276
 30
0.0
 11
713249.0002005808
 21
-6179.470898007276
 31
0.0
  0
INSERT
  5
1BF
330
1B5
100
AcDbEntity
  8
166-寸法B
100
AcDbBlockReference
  2
_Dot
 10
713264.0002005808
 20
-6179.470898007276
 30
0.0
 41
6.0
 42
6.0
 43
6.0
 50
180.0
  0
INSERT
  5
1C0
330
1B5
100
AcDbEntity
  8
166-寸法B
100
AcDbBlockReference
  2
_Dot
 10
713249.0002005808
 20
-6179.470898007276
 30
0.0
 41
6.0
 42
6.0
 43
6.0
  0
POINT
  5
1C1
330
1B5
100
AcDbEntity
  8
DEFPOINTS
 62
     0
100
AcDbPoint
 10
713264.0002005808
 20
-6067.803960180137
 30
0.0
  0
POINT
  5
1C2
330
1B5
100
AcDbEntity
  8
DEFPOINTS
 62
     0
100
AcDbPoint
 10
713249.0002005808
 20
-6067.803960180143
 30
0.0
  0
POINT
  5
1C3
330
1B5
100
AcDbEntity
  8
DEFPOINTS
 62
     0
100
AcDbPoint
 10
713249.0002005808
 20
-6179.470898007276
 30
0.0
  0
ENDBLK
  5
1C4
330
1B5
100
AcDbEntity
  8
0
100
AcDbBlockEnd
  0
BLOCK
  5
1C7
330
1C6
100
AcDbEntity
  8
0
100
AcDbBlockBegin
  2
*D201
 70
     1
 10
0.0
 20
0.0
 30
0.0
  3
*D201
  1
*D201
  0
LINE
  5
1C8
330
1C6
100
AcDbEntity
  8
166-寸法B
100
AcDbLine
 10
713249.0002005808
 20
-6079.803960180143
 30
0.0
 11
713249.0002005808
 21
-6182.470898007276
 31
0.0
  0
LINE
  5
1C9
330
1C6
100
AcDbEntity
  8
166-寸法B
100
AcDbLine
 10
712799.0002005807
 20
-6079.803960180137
 30
0.0
 11
712799.0002005807
 21
-6182.470898007276
 31
0.0
  0
LINE
  5
1CA
330
1C6
100
AcDbEntity
  8
166-寸法B
100
AcDbLine
 10
713243.0002005808
 20
-6179.470898007276
 30
0.0
 11
712805.0002005807
 21
-6179.470898007276
 31
0.0
  0
INSERT
  5
1CB
330
1C6
100
AcDbEntity
  8
166-寸法B
100
AcDbBlockReference
  2
_Dot
 10
713249.0002005808
 20
-6179.470898007276
 30
0.0
 41
6.0
 42
6.0
 43
6.0
  0
INSERT
  5
1CC
330
1C6
100
AcDbEntity
  8
166-寸法B
100
AcDbBlockReference
  2
_Dot
 10
712799.0002005807
 20
-6179.470898007276
 30
0.0
 41
6.0
 42
6.0
 43
6.0
 50
180.0
  0
MTEXT
  5
1CD
330
1C6
100
AcDbEntity
  8
166-寸法B
100
AcDbMText
 10
713024.0002005808
 20
-6162.970898007276
 30
0.0
 40
23.0
 41
0.0
 71
     5
 72
     1
  1
\A1;450
  7
KH001
 73
     1
 44
1.0
  0
POINT
  5
1CE
330
1C6
100
AcDbEntity
  8
DEFPOINTS
 62
     0
100
AcDbPoint
 10
713249.0002005808
 20
-6067.803960180143
 30
0.0
  0
POINT
  5
1CF
330
1C6
100
AcDbEntity
  8
DEFPOINTS
 62
     0
100
AcDbPoint
 10
712799.0002005807
 20
-6067.803960180137
 30
0.0
  0
POINT
  5
1D0
330
1C6
100
AcDbEntity
  8
DEFPOINTS
 62
     0
100
AcDbPoint
 10
712799.0002005807
 20
-6179.470898007276
 30
0.0
  0
ENDBLK
  5
1D1
330
1C6
100
AcDbEntity
  8
0
100
AcDbBlockEnd
  0
BLOCK
  5
1D4
330
1D3
100
AcDbEntity
  8
0
100
AcDbBlockBegin
  2
*D202
 70
     1
 10
0.0
 20
0.0
 30
0.0
  3
*D202
  1
*D202
  0
LINE
  5
1D5
330
1D3
100
AcDbEntity
  8
166-寸法B
100
AcDbLine
 10
712799.0002005807
 20
-6079.803960180137
 30
0.0
 11
712799.0002005807
 21
-6182.470898007276
 31
0.0
  0
LINE
  5
1D6
330
1D3
100
AcDbEntity
  8
166-寸法B
100
AcDbLine
 10
712784.0002005807
 20
-6079.803960180137
 30
0.0
 11
712784.0002005807
 21
-6182.470898007276
 31
0.0
  0
LINE
  5
1D7
330
1D3
100
AcDbEntity
  8
166-寸法B
100
AcDbLine
 10
712805.0002005807
 20
-6179.470898007276
 30
0.0
 11
712811.0002005807
 21
-6179.470898007276
 31
0.0
  0
LINE
  5
1D8
330
1D3
100
AcDbEntity
  8
166-寸法B
100
AcDbLine
 10
712778.0002005807
 20
-6179.470898007276
 30
0.0
 11
712772.0002005807
 21
-6179.470898007276
 31
0.0
  0
LINE
  5
1D9
330
1D3
100
AcDbEntity
  8
166-寸法B
100
AcDbLine
 10
712736.5854921076
 20
-6179.470898007276
 30
0.0
 11
712784.0002005807
 21
-6179.470898007276
 31
0.0
  0
MTEXT
  5
1DA
330
1D3
100
AcDbEntity
  8
166-寸法B
100
AcDbMText
 10
712754.1946291634
 20
-6162.970898007276
 30
0.0
 40
23.0
 41
0.0
 71
     5
 72
     1
  1
\A1;15
  7
KH001
 73
     1
 44
1.0
  0
LINE
  5
1DB
330
1D3
100
AcDbEntity
  8
166-寸法B
100
AcDbLine
 10
712799.0002005807
 20
-6179.470898007276
 30
0.0
 11
712784.0002005807
 21
-6179.470898007276
 31
0.0
  0
LINE
  5
1DC
330
1D3
100
AcDbEntity
  8
166-寸法B
100
AcDbLine
 10
712799.0002005807
 20
-6179.470898007276
 30
0.0
 11
712784.0002005807
 21
-6179.470898007276
 31
0.0
  0
INSERT
  5
1DD
330
1D3
100
AcDbEntity
  8
166-寸法B
100
AcDbBlockReference
  2
_Dot
 10
712799.0002005807
 20
-6179.470898007276
 30
0.0
 41
6.0
 42
6.0
 43
6.0
 50
180.0
  0
INSERT
  5
1DE
330
1D3
100
AcDbEntity
  8
166-寸法B
100
AcDbBlockReference
  2
_Dot
 10
712784.0002005807
 20
-6179.470898007276
 30
0.0
 41
6.0
 42
6.0
 43
6.0
  0
POINT
  5
1DF
330
1D3
100
AcDbEntity
  8
DEFPOINTS
 62
     0
100
AcDbPoint
 10
712799.0002005807
 20
-6067.803960180137
 30
0.0
  0
POINT
  5
1E0
330
1D3
100
AcDbEntity
  8
DEFPOINTS
 62
     0
100
AcDbPoint
 10
712784.0002005807
 20
-6067.803960180137
 30
0.0
  0
POINT
  5
1E1
330
1D3
100
AcDbEntity
  8
DEFPOINTS
 62
     0
100
AcDbPoint
 10
712784.0002005807
 20
-6179.470898007276
 30
0.0
  0
ENDBLK
  5
1E2
330
1D3
100
AcDbEntity
  8
0
100
AcDbBlockEnd
  0
BLOCK
  5
1EF
330
1EE
100
AcDbEntity
  8
0
100
AcDbBlockBegin
  2
*D203
 70
     1
 10
0.0
 20
0.0
 30
0.0
  3
*D203
  1
*D203
  0
LINE
  5
1F0
330
1EE
100
AcDbEntity
  8
166-寸法B
100
AcDbLine
 10
713271.6147081561
 20
-5173.000969214627
 30
0.0
 11
713286.2742531418
 21
-5118.290802512376
 31
0.0
  0
LINE
  5
1F1
330
1EE
100
AcDbEntity
  8
166-寸法B
100
AcDbLine
 10
713329.5702577336
 20
-5188.530111920874
 30
0.0
 11
713344.2298027193
 21
-5133.819945218624
 31
0.0
  0
LINE
  5
1F2
330
1EE
100
AcDbEntity
  8
166-寸法B
100
AcDbLine
 10
713291.2933509642
 20
-5122.741494261863
 30
0.0
 11
713337.6577906263
 21
-5135.164808426867
 31
0.0
  0
INSERT
  5
1F3
330
1EE
100
AcDbEntity
  8
166-寸法B
100
AcDbBlockReference
  2
_Dot
 10
713285.4977960065
 20
-5121.188579991256
 30
0.0
 41
6.0
 42
6.0
 43
6.0
 50
164.9999999999709
  0
INSERT
  5
1F4
330
1EE
100
AcDbEntity
  8
166-寸法B
100
AcDbBlockReference
  2
_Dot
 10
713343.453345584
 20
-5136.717722697504
 30
0.0
 41
6.0
 42
6.0
 43
6.0
 50
344.9999999999709
  0
MTEXT
  5
1F5
330
1EE
100
AcDbEntity
  8
166-寸法B
100
AcDbMText
 10
713318.7460850395
 20
-5113.015375210613
 30
0.0
 40
23.0
 41
0.0
 71
     5
 72
     1
  1
\A1;60
  7
KH001
 11
0.9659258262889371
 21
-0.2588190451030112
 31
0.0
 73
     1
 44
1.0
  0
POINT
  5
1F6
330
1EE
100
AcDbEntity
  8
DEFPOINTS
 62
     0
100
AcDbPoint
 10
713268.5088796149
 20
-5184.592079130089
 30
0.0
  0
POINT
  5
1F7
330
1EE
100
AcDbEntity
  8
DEFPOINTS
 62
     0
100
AcDbPoint
 10
713326.4644291924
 20
-5200.121221836336
 30
0.0
  0
POINT
  5
1F8
330
1EE
100
AcDbEntity
  8
DEFPOINTS
 62
     0
100
AcDbPoint
 10
713343.453345584
 20
-5136.717722697504
 30
0.0
  0
ENDBLK
  5
1F9
330
1EE
100
AcDbEntity
  8
0
100
AcDbBlockEnd
  0
ENDSEC
  0
SECTION
  2
ENTITIES
  0
INSERT
  5
5E
330
1D
100
AcDbEntity
  8
190-図面外枠
100
AcDbBlockReference
  2
A$C5D946DDC
 10
709918.2707319673
 20
-6767.328062117474
 30
0.0
 41
0.199999999999818
 42
0.1999999999989086
 43
0.2
  0
TEXT
  5
6D
330
1D
100
AcDbEntity
  8
160-文字
100
AcDbText
 10
710015.2118567108
 20
-3952.974927325045
 30
0.0
 40
41.66666666666666
  1
ソファチェア ハイタイプ
  7
KH001
 11
710015.2118567108
 21
-3932.141593991711
 31
0.0
100
AcDbText
 73
     2
  0
LWPOLYLINE
  5
72
330
1D
100
AcDbEntity
  8
190-図面外枠
100
AcDbPolyline
 90
        2
 70
     0
 43
0.0
 10
709972.4652774213
 20
-3972.80752338537
 10
714022.0719440841
 20
-3972.80752338537
  0
LWPOLYLINE
  5
73
330
1D
100
AcDbEntity
  8
160-文字
 62
     6
100
AcDbPolyline
 90
        4
 70
     1
 43
0.0
 10
713306.2137322824
 20
-4026.194190052031
 10
713376.6074901301
 20
-4026.194190052031
 10
713376.6074901301
 20
-4062.914190052035
 10
713306.2137322824
 20
-4062.914190052035
  0
MTEXT
  5
74
330
1D
100
AcDbEntity
  8
160-文字
100
AcDbMText
 10
713341.4106112063
 20
-4044.554190052034
 30
0.0
 40
17.55
 41
0.0
 71
     5
 72
     1
  1
番号
  7
KH001
 73
     1
 44
1.0
  0
LINE
  5
75
330
1D
100
AcDbEntity
  8
DEFPOINTS
100
AcDbLine
 10
713376.6074901301
 20
-4026.194190052031
 30
0.0
 11
713306.2137322824
 21
-4062.914190052039
 31
0.0
  0
LWPOLYLINE
  5
76
330
1D
100
AcDbEntity
  8
160-文字
 62
     6
100
AcDbPolyline
 90
        4
 70
     1
 43
0.0
 10
713376.6074901301
 20
-4026.194190052031
 10
713907.5637375525
 20
-4026.19419005203
 10
713907.5637375525
 20
-4062.914190052036
 10
713376.6074901301
 20
-4062.914190052035
  0
MTEXT
  5
77
330
1D
100
AcDbEntity
  8
160-文字
100
AcDbMText
 10
713667.0856138413
 20
-4044.554190052034
 30
0.0
 40
17.55
 41
0.0
 71
     5
 72
     1
  1
名　称
  7
KH001
 73
     1
 44
1.0
  0
LINE
  5
78
330
1D
100
AcDbEntity
  8
DEFPOINTS
100
AcDbLine
 10
713387.4074901302
 20
-4062.914190052039
 30
0.0
 11
713387.4074901302
 21
-4209.794190052036
 31
0.0
  0
LINE
  5
79
330
1D
100
AcDbEntity
  8
DEFPOINTS
100
AcDbLine
 10
713376.6074901301
 20
-4062.914190052039
 30
0.0
 11
713907.5637375525
 21
-4026.194190052031
 31
0.0
  0
LINE
  5
7A
330
1D
100
AcDbEntity
  8
DEFPOINTS
100
AcDbLine
 10
713735.6469227533
 20
-4062.914190052035
 30
0.0
 11
713735.6469227533
 21
-4209.794190052036
 31
0.0
  0
MTEXT
  5
7B
330
1D
100
AcDbEntity
  8
160-文字
100
AcDbMText
 10
713341.4106112063
 20
-4081.274190052035
 30
0.0
 40
22.14
 41
0.0
 71
     5
 72
     1
  1
①
  7
KH001
 73
     1
 44
1.0
  0
LINE
  5
7C
330
1D
100
AcDbEntity
  8
DEFPOINTS
100
AcDbLine
 10
713376.6074901301
 20
-4062.914190052036
 30
0.0
 11
713306.2137322824
 21
-4099.634190052037
 31
0.0
  0
LWPOLYLINE
  5
7D
330
1D
100
AcDbEntity
  8
160-文字
 62
     6
100
AcDbPolyline
 90
        4
 70
     1
 43
0.0
 10
713306.2137322824
 20
-4062.914190052035
 10
713376.6074901301
 20
-4062.914190052035
 10
713376.6074901301
 20
-4099.634190052035
 10
713306.2137322824
 20
-4099.634190052035
  0
MTEXT
  5
7E
330
1D
100
AcDbEntity
  8
160-文字
100
AcDbMText
 10
713387.4074901302
 20
-4081.274190052035
 30
0.0
 40
18.9
 41
0.0
 71
     4
 72
     1
  1
座
  7
KH001
 73
     1
 44
1.0
  0
LWPOLYLINE
  5
7F
330
1D
100
AcDbEntity
  8
160-文字
 62
     6
100
AcDbPolyline
 90
        4
 70
     1
 43
0.0
 10
713376.6074901301
 20
-4062.914190052035
 10
713907.5637375525
 20
-4062.914190052035
 10
713907.5637375525
 20
-4099.634190052035
 10
713376.6074901301
 20
-4099.634190052035
  0
MTEXT
  5
80
330
1D
100
AcDbEntity
  8
160-文字
100
AcDbMText
 10
713341.4106112063
 20
-4117.994190052035
 30
0.0
 40
22.14
 41
0.0
 71
     5
 72
     1
  1
②
  7
KH001
 73
     1
 44
1.0
  0
LINE
  5
81
330
1D
100
AcDbEntity
  8
DEFPOINTS
100
AcDbLine
 10
713376.6074901301
 20
-4099.634190052037
 30
0.0
 11
713306.2137322824
 21
-4136.354190052035
 31
0.0
  0
LWPOLYLINE
  5
82
330
1D
100
AcDbEntity
  8
160-文字
 62
     6
100
AcDbPolyline
 90
        4
 70
     1
 43
0.0
 10
713306.2137322824
 20
-4099.634190052035
 10
713376.6074901301
 20
-4099.634190052035
 10
713376.6074901301
 20
-4136.354190052035
 10
713306.2137322824
 20
-4136.354190052035
  0
MTEXT
  5
83
330
1D
100
AcDbEntity
  8
160-文字
100
AcDbMText
 10
713387.4074901302
 20
-4117.994190052035
 30
0.0
 40
18.9
 41
0.0
 71
     4
 72
     1
  1
脚
  7
KH001
 73
     1
 44
1.0
  0
LWPOLYLINE
  5
84
330
1D
100
AcDbEntity
  8
160-文字
 62
     6
100
AcDbPolyline
 90
        4
 70
     1
 43
0.0
 10
713376.6074901301
 20
-4099.634190052035
 10
713907.5637375525
 20
-4099.634190052035
 10
713907.5637375525
 20
-4136.354190052036
 10
713376.6074901301
 20
-4136.354190052035
  0
MTEXT
  5
85
330
1D
100
AcDbEntity
  8
160-文字
100
AcDbMText
 10
713735.6469227533
 20
-4118.473204361828
 30
0.0
 40
18.9
 41
0.0
 71
     4
 72
     1
  1
□15
  7
KH001
 73
     1
 44
1.0
  0
LWPOLYLINE
  5
86
330
1D
100
AcDbEntity
  8
160-文字
 62
     6
100
AcDbPolyline
 90
        4
 70
     1
 43
0.0
 10
713907.5637375525
 20
-4026.194190052032
 10
714003.8571835457
 20
-4026.194190052032
 10
714003.8571835457
 20
-4062.914190052033
 10
713907.5637375525
 20
-4062.914190052033
  0
MTEXT
  5
87
330
1D
100
AcDbEntity
  8
160-文字
100
AcDbMText
 10
713955.7104605491
 20
-4044.554190052032
 30
0.0
 40
17.55
 41
0.0
 71
     5
 72
     1
  1
数量
  7
KH001
 73
     1
 44
1.0
  0
LINE
  5
88
330
1D
100
AcDbEntity
  8
DEFPOINTS
100
AcDbLine
 10
714003.8571835457
 20
-4026.194190052031
 30
0.0
 11
713907.5637375525
 21
-4062.914190052035
 31
0.0
  0
LINE
  5
89
330
1D
100
AcDbEntity
  8
DEFPOINTS
100
AcDbLine
 10
714003.8571835457
 20
-4062.914190052033
 30
0.0
 11
713907.5637375525
 21
-4099.634190052034
 31
0.0
  0
LWPOLYLINE
  5
8A
330
1D
100
AcDbEntity
  8
160-文字
 62
     6
100
AcDbPolyline
 90
        4
 70
     1
 43
0.0
 10
713907.5637375525
 20
-4062.914190052033
 10
714003.8571835457
 20
-4062.914190052033
 10
714003.8571835457
 20
-4099.634190052032
 10
713907.5637375525
 20
-4099.634190052032
  0
LINE
  5
8B
330
1D
100
AcDbEntity
  8
DEFPOINTS
100
AcDbLine
 10
714003.8571835457
 20
-4099.634190052034
 30
0.0
 11
713907.5637375525
 21
-4136.354190052035
 31
0.0
  0
LWPOLYLINE
  5
8C
330
1D
100
AcDbEntity
  8
160-文字
 62
     6
100
AcDbPolyline
 90
        4
 70
     1
 43
0.0
 10
713907.5637375525
 20
-4099.634190052032
 10
714003.8571835457
 20
-4099.634190052032
 10
714003.8571835457
 20
-4136.354190052032
 10
713907.5637375525
 20
-4136.354190052032
  0
LWPOLYLINE
  5
8D
330
1D
100
AcDbEntity
  8
160-文字
 62
     6
100
AcDbPolyline
 90
        4
 70
     1
 43
0.0
 10
713907.5637375525
 20
-4026.194190052026
 10
714003.8571835457
 20
-4026.194190052026
 10
714003.8571835457
 20
-4026.194190052031
 10
713907.5637375525
 20
-4026.194190052031
  0
LINE
  5
8E
330
1D
100
AcDbEntity
  8
DEFPOINTS
100
AcDbLine
 10
714003.8571835457
 20
-4136.354190052035
 30
0.0
 11
713907.5637375525
 21
-4173.074190052036
 31
0.0
  0
MTEXT
  5
8F
330
1D
100
AcDbEntity
  8
160-文字
100
AcDbMText
 10
713955.7104605491
 20
-4081.274190052033
 30
0.0
 40
22.14
 41
0.0
 71
     5
 72
     1
  1
1
  7
KH001
 73
     1
 44
1.0
  0
MTEXT
  5
90
330
1D
100
AcDbEntity
  8
160-文字
100
AcDbMText
 10
713955.7104605491
 20
-4117.994190052033
 30
0.0
 40
22.14
 41
0.0
 71
     5
 72
     1
  1
1
  7
KH001
 73
     1
 44
1.0
  0
LWPOLYLINE
  5
91
330
1D
100
AcDbEntity
  8
120-キャビネット（外）
 62
     6
100
AcDbPolyline
 90
        8
 70
     1
 43
0.0
 10
710975.6772568034
 20
-5531.901150706923
 10
711419.6772568034
 20
-5531.901150706923
 42
0.414213562373095
 10
711427.6772568034
 20
-5523.901150706923
 10
711427.6772568034
 20
-5459.901150706923
 42
0.414213562373095
 10
711419.6772568034
 20
-5451.901150706923
 10
710975.6772568034
 20
-5451.901150706923
 42
0.414213562373095
 10
710967.6772568034
 20
-5459.901150706923
 10
710967.6772568034
 20
-5523.901150706923
 42
0.414213562373095
  0
LWPOLYLINE
  5
95
330
1D
100
AcDbEntity
  8
120-キャビネット（外）
 62
     6
100
AcDbPolyline
 90
        8
 70
     1
 43
0.0
 10
710975.6772568034
 20
-5451.901150706923
 10
711419.6772568034
 20
-5451.901150706923
 42
0.414213562373095
 10
711427.6772568034
 20
-5443.901150706923
 10
711427.6772568034
 20
-5179.901150706923
 42
0.414213562373095
 10
711419.6772568034
 20
-5171.901150706923
 10
710975.6772568033
 20
-5171.901150706923
 42
0.414213562373095
 10
710967.6772568033
 20
-5179.901150706923
 10
710967.6772568034
 20
-5443.901150706923
 42
0.414213562373095
  0
LWPOLYLINE
  5
96
330
1D
100
AcDbEntity
  8
121-キャビネット（中）
  6
Continuous
100
AcDbPolyline
 90
        5
 70
     0
 43
0.0
 10
710977.6772568034
 20
-5531.901150706923
 10
710977.6772568034
 20
-5531.901150706923
 10
710977.6772568034
 20
-6051.901150706923
 10
710992.6772568034
 20
-6051.901150706923
 10
710992.6772568034
 20
-5897.901150706923
  0
LWPOLYLINE
  5
9B
330
1D
100
AcDbEntity
  8
121-キャビネット（中）
  6
Continuous
100
AcDbPolyline
 90
        2
 70
     0
 43
0.0
 10
710992.6772568034
 20
-5882.901150706923
 10
710992.6772568034
 20
-5546.901150706923
  0
LWPOLYLINE
  5
9C
330
1D
100
AcDbEntity
  8
121-キャビネット（中）
  6
Continuous
100
AcDbPolyline
 90
        2
 70
     0
 43
0.0
 10
711402.6772568034
 20
-5546.901150706923
 10
711402.6772568034
 20
-5882.901150706923
  0
LWPOLYLINE
  5
9D
330
1D
100
AcDbEntity
  8
121-キャビネット（中）
  6
Continuous
100
AcDbPolyline
 90
        5
 70
     0
 43
0.0
 10
711402.6772568034
 20
-5897.901150706923
 10
711402.6772568034
 20
-6051.901150706923
 10
711417.6772568034
 20
-6051.901150706923
 10
711417.6772568034
 20
-5531.901150706923
 10
711417.6772568034
 20
-5531.901150706923
  0
LWPOLYLINE
  5
9E
330
1D
100
AcDbEntity
  8
121-キャビネット（中）
  6
Continuous
100
AcDbPolyline
 90
        4
 70
     0
 43
0.0
 10
710977.6772568034
 20
-5531.901150706923
 10
710977.6772568034
 20
-5531.901150706923
 10
711417.6772568034
 20
-5531.901150706923
 10
711417.6772568034
 20
-5531.901150706923
  0
LWPOLYLINE
  5
9F
330
1D
100
AcDbEntity
  8
121-キャビネット（中）
  6
Continuous
100
AcDbPolyline
 90
        2
 70
     0
 43
0.0
 10
711402.6772568034
 20
-5546.901150706923
 10
710992.6772568034
 20
-5546.901150706923
  0
LWPOLYLINE
  5
A0
330
1D
100
AcDbEntity
  8
121-キャビネット（中）
  6
Continuous
100
AcDbPolyline
 90
        2
 70
     0
 43
0.0
 10
710992.6772568034
 20
-5882.901150706923
 10
711402.6772568034
 20
-5882.901150706923
  0
LWPOLYLINE
  5
A1
330
1D
100
AcDbEntity
  8
121-キャビネット（中）
  6
Continuous
100
AcDbPolyline
 90
        2
 70
     0
 43
0.0
 10
711402.6772568034
 20
-5897.901150706923
 10
710992.6772568034
 20
-5897.901150706923
  0
LWPOLYLINE
  5
A2
330
1D
100
AcDbEntity
  8
120-キャビネット（外）
 62
     6
100
AcDbPolyline
 90
        8
 70
     1
 43
0.0
 10
712782.0002005808
 20
-5531.901150706923
 10
713266.0002005808
 20
-5531.901150706923
 42
0.414213562373095
 10
713274.0002005808
 20
-5523.901150706923
 10
713274.0002005808
 20
-5459.901150706923
 42
0.414213562373095
 10
713266.0002005808
 20
-5451.901150706923
 10
712782.0002005808
 20
-5451.901150706923
 42
0.414213562373095
 10
712774.0002005808
 20
-5459.901150706923
 10
712774.0002005808
 20
-5523.901150706923
 42
0.414213562373095
  0
LWPOLYLINE
  5
A3
330
1D
100
AcDbEntity
  8
120-キャビネット（外）
 62
     6
100
AcDbPolyline
 90
        8
 70
     1
 43
0.0
 10
713205.1658391996
 20
-5451.901150706915
 10
713252.8615846772
 20
-5451.90115070693
 42
0.3394542588631463
 10
713260.5889912875
 20
-5445.971703067759
 10
713326.4644291924
 20
-5200.121221836312
 42
0.4142135623731367
 10
713315.8578274746
 20
-5181.750048765426
 10
713286.8800526857
 20
-5173.9854774123
 42
0.4142135623730526
 10
713268.5088796149
 20
-5184.592079130091
 10
713199.5089849501
 20
-5442.103191735769
 42
0.414213562373095
  0
LWPOLYLINE
  5
A4
330
1D
100
AcDbEntity
  8
121-キャビネット（中）
  6
Continuous
100
AcDbPolyline
 90
        5
 70
     0
 43
0.0
 10
712784.0002005808
 20
-5531.901150706923
 10
712784.0002005808
 20
-5531.901150706923
 10
712784.0002005808
 20
-6051.901150706923
 10
712784.0002005808
 20
-6051.901150706923
 10
712784.0002005808
 20
-6051.901150706923
  0
LWPOLYLINE
  5
A5
330
1D
100
AcDbEntity
  8
121-キャビネット（中）
  6
Continuous
100
AcDbPolyline
 90
        2
 70
     0
 43
0.0
 10
712799.0002005808
 20
-6036.901150706923
 10
712799.0002005808
 20
-5546.901150706923
  0
LWPOLYLINE
  5
A6
330
1D
100
AcDbEntity
  8
121-キャビネット（中）
  6
Continuous
100
AcDbPolyline
 90
        2
 70
     0
 43
0.0
 10
713249.0002005808
 20
-5546.901150706923
 10
713249.0002005808
 20
-6036.901150706923
  0
LWPOLYLINE
  5
A7
330
1D
100
AcDbEntity
  8
121-キャビネット（中）
  6
Continuous
100
AcDbPolyline
 90
        5
 70
     0
 43
0.0
 10
713264.0002005808
 20
-6051.901150706923
 10
713264.0002005808
 20
-6051.901150706923
 10
713264.0002005808
 20
-6051.901150706923
 10
713264.0002005808
 20
-5531.901150706923
 10
713264.0002005808
 20
-5531.901150706923
  0
LWPOLYLINE
  5
A8
330
1D
100
AcDbEntity
  8
121-キャビネット（中）
  6
Continuous
100
AcDbPolyline
 90
        4
 70
     0
 43
0.0
 10
712784.0002005808
 20
-5531.901150706923
 10
712784.0002005808
 20
-5531.901150706923
 10
713264.0002005808
 20
-5531.901150706923
 10
713264.0002005808
 20
-5531.901150706923
  0
LWPOLYLINE
  5
A9
330
1D
100
AcDbEntity
  8
121-キャビネット（中）
  6
Continuous
100
AcDbPolyline
 90
        2
 70
     0
 43
0.0
 10
713249.0002005808
 20
-5546.901150706923
 10
712799.0002005808
 20
-5546.901150706923
  0
LWPOLYLINE
  5
AA
330
1D
100
AcDbEntity
  8
120-キャビネット（外）
  6
STYLE_03
 62
   161
 48
0.5
100
AcDbPolyline
 90
        4
 70
     1
 43
0.0
 10
712784.0002005808
 20
-5897.901150706923
 10
712799.0002005808
 20
-5897.901150706923
 10
712799.0002005808
 20
-5882.901150706923
 10
712784.0002005808
 20
-5882.901150706923
  0
LWPOLYLINE
  5
AC
330
1D
100
AcDbEntity
  8
120-キャビネット（外）
  6
STYLE_03
 62
   161
 48
0.5
100
AcDbPolyline
 90
        4
 70
     1
 43
0.0
 10
713264.0002005808
 20
-5897.901150706923
 10
713249.0002005808
 20
-5897.901150706923
 10
713249.0002005808
 20
-5882.901150706923
 10
713264.0002005808
 20
-5882.901150706923
  0
LWPOLYLINE
  5
AD
330
1D
100
AcDbEntity
  8
121-キャビネット（中）
  6
Continuous
100
AcDbPolyline
 90
        4
 70
     0
 43
0.0
 10
712784.0002005808
 20
-6051.901150706923
 10
712784.0002005808
 20
-6051.901150706923
 10
713264.0002005808
 20
-6051.901150706923
 10
713264.0002005808
 20
-6051.901150706923
  0
LWPOLYLINE
  5
AE
330
1D
100
AcDbEntity
  8
121-キャビネット（中）
  6
Continuous
100
AcDbPolyline
 90
        2
 70
     0
 43
0.0
 10
713249.0002005808
 20
-6036.901150706923
 10
712799.0002005808
 20
-6036.901150706923
  0
INSERT
  5
AF
330
1D
100
AcDbEntity
  8
141-パーツ
100
AcDbBlockReference
  2
ｱｼﾞｬｽﾀｰ
 10
710985.1772568034
 20
-6051.901150706923
 30
0.0
  0
INSERT
  5
B8
330
1D
100
AcDbEntity
  8
141-パーツ
100
AcDbBlockReference
  2
ｱｼﾞｬｽﾀｰ
 10
711410.1772568034
 20
-6051.901150706923
 30
0.0
  0
INSERT
  5
B9
330
1D
100
AcDbEntity
  8
141-パーツ
100
AcDbBlockReference
  2
ｱｼﾞｬｽﾀｰ
 10
712791.5002005808
 20
-6051.901150706923
 30
0.0
  0
INSERT
  5
BA
330
1D
100
AcDbEntity
  8
141-パーツ
100
AcDbBlockReference
  2
ｱｼﾞｬｽﾀｰ
 10
713256.5002005808
 20
-6051.901150706923
 30
0.0
 41
-1.0
  0
DIMENSION
  5
BB
330
1D
100
AcDbEntity
  8
166-寸法B
100
AcDbDimension
  2
*D183
 10
710713.66136722
 20
-6061.901150706916
 30
0.0
 11
710697.16136722
 21
-5796.901150706804
 31
0.0
 70
    32
 71
     5
 42
529.9999999999936
  3
KH1xx010
100
AcDbAlignedDimension
 13
710912.6772568033
 23
-5531.901150706923
 33
0.0
 14
710952.8776135192
 24
-6061.901150706916
 34
0.0
 50
90.0
100
AcDbRotatedDimension
  0
DIMENSION
  5
D4
330
1D
100
AcDbEntity
  8
166-寸法B
100
AcDbDimension
  2
*D184
 10
710763.66136722
 20
-6061.901150706916
 30
0.0
 11
710767.4223000364
 21
-6155.570486020333
 31
0.0
 70
   160
  1
8～20
 71
     5
 42
10.0
  3
KH1xx010
100
AcDbAlignedDimension
 13
710952.8776135192
 23
-6051.901150706916
 33
0.0
 14
710952.8776135192
 24
-6061.901150706916
 34
0.0
 50
90.0
100
AcDbRotatedDimension
1001
ACAD
1000
DSTYLE
1002
{
1070
   279
1070
     1
1002
}
  0
DIMENSION
  5
E5
330
1D
100
AcDbEntity
  8
166-寸法B
100
AcDbDimension
  2
*D185
 10
710713.66136722
 20
-5171.901150706923
 30
0.0
 11
710697.16136722
 21
-5351.901150706808
 31
0.0
 70
    32
 71
     5
 42
360.0
  3
KH1xx010
100
AcDbAlignedDimension
 13
710912.6772568033
 23
-5531.901150706923
 33
0.0
 14
710871.1654961867
 24
-5171.901150706923
 34
0.0
 50
90.0
100
AcDbRotatedDimension
  0
DIMENSION
  5
F2
330
1D
100
AcDbEntity
  8
166-寸法B
100
AcDbDimension
  2
*D186
 10
710663.66136722
 20
-6061.901150706916
 30
0.0
 11
710647.16136722
 21
-5616.901150706804
 31
0.0
 70
    32
  1
890～902
 71
     5
 42
889.9999999999936
  3
KH1xx010
100
AcDbAlignedDimension
 13
710871.1654961867
 23
-5171.901150706923
 33
0.0
 14
710960.3776135192
 24
-6061.901150706916
 34
0.0
 50
90.0
100
AcDbRotatedDimension
  0
DIMENSION
  5
FF
330
1D
100
AcDbEntity
  8
166-寸法B
100
AcDbDimension
  2
*D187
 10
711417.6772568034
 20
-6229.470898007276
 30
0.0
 11
711197.6772568034
 21
-6212.970898007276
 31
0.0
 70
    32
 71
     5
 42
440.0
  3
KH1xx010
100
AcDbAlignedDimension
 13
710977.6772568034
 23
-6067.803960180137
 33
0.0
 14
711417.6772568034
 24
-6067.803960180137
 34
0.0
100
AcDbRotatedDimension
  0
DIMENSION
  5
10C
330
1D
100
AcDbEntity
  8
166-寸法B
100
AcDbDimension
  2
*D188
 10
710763.66136722
 20
-5897.901150706916
 30
0.0
 11
710747.16136722
 21
-5974.901150706802
 31
0.0
 70
    32
 71
     5
 42
154.0
  3
KH1xx010
100
AcDbAlignedDimension
 13
710952.8776135192
 23
-6051.901150706916
 33
0.0
 14
710952.8776135192
 24
-5897.901150706916
 34
0.0
 50
90.0
100
AcDbRotatedDimension
  0
DIMENSION
  5
119
330
1D
100
AcDbEntity
  8
166-寸法B
100
AcDbDimension
  2
*D189
 10
710763.66136722
 20
-5882.901150706916
 30
0.0
 11
710747.16136722
 21
-5890.401150706802
 31
0.0
 70
    32
 71
     5
 42
15.0
  3
KH1xx010
100
AcDbAlignedDimension
 13
710952.8776135192
 23
-5897.901150706916
 33
0.0
 14
710952.8776135192
 24
-5882.901150706916
 34
0.0
 50
90.0
100
AcDbRotatedDimension
  0
DIMENSION
  5
128
330
1D
100
AcDbEntity
  8
166-寸法B
100
AcDbDimension
  2
*D190
 10
710763.66136722
 20
-5546.901150706916
 30
0.0
 11
710747.16136722
 21
-5714.901150706802
 31
0.0
 70
    32
 71
     5
 42
336.0
  3
KH1xx010
100
AcDbAlignedDimension
 13
710952.8776135192
 23
-5882.901150706916
 33
0.0
 14
710891.4122652829
 24
-5546.901150706916
 34
0.0
 50
90.0
100
AcDbRotatedDimension
  0
DIMENSION
  5
135
330
1D
100
AcDbEntity
  8
166-寸法B
100
AcDbDimension
  2
*D191
 10
710763.66136722
 20
-5531.901150706923
 30
0.0
 11
710762.2344114211
 21
-5546.438768669969
 31
0.0
 70
   160
 71
     5
 42
14.99999999999363
  3
KH1xx010
100
AcDbAlignedDimension
 13
710891.4122652829
 23
-5546.901150706916
 33
0.0
 14
710887.8776135192
 24
-5531.901150706923
 34
0.0
 50
90.0
100
AcDbRotatedDimension
1001
ACAD
1000
DSTYLE
1002
{
1070
   279
1070
     1
1002
}
  0
DIMENSION
  5
144
330
1D
100
AcDbEntity
  8
166-寸法B
100
AcDbDimension
  2
*D192
 10
710992.6772568034
 20
-6179.470898007276
 30
0.0
 11
710946.5022010977
 21
-6184.385996260215
 31
0.0
 70
   160
 71
     5
 42
15.0
  3
KH1xx010
100
AcDbAlignedDimension
 13
710977.6772568034
 23
-6067.803960180137
 33
0.0
 14
710992.6772568034
 24
-6067.803960180137
 34
0.0
100
AcDbRotatedDimension
1001
ACAD
1000
DSTYLE
1002
{
1070
   279
1070
     1
1002
}
  0
DIMENSION
  5
155
330
1D
100
AcDbEntity
  8
166-寸法B
100
AcDbDimension
  2
*D193
 10
711402.6772568034
 20
-6179.470898007276
 30
0.0
 11
711197.6772568034
 21
-6162.970898007276
 31
0.0
 70
    32
 71
     5
 42
410.0
  3
KH1xx010
100
AcDbAlignedDimension
 13
710992.6772568034
 23
-6067.803960180137
 33
0.0
 14
711402.6772568034
 24
-6067.803960180137
 34
0.0
100
AcDbRotatedDimension
  0
DIMENSION
  5
162
330
1D
100
AcDbEntity
  8
166-寸法B
100
AcDbDimension
  2
*D194
 10
711417.6772568034
 20
-6179.470898007276
 30
0.0
 11
711447.4828282207
 21
-6176.34175231983
 31
0.0
 70
   160
 71
     5
 42
15.0
  3
KH1xx010
100
AcDbAlignedDimension
 13
711402.6772568034
 23
-6067.803960180137
 33
0.0
 14
711417.6772568034
 24
-6067.803960180137
 34
0.0
100
AcDbRotatedDimension
1001
ACAD
1000
DSTYLE
1002
{
1070
   279
1070
     1
1002
}
  0
DIMENSION
  5
173
330
1D
100
AcDbEntity
  8
166-寸法B
100
AcDbDimension
  2
*D195
 10
710967.6772568033
 20
-4980.462412823923
 30
0.0
 11
711197.6772568033
 21
-4963.962412823923
 31
0.0
 70
    32
 71
     5
 42
460.0000000001164
  3
KH1xx010
100
AcDbAlignedDimension
 13
711427.6772568034
 23
-5108.034477543551
 33
0.0
 14
710967.6772568033
 24
-5107.034477543516
 34
0.0
100
AcDbRotatedDimension
  0
DIMENSION
  5
180
330
1D
100
AcDbEntity
  8
166-寸法B
100
AcDbDimension
  2
*D196
 10
710763.66136722
 20
-5271.901150706923
 30
0.0
 11
710747.16136722
 21
-5401.901150706808
 31
0.0
 70
    32
 71
     5
 42
260.0
  3
KH1xx010
100
AcDbAlignedDimension
 13
710912.6772568033
 23
-5531.901150706923
 33
0.0
 14
710871.0516347968
 24
-5271.901150706923
 34
0.0
 50
90.0
100
AcDbRotatedDimension
  0
DIMENSION
  5
18D
330
1D
100
AcDbEntity
  8
166-寸法B
100
AcDbDimension
  2
*D197
 10
710763.66136722
 20
-5171.901150706923
 30
0.0
 11
710747.16136722
 21
-5221.901150706808
 31
0.0
 70
    32
 71
     5
 42
100.0
  3
KH1xx010
100
AcDbAlignedDimension
 13
710871.0516347968
 23
-5271.901150706923
 33
0.0
 14
710871.1654961867
 24
-5171.901150706923
 34
0.0
 50
90.0
100
AcDbRotatedDimension
  0
DIMENSION
  5
19A
330
1D
100
AcDbEntity
  8
166-寸法B
100
AcDbDimension
  2
*D198
 10
713326.975541798
 20
-4980.462412823923
 30
0.0
 11
713050.4878711894
 21
-4963.962412823923
 31
0.0
 70
    32
 71
     5
 42
552.9753412173595
  3
KH1xx010
100
AcDbAlignedDimension
 13
712774.0002005807
 23
-5107.034477543516
 33
0.0
 14
713326.975541798
 24
-5107.034477543516
 34
0.0
100
AcDbRotatedDimension
  0
DIMENSION
  5
1A7
330
1D
100
AcDbEntity
  8
166-寸法B
100
AcDbDimension
  2
*D199
 10
712784.0002005807
 20
-6229.470898007276
 30
0.0
 11
713024.0002005808
 21
-6212.970898007276
 31
0.0
 70
    32
 71
     5
 42
480.0000000001164
  3
KH1xx010
100
AcDbAlignedDimension
 13
713264.0002005808
 23
-6067.803960180137
 33
0.0
 14
712784.0002005807
 24
-6067.803960180137
 34
0.0
 50
180.0
100
AcDbRotatedDimension
  0
DIMENSION
  5
1B4
330
1D
100
AcDbEntity
  8
166-寸法B
100
AcDbDimension
  2
*D200
 10
713249.0002005808
 20
-6179.470898007276
 30
0.0
 11
713297.0176044349
 21
-6184.385996260215
 31
0.0
 70
   160
 71
     5
 42
15.0
  3
KH1xx010
100
AcDbAlignedDimension
 13
713264.0002005808
 23
-6067.803960180137
 33
0.0
 14
713249.0002005808
 24
-6067.803960180143
 34
0.0
 50
180.0
100
AcDbRotatedDimension
1001
ACAD
1000
DSTYLE
1002
{
1070
   279
1070
     1
1002
}
  0
DIMENSION
  5
1C5
330
1D
100
AcDbEntity
  8
166-寸法B
100
AcDbDimension
  2
*D201
 10
712799.0002005807
 20
-6179.470898007276
 30
0.0
 11
713024.0002005808
 21
-6162.970898007276
 31
0.0
 70
    32
 71
     5
 42
450.0000000001164
  3
KH1xx010
100
AcDbAlignedDimension
 13
713249.0002005808
 23
-6067.803960180143
 33
0.0
 14
712799.0002005807
 24
-6067.803960180137
 34
0.0
 50
180.0
100
AcDbRotatedDimension
  0
DIMENSION
  5
1D2
330
1D
100
AcDbEntity
  8
166-寸法B
100
AcDbDimension
  2
*D202
 10
712784.0002005807
 20
-6179.470898007276
 30
0.0
 11
712754.1946291634
 21
-6176.34175231983
 31
0.0
 70
   160
 71
     5
 42
15.0
  3
KH1xx010
100
AcDbAlignedDimension
 13
712799.0002005807
 23
-6067.803960180137
 33
0.0
 14
712784.0002005807
 24
-6067.803960180137
 34
0.0
 50
180.0
100
AcDbRotatedDimension
1001
ACAD
1000
DSTYLE
1002
{
1070
   279
1070
     1
1002
}
  0
MTEXT
  5
1E3
330
1D
100
AcDbEntity
  8
161-番号
100
AcDbMText
 10
711291.3833938857
 20
-5063.847594573212
 30
0.0
 40
30.0
 41
0.0
 71
     1
 72
     1
  1
①
  7
KH001
 73
     1
 44
1.0
  0
LEADER
  5
1E7
330
1D
100
AcDbEntity
  8
161-番号
100
AcDbLeader
  3
KH1xx030
 74
     0
 76
     2
 10
711165.6373680165
 20
-5360.150952663273
 30
0.0
 10
711301.2654421116
 20
-5098.449589658461
 30
0.0
1001
ACAD
1000
DSTYLE
1002
{
1070
    41
1040
1.0
1070
   341
1005
0
1070
   147
1040
0.5
1070
    77
1070
     1
1002
}
  0
MTEXT
  5
1E9
330
1D
100
AcDbEntity
  8
161-番号
100
AcDbMText
 10
711283.7479390326
 20
-6003.55281714477
 30
0.0
 40
30.0
 41
0.0
 71
     1
 72
     1
  1
②
  7
KH001
 73
     1
 44
1.0
  0
LEADER
  5
1EA
330
1D
100
AcDbEntity
  8
161-番号
100
AcDbLeader
  3
KH1xx030
 74
     0
 76
     2
 10
711409.6858943427
 20
-5820.055608494054
 30
0.0
 10
711310.1866206465
 20
-6006.293288828419
 30
0.0
1001
ACAD
1000
DSTYLE
1002
{
1070
    41
1040
1.0
1070
   341
1005
0
1070
   147
1040
0.5
1070
    77
1070
     1
1002
}
  0
MTEXT
  5
1EC
102
{ACAD_REACTORS
330
1EB
102
}
330
1D
100
AcDbEntity
  8
160-文字
100
AcDbMText
 10
711038.6609182926
 20
-6127.915254292454
 30
0.0
 40
23.0
 41
0.0
 71
     7
 72
     1
  1
\A1;ｱｼﾞｬｽﾀｰ
  7
KH001
 73
     1
 44
1.0
  0
LEADER
  5
1EB
330
1D
100
AcDbEntity
  8
160-文字
100
AcDbLeader
  3
KH1xx010
 73
     0
 74
     0
 75
     1
 40
27.324
 41
102.419
 76
     3
 10
710991.5062059328
 20
-6059.901150706916
 30
0.0
 10
711033.0609182926
 20
-6132.915254292454
 30
0.0
 10
711033.6609182926
 20
-6132.915254292454
 30
0.0
340
1EC
1001
ACAD
1000
DSTYLE
1002
{
1070
   147
1040
0.5
1070
    77
1070
     1
1002
}
  0
DIMENSION
  5
1ED
330
1D
100
AcDbEntity
  8
166-寸法B
100
AcDbDimension
  2
*D203
 10
713343.453345584
 20
-5136.717722697504
 30
0.0
 11
713318.7460850395
 21
-5113.015375210613
 31
0.0
 70
    33
 71
     5
 42
60.00000000023283
  3
KH1xx010
100
AcDbAlignedDimension
 13
713268.5088796149
 23
-5184.592079130091
 33
0.0
 14
713326.4644291924
 24
-5200.121221836312
 34
0.0
  0
LINE
  5
1FA
330
1D
100
AcDbEntity
  8
191-図面内枠
100
AcDbLine
 10
709972.4652774214
 20
-6424.884728785379
 30
0.0
 11
714022.071944075
 21
-6424.884728785379
 31
0.0
  0
MTEXT
  5
1FE
330
1D
100
AcDbEntity
  8
191-図面内枠
100
AcDbMText
 10
709988.4517784215
 20
-6450.609145451972
 30
0.0
 40
21.99999999992997
 41
192.3122864993878
 71
     4
 72
     1
  1
備考欄/NOTE 
  7
KH001
 73
     1
 44
0.7828267384257844
  0
POINT
  5
1FF
330
1D
100
AcDbEntity
  8
191-図面内枠
100
AcDbPoint
 10
709972.4652774214
 20
-6697.194728784521
 30
0.0
  0
MTEXT
  5
200
330
1D
100
AcDbEntity
  8
160-文字
100
AcDbMText
 10
713003.5255346444
 20
-6585.570362117851
 30
0.0
 40
30.0
 41
0.0
 71
     5
 72
     1
  1
1/10
  7
KH001
 73
     1
 44
0.8762322015334063
  0
MTEXT
  5
201
330
1D
100
AcDbEntity
  8
160-文字
100
AcDbMText
 10
713003.5255346444
 20
-6629.570362117851
 30
0.0
 40
30.0
 41
0.0
 71
     5
 72
     1
  1
(A3)
  7
KH001
 73
     1
 44
0.8762322015334063
  0
MTEXT
  5
202
330
1D
100
AcDbEntity
  8
191-図面内枠
100
AcDbMText
 10
713741.8402024094
 20
-6450.609145451972
 30
0.0
 40
21.99999999992997
 41
0.0
 71
     4
 72
     1
  1
図面番号/NO.
  7
KH001
 73
     1
 44
0.7828267384257844
  0
MTEXT
  5
203
330
1D
100
AcDbEntity
  8
191-図面内枠
100
AcDbMText
 10
713110.2880328716
 20
-6450.609145451972
 30
0.0
 40
21.99999999992997
 41
0.0
 71
     4
 72
     1
  1
図面名称/TITLE
  7
KH001
 73
     1
 44
0.7828267384257844
  0
LINE
  5
204
330
1D
100
AcDbEntity
  8
191-図面内枠
100
AcDbLine
 10
713728.5946274094
 20
-6424.884728785379
 30
0.0
 11
713728.5946274094
 21
-6697.194728784521
 31
0.0
  0
MTEXT
  5
205
330
1D
100
AcDbEntity
  8
191-図面内枠
100
AcDbMText
 10
713010.2568975467
 20
-6450.609145451972
 30
0.0
 40
21.99999999992997
 41
0.0
 71
     5
 72
     1
  1
縮尺/SCALE
  7
KH001
 73
     1
 44
0.7828267384257844
  0
LINE
  5
206
330
1D
100
AcDbEntity
  8
191-図面内枠
100
AcDbLine
 10
713094.6354286197
 20
-6424.884728785379
 30
0.0
 11
713094.6354286197
 21
-6697.194728784521
 31
0.0
  0
LINE
  5
207
330
1D
100
AcDbEntity
  8
191-図面内枠
100
AcDbLine
 10
712920.0591574338
 20
-6424.884728785379
 30
0.0
 11
712920.0591574338
 21
-6697.194728784521
 31
0.0
  0
LINE
  5
208
330
1D
100
AcDbEntity
  8
191-図面内枠
100
AcDbLine
 10
712920.0591574338
 20
-6476.333562118551
 30
0.0
 11
713094.6354286197
 21
-6476.333562118551
 31
0.0
  0
LINE
  5
209
330
1D
100
AcDbEntity
  8
191-図面内枠
100
AcDbLine
 10
711379.2192525576
 20
-6424.884728785379
 30
0.0
 11
711379.2192525576
 21
-6697.194728784521
 31
0.0
  0
LINE
  5
20A
330
1D
100
AcDbEntity
  8
191-図面内枠
100
AcDbLine
 10
711425.2576397381
 20
-6424.884728785379
 30
0.0
 11
711425.2576397381
 21
-6697.194728784521
 31
0.0
  0
LINE
  5
20B
330
1D
100
AcDbEntity
  8
191-図面内枠
100
AcDbLine
 10
711485.578909638
 20
-6424.884728785379
 30
0.0
 11
711485.578909638
 21
-6697.194728784521
 31
0.0
  0
MTEXT
  5
20C
330
1D
100
AcDbEntity
  8
160-文字
100
AcDbMText
 10
711402.2384461478
 20
-6561.039728785141
 30
0.0
 40
24.0
 41
0.0
 71
     5
 72
     1
  1
改\P\P訂
  7
KH001
 73
     1
 44
0.8762322015334063
  0
LINE
  5
20D
330
1D
100
AcDbEntity
  8
DEFPOINTS
100
AcDbLine
 10
711425.2576397381
 20
-6424.884728785379
 30
0.0
 11
711379.2192525576
 21
-6697.194728784907
 31
0.0
  0
LINE
  5
20E
330
1D
100
AcDbEntity
  8
191-図面内枠
100
AcDbLine
 10
711425.2576397381
 20
-6587.861395451575
 30
0.0
 11
712920.0591574338
 21
-6587.861395451575
 31
0.0
  0
LINE
  5
20F
330
1D
100
AcDbEntity
  8
191-図面内枠
100
AcDbLine
 10
711425.2576397381
 20
-6642.528062118239
 30
0.0
 11
712920.0591574338
 21
-6642.528062118239
 31
0.0
  0
LINE
  5
210
330
1D
100
AcDbEntity
  8
DEFPOINTS
100
AcDbLine
 10
711485.578909638
 20
-6642.528062118239
 30
0.0
 11
711425.2576397381
 21
-6697.194728784521
 31
0.0
  0
LINE
  5
211
330
1D
100
AcDbEntity
  8
DEFPOINTS
100
AcDbLine
 10
711703.7928537963
 20
-6642.528062118239
 30
0.0
 11
711485.578909638
 21
-6697.194728784907
 31
0.0
  0
MTEXT
  5
212
330
1D
100
AcDbEntity
  8
160-文字
100
AcDbMText
 10
711455.4182746882
 20
-6669.86139545138
 30
0.0
 40
20.0
 41
0.0
 71
     5
 72
     1
  1
0
  7
KH001
 73
     1
 44
0.8762322015334063
  0
LINE
  5
213
330
1D
100
AcDbEntity
  8
DEFPOINTS
100
AcDbLine
 10
711485.578909638
 20
-6587.861395451575
 30
0.0
 11
711425.2576397381
 21
-6642.528062117854
 31
0.0
  0
MTEXT
  5
214
330
1D
100
AcDbEntity
  8
160-文字
100
AcDbMText
 10
711455.4182746882
 20
-6615.194728784713
 30
0.0
 40
20.0
 41
0.0
 71
     5
 72
     1
  1
1
  7
KH001
 73
     1
 44
0.8762322015334063
  0
LINE
  5
215
330
1D
100
AcDbEntity
  8
191-図面内枠
100
AcDbLine
 10
711425.2576397381
 20
-6533.528062118239
 30
0.0
 11
712920.059157434
 21
-6533.528062118239
 31
0.0
  0
LINE
  5
216
330
1D
100
AcDbEntity
  8
DEFPOINTS
100
AcDbLine
 10
711485.5789096382
 20
-6533.528062118239
 30
0.0
 11
711425.2576397381
 21
-6587.861395451189
 31
0.0
  0
MTEXT
  5
217
330
1D
100
AcDbEntity
  8
160-文字
100
AcDbMText
 10
711455.4182746882
 20
-6560.694728784713
 30
0.0
 40
20.0
 41
0.0
 71
     5
 72
     1
  1
2
  7
KH001
 73
     1
 44
0.8762322015334063
  0
LINE
  5
218
330
1D
100
AcDbEntity
  8
DEFPOINTS
100
AcDbLine
 10
711485.578909638
 20
-6479.194728784907
 30
0.0
 11
711425.2576397381
 21
-6533.528062118228
 31
0.0
  0
MTEXT
  5
219
330
1D
100
AcDbEntity
  8
160-文字
100
AcDbMText
 10
711455.4182746882
 20
-6506.361395451567
 30
0.0
 40
20.0
 41
0.0
 71
     5
 72
     1
  1
3
  7
KH001
 73
     1
 44
0.8762322015334063
  0
LINE
  5
21A
330
1D
100
AcDbEntity
  8
DEFPOINTS
100
AcDbLine
 10
711485.578909638
 20
-6424.884728785379
 30
0.0
 11
711425.2576397381
 21
-6479.2180621187
 31
0.0
  0
MTEXT
  5
21B
330
1D
100
AcDbEntity
  8
160-文字
100
AcDbMText
 10
711455.4182746882
 20
-6452.051395452038
 30
0.0
 40
20.0
 41
0.0
 71
     5
 72
     1
  1
4
  7
KH001
 73
     1
 44
0.8762322015334063
  0
LINE
  5
21C
330
1D
100
AcDbEntity
  8
191-図面内枠
100
AcDbLine
 10
711425.2576397381
 20
-6479.194728784907
 30
0.0
 11
712920.059157434
 21
-6479.194728784907
 31
0.0
  0
LINE
  5
21D
330
1D
100
AcDbEntity
  8
191-図面内枠
100
AcDbLine
 10
711703.7928537963
 20
-6424.884728785379
 30
0.0
 11
711703.7928537963
 21
-6697.194728784521
 31
0.0
  0
TEXT
  5
21E
330
1D
100
AcDbEntity
  8
160-文字
100
AcDbText
 10
710004.5986010331
 20
-6495.851265043784
 30
0.0
 40
23.99999999999999
  1
1、仕様は改良のため予告なく変更することがあります。
  7
KH001
100
AcDbText
1001
ACAD
1000
ACAD_MTEXT_DEFINED_HEIGHT_BEGIN
1070
    46
1040
0.0
1000
ACAD_MTEXT_DEFINED_HEIGHT_END
  0
TEXT
  5
21F
330
1D
100
AcDbEntity
  8
DEFPOINTS
100
AcDbText
 10
710004.5986010331
 20
-6528.12859030288
 30
0.0
 40
23.99999999999999
  1
2、（　）内寸法は、ワークトップ高さ910mmの場合を示す。
  7
KH001
100
AcDbText
1001
ACAD
1000
ACAD_MTEXT_DEFINED_HEIGHT_BEGIN
1070
    46
1040
0.0
1000
ACAD_MTEXT_DEFINED_HEIGHT_END
  0
TEXT
  5
220
330
1D
100
AcDbEntity
  8
DEFPOINTS
100
AcDbText
 10
710004.5986010331
 20
-6564.795256969544
 30
0.0
 40
23.99999999999999
  1
3、［　］内寸法は、セットのＬ・Ｒを反転させた場合を示す。
  7
KH001
100
AcDbText
1001
ACAD
1000
ACAD_MTEXT_DEFINED_HEIGHT_BEGIN
1070
    46
1040
0.0
1000
ACAD_MTEXT_DEFINED_HEIGHT_END
  0
TEXT
  5
221
330
1D
100
AcDbEntity
  8
DEFPOINTS
100
AcDbText
 10
710004.5986010331
 20
-6601.461923636212
 30
0.0
 40
23.99999999999999
  1
3、クリアランスは推奨寸法で記載しております。
  7
KH001
100
AcDbText
1001
ACAD
1000
ACAD_MTEXT_DEFINED_HEIGHT_BEGIN
1070
    46
1040
0.0
1000
ACAD_MTEXT_DEFINED_HEIGHT_END
  0
TEXT
  5
222
330
1D
100
AcDbEntity
  8
DEFPOINTS
100
AcDbText
 10
710004.5986010331
 20
-6638.12859030288
 30
0.0
 40
23.99999999999999
  1
4、本図は、天井高2400想定で記載されておりますが、各物件ごとに高さ調整し、ご使用ください。
  7
KH001
100
AcDbText
1001
ACAD
1000
ACAD_MTEXT_DEFINED_HEIGHT_BEGIN
1070
    46
1040
0.0
1000
ACAD_MTEXT_DEFINED_HEIGHT_END
  0
TEXT
  5
223
330
1D
100
AcDbEntity
  8
DEFPOINTS
100
AcDbText
 10
710004.5986010331
 20
-6674.795256969544
 30
0.0
 40
23.99999999999999
  1
6、仕様は改良のため予告なく変更することがあります。
  7
KH001
100
AcDbText
1001
ACAD
1000
ACAD_MTEXT_DEFINED_HEIGHT_BEGIN
1070
    46
1040
0.0
1000
ACAD_MTEXT_DEFINED_HEIGHT_END
  0
MTEXT
  5
224
330
1D
100
AcDbEntity
  8
160-文字
100
AcDbMText
 10
713411.6150280145
 20
-6561.039728785142
 30
0.0
 40
29.99999999999999
 41
0.0
 71
     5
 72
     1
  1
ソファチェア\Pハイタイプ
  7
KH001
 73
     1
 44
0.7829999999999999
  0
DIMENSION
  5
225
330
1D
100
AcDbEntity
  8
166-寸法B
100
AcDbDimension
  2
*D177
 10
710813.66136722
 20
-5451.901150706923
 30
0.0
 11
710797.16136722
 21
-5491.901150706808
 31
0.0
 70
    32
 71
     5
 42
80.0
  3
KH1xx010
100
AcDbAlignedDimension
 13
710912.6772568033
 23
-5531.901150706923
 33
0.0
 14
710897.6772568033
 24
-5451.901150706923
 34
0.0
 50
90.0
100
AcDbRotatedDimension
  0
DIMENSION
  5
232
330
1D
100
AcDbEntity
  8
166-寸法B
100
AcDbDimension
  2
*D178
 10
710813.66136722
 20
-5271.901150706923
 30
0.0
 11
710797.16136722
 21
-5361.901150706808
 31
0.0
 70
    32
 71
     5
 42
180.0
  3
KH1xx010
100
AcDbAlignedDimension
 13
710897.6772568033
 23
-5451.901150706923
 33
0.0
 14
710898.3737031752
 24
-5271.901150706923
 34
0.0
 50
90.0
100
AcDbRotatedDimension
  0
DIMENSION
  5
23F
330
1D
100
AcDbEntity
  8
166-寸法B
100
AcDbDimension
  2
*D179
 10
711507.7742995983
 20
-6061.901150706915
 30
0.0
 11
711491.2742995983
 21
-5756.901150706799
 31
0.0
 70
    32
  1
SH610～622
 71
     5
 42
610.0000000000027
  3
KH1xx010
100
AcDbAlignedDimension
 13
711422.1939193893
 23
-5451.901150706913
 33
0.0
 14
711412.6939193894
 24
-6061.901150706915
 34
0.0
 50
90.0
100
AcDbRotatedDimension
1001
ACAD
1000
DSTYLE
1002
{
1070
     3
1000
SH<>
1002
}
  0
LWPOLYLINE
  5
24C
330
1D
100
AcDbEntity
  8
120-キャビネット（外）
 62
     6
100
AcDbPolyline
 90
        8
 70
     1
 43
0.0
 10
710975.6772568035
 20
-4208.320478620667
 10
711419.6772568035
 20
-4208.320478620667
 42
-0.414213562373095
 10
711427.6772568035
 20
-4216.320478620667
 10
711427.6772568035
 20
-4328.059628858284
 42
-0.414213562373095
 10
711419.6772568035
 20
-4336.059628858284
 10
710975.6772568035
 20
-4336.059628858284
 42
-0.414213562373095
 10
710967.6772568035
 20
-4328.059628858284
 10
710967.6772568035
 20
-4216.320478620667
 42
-0.414213562373095
  0
LWPOLYLINE
  5
24D
330
1D
100
AcDbEntity
  8
120-キャビネット（外）
 62
     6
100
AcDbPolyline
 90
        6
 70
     0
 43
0.0
 10
711427.6772568035
 20
-4328.059628858284
 10
711427.6772568035
 20
-4753.295819837978
 42
-0.414213562373095
 10
711419.6772568035
 20
-4761.295819837978
 10
710975.6772568034
 20
-4761.295819837978
 42
-0.414213562373095
 10
710967.6772568034
 20
-4753.295819837978
 10
710967.6772568035
 20
-4328.059628858284
  0
LWPOLYLINE
  5
24E
330
1D
100
AcDbEntity
  8
120-キャビネット（外）
 62
    13
100
AcDbPolyline
 90
        4
 70
     0
 43
0.0
 10
710967.6772568035
 20
-4269.29581983792
 42
-0.4142135623730951
 10
710975.6772568035
 20
-4261.29581983792
 10
711419.6772568035
 20
-4261.29581983792
 42
-0.414213562373095
 10
711427.6772568035
 20
-4269.29581983792
  0
DIMENSION
  5
24F
330
1D
100
AcDbEntity
  8
166-寸法B
100
AcDbDimension
  2
*D180
 10
710967.6772568034
 20
-4076.025193788872
 30
0.0
 11
711197.6772568035
 21
-4059.525193788872
 31
0.0
 70
    32
 71
     5
 42
460.0000000001164
  3
KH1xx010
100
AcDbAlignedDimension
 13
711427.6772568035
 23
-4203.5972585085
 33
0.0
 14
710967.6772568034
 24
-4202.597258508465
 34
0.0
100
AcDbRotatedDimension
  0
DIMENSION
  5
25C
330
1D
100
AcDbEntity
  8
166-寸法B
100
AcDbDimension
  2
*D181
 10
710763.6613672201
 20
-4261.29581983792
 30
0.0
 11
710747.1613672201
 21
-4511.295819837835
 31
0.0
 70
    32
 71
     5
 42
500.0000000000582
  3
KH1xx010
100
AcDbAlignedDimension
 13
710897.6880433965
 23
-4761.295819837978
 33
0.0
 14
710897.573613517
 24
-4261.29581983792
 34
0.0
 50
90.0
100
AcDbRotatedDimension
  0
DIMENSION
  5
269
330
1D
100
AcDbEntity
  8
166-寸法B
100
AcDbDimension
  2
*D182
 10
710713.6613672201
 20
-4208.320478620667
 30
0.0
 11
710697.1613672201
 21
-4484.808149229208
 31
0.0
 70
    32
 71
     5
 42
552.9753412173113
  3
KH1xx010
100
AcDbAlignedDimension
 13
710897.6880433965
 23
-4761.295819837978
 33
0.0
 14
710896.5944206887
 24
-4208.320478620667
 34
0.0
 50
90.0
100
AcDbRotatedDimension
  0
MTEXT
  5
276
330
1D
100
AcDbEntity
  8
160-文字
100
AcDbMText
 10
711197.6772568035
 20
-6363.284881483545
 30
0.0
 40
22.66666666666666
 41
0.0
 71
     5
 72
     1
  1
{\fArial|b0|i0|c0|p32;A}面展開図
  7
KH001
 73
     1
 44
1.0
  0
LWPOLYLINE
  5
277
330
1D
100
AcDbEntity
  8
160-文字
100
AcDbPolyline
 90
        4
 70
     1
 43
0.0
 10
711102.6724223187
 20
-6341.547117396804
 10
711292.682091288
 20
-6341.547117396804
 10
711292.682091288
 20
-6385.022645570287
 10
711102.6724223187
 20
-6385.022645570287
  0
CIRCLE
  5
278
330
1D
100
AcDbEntity
  8
166-寸法B
100
AcDbCircle
 10
711198.7887914837
 20
-4865.554932683744
 30
0.0
 40
38.55870474878424
  0
LINE
  5
279
330
1D
100
AcDbEntity
  8
166-寸法B
100
AcDbLine
 10
711198.7887914837
 20
-4814.996227934951
 30
0.0
 11
711198.7887914837
 21
-4838.996227934962
 31
0.0
  0
LINE
  5
27A
330
1D
100
AcDbEntity
  8
166-寸法B
100
AcDbLine
 10
711172.230086735
 20
-4865.554932683744
 30
0.0
 11
711148.230086735
 21
-4865.554932683744
 31
0.0
  0
MTEXT
  5
27B
330
1D
100
AcDbEntity
  8
166-寸法B
100
AcDbMText
 10
711198.7887914837
 20
-4798.196227934955
 30
0.0
 40
23.99999999999999
 41
0.0
 71
     5
 72
     1
  1
{\fArial|b0|i0|c0|p32;A}
  7
KH001
 73
     1
 44
1.0
  0
MTEXT
  5
27C
330
1D
100
AcDbEntity
  8
166-寸法B
100
AcDbMText
 10
711136.2002030686
 20
-4865.554932683744
 30
0.0
 40
23.99999999999999
 41
0.0
 71
     5
 72
     1
  1
{\fArial|b0|i0|c0|p32;B}
  7
KH001
 73
     1
 44
1.0
  0
MTEXT
  5
27D
330
1D
100
AcDbEntity
  8
160-文字
100
AcDbMText
 10
713031.7182202702
 20
-6363.284881483545
 30
0.0
 40
22.66666666666666
 41
0.0
 71
     5
 72
     1
  1
{\fArial|b0|i0|c0|p32;B}面展開図
  7
KH001
 73
     1
 44
1.0
  0
LWPOLYLINE
  5
27E
330
1D
100
AcDbEntity
  8
160-文字
100
AcDbPolyline
 90
        4
 70
     1
 43
0.0
 10
712936.7133857857
 20
-6341.547117396804
 10
713126.723054755
 20
-6341.547117396804
 10
713126.723054755
 20
-6385.022645570287
 10
712936.7133857857
 20
-6385.022645570287
  0
LINE
  5
27F
330
1D
100
AcDbEntity
  8
111-壁仕上
100
AcDbLine
 10
710020.7171342027
 20
-6061.901150706915
 30
0.0
 11
712230.5371590909
 21
-6061.901150706915
 31
0.0
  0
MTEXT
  5
283
330
1D
100
AcDbEntity
  8
160-文字
 62
     4
370
     0
100
AcDbMText
 10
712221.0820009131
 20
-6031.957261235148
 30
0.0
 40
22.5
 41
0.0
 71
     3
 72
     1
  1
▼FL
  7
ＭＳ ゴシック
 73
     1
 44
0.7828267384257843
  0
LINE
  5
285
330
1D
100
AcDbEntity
  8
111-壁仕上
100
AcDbLine
 10
712659.775905934
 20
-6061.901150706915
 30
0.0
 11
713389.7718868298
 21
-6061.901150706915
 31
0.0
  0
MTEXT
  5
286
330
1D
100
AcDbEntity
  8
160-文字
100
AcDbMText
 10
711594.6858817172
 20
-6669.861395451574
 30
0.0
 40
20.0
 41
0.0
 71
     5
 72
     1
  1
2015.06.25
  7
KH001
 73
     1
 44
0.8762322015334063
  0
MTEXT
  5
287
330
1D
100
AcDbEntity
  8
160-文字
100
AcDbMText
 10
711731.3439582268
 20
-6669.861395451189
 30
0.0
 40
20.0
 41
0.0
 71
     4
 72
     1
  1
新規作成
  7
KH001
 73
     1
 44
0.8762322015334063
  0
MTEXT
  5
288
330
1D
100
AcDbEntity
  8
160-文字
100
AcDbMText
 10
713875.3332857547
 20
-6586.764145451186
 30
0.0
 40
29.99999999999999
 41
0.0
 71
     5
 72
     1
  1
000586-1
  7
KH001
 73
     1
 44
0.8762322015334065
  0
MTEXT
  5
289
330
1D
100
AcDbEntity
  8
160-文字
100
AcDbMText
 10
711731.3439582268
 20
-6615.194728784521
 30
0.0
 40
20.0
 41
0.0
 71
     4
 72
     1
  1
図面名称変更
  7
KH001
 73
     1
 44
0.8762322015334063
  0
MTEXT
  5
28A
330
1D
100
AcDbEntity
  8
160-文字
100
AcDbMText
 10
711594.6858817172
 20
-6615.194728784905
 30
0.0
 40
20.0
 41
0.0
 71
     5
 72
     1
  1
2016.02.02
  7
KH001
 73
     1
 44
0.8762322015334063
  0
ENDSEC
  0
SECTION
  2
OBJECTS
  0
DICTIONARY
  5
D
330
0
100
AcDbDictionary
281
     1
  3
ACAD_COLOR
350
33
  3
ACAD_DETAILVIEWSTYLE
350
290
  3
ACAD_GROUP
350
31
  3
ACAD_LAYOUT
350
26
  3
ACAD_MATERIAL
350
F
  3
ACAD_MLEADERSTYLE
350
28E
  3
ACAD_MLINESTYLE
350
1B
  3
ACAD_PLOTSETTINGS
350
32
  3
ACAD_PLOTSTYLENAME
350
C
  3
ACAD_SCALELIST
350
39
  3
ACAD_SECTIONVIEWSTYLE
350
291
  3
ACAD_TABLESTYLE
350
28D
  3
AcDbVariableDictionary
350
28B
  0
DICTIONARY
  5
3
330
2
100
AcDbDictionary
280
     1
281
     1
  3
ACAD_LAYERFILTERS
360
4
  3
ACAD_LAYERSTATES
360
5
  3
ACLYDICTIONARY
360
6
  0
DICTIONARY
  5
22
330
21
100
AcDbDictionary
280
     1
281
     1
  3
ADSK_XREC_LAYER_RECONCILED
360
23
  0
DICTIONARY
  5
6F
330
6E
100
AcDbDictionary
280
     1
281
     1
  3
ADSK_XREC_LAYER_RECONCILED
360
70
  0
DICTIONARY
  5
60
330
5F
100
AcDbDictionary
280
     1
281
     1
  3
ADSK_XREC_LAYER_RECONCILED
360
61
  0
DICTIONARY
  5
1FC
330
1FB
100
AcDbDictionary
280
     1
281
     1
  3
ADSK_XREC_LAYER_RECONCILED
360
1FD
  0
DICTIONARY
  5
93
330
92
100
AcDbDictionary
280
     1
281
     1
  3
ADSK_XREC_LAYER_RECONCILED
360
94
  0
DICTIONARY
  5
98
330
97
100
AcDbDictionary
280
     1
281
     1
  3
ADSK_XREC_LAYER_RECONCILED
360
99
  0
DICTIONARY
  5
281
330
280
100
AcDbDictionary
280
     1
281
     1
  3
ADSK_XREC_LAYER_RECONCILED
360
282
  0
DICTIONARY
  5
B1
330
B0
100
AcDbDictionary
280
     1
281
     1
  3
ADSK_XREC_LAYER_RECONCILED
360
B2
  0
DICTIONARY
  5
9
330
1
100
AcDbDictionary
280
     1
281
     1
  3
ADSK_XREC_LAYER_RECONCILED
360
A
  0
DICTIONARY
  5
1E5
330
1E4
100
AcDbDictionary
280
     1
281
     1
  3
ADSK_XREC_LAYER_RECONCILED
360
1E6
  0
DICTIONARY
  5
1E
330
1D
100
AcDbDictionary
280
     1
281
     1
  3
ACAD_SORTENTS
360
1F
  0
DICTIONARY
  5
63
330
62
100
AcDbDictionary
280
     1
281
     1
  3
ACAD_SORTENTS
360
64
  0
DICTIONARY
  5
33
102
{ACAD_REACTORS
330
D
102
}
330
D
100
AcDbDictionary
281
     1
  0
DICTIONARY
  5
290
102
{ACAD_REACTORS
330
D
102
}
330
D
100
AcDbDictionary
281
     1
  0
DICTIONARY
  5
31
102
{ACAD_REACTORS
330
D
102
}
330
D
100
AcDbDictionary
281
     1
  0
DICTIONARY
  5
26
102
{ACAD_REACTORS
330
D
102
}
330
D
100
AcDbDictionary
281
     1
  3
Model
350
25
  3
ﾚｲｱｳﾄ1
350
2B
  0
DICTIONARY
  5
F
102
{ACAD_REACTORS
330
D
102
}
330
D
100
AcDbDictionary
281
     1
  3
ByBlock
350
5D
  3
ByLayer
350
5C
  3
Global
350
E
  0
DICTIONARY
  5
28E
102
{ACAD_REACTORS
330
D
102
}
330
D
100
AcDbDictionary
281
     1
  0
DICTIONARY
  5
1B
102
{ACAD_REACTORS
330
D
102
}
330
D
100
AcDbDictionary
281
     1
  3
STANDARD
350
1A
  0
DICTIONARY
  5
32
102
{ACAD_REACTORS
330
D
102
}
330
D
100
AcDbDictionary
281
     1
  0
ACDBDICTIONARYWDFLT
  5
C
102
{ACAD_REACTORS
330
D
102
}
330
D
100
AcDbDictionary
281
     1
  3
Normal
350
B
100
AcDbDictionaryWithDefault
340
B
  0
DICTIONARY
  5
39
102
{ACAD_REACTORS
330
D
102
}
330
D
100
AcDbDictionary
281
     1
  3
*A1
350
5B
  0
DICTIONARY
  5
291
102
{ACAD_REACTORS
330
D
102
}
330
D
100
AcDbDictionary
281
     1
  0
DICTIONARY
  5
28D
102
{ACAD_REACTORS
330
D
102
}
330
D
100
AcDbDictionary
281
     1
  0
DICTIONARY
  5
28B
102
{ACAD_REACTORS
330
D
102
}
330
D
100
AcDbDictionary
281
     1
  3
CANNOSCALE
350
28C
  3
XCLIPFRAME
350
28F
  0
DICTIONARY
  5
4
102
{ACAD_REACTORS
330
3
102
}
330
3
100
AcDbDictionary
281
     1
  0
DICTIONARY
  5
5
102
{ACAD_REACTORS
330
3
102
}
330
3
100
AcDbDictionary
281
     1
  0
DICTIONARY
  5
6
102
{ACAD_REACTORS
330
3
102
}
330
3
100
AcDbDictionary
281
     1
1001
ACAD
1000
<All
  0
XRECORD
  5
23
102
{ACAD_REACTORS
330
22
102
}
330
22
100
AcDbXrecord
280
     1
290
     1
  0
XRECORD
  5
70
102
{ACAD_REACTORS
330
6F
102
}
330
6F
100
AcDbXrecord
280
     1
290
     1
  0
XRECORD
  5
61
102
{ACAD_REACTORS
330
60
102
}
330
60
100
AcDbXrecord
280
     1
290
     1
  0
XRECORD
  5
1FD
102
{ACAD_REACTORS
330
1FC
102
}
330
1FC
100
AcDbXrecord
280
     1
290
     1
  0
XRECORD
  5
94
102
{ACAD_REACTORS
330
93
102
}
330
93
100
AcDbXrecord
280
     1
290
     1
  0
XRECORD
  5
99
102
{ACAD_REACTORS
330
98
102
}
330
98
100
AcDbXrecord
280
     1
290
     1
  0
XRECORD
  5
282
102
{ACAD_REACTORS
330
281
102
}
330
281
100
AcDbXrecord
280
     1
290
     1
  0
XRECORD
  5
B2
102
{ACAD_REACTORS
330
B1
102
}
330
B1
100
AcDbXrecord
280
     1
290
     1
  0
XRECORD
  5
A
102
{ACAD_REACTORS
330
9
102
}
330
9
100
AcDbXrecord
280
     1
290
     1
  0
XRECORD
  5
1E6
102
{ACAD_REACTORS
330
1E5
102
}
330
1E5
100
AcDbXrecord
280
     1
290
     1
  0
SORTENTSTABLE
  5
1F
102
{ACAD_REACTORS
330
1E
102
}
330
1E
100
AcDbSortentsTable
330
1D
  0
SORTENTSTABLE
  5
64
102
{ACAD_REACTORS
330
63
102
}
330
63
100
AcDbSortentsTable
330
62
  0
LAYOUT
  5
25
102
{ACAD_REACTORS
330
26
330
26
102
}
330
26
100
AcDbPlotSettings
  1

  2
Adobe PDF
  4
A3
  6

 40
3.174999952316284
 41
3.174999952316284
 42
3.17498779296875
 43
3.17498779296875
 44
297.0318298339844
 45
420.1583251953125
 46
-1.659078954809928
 47
-0.9956191535282528
 48
709918.2707319672
 49
-1551.628362253916
140
714076.266489538
141
1388.371637729276
142
1.0
143
10.0
 70
  3236
 72
     1
 73
     1
 74
     4
  7
monochrome.ctb
 75
     0
 76
     0
 77
     2
 78
   300
147
0.098871374860667
148
-709918.2707319672
149
1551.628362253916
100
AcDbLayout
  1
Model
 70
     1
 71
     0
 10
0.0
 20
0.0
 11
12.0
 21
9.0
 12
0.0
 22
0.0
 32
0.0
 14
703003.0285013975
 24
-7895.927790944232
 34
0.0
 15
715375.6009589364
 25
8508.22857343618
 35
0.0
146
0.0
 13
0.0
 23
0.0
 33
0.0
 16
1.0
 26
0.0
 36
0.0
 17
0.0
 27
1.0
 37
0.0
 76
     0
330
1D
331
35
1001
ACAD_PSEXT
1000
Adobe PDF
1000
Adobe PDF Converter
1000
Desktop
1000

1070
     0
  0
LAYOUT
  5
2B
102
{ACAD_REACTORS
330
26
330
26
102
}
102
{ACAD_XDICTIONARY
360
2C
102
}
330
26
100
AcDbPlotSettings
  1

  2
FX DC 250/350/400 ART4-ADV
  4
A3
  6

 40
5.365749835968018
 41
5.365756511688232
 42
5.365753173828125
 43
5.365753173828125
 44
296.9259948730469
 45
420.1159973144531
 46
0.0
 47
0.0
 48
0.0
 49
0.0
140
0.0
141
0.0
142
1.0
143
1.0
 70
   688
 72
     1
 73
     1
 74
     5
  7
monochrome.ctb
 75
    16
 76
     0
 77
     2
 78
   300
147
1.0
148
0.0
149
0.0
100
AcDbLayout
  1
ﾚｲｱｳﾄ1
 70
     0
 71
     1
 10
-5.365753173828125
 20
-5.365749835968018
 11
414.750244140625
 21
291.5602450370789
 12
0.0
 22
0.0
 32
0.0
 14
1.000000000000000E+20
 24
1.000000000000000E+20
 34
1.000000000000000E+20
 15
-1.000000000000000E+20
 25
-1.000000000000000E+20
 35
-1.000000000000000E+20
146
0.0
 13
0.0
 23
0.0
 33
0.0
 16
1.0
 26
0.0
 36
0.0
 17
0.0
 27
1.0
 37
0.0
 76
     0
330
28
  0
MATERIAL
  5
5D
102
{ACAD_REACTORS
330
F
102
}
330
F
100
AcDbMaterial
  1
ByBlock
 72
     0
 73
     2
 43
0.0208333333333333
 43
0.0
 43
0.0
 43
0.0
 43
0.0
 43
0.0208333333333333
 43
0.0
 43
0.0
 43
0.0
 43
0.0
 43
1.0
 43
0.0
 43
0.0
 43
0.0
 43
0.0
 43
1.0
 77
     0
 78
     2
 47
0.0208333333333333
 47
0.0
 47
0.0
 47
0.0
 47
0.0
 47
0.0208333333333333
 47
0.0
 47
0.0
 47
0.0
 47
0.0
 47
1.0
 47
0.0
 47
0.0
 47
0.0
 47
0.0
 47
1.0
171
     0
172
     2
 49
0.0208333333333333
 49
0.0
 49
0.0
 49
0.0
 49
0.0
 49
0.0208333333333333
 49
0.0
 49
0.0
 49
0.0
 49
0.0
 49
1.0
 49
0.0
 49
0.0
 49
0.0
 49
0.0
 49
1.0
175
     0
176
     2
142
0.0208333333333333
142
0.0
142
0.0
142
0.0
142
0.0
142
0.0208333333333333
142
0.0
142
0.0
142
0.0
142
0.0
142
1.0
142
0.0
142
0.0
142
0.0
142
0.0
142
1.0
179
     0
270
     2
144
0.0208333333333333
144
0.0
144
0.0
144
0.0
144
0.0
144
0.0208333333333333
144
0.0
144
0.0
144
0.0
144
0.0
144
1.0
144
0.0
144
0.0
144
0.0
144
0.0
144
1.0
274
     2
147
0.0208333333333333
147
0.0
147
0.0
147
0.0
147
0.0
147
0.0208333333333333
147
0.0
147
0.0
147
0.0
147
0.0
147
1.0
147
0.0
147
0.0
147
0.0
147
0.0
147
1.0
  0
MATERIAL
  5
5C
102
{ACAD_REACTORS
330
F
102
}
330
F
100
AcDbMaterial
  1
ByLayer
 72
     0
 73
     2
 43
0.0208333333333333
 43
0.0
 43
0.0
 43
0.0
 43
0.0
 43
0.0208333333333333
 43
0.0
 43
0.0
 43
0.0
 43
0.0
 43
1.0
 43
0.0
 43
0.0
 43
0.0
 43
0.0
 43
1.0
 77
     0
 78
     2
 47
0.0208333333333333
 47
0.0
 47
0.0
 47
0.0
 47
0.0
 47
0.0208333333333333
 47
0.0
 47
0.0
 47
0.0
 47
0.0
 47
1.0
 47
0.0
 47
0.0
 47
0.0
 47
0.0
 47
1.0
171
     0
172
     2
 49
0.0208333333333333
 49
0.0
 49
0.0
 49
0.0
 49
0.0
 49
0.0208333333333333
 49
0.0
 49
0.0
 49
0.0
 49
0.0
 49
1.0
 49
0.0
 49
0.0
 49
0.0
 49
0.0
 49
1.0
175
     0
176
     2
142
0.0208333333333333
142
0.0
142
0.0
142
0.0
142
0.0
142
0.0208333333333333
142
0.0
142
0.0
142
0.0
142
0.0
142
1.0
142
0.0
142
0.0
142
0.0
142
0.0
142
1.0
179
     0
270
     2
144
0.0208333333333333
144
0.0
144
0.0
144
0.0
144
0.0
144
0.0208333333333333
144
0.0
144
0.0
144
0.0
144
0.0
144
1.0
144
0.0
144
0.0
144
0.0
144
0.0
144
1.0
274
     2
147
0.0208333333333333
147
0.0
147
0.0
147
0.0
147
0.0
147
0.0208333333333333
147
0.0
147
0.0
147
0.0
147
0.0
147
1.0
147
0.0
147
0.0
147
0.0
147
0.0
147
1.0
  0
MATERIAL
  5
E
102
{ACAD_REACTORS
330
F
102
}
330
F
100
AcDbMaterial
  1
Global
 72
     0
 73
     2
 43
0.0208333333333333
 43
0.0
 43
0.0
 43
0.0
 43
0.0
 43
0.0208333333333333
 43
0.0
 43
0.0
 43
0.0
 43
0.0
 43
1.0
 43
0.0
 43
0.0
 43
0.0
 43
0.0
 43
1.0
 77
     0
 78
     2
 47
0.0208333333333333
 47
0.0
 47
0.0
 47
0.0
 47
0.0
 47
0.0208333333333333
 47
0.0
 47
0.0
 47
0.0
 47
0.0
 47
1.0
 47
0.0
 47
0.0
 47
0.0
 47
0.0
 47
1.0
171
     0
172
     2
 49
0.0208333333333333
 49
0.0
 49
0.0
 49
0.0
 49
0.0
 49
0.0208333333333333
 49
0.0
 49
0.0
 49
0.0
 49
0.0
 49
1.0
 49
0.0
 49
0.0
 49
0.0
 49
0.0
 49
1.0
175
     0
176
     2
142
0.0208333333333333
142
0.0
142
0.0
142
0.0
142
0.0
142
0.0208333333333333
142
0.0
142
0.0
142
0.0
142
0.0
142
1.0
142
0.0
142
0.0
142
0.0
142
0.0
142
1.0
179
     0
270
     2
144
0.0208333333333333
144
0.0
144
0.0
144
0.0
144
0.0
144
0.0208333333333333
144
0.0
144
0.0
144
0.0
144
0.0
144
1.0
144
0.0
144
0.0
144
0.0
144
0.0
144
1.0
274
     2
147
0.0208333333333333
147
0.0
147
0.0
147
0.0
147
0.0
147
0.0208333333333333
147
0.0
147
0.0
147
0.0
147
0.0
147
1.0
147
0.0
147
0.0
147
0.0
147
0.0
147
1.0
  0
MLINESTYLE
  5
1A
102
{ACAD_REACTORS
330
1B
102
}
330
1B
100
AcDbMlineStyle
  2
STANDARD
 70
     0
  3

 62
     0
 51
90.0
 52
90.0
 71
     2
 49
0.5
 62
   256
  6
BYLAYER
 49
-0.5
 62
   256
  6
BYLAYER
  0
ACDBPLACEHOLDER
  5
B
102
{ACAD_REACTORS
330
C
102
}
330
C
  0
SCALE
  5
5B
102
{ACAD_REACTORS
330
39
102
}
330
39
100
AcDbScale
 70
     0
300
1:1
140
1.0
141
1.0
290
     1
  0
DICTIONARYVAR
  5
28C
102
{ACAD_REACTORS
330
28B
102
}
330
28B
100
DictionaryVariables
280
     0
  1
1:1
  0
DICTIONARYVAR
  5
28F
102
{ACAD_REACTORS
330
28B
102
}
330
28B
100
DictionaryVariables
280
     0
  1
0
  0
DICTIONARY
  5
2C
330
2B
100
AcDbDictionary
280
     1
281
     1
  3
ADSK_XREC_LAYOUTTHUMBNAIL
360
2D
  0
XRECORD
  5
2D
102
{ACAD_REACTORS
330
2C
102
}
330
2C
100
AcDbXrecord
280
     1
310
28000000B40000007F00000001000800000000004C590000000000000000000000010000000000000000000000000000FFFFFF000000000000000000000000000000000000000000000000000000000000000000330000006600000099000000CC000000FF00000000330000333300006633000099330000CC330000FF3300
310
0000660000336600006666000099660000CC660000FF66000000990000339900006699000099990000CC990000FF99000000CC000033CC000066CC000099CC0000CCCC0000FFCC000000FF000033FF000066FF000099FF0000CCFF0000FFFF000000003300330033006600330099003300CC003300FF003300003333003333
310
33006633330099333300CC333300FF33330000663300336633006666330099663300CC663300FF66330000993300339933006699330099993300CC993300FF99330000CC330033CC330066CC330099CC3300CCCC3300FFCC330000FF330033FF330066FF330099FF3300CCFF3300FFFF330000006600330066006600660099
310
006600CC006600FF00660000336600333366006633660099336600CC336600FF33660000666600336666006666660099666600CC666600FF66660000996600339966006699660099996600CC996600FF99660000CC660033CC660066CC660099CC6600CCCC6600FFCC660000FF660033FF660066FF660099FF6600CCFF6600
310
FFFF660000009900330099006600990099009900CC009900FF00990000339900333399006633990099339900CC339900FF33990000669900336699006666990099669900CC669900FF66990000999900339999006699990099999900CC999900FF99990000CC990033CC990066CC990099CC9900CCCC9900FFCC990000FF99
310
0033FF990066FF990099FF9900CCFF9900FFFF99000000CC003300CC006600CC009900CC00CC00CC00FF00CC000033CC003333CC006633CC009933CC00CC33CC00FF33CC000066CC003366CC006666CC009966CC00CC66CC00FF66CC000099CC003399CC006699CC009999CC00CC99CC00FF99CC0000CCCC0033CCCC0066CC
310
CC0099CCCC00CCCCCC00FFCCCC0000FFCC0033FFCC0066FFCC0099FFCC00CCFFCC00FFFFCC000000FF003300FF006600FF009900FF00CC00FF00FF00FF000033FF003333FF006633FF009933FF00CC33FF00FF33FF000066FF003366FF006666FF009966FF00CC66FF00FF66FF000099FF003399FF006699FF009999FF00CC
310
99FF00FF99FF0000CCFF0033CCFF0066CCFF0099CCFF00CCCCFF00FFCCFF0000FFFF0033FFFF0066FFFF0099FFFF00CCFFFF00FFFFFF00000000000D0D0D001A1A1A00282828003535350043434300505050005D5D5D006B6B6B00787878008686860093939300A1A1A100AEAEAE00BBBBBB00C9C9C900D6D6D600E4E4E400
310
F1F1F100FFFFFF0000000000000000000000000000000000000000000000000000000000000000000000000000000000EFF5F5F5F5F5F5F5F5F5F5F5F5F5F5F5F5F5F5F5F5F5F5F5F5F5F5F5F5F5F5F5F5F5F5F5F5F5F5F5F5F5F5F5F5F5F5F5F5F5F5F5F5F5F5F5F5F5F5F5F5F5F5F5F5F5F5F5F5F5F5F5F5F5F5F5F5F5F5
310
F5F5F5F5F5F5F5F5F5F5F5F5F5F5F5F5F5F5F5F5F5F5F5F5F5F5F5F5F5F5F5F5F5F5F5F5F5F5F5F5F5F5F5F5F5F5F5F5F5F5F5F5F5F5F5F5F5F5F5F5F5F5F5F5F5F5F5F5F5F5F5F5F5F5F5F5F5F5F5F5F5F5F5F5F5F5F5F5F5F5F5F5F5F5F5F5F5F5F5F5F5EFF5E2E2E2E2E2E2E2E2E2E2E2E2E2E2E2E2E2E2E2E2E2E2E2E2
310
E2E2E2E2E2E2E2E2E2E2E2E2E2E2E2E2E2E2E2E2E2E2E2E2E2E2E2E2E2E2E2E2E2E2E2E2E2E2E2E2E2E2E2E2E2E2E2E2E2E2E2E2E2E2E2E2E2E2E2E2E2E2E2E2E2E2E2E2E2E2E2E2E2E2E2E2E2E2E2E2E2E2E2E2E2E2E2E2E2E2E2E2E2E2E2E2E2E2E2E2E2E2E2E2E2E2E2E2E2E2E2E2E2E2E2E2E2E2E2E2E2E2E2E2E2E2E2
310
E2E2E2E2E2E2E2E2E2E2E2E2E2E2E2E2E2E2E2E2E2E2E2E2E2F5F5EFF5E2F5F5F5F5F5F5F5F5E2E2E2E2E2E2E2E2E2F5F5F5F5F5F5F5F5F5F5F5F5F5F5F5F5E2E2E2E2E2E2E2E2E2F5F5F5F5F5F5F5F5F5F5F5F5F5F5F5F5E2E2E2E2E2E2E2E2E2F5F5F5F5F5F5F5F5F5F5F5F5F5F5F5F5E2E2E2E2E2E2E2E2F5F5F5F5F5F5
310
F5F5F5F5F5F5F5F5F5F5E2E2E2E2E2E2E2E2E2F5F5F5F5F5F5F5F5F5F5F5F5F5F5F5F5E2E2E2E2E2E2E2E2E2F5F5F5F5F5F5F5F5F5F5F5F5F5F5F5F5E2E2E2E2E2E2E2E2E2F5F5F5F5F5F5F5F5E2F5F5EFF5E2F5E2E2E2E2E2E2E2E2E2E2E2E2E2E2E2E2E2E2E2E2E2E2E2E2E2E2E2E2E2E2E2E2E2E2E2E2E2E2E2E2E2E2E2
310
E2E2E2E2E2E2E2E2E2E2E2E2E2E2E2E2E2E2E2E2E2E2E2E2E2E2E2E2E2E2E2E2E2E2E2E2E2E2E2E2E2E2E2E2E2E2E2E2E2E2E2E2E2E2E2E2E2E2E2E2E2E2E2E2E2E2E2E2E2E2E2E2E2E2E2E2E2E2E2E2E2E2E2E2E2E2E2E2E2E2E2E2E2E2E2E2E2E2E2E2E2E2E2E2E2E2E2E2E2E2E2E2E2E2E2E2E2E2E2E2E2E2E2E2E2E2E2
310
E2E2F5E2F5F5EFF5E2F5E2E2E2E2E2E2E2E2E2E2E2E2E2E2E2E2E2E2E2E2E2E2E2E2E2E2E2E2E2E2E2E2E2E2E2E2E2E2E2E2E2E2E2E2E2E2E2E2E2E2E2E2E2E2E2E2E2E2E2E2E2E2E2E2E2E2E2E2E2E2E2E2E2E2E2E2E2E2E2E2E2E2E2E2E2E2E2E2E2E2E2E2E2E2E2E2E2E2E2E2E2E2E2E2E2E2E2E2E2E2E2E2E2E2E2E2E2
310
E2E2E2E2E2E2E2E2E2E2E2E2E2E2E2E2E2E2E2E2E2E2E2E2E2E2E2E2E2E2E2E2E2E2E2E2E2E2E2E2E2E2E2E2E2E2E2E2E2E2E2E2E2E2E2F5E2F5F5EFF5E2F5E2E2E2E2E2E2E2E2E2E2E2E2E2E2E2E2E2E2E2E2E2E2E2E2E2E2E2E2E2E2E2E2E2E2E2E2E2E2E2E2E2E2E2E2E2E2E2E2E2E2E2E2E2E2E2E2E2E2E2E2E2E2E2E2
310
E2E2E2E2E2E2E2E2E2E2E2E2E2E2E2E2E2E2E2E2E2E2E2E2E2E2E2E2E2E2E2E2E2E2E2E2E2E2E2E2E2E2E2E2E2E2E2E2E2E2E2E2E2E2E2E2E2E2E2E2E2E2E2E2E2E2E2E2E2E2E2E2E2E2E2E2E2E2E2E2E2E2E2E2E2E2E2E2E2E2E2E2E2E2E2E2E2E2E2E2E2E2E2E2E2E2E2E2F5E2F5F5EFF5E2F5E2E2E2E2E2E2E2E2E2E2E2
310
E2E2E2E2E2E2E2E2E2E2E2E2E2E2E2E2E2E2E2E2E2E2E2E2E2E2E2E2E2E2E2E2E2E2E2E2E2E2E2E2E2E2E2E2E2E2E2E2E2E2E2E2E2E2E2E2E2E2E2E2E2E2E2E2E2E2E2E2E2E2E2E2E2E2E2E2E2E2E2E2E2E2E2E2E2E2E2E2E2E2E2E2E2E2E2E2E2E2E2E2E2E2E2E2E2E2E2E2E2E2E2E2E2E2E2E2E2E2E2E2E2E2E2E2E2E2E2
310
E2E2E2E2E2E2E2E2E2E2E2E2E2E2E2E2E2E2E2E2E2E2E2E2E2E2E2E2E2E2E2E2E2E2F5E2F5F5EFF5E2F5E2E2E2E2E2E2E2E2E2E2E2E2E2E2E2E2E2E2E2E2E2E2E2E2E2E2E2E2E2E2E2E2E2E2E2E2E2E2E2E2E2E2E2E2E2E2E2E2E2E2E2E2E2E2E2E2E2E2E2E2E2E2E2E2E2E2E2E2E2E2E2E2E2E2E2E2E2E2E2E2E2E2E2E2E2
310
E2E2E2E2E2E2E2E2E2E2E2E2E2E2E2E2E2E2E2E2E2E2E2E2E2E2E2E2E2E2E2E2E2E2E2E2E2E2E2E2E2E2E2E2E2E2E2E2E2E2E2E2E2E2E2E2E2E2E2E2E2E2E2E2E2E2E2E2E2E2E2E2E2E2E2E2E2E2E2E2E2E2E2E2E2E2E2F5E2F5F5EFF5E2F5E2E2E2E2E2E2E2E2E2E2E2E2E2E2E2E2E2E2E2E2E2E2E2E2E2E2E2E2E2E2E2E2
310
E2E2E2E2E2E2E2E2E2E2E2E2E2E2E2E2E2E2E2E2E2E2E2E2E2E2E2E2E2E2E2E2E2E2E2E2E2E2E2E2E2E2E2E2E2E2E2E2E2E2E2E2E2E2E2E2E2E2E2E2E2E2E2E2E2E2E2E2E2E2E2E2E2E2E2E2E2E2E2E2E2E2E2E2E2E2E2E2E2E2E2E2E2E2E2E2E2E2E2E2E2E2E2E2E2E2E2E2E2E2E2E2E2E2E2E2E2E2E2E2E2E2E2E2E2E2E2
310
E2E2E2E2E2E2E2E2E2E2E2E2E2F5E2F5F5EFF5E2F5E2E2E2E2E2E2E2E2E2E2E2E2E2E2E2E2E2E2E2E2E2E2E2E2E2E2E2E2E2E2E2E2E2E2E2E2E2E2E2E2E2E2E2E2E2E2E2E2E2E2E2E2E2E2E2E2E2E2E2E2E2E2E2E2E2E2E2E2E2E2E2E2E2E2E2E2E2E2E2E2E2E2E2E2E2E2E2E2E2E2E2E2E2E2E2E2E2E2E2E2E2E2E2E2E2E2
310
E2E2E2E2E2E2E2E2E2E2E2E2E2E2E2E2E2E2E2E2E2E2E2E2E2E2E2E2E2E2E2E2E2E2E2E2E2E2E2E2E2E2E2E2E2E2E2E2E2E2E2E2E2E2E2E2E2E2E2E2E2E2E2E2E2E2F5E2F5F5EFF5E2E2E2E2E2E2E2E2E2E2E2E2E2E2E2E2E2E2E2E2E2E2E2E2E2E2E2E2E2E2E2E2E2E2E2E2E2E2E2E2E2E2E2E2E2E2E2E2E2E2E2E2E2E2E2
310
E2E2E2E2E2E2E2E2E2E2E2E2E2E2E2E2E2E2E2E2E2E2E2E2E2E2E2E2E2E2E2E2E2E2E2E2E2E2E2E2E2E2E2E2E2E2E2E2E2E2E2E2E2E2E2E2E2E2E2E2E2E2E2E2E2E2E2E2E2E2E2E2E2E2E2E2E2E2E2E2E2E2E2E2E2E2E2E2E2E2E2E2E2E2E2E2E2E2E2E2E2E2E2E2E2E2E2E2E2E2E2E2E2E2E2E2E2E2E2E2E2F5F5EFF5E2E2
310
E2E2E2E2E2E2E2E2E2E2E2E2E2E2E2E2E2E2E2E2E2E2E2E2E2E2E2E2E2E2E2E2E2E2E2E2E2E2E2E2E2E2E2E2E2E2E2E2E2E2E2E2E2E2E2E2E2E2E2E2E2E2E2E2E2E2E2E2E2E2E2E2E2E2E2E2E2E2E2E2E2E2E2E2E2E2E2E2E2E2E2E2E2E2E2E2E2E2E2E2E2E2E2E2E2E2E2E2E2E2E2E2E2E2E2E2E2E2E2E2E2E2E2E2E2E2E2
310
E2E2E2E2E2E2E2E2E2E2E2E2E2E2E2E2E2E2E2E2E2E2E2E2E2E2E2E2E2E2E2E2E2E2E2E2E2E2E2E2E2E2E2E2E2E2E2F5F5EFF5E2E2E2E2E2E2E2E2E2E2E2E2E2E2E2E2E2E2E2E2E2E2E2E2E2E2E2E2E2E2E2E2E2E2E2E2E2E2E2E2E2E2E2E2E2E2E2E2E2E2E2E2E2E2E2E2E2E2E2E2E2E2E2E2E2E2E2E2E2E2E2E2E2E2E2E2
310
E2E2E2E2E2E2E2E2E2E2E2E2E2E2E2E2E2E2E2E2E2E2E2E2E2E2E2E2E2E2E2E2E2E2E2E2E2E2E2E2E2E2E2E2E2E2E2E2E2E2E2E2E2E2E2E2E2E2E2E2E2E2E2E2E2E2E2E2E2E2E2E2E2E2E2E2E2E2E2E2E2E2E2E2E2E2E2E2E2E2E2E2E2E2E2E2E2E2E2E2F5F5EFF5E2E2E2E2E2E2E2E2E2E2E2E2E2E2E2E2E2E2E2E2E2E2E2
310
E2E2E2E2E2E2E2E2E2E2E2E2E2E2E2E2E2E2E2E2E2E2E2E2E2E2E2E2E2E2E2E2E2E2E2E2E2E2E2E2E2E2E2E2E2E2E2E2E2E2E2E2E2E2E2E2E2E2E2E2E2E2E2E2E2E2E2E2E2E2E2E2E2E2E2E2E2E2E2E2E2E2E2E2E2E2E2E2E2E2E2E2E2E2E2E2E2E2E2E2E2E2E2E2E2E2E2E2E2E2E2E2E2E2E2E2E2E2E2E2E2E2E2E2E2E2E2
310
E2E2E2E2E2E2E2E2E2E2E2E2E2E2E2E2E2E2E2E2E2E2E2E2E2E2F5F5EFF5E2E2E2E2E2E2E2E2E2E2E2E2E2E2E2E2E2E2E2E2E2E2E2E2E2E2E2E2E2E2E2E2E2E2E2E2E2E2E2E2E2E2E2E2E2E2E2E2E2E2E2E2E2E2E2E2E2E2E2E2E2E2E2E2E2E2E2E2E2E2E2E2E2E2E2E2E2E2E2E2E2E2E2E2E2E2E2E2E2E2E2E2E2E2E2E2E2
310
E2E2E2E2E2E2E2E2E2E2E2E2E2E2E2E2E2E2E2E2E2E2E2E2E2E2E2E2E2E2E2E2E2E2E2E2E2E2E2E2E2E2E2E2E2E2E2E2E2E2E2E2E2E2E2E2E2E2E2E2E2E2E2E2E2E2E2E2E2E2E2E2E2E2E2E2E2E2E2F5F5EFF5E2E2E2E2E2E2E2E2E2E2E2E2E2E2E2E2E2E2E2E2E2E2E2E2E2E2E2E2E2E2E2E2E2E2E2E2E2E2E2E2E2E2E2E2
310
E2E2E2E2E2E2E2E2E2E2E2E2E2E2E2E2E2E2E2E2E2E2E2E2E2E2E2E2E2E2E2E2E2E2E2E2E2E2E2E2E2E2E2E2E2E2E2E2E2E2E2E2E2E2E2E2E2E2E2E2E2E2E2E2E2E2E2E2E2E2E2E2E2E2E2E2E2E2E2E2E2E2E2E2E2E2E2E2E2E2E2E2E2E2E2E2E2E2E2E2E2E2E2E2E2E2E2E2E2E2E2E2E2E2E2E2E2E2E2E2E2E2E2E2E2E2E2
310
E2E2E2E2E2F5F5EFF5E2E2E2E2E2E2E2E2E2E2E2E2E2E2E2E2E2E2E2E2E2E2E2E2E2E2E2E2E2E2E2E2E2E2E2E2E2E2E2E2E2E2E2E2E2E2E2E2E2E2E2E2E2E2E2E2E2E2E2E2E2E2E2E2E2E2E2E2E2E2E2E2E2E2E2E2E2E2E2E2E2E2E2E2E2E2E2E2E2E2E2E2E2E2E2E2E2E2E2E2E2E2E2E2E2E2E2E2E2E2E2E2E2E2E2E2E2E2
310
E2E2E2E2E2E2E2E2E2E2E2E2E2E2E2E2E2E2E2E2E2E2E2E2E2E2E2E2E2E2E2E2E2E2E2E2E2E2E2E2E2E2E2E2E2E2E2E2E2E2E2E2E2E2E2E2E2E2F5F5EFF5E2E2E2E2E2E2E2E2E2E2E2E2E2E2E2E2E2E2E2E2E2E2E2E2E2E2E2E2E2E2E2E2E2E2E2E2E2E2E2E2E2E2E2E2E2E2E2E2E2E2E2E2E2E2E2E2E2E2E2E2E2E2E2E2E2
310
E2E2E2E2E2E2E2E2E2E2E2E2E2E2E2E2E2E2E2E2E2E2E2E2E2E2E2E2E2E2E2E2E2E2E2E2E2E2E2E2E2E2E2E2E2E2E2E2E2E2E2E2E2E2E2E2E2E2E2E2E2E2E2E2E2E2E2E2E2E2E2E2E2E2E2E2E2E2E2E2E2E2E2E2E2E2E2E2E2E2E2E2E2E2E2E2E2E2E2E2E2E2E2E2E2E2E2E2E2E2E2F5F5EFF5E2E2E2E2E2E2E2E2E2E2E2E2
310
E2E2E2E2E2E2E2E2E2E2E2E2E2E2E2E2E2E2E2E2E2E2E2E2E2E2E2E2E2E2E2E2E2E2E2E2E2E2E2E2E2E2E2E2E2E2E2E2E2E2E2E2E2E2E2E2E2E2E2E2E2E2E2E2E2E2E2E2E2E2E2E2E2E2E2E2E2E2E2E2E2E2E2E2E2E2E2E2E2E2E2E2E2E2E2E2E2E2E2E2E2E2E2E2E2E2E2E2E2E2E2E2E2E2E2E2E2E2E2E2E2E2E2E2E2E2E2
310
E2E2E2E2E2E2E2E2E2E2E2E2E2E2E2E2E2E2E2E2E2E2E2E2E2E2E2E2E2E2E2E2E2E2E2E2E2F5F5EFF5E2F5E2E2E2E2E2E2E2E2E2E2E2E2E2E2E2E2E2E2E2E2E2E2E2E2E2E2E2E2E2E2E2E2E2E2E2E2E2E2E2E2E2E2E2E2E2E2E2E2E2E2E2E2E2E2E2E2E2E2E2E2E2E2E2E2E2E2E2E2E2E2E2E2E2E2E2E2E2E2E2E2E2E2E2E2
310
E2E2E2E2E2E2E2E2E2E2E2E2E2E2E2E2E2E2E2E2E2E2E2E2E2E2E2E2E2E2E2E2E2E2E2E2E2E2E2E2E2E2E2E2E2E2E2E2E2E2E2E2E2E2E2E2E2E2E2E2E2E2E2E2E2E2E2E2E2E2E2E2E2E2E2E2E2E2E2E2E2E2E2E2E2E2E2E2F5E2F5F5EFF5E2F5E2E2E2E2E2E2E2E2E2E2E2E2E2E2E2E2E2E2E2E2E2E2E2E2E2E2E2E2E2E2E2
310
E2E2E2E2E2E2E2E2E2E2E2E2E2E2E2E2E2E2E2E2E2E2E2E2E2E2E2E2E2E2E2E2E2E2E2E2E2E2E2E2E2E2E2E2E2E2E2E2E2E2E2E2E2E2E2E2E2E2E2E2E2E2E2E2E2E2E2E2E2E2E2E2E2E2E2E2E2E2E2E2E2E2E2E2E2E2E2E2E2E2E2E2E2E2E2E2E2E2E2E2E2E2E2E2E2E2E2E2E2E2E2E2E2E2E2E2E2E2E2E2E2E2E2E2E2E2E2
310
E2E2E2E2E2E2E2E2E2E2E2E2E2E2F5E2F5F5EFF5E2F5E2E2E2E2E2E2E2E2E2E2E2E2E2E2E2E2E2E2E2E2E2E2E2E2E2E2E2E2E2E2E2E2E2E2E2E2E2E2E2E2E2E2E2E2E2E2E2E2E2E2E2E2E2E2E2E2E2E2E2E2E2E2E2E2E2E2E2E2E2E2E2E2E2E2E2E2E2E2E2E2E2E2E2E2E2E2E2E2E2E2E2E2E2E2E2E2E2E2E2E2E2E2E2E2E2
310
E2E2E2E2E2E2E2E2E2E2E2E2E2E2E2E2E2E2E2E2E2E2E2E2E2E2E2E2E2E2E2E2E2E2E2E2E2E2E2E2E2E2E2E2E2E2E2E2E2E2E2E2E2E2E2E2E2E2E2E2E2E2E2E2E2E2E2F5E2F5F5EFF5E2F5E2E2E2E2E2E2E2E2E2E2E2E2E2E2E2E2E2E2E2E2E2E2E2E2E2E2E2E2E2E2E2E2E2E2E2E2E2E2E2E2E2E2E2E2E2E2E2E2E2E2E2E2
310
E2E2E2E2E2E2E2E2E2E2E2E2E2E2E2E2E2E2E2E2E2E2E2E2E2E2E2E2E2E2E2E2E2E2E2E2E2E2E2E2E2E2E2E2E2E2E2E2E2E2E2E2E2E2E2E2E2E2E2E2E2E2E2E2E2E2E2E2E2E2E2E2E2E2E2E2E2E2E2E2E2E2E2E2E2E2E2E2E2E2E2E2E2E2E2E2E2E2E2E2E2E2E2E2E2E2E2E2E2E2E2E2E2E2E2E2E2E2E2E2F5E2F5F5EFF5E2
310
F5E2E2E2E2E2E2E2E2E2E2E2E2E2E2E2E2E2E2E2E2E2E2E2E2E2E2E2E2E2E2E2E2E2E2E2E2E2E2E2E2E2E2E2E2E2E2E2E2E2E2E2E2E2E2E2E2E2E2E2E2E2E2E2E2E2E2E2E2E2E2E2E2E2E2E2E2E2E2E2E2E2E2E2E2E2E2E2E2E2E2E2E2E2E2E2E2E2E2E2E2E2E2E2E2E2E2E2E2E2E2E2E2E2E2E2E2E2E2E2E2E2E2E2E2E2E2
310
E2E2E2E2E2E2E2E2E2E2E2E2E2E2E2E2E2E2E2E2E2E2E2E2E2E2E2E2E2E2E2E2E2E2E2E2E2E2E2E2E2E2E2E2E2E2F5E2F5F5EFF5E2F5E2E2E2E2E2E2E2E2E2E2E2E2E2E2E2E2E2E2E2E2E2E2E2E2E2E2E2E2E2E2E2E2E2E2E2E2E2E2E2E2E2E2E2E2E2E2E2E2E2E2E2E2E2E2E2E2E2E2E2E2E2E2E2E2E2E2E2E2E2E2E2E2E2
310
E2E2E2E2E2E2E2E2E2E2E2E2E2E2E2E2E2E2E2E2E2E2E2E2E2E2E2E2E2E2E2E2E2E2E2E2E2E2E2E2E2E2E2E2E2E2E2E2E2E2E2E2E2E2E2E2E2E2E2E2E2E2E2E2E2E2E2E2E2E2E2E2E2E2E2E2E2E2E2E2E2E2E2E2E2E2E2E2E2E2E2E2E2E2E2E2E2E2E2F5E2F5F5EFF5E2F5E2E2E2E2E2E2E2E2E2E2E2E2E2E2E2E2E2E2E2E2
310
E2E2E2E2E2E2E2E2E2E2E2E2E2E2E2E2E2E2E2E2E2E2E2E2E2E2E2E2E2E2E2E2E2E2E2E2E2E2E2E2E2E2E2E2E2E2E2E2E2E2E2E2E2E2E2E2E2E2E2E2E2E2E2E2E2E2E2E2E2E2E2E2E2E2E2E2E2E2E2E2E2E2E2E2E2E2E2E2E2E2E2E2E2E2E2E2E2E2E2E2E2E2E2E2E2E2E2E2E2E2E2E2E2E2E2E2E2E2E2E2E2E2E2E2E2E2E2
310
E2E2E2E2E2E2E2E2E2E2E2E2E2E2E2E2E2E2E2E2E2E2E2E2E2F5E2F5F5EFF5E2F5E2E2E2E2E2E2E2E2E2E2E2E2E2E2E2E2E2E2E2E2E2E2E2E2E2E2E2E2E2E2E2E2E2E2E2E2E2E2E2E2E2E2E2E2E2E2E2E2E2E2E2E2E2E2E2E2E2E2E2E2E2E2E2E2E2E2E2E2E2E2E2E2E2E2E2E2E2E2E2E2E2E2E2E2E2E2E2E2E2E2E2E2E2E2
310
E2E2E2E2E2E2E2E2E2E2E2E2E2E2E2E2E2E2E2E2E2E2E2E2E2E2E2E2E2E2E2E2E2E2E2E2E2E2E2E2E2E2E2E2E2E2E2E2E2E2E2E2E2E2E2E2E2E2E2E2E2E2E2E2E2E2E2E2E2E2E2E2E2E2E2E2E2E2F5E2F5F5EFF5E2F5E2E2E2E2E2E2E2E2E2E2E2E2E2E2E2E2E2E2E2E2E2E2E2E2E2E2E2E2E2E2E2E2E2E2E2E2E2E2E2E2E2
310
E2E2E2E2E2E2E2E2E2E2E2E2E2E2E2E2E2E2E2E2E2E2E2E2E2E2E2E2E2E2E2E2E2E2E2E2E2E2E2E2E2E2E2E2E2E2E2E2E2E2E2E2E2E2E2E2E2E2E2E2E2E2E2E2E2E2E2E2E2E2E2E2E2E2E2E2E2E2E2E2E2E2E2E2E2E2E2E2E2E2E2E2E2E2E2E2E2E2E2E2E2E2E2E2E2E2E2E2E2E2E2E2E2E2E2E2E2E2E2E2E2E2E2E2E2E2E2
310
E2E2E2E2F5E2F5F5EFF5E2F5E2E2E2E2E2E2E2E2E2E2E2E2E2E2E2E2E2E2E2E2E2E2E2E2E2E2E2E2E2E2E2E2E2E2E2E2E2E2E2E2E2E2E2E2E2E2E2E2E2E2E2E2E2E2E2E2E2E2E2E2E2E2E2E2E2E2E2E2E2E2E2E2E2E2E2E2E2E2E2E2E2E2E2E2E2E2E2E2E2E2E2E2E2E2E2E2E2E2E2E2E2E2E2E2E2E2E2E2E2E2E2E2E2E2E2
310
E2E2E2E2E2E2E2E2E2E2E2E2E2E2E2E2E2E2E2E2E2E2E2E2E2E2E2E2E2E2E2E2E2E2E2E2E2E2E2E2E2E2E2E2E2E2E2E2E2E2E2E2E2E2E2E2E2F5E2F5F5EFF5E2F5E2E2E2E2E2E2E2E2E2E2E2E2E2E2E2E2E2E2E2E2E2E2E2E2E2E2E2E2E2E2E2E2E2E2E2E2E2E2E2E2E2E2E2E2E2E2E2E2E2E2E2E2E2E2E2E2E2E2E2E2E2E2
310
E2E2E2E2E2E2E2E2E2E2E2E2E2E2E2E2E2E2E2E2E2E2E2E2E2E2E2E2E2E2E2E2E2E2E2E2E2E2E2E2E2E2E2E2E2E2E2E2E2E2E2E2E2E2E2E2E2E2E2E2E2E2E2E2E2E2E2E2E2E2E2E2E2E2E2E2E2E2E2E2E2E2E2E2E2E2E2E2E2E2E2E2E2E2E2E2E2E2E2E2E2E2E2E2E2E2E2E2E2E2F5E2F5F5EFF5E2F5E2E2E2E2E2E2E2E2E2
310
E2E2E2E2E2E2E2E2E2E2E2E2E2E2E2E2E2E2E2E2E2E2E2E2E2E2E2E2E2E2E2E2E2E2E2E2E2E2E2E2E2E2E2E2E2E2E2E2E2E2E2E2E2E2E2E2E2E2E2E2E2E2E2E2E2E2E2E2E2E2E2E2E2E2E2E2E2E2E2E2E2E2E2E2E2E2E2E2E2E2E2E2E2E2E2E2E2E2E2E2E2E2E2E2E2E2E2E2E2E2E2E2E2E2E2E2E2E2E2E2E2E2E2E2E2E2E2
310
E2E2E2E2E2E2E2E2E2E2E2E2E2E2E2E2E2E2E2E2E2E2E2E2E2E2E2E2E2E2E2E2E2E2E2E2F5E2F5F5EFF5E2F5E2E2E2E2E2E2E2E2E2E2E2E2E2E2E2E2E2E2E2E2E2E2E2E2E2E2E2E2E2E2E2E2E2E2E2E2E2E2E2E2E2E2E2E2E2E2E2E2E2E2E2E2E2E2E2E2E2E2E2E2E2E2E2E2E2E2E2E2E2E2E2E2E2E2E2E2E2E2E2E2E2E2E2
310
E2E2E2E2E2E2E2E2E2E2E2E2E2E2E2E2E2E2E2E2E2E2E2E2E2E2E2E2E2E2E2E2E2E2E2E2E2E2E2E2E2E2E2E2E2E2E2E2E2E2E2E2E2E2E2E2E2E2E2E2E2E2E2E2E2E2E2E2E2E2E2E2E2E2E2E2E2E2E2E2E2E2E2E2E2E2E2E2E2F5E2F5F5EFF5E2F5E2E2E2E2E2E2E2E2E2E2E2E2E2E2E2E2E2E2E2E2E2E2E2E2E2E2E2E2E2E2
310
E2E2E2E2E2E2E2E2E2E2E2E2E2E2E2E2E2E2E2E2E2E2E2E2E2E2E2E2E2E2E2E2E2E2E2E2E2E2E2E2E2E2E2E2E2E2E2E2E2E2E2E2E2E2E2E2E2E2E2E2E2E2E2E2E2E2E2E2E2E2E2E2E2E2E2E2E2E2E2E2E2E2E2E2E2E2E2E2E2E2E2E2E2E2E2E2E2E2E2E2E2E2E2E2E2E2E2E2E2E2E2E2E2E2E2E2E2E2E2E2E2E2E2E2E2E2E2
310
E2E2E2E2E2E2E2E2E2E2E2E2E2E2E2F5E2F5F5EFF5E2F5E2E2E2E2E2E2E2E2E2E2E2E2E2E2E2E2E2E2E2E2E2E2E2E2E2E2E2E2E2E2E2E2E2E2E2E2E2E2E2E2E2E2E2E2E2E2E2E2E2E2E2E2E2E2E2E2E2E2E2E2E2E2E2E2E2E2E2E2E2E2E2E2E2E2E2E2E2E2E2E2E2E2E2E2E2E2E2E2E2E2E2E2E2E2E2E2E2E2E2E2E2E2E2E2
310
E2E2E2E2E2E2E2E2E2E2E2E2E2E2E2E2E2E2E2E2E2E2E2E2E2E2E2E2E2E2E2E2E2E2E2E2E2E2E2E2E2E2E2E2E2E2E2E2E2E2E2E2E2E2E2E2E2E2E2E2E2E2E2E2E2E2E2E2F5E2F5F5EFF5E2F5E2E2E2E2E2E2E2E2E2E2E2E2E2E2E2E2E2E2E2E2E2E2E2E2E2E2E2E2E2E2E2E2E2E2E2E2E2E2E2E2E2E2E2E2E2E2E2E2E2E2E2
310
E2E2E2E2E2E2E2E2E2E2E2E2E2E2E2E2E2E2E2E2E2E2E2E2E2E2E2E2E2E2E2E2E2E2E2E2E2E2E2E2E2E2E2E2E2E2E2E2E2E2E2E2E2E2E2E2E2E2E2E2E2E2E2E2E2E2E2E2E2E2E2E2E2E2E2E2E2E2E2E2E2E2E2E2E2E2E2E2E2E2E2E2E2E2E2E2E2E2E2E2E2E2E2E2E2E2E2E2E2E2E2E2E2E2E2E2E2E2E2E2E2F5E2F5F5EFF5
310
E2E2E2E2E2E2E2E2E2E2E2E2E2E2E2E2E2E2E2E2E2E2E2E2E2E2E2E2E2E2E2E2E2E2E2E2E2E2E2E2E2E2E2E2E2E2E2E2E2E2E2E2E2E2E2E2E2E2E2E2E2E2E2E2E2E2E2E2E2E2E2E2E2E2E2E2E2E2E2E2E2E2E2E2E2E2E2E2E2E2E2E2E2E2E2E2E2E2E2E2E2E2E2E2E2E2E2E2E2E2E2E2E2E2E2E2E2E2E2E2E2E2E2E2E2E2E2
310
E2E2E2E2E2E2E2E2E2E2E2E2E2E2E2E2E2E2E2E2E2E2E2E2E2E2E2E2E2E2E2E2E2E2E2E2E2E2E2E2E2E2E2E2E2E2E2E2E2F5F5EFF5E2E2E2E2E2E2E2E2E2E2E2E2E2E2E2E2E2E2E2E2E2E2E2E2E2E2E2E2E2E2E2E2E2E2E2E2E2E2E2E2E2E2E2E2E2E2E2E2E2E2E2E2E2E2E2E2E2E2E2E2E2E2E2E2E2E2E2E2E2E2E2E2E2E2
310
E2E2E2E2E2E2E2E2E2E2E2E2E2E2E2E2E2E2E2E2E2E2E2E2E2E2E2E2E2E2E2E2E2E2E2E2E2E2E2E2E2E2E2E2E2E2E2E2E2E2E2E2E2E2E2E2E2E2E2E2E2E2E2E2E2E2E2E2E2E2E2E2E2E2E2E2E2E2E2E2E2E2E2E2E2E2E2E2E2E2E2E2E2E2E2E2E2E2E2E2E2E2F5F5EFF5E2E2E2E2E2E2E2E2E2E2E2E2E2E2E2E2E2E2E2E2E2
310
E2E2E2E2E2E2E2E2E2E2E2E2E2E2E2E2E2E2E2E2E2E2E2E2E2E2E2E2E2E2E2E2E2E2E2E2E2E2E2E2E2E2E2E2E2E2E2E2E2E2E2E2E2E2E2E2E2E2E2E2E2E2E2E2E2E2E2E2E2E2E2E2E2E2E2E2E2E2E2E2E2E2E2E2E2E2E2E2E2E2E2E2E2E2E2E2E2E2E2E2E2E2E2E2E2E2E2E2E2E2E2E2E2E2E2E2E2E2E2E2E2E2E2E2E2E2E2
310
E2E2E2E2E2E2E2E2E2E2E2E2E2E2E2E2E2E2E2E2E2E2E2E2E2E2E2E2F5F5EFF5E2E2E2E2E2E2E2E2E2E2E2E2E2E2E2E2E2E2E2E2E2E2E2E2E2E2E2E2E2E2E2E2E2E2E2E2E2E2E2E2E2E2E2E2E2E2E2E2E2E2E2E2E2E2E2E2E2E2E2E2E2E2E2E2E2E2E2E2E2E2E2E2E2E2E2E2E2E2E2E2E2E2E2E2E2E2E2E2E2E2E2E2E2E2E2
310
E2E2E2E2E2E2E2E2E2E2E2E2E2E2E2E2E2E2E2E2E2E2E2E2E2E2E2E2E2E2E2E2E2E2E2E2E2E2E2E2E2E2E2E2E2E2E2E2E2E2E2E2E2E2E2E2E2E2E2E2E2E2E2E2E2E2E2E2E2E2E2E2E2E2E2E2E2E2E2E2E2F5F5EFF5E2E2E2E2E2E2E2E2E2E2E2E2E2E2E2E2E2E2E2E2E2E2E2E2E2E2E2E2E2E2E2E2E2E2E2E2E2E2E2E2E2E2
310
E2E2E2E2E2E2E2E2E2E2E2E2E2E2E2E2E2E2E2E2E2E2E2E2E2E2E2E2E2E2E2E2E2E2E2E2E2E2E2E2E2E2E2E2E2E2E2E2E2E2E2E2E2E2E2E2E2E2E2E2E2E2E2E2E2E2E2E2E2E2E2E2E2E2E2E2E2E2E2E2E2E2E2E2E2E2E2E2E2E2E2E2E2E2E2E2E2E2E2E2E2E2E2E2E2E2E2E2E2E2E2E2E2E2E2E2E2E2E2E2E2E2E2E2E2E2E2
310
E2E2E2E2E2E2E2F5F5EFF5E2E2E2E2E2E2E2E2E2E2E2E2E2E2E2E2E2E2E2E2E2E2E2E2E2E2E2E2E2E2E2E2E2E2E2E2E2E2E2E2E2E2E2E2E2E2E2E2E2E2E2E2E2E2E2E2E2E2E2E2E2E2E2E2E2E2E2E2E2E2E2E2E2E2E2E2E2E2E2E2E2E2E2E2E2E2E2E2E2E2E2E2E2E2E2E2E2E2E2E2E2E2E2E2E2E2E2E2E2E2E2E2E2E2E2E2
310
E2E2E2E2E2E2E2E2E2E2E2E2E2E2E2E2E2E2E2E2E2E2E2E2E2E2E2E2E2E2E2E2E2E2E2E2E2E2E2E2E2E2E2E2E2E2E2E2E2E2E2E2E2E2E2E2E2E2E2E2F5F5EFF5E2E2E2E2E2E2E2E2E2E2E2E2E2E2E2E2E2E2E2E2E2E2E2E2E2E2E2E2E2E2E2E2E2E2E2E2E2E2E2E2E2E2E2E2E2E2E2E2E2E2E2E2E2E2E2E2E2E2E2E2E2E2E2
310
E2E2E2E2E2E2E2E2E2E2E2E2E2E2E2E2E2E2E2E2E2E2E2E2E2E2E2E2E2E2E2E2E2E2E2E2E2E2E2E2E2E2E2E2E2E2E2E2E2E2E2E2E2E2E2E2E2E2E2E2E2E2E2E2E2E2E2E2E2E2E2E2E2E2E2E2E2E2E2E2E2E2E2E2E2E2E2E2E2E2E2E2E2E2E2E2E2E2E2E2E2E2E2E2E2E2E2E2E2E2E2E2E2F5F5EFF5E2E2E2E2E2E2E2E2E2E2
310
E2E2E2E2E2E2E2E2E2E2E2E2E2E2E2E2E2E2E2E2E2E2E2E2E2E2E2E2E2E2E2E2E2E2E2E2E2E2E2E2E2E2E2E2E2E2E2E2E2E2E2E2E2E2E2E2E2E2E2E2E2E2E2E2E2E2E2E2E2E2E2E2E2E2E2E2E2E2E2E2E2E2E2E2E2E2E2E2E2E2E2E2E2E2E2E2E2E2E2E2E2E2E2E2E2E2E2E2E2E2E2E2E2E2E2E2E2E2E2E2E2E2E2E2E2E2E2
310
E2E2E2E2E2E2E2E2E2E2E2E2E2E2E2E2E2E2E2E2E2E2E2E2E2E2E2E2E2E2E2E2E2E2E2E2E2E2E2F5F5EFF5E2F5E2E2E2E2E2E2E2E2E2E2E2E2E2E2E2E2E2E2E2E2E2E2E2E2E2E2E2E2E2E2E2E2E2E2E2E2E2E2E2E2E2E2E2E2E2E2E2E2E2E2E2E2E2E2E2E2E2E2E2E2E2E2E2E2E2E2E2E2E2E2E2E2E2E2E2E2E2E2E2E2E2E2
310
E2E2E2E2E2E2E2E2E2E2E2E2E2E2E2E2E2E2E2E2E2E2E2E2E2E2E2E2E2E2E2E2E2E2E2E2E2E2E2E2E2E2E2E2E2E2E2E2E2E2E2E2E2E2E2E2E2E2E2E2E2E2E2E2E2E2E2E2E2E2E2E2E2E2E2E2E2E2E2E2E2E2E2E2E2E2E2E2E2E2F5E2F5F5EFF5E2F5E2E2E2E2E2E2E2E2E2E2E2E2E2E2E2E2E2E2E2E2E2E2E2E2E2E2E2E2E2
310
E2E2E2E2E2E2E2E2E2E2E2E2E2E2E2E2E2E2E2E2E2E2E2E2E2E2E2E2E2E2E2E2E2E2E2E2E2E2E2E2E2E2E2E2E2E2E2E2E2E2E2E2E2E2E2E2E2E2E2E2E2E2E2E2E2E2E2E2E2E2E2E2E2E2E2E2E2E2E2E2E2E2E2E2E2E2E2E2E2E2E2E2E2E2E2E2E2E2E2E2E2E2E2E2E2E2E2E2E2E2E2E2E2E2E2E2E2E2E2E2E2E2E2E2E2E2E2
310
E2E2E2E2E2E2E2E2E2E2E2E2E2E2E2E2F5E2F5F5EFF5E2F5E2E2E2E2E2E2E2E2E2E2E2E2E2E2E2E2E2E2E2E2E2E2E2E2E2E2E2E2E2E2E2E2E2E2E2E2E2E2E2E2E2E2E2E2E2E2E2E2E2E2E2E2E2E2E2E2E2E2E2E2E2E2E2E2E2E2E2E2E2E2E2E2E2E2E2E2E2E2E2E2E2E2E2E2E2E2E2E2E2E2E2E2E2E2E2E2E2E2E2E2E2E2E2
310
E2E2E2E2E2E2E2E2E2E2E2E2E2E2E2E2E2E2E2E2E2E2E2E2E2E2E2E2E2E2E2E2E2E2E2E2E2E2E2E2E2E2E2E2E2E2E2E2E2E2E2E2E2E2E2E2E2E2E2E2E2E2E2E2E2E2E2E2E2F5E2F5F5EFF5E2F5E2E2E2E2E2E2E2E2E2E2E2E2E2E2E2E2E2E2E2E2E2E2E2E2E2E2E2E2E2E2E2E2E2E2E2E2E2E2E2E2E2E2E2E2E2E2E2E2E2E2
310
E2E2E2E2E2E2E2E2E2E2E2E2E2E2E2E2E2E2E2E2E2E2E2E2E2E2E2E2E2E2E2E2E2E2E2E2E2E2E2E2E2E2E2E2E2E2E2E2E2E2E2E2E2E2E2E2E2E2E2E2E2E2E2E2E2E2E2E2E2E2E2E2E2E2E2E2E2E2E2E2E2E2E2E2E2E2E2E2E2E2E2E2E2E2E2E2E2E2E2E2E2E2E2E2E2E2E2E2E2E2E2E2E2E2E2E2E2E2E2E2E2E2F5E2F5F5EF
310
F5E2F5E2E2E2E2E2E2E2E2E2E2E2E2E2E2E2E2E2E2E2E2E2E2E2E2E2E2E2E2E2E2E2E2E2E2E2E2E2E2E2E2E2E2E2E2E2E2E2E2E2E2E2E2E2E2E2E2E2E2E2E2E2E2E2E2E2E2E2E2E2E2E2E2E2E2E2E2E2E2E2E2E2E2E2E2E2E2E2E2E2E2E2E2E2E2E2E2E2E2E2E2E2E2E2E2E2E2E2E2E2E2E2E2E2E2E2E2E2E2E2E2E2E2E2E2
310
E2E2E2E2E2E2E2E2E2E2E2E2E2E2E2E2E2E2E2E2E2E2E2E2E2E2E2E2E2E2E2E2E2E2E2E2E2E2E2E2E2E2E2E2E2E2E2E2F5E2F5F5EFF5E2F5E2E2E2E2E2E2E2E2E2E2E2E2E2E2E2E2E2E2E2E2E2E2E2E2E2E2E2E2E2E2E2E2E2E2E2E2E2E2E2E2E2E2E2E2E2E2E2E2E2E2E2E2E2E2E2E2E2E2E2E2E2E2E2E2E2E2E2E2E2E2E2
310
E2E2E2E2E2E2E2E2E2E2E2E2E2E2E2E2E2E2E2E2E2E2E2E2E2E2E2E2E2E2E2E2E2E2E2E2E2E2E2E2E2E2E2E2E2E2E2E2E2E2E2E2E2E2E2E2E2E2E2E2E2E2E2E2E2E2E2E2E2E2E2E2E2E2E2E2E2E2E2E2E2E2E2E2E2E2E2E2E2E2E2E2E2E2E2E2E2E2E2E2E2F5E2F5F5EFF5E2F5E2E2E2E2E2E2E2E2E2E2E2E2E2E2E2E2E2E2
310
E2E2E2E2E2E2E2E2E2E2E2E2E2E2E2E2E2E2E2E2E2E2E2E2E2E2E2E2E2E2E2E2E2E2E2E2E2E2E2E2E2E2E2E2E2E2E2E2E2E2E2E2E2E2E2E2E2E2E2E2E2E2E2E2E2E2E2E2E2E2E2E2E2E2E2E2E2E2E2E2E2E2E2E2E2E2E2E2E2E2E2E2E2E2E2E2E2E2E2E2E2E2E2E2E2E2E2E2E2E2E2E2E2E2E2E2E2E2E2E2E2E2E2E2E2E2E2
310
E2E2E2E2E2E2E2E2E2E2E2E2E2E2E2E2E2E2E2E2E2E2E2E2E2E2E2F5E2F5F5EFF5E2F5E2E2E2E2E2E2E2E2E2E2E2E2E2E2E2E2E2E2E2E2E2E2E2E2E2E2E2E2E2E2E2E2E2E2E2E2E2E2E2E2E2E2E2E2E2E2E2E2E2E2E2E2E2E2E2E2E2E2E2E2E2E2E2E2E2E2E2E2E2E2E2E2E2E2E2E2E2E2E2E2E2E2E2E2E2E2E2E2E2E2E2E2
310
E2E2E2E2E2E2E2E2E2E2E2E2E2E2E2E2E2E2E2E2E2E2E2E2E2E2E2E2E2E2E2E2E2E2E2E2E2E2E2E2E2E2E2E2E2E2E2E2E2E2E2E2E2E2E2E2E2E2E2E2E2E2E2E2E2E2E2E2E2E2E2E2E2E2E2E2E2E2E2E2F5E2F5F5EFF5E2F5E2E2E2E2E2E2E2E2E2E2E2E2E2E2E2E2E2E2E2E2E2E2E2E2E2E2E2E2E2E2E2E2E2E2E2E2E2E2E2
310
E2E2E2E2E2E2E2E2E2E2E2E2E2E2E2E2E2E2E2E2E2E2E2E2E2E2E2E2E2E2E2E2E2E2E2E2E2E2E2E2E2E2E2E2E2E2E2E2E2E2E2E2E2E2E2E2E2E2E2E2E2E2E2E2E2E2E2E2E2E2E2E2E2E2E2E2E2E2E2E2E2E2E2E2E2E2E2E2E2E2E2E2E2E2E2E2E2E2E2E2E2E2E2E2E2E2E2E2E2E2E2E2E2E2E2E2E2E2E2E2E2E2E2E2E2E2E2
310
E2E2E2E2E2E2F5E2F5F5EFF5E2F5E2E2E2E2E2E2E2E2E2E2E2E2E2E2E2E2E2E2E2E2E2E2E2E2E2E2E2E2E2E2E2E2E2E2E2E2E2E2E2E2E2E2E2E2E2E2E2E2E2E2E2E2E2E2E2E2E2E2E2E2E2E2E2E2E2E2E2E2E2E2E2E2E2E2E2E2E2E2E2E2E2E2E2E2E2E2E2E2E2E2E2E2E2E2E2E2E2E2E2E2E2E2E2E2E2E2E2E2E2E2E2E2E2
310
E2E2E2E2E2E2E2E2E2E2E2E2E2E2E2E2E2E2E2E2E2E2E2E2E2E2E2E2E2E2E2E2E2E2E2E2E2E2E2E2E2E2E2E2E2E2E2E2E2E2E2E2E2E2E2E2E2E2E2F5E2F5F5EFF5E2F5E2E2E2E2E2E2E2E2E2E2E2E2E2E2E2E2E2E2E2E2E2E2E2E2E2E2E2E2E2E2E2E2E2E2E2E2E2E2E2E2E2E2E2E2E2E2E2E2E2E2E2E2E2E2E2E2E2E2E2E2
310
E2E2E2E2E2E2E2E2E2E2E2E2E2E2E2E2E2E2E2E2E2E2E2E2E2E2E2E2E2E2E2E2E2E2E2E2E2E2E2E2E2E2E2E2E2E2E2E2E2E2E2E2E2E2E2E2E2E2E2E2E2E2E2E2E2E2E2E2E2E2E2E2E2E2E2E2E2E2E2E2E2E2E2E2E2E2E2E2E2E2E2E2E2E2E2E2E2E2E2E2E2E2E2E2E2E2E2E2E2E2E2E2F5E2F5F5EFF5E2F5E2E2E2E2E2E2E2
310
E2E2E2E2E2E2E2E2E2E2E2E2E2E2E2E2E2E2E2E2E2E2E2E2E2E2E2E2E2E2E2E2E2E2E2E2E2E2E2E2E2E2E2E2E2E2E2E2E2E2E2E2E2E2E2E2E2E2E2E2E2E2E2E2E2E2E2E2E2E2E2E2E2E2E2E2E2E2E2E2E2E2E2E2E2E2E2E2E2E2E2E2E2E2E2E2E2E2E2E2E2E2E2E2E2E2E2E2E2E2E2E2E2E2E2E2E2E2E2E2E2E2E2E2E2E2E2
310
E2E2E2E2E2E2E2E2E2E2E2E2E2E2E2E2E2E2E2E2E2E2E2E2E2E2E2E2E2E2E2E2E2E2E2E2E2E2F5E2F5F5EFF5E2F5E2E2E2E2E2E2E2E2E2E2E2E2E2E2E2E2E2E2E2E2E2E2E2E2E2E2E2E2E2E2E2E2E2E2E2E2E2E2E2E2E2E2E2E2E2E2E2E2E2E2E2E2E2E2E2E2E2E2E2E2E2E2E2E2E2E2E2E2E2E2E2E2E2E2E2E2E2E2E2E2E2
310
E2E2E2E2E2E2E2E2E2E2E2E2E2E2E2E2E2E2E2E2E2E2E2E2E2E2E2E2E2E2E2E2E2E2E2E2E2E2E2E2E2E2E2E2E2E2E2E2E2E2E2E2E2E2E2E2E2E2E2E2E2E2E2E2E2E2E2E2E2E2E2E2E2E2E2E2E2E2E2E2E2E2E2E2E2E2E2E2E2E2E2F5E2F5F5EFF5E2F5E2E2E2E2E2E2E2E2E2E2E2E2E2E2E2E2E2E2E2E2E2E2E2E2E2E2E2E2
310
E2E2E2E2E2E2E2E2E2E2E2E2E2E2E2E2E2E2E2E2E2E2E2E2E2E2E2E2E2E2E2E2E2E2E2E2E2E2E2E2E2E2E2E2E2E2E2E2E2E2E2E2E2E2E2E2E2E2E2E2E2E2E2E2E2E2E2E2E2E2E2E2E2E2E2E2E2E2E2E2E2E2E2E2E2E2E2E2E2E2E2E2E2E2E2E2E2E2E2E2E2E2E2E2E2E2E2E2E2E2E2E2E2E2E2E2E2E2E2E2E2E2E2E2E2E2E2
310
E2E2E2E2E2E2E2E2E2E2E2E2E2E2E2E2E2F5E2F5F5EFF5E2F5E2E2E2E2E2E2E2E2E2E2E2E2E2E2E2E2E2E2E2E2E2E2E2E2E2E2E2E2E2E2E2E2E2E2E2E2E2E2E2E2E2E2E2E2E2E2E2E2E2E2E2E2E2E2E2E2E2E2E2E2E2E2E2E2E2E2E2E2E2E2E2E2E2E2E2E2E2E2E2E2E2E2E2E2E2E2E2E2E2E2E2E2E2E2E2E2E2E2E2E2E2E2
310
E2E2E2E2E2E2E2E2E2E2E2E2E2E2E2E2E2E2E2E2E2E2E2E2E2E2E2E2E2E2E2E2E2E2E2E2E2E2E2E2E2E2E2E2E2E2E2E2E2E2E2E2E2E2E2E2E2E2E2E2E2E2E2E2E2E2E2E2E2E2F5E2F5F5EFF5E2F5E2E2E2E2E2E2E2E2E2E2E2E2E2E2E2E2E2E2E2E2E2E2E2E2E2E2E2E2E2E2E2E2E2E2E2E2E2E2E2E2E2E2E2E2E2E2E2E2E2
310
E2E2E2E2E2E2E2E2E2E2E2E2E2E2E2E2E2E2E2E2E2E2E2E2E2E2E2E2E2E2E2E2E2E2E2E2E2E2E2E2E2E2E2E2E2E2E2E2E2E2E2E2E2E2E2E2E2E2E2E2E2E2E2E2E2E2E2E2E2E2E2E2E2E2E2E2E2E2E2E2E2E2E2E2E2E2E2E2E2E2E2E2E2E2E2E2E2E2E2E2E2E2E2E2E2E2E2E2E2E2E2E2E2E2E2E2E2E2E2E2E2E2E2F5E2F5F5
310
EFF5E2E2E2E2E2E2E2E2E2E2E2E2E2E2E2E2E2E2E2E2E2E2E2E2E2E2E2E2E2E2E2E2E2E2E2E2E2E2E2E2E2E2E2E2E2E2E2E2E2E2E2E2E2E2E2E2E2E2E2E2E2E2E2E2E2E2E2E2E2E2E2E2E2E2E2E2E2E2E2E2E2E2E2E2E2E2E2E2E2E2E2E2E2E2E2E2E2E2E2E2E2E2E2E2E2E2E2E2E2E2E2E2E2E2E2E2E2E2E2E2E2E2E2E2E2
310
E2E2E2E2E2E2E2E2E2E2E2E2E2E2E2E2E2E2E2E2E2E2E2E2E2E2E2E2E2E2E2E2E2E2E2E2E2E2E2E2E2E2E2E2E2E2E2E2E2E2E2F5F5EFF5E2E2E2E2E2E2E2E2E2E2E2E2E2E2E2E2E2E2E2E2E2E2E2E2E2E2E2E2E2E2E2E2E2E2E2E2E2E2E2E2E2E2E2E2E2E2E2E2E2E2E2E2E2E2E2E2E2E2E2E2E2E2E2E2E2E2E2E2E2E2E2E2
310
E2E2E2E2E2E2E2E2E2E2E2E2E2E2E2E2E2E2E2E2E2E2E2E2E2E2E2E2E2E2E2E2E2E2E2E2E2E2E2E2E2E2E2E2E2E2E2E2E2E2E2E2E2E2E2E2E2E2E2E2E2E2E2E2E2E2E2E2E2E2E2E2E2E2E2E2E2E2E2E2E2E2E2E2E2E2E2E2E2E2E2E2E2E2E2E2E2E2E2E2E2E2E2E2F5F5EFF5E2E2E2E2E2E2E2E2E2E2E2E2E2E2E2E2E2E2E2
310
E2E2E2E2E2E2E2E2E2E2E2E2E2E2E2E2E2E2E2E2E2E2E2E2E2E2E2E2E2E2E2E2E2E2E2E2E2E2E2E2E2E2E2E2E2E2E2E2E2E2E2E2E2E2E2E2E2E2E2E2E2E2E2E2E2E2E2E2E2E2E2E2E2E2E2E2E2E2E2E2E2E2E2E2E2E2E2E2E2E2E2E2E2E2E2E2E2E2E2E2E2E2E2E2E2E2E2E2E2E2E2E2E2E2E2E2E2E2E2E2E2E2E2E2E2E2E2
310
E2E2E2E2E2E2E2E2E2E2E2E2E2E2E2E2E2E2E2E2E2E2E2E2E2E2E2E2E2E2F5F5EFF5E2E2E2E2E2E2E2E2E2E2E2E2E2E2E2E2E2E2E2E2E2E2E2E2E2E2E2E2E2E2E2E2E2E2E2E2E2E2E2E2E2E2E2E2E2E2E2E2E2E2E2E2E2E2E2E2E2E2E2E2E2E2E2E2E2E2E2E2E2E2E2E2E2E2E2E2E2E2E2E2E2E2E2E2E2E2E2E2E2E2E2E2E2
310
E2E2E2E2E2E2E2E2E2E2E2E2E2E2E2E2E2E2E2E2E2E2E2E2E2E2E2E2E2E2E2E2E2E2E2E2E2E2E2E2E2E2E2E2E2E2E2E2E2E2E2E2E2E2E2E2E2E2E2E2E2E2E2E2E2E2E2E2E2E2E2E2E2E2E2E2E2E2E2E2E2E2E2F5F5EFF5E2E2E2E2E2E2E2E2E2E2E2E2E2E2E2E2E2E2E2E2E2E2E2E2E2E2E2E2E2E2E2E2E2E2E2E2E2E2E2E2
310
E2E2E2E2E2E2E2E2E2E2E2E2E2E2E2E2E2E2E2E2E2E2E2E2E2E2E2E2E2E2E2E2E2E2E2E2E2E2E2E2E2E2E2E2E2E2E2E2E2E2E2E2E2E2E2E2E2E2E2E2E2E2E2E2E2E2E2E2E2E2E2E2E2E2E2E2E2E2E2E2E2E2E2E2E2E2E2E2E2E2E2E2E2E2E2E2E2E2E2E2E2E2E2E2E2E2E2E2E2E2E2E2E2E2E2E2E2E2E2E2E2E2E2E2E2E2E2
310
E2E2E2E2E2E2E2E2E2F5F5EFF5E2E2E2E2E2E2E2E2E2E2E2E2E2E2E2E2E2E2E2E2E2E2E2E2E2E2E2E2E2E2E2E2E2E2E2E2E2E2E2E2E2E2E2E2E2E2E2E2E2E2E2E2E2E2E2E2E2E2E2E2E2E2E2E2E2E2E2E2E2E2E2E2E2E2E2E2E2E2E2E2E2E2E2E2E2E2E2E2E2E2E2E2E2E2E2E2E2E2E2E2E2E2E2E2E2E2E2E2E2E2E2E2E2E2
310
E2E2E2E2E2E2E2E2E2E2E2E2E2E2E2E2E2E2E2E2E2E2E2E2E2E2E2E2E2E2E2E2E2E2E2E2E2E2E2E2E2E2E2E2E2E2E2E2E2E2E2E2E2E2E2E2E2E2E2E2E2E2F5F5EFF5E2E2E2E2E2E2E2E2E2E2E2E2E2E2E2E2E2E2E2E2E2E2E2E2E2E2E2E2E2E2E2E2E2E2E2E2E2E2E2E2E2E2E2E2E2E2E2E2E2E2E2E2E2E2E2E2E2E2E2E2E2
310
E2E2E2E2E2E2E2E2E2E2E2E2E2E2E2E2E2E2E2E2E2E2E2E2E2E2E2E2E2E2E2E2E2E2E2E2E2E2E2E2E2E2E2E2E2E2E2E2E2E2E2E2E2E2E2E2E2E2E2E2E2E2E2E2E2E2E2E2E2E2E2E2E2E2E2E2E2E2E2E2E2E2E2E2E2E2E2E2E2E2E2E2E2E2E2E2E2E2E2E2E2E2E2E2E2E2E2E2E2E2E2E2E2E2E2F5F5EFF5E2E2E2E2E2E2E2E2
310
E2E2E2E2E2E2E2E2E2E2E2E2E2E2E2E2E2E2E2E2E2E2E2E2E2E2E2E2E2E2E2E2E2E2E2E2E2E2E2E2E2E2E2E2E2E2E2E2E2E2E2E2E2E2E2E2E2E2E2E2E2E2E2E2E2E2E2E2E2E2E2E2E2E2E2E2E2E2E2E2E2E2E2E2E2E2E2E2E2E2E2E2E2E2E2E2E2E2E2E2E2E2E2E2E2E2E2E2E2E2E2E2E2E2E2E2E2E2E2E2E2E2E2E2E2E2E2
310
E2E2E2E2E2E2E2E2E2E2E2E2E2E2E2E2E2E2E2E2E2E2E2E2E2E2E2E2E2E2E2E2E2E2E2E2E2E2E2E2E2F5F5EFF5E2E2E2E2E2E2E2E2E2E2E2E2E2E2E2E2E2E2E2E2E2E2E2E2E2E2E2E2E2E2E2E2E2E2E2E2E2E2E2E2E2E2E2E2E2E2E2E2E2E2E2E2E2E2E2E2E2E2E2E2E2E2E2E2E2E2E2E2E2E2E2E2E2E2E2E2E2E2E2E2E2E2
310
E2E2E2E2E2E2E2E2E2E2E2E2E2E2E2E2E2E2E2E2E2E2E2E2E2E2E2E2E2E2E2E2E2E2E2E2E2E2E2E2E2E2E2E2E2E2E2E2E2E2E2E2E2E2E2E2E2E2E2E2E2E2E2E2E2E2E2E2E2E2E2E2E2E2E2E2E2E2E2E2E2E2E2E2E2E2E2E2E2E2E2E2E2E2F5F5EFF5E2F5E2E2E2E2E2E2E2E2E2E2E2E2E2E2E2E2E2E2E2E2E2E2E2E2E2E2E2
310
E2E2E2E2E2E2E2E2E2E2E2E2E2E2E2E2E2E2E2E2E2E2E2E2E2E2E2E2E2E2E2E2E2E2E2E2E2E2E2E2E2E2E2E2E2E2E2E2E2E2E2E2E2E2E2E2E2E2E2E2E2E2E2E2E2E2E2E2E2E2E2E2E2E2E2E2E2E2E2E2E2E2E2E2E2E2E2E2E2E2E2E2E2E2E2E2E2E2E2E2E2E2E2E2E2E2E2E2E2E2E2E2E2E2E2E2E2E2E2E2E2E2E2E2E2E2E2
310
E2E2E2E2E2E2E2E2E2E2E2E2E2E2E2E2E2E2F5E2F5F5EFF5E2F5E2E2E2E2E2E2E2E2E2E2E2E2E2E2E2E2E2E2E2E2E2E2E2E2E2E2E2E2E2E2E2E2E2E2E2E2E2E2E2E2E2E2E2E2E2E2E2E2E2E2E2E2E2E2E2E2E2E2E2E2E2E2E2E2E2E2E2E2E2E2E2E2E2E2E2E2E2E2E2E2E2E2E2E2E2E2E2E2E2E2E2E2E2E2E2E2E2E2E2E2E2
310
E2E2E2E2E2E2E2E2E2E2E2E2E2E2E2E2E2E2E2E2E2E2E2E2E2E2E2E2E2E2E2E2E2E2E2E2E2E2E2E2E2E2E2E2E2E2E2E2E2E2E2E2E2E2E2E2E2E2E2E2E2E2E2E2E2E2E2E2E2E2E2F5E2F5F5EFF5E2F5E2E2E2E2E2E2E2E2E2E2E2E2E2E2E2E2E2E2E2E2E2E2E2E2E2E2E2E2E2E2E2E2E2E2E2E2E2E2E2E2E2E2E2E2E2E2E2E2
310
E2E2E2E2E2E2E2E2E2E2E2E2E2E2E2E2E2E2E2E2E2E2E2E2E2E2E2E2E2E2E2E2E2E2E2E2E2E2E2E2E2E2E2E2E2E2E2E2E2E2E2E2E2E2E2E2E2E2E2E2E2E2E2E2E2E2E2E2E2E2E2E2E2E2E2E2E2E2E2E2E2E2E2E2E2E2E2E2E2E2E2E2E2E2E2E2E2E2E2E2E2E2E2E2E2E2E2E2E2E2E2E2E2E2E2E2E2E2E2E2E2E2E2E2F5E2F5
310
F5EFF5E2F5E2E2E2E2E2E2E2E2E2E2E2E2E2E2E2E2E2E2E2E2E2E2E2E2E2E2E2E2E2E2E2E2E2E2E2E2E2E2E2E2E2E2E2E2E2E2E2E2E2E2E2E2E2E2E2E2E2E2E2E2E2E2E2E2E2E2E2E2E2E2E2E2E2E2E2E2E2E2E2E2E2E2E2E2E2E2E2E2E2E2E2E2E2E2E2E2E2E2E2E2E2E2E2E2E2E2E2E2E2E2E2E2E2E2E2E2E2E2E2E2E2E2
310
E2E2E2E2E2E2E2E2E2E2E2E2E2E2E2E2E2E2E2E2E2E2E2E2E2E2E2E2E2E2E2E2E2E2E2E2E2E2E2E2E2E2E2E2E2E2E2E2E2E2F5E2F5F5EFF5E2F5E2E2E2E2E2E2E2E2E2E2E2E2E2E2E2E2E2E2E2E2E2E2E2E2E2E2E2E2E2E2E2E2E2E2E2E2E2E2E2E2E2E2E2E2E2E2E2E2E2E2E2E2E2E2E2E2E2E2E2E2E2E2E2E2E2E2E2E2E2
310
E2E2E2E2E2E2E2E2E2E2E2E2E2E2E2E2E2E2E2E2E2E2E2E2E2E2E2E2E2E2E2E2E2E2E2E2E2E2E2E2E2E2E2E2E2E2E2E2E2E2E2E2E2E2E2E2E2E2E2E2E2E2E2E2E2E2E2E2E2E2E2E2E2E2E2E2E2E2E2E2E2E2E2E2E2E2E2E2E2E2E2E2E2E2E2E2E2E2E2E2E2E2E2F5E2F5F5EFF5E2F5E2E2E2E2E2E2E2E2E2E2E2E2E2E2E2E2
310
E2E2E2E2E2E2E2E2E2E2E2E2E2E2E2E2E2E2E2E2E2E2E2E2E2E2E2E2E2E2E2E2E2E2E2E2E2E2E2E2E2E2E2E2E2E2E2E2E2E2E2E2E2E2E2E2E2E2E2E2E2E2E2E2E2E2E2E2E2E2E2E2E2E2E2E2E2E2E2E2E2E2E2E2E2E2E2E2E2E2E2E2E2E2E2E2E2E2E2E2E2E2E2E2E2E2E2E2E2E2E2E2E2E2E2E2E2E2E2E2E2E2E2E2E2E2E2
310
E2E2E2E2E2E2E2E2E2E2E2E2E2E2E2E2E2E2E2E2E2E2E2E2E2E2E2E2E2F5E2F5F5EFF5E2F5E2E2E2E2E2E2E2E2E2E2E2E2E2E2E2E2E2E2E2E2E2E2E2E2E2E2E2E2E2E2E2E2E2E2E2E2E2E2E2E2E2E2E2E2E2E2E2E2E2E2E2E2E2E2E2E2E2E2E2E2E2E2E2E2E2E2E2E2E2E2E2E2E2E2E2E2E2E2E2E2E2E2E2E2E2E2E2E2E2E2
310
E2E2E2E2E2E2E2E2E2E2E2E2E2E2E2E2E2E2E2E2E2E2E2E2E2E2E2E2E2E2E2E2E2E2E2E2E2E2E2E2E2E2E2E2E2E2E2E2E2E2E2E2E2E2E2E2E2E2E2E2E2E2E2E2E2E2E2E2E2E2E2E2E2E2E2E2E2E2E2E2E2E2F5E2F5F5EFF5E2F5E2E2E2E2E2E2E2E2E2E2E2E2E2E2E2E2E2E2E2E2E2E2E2E2E2E2E2E2E2E2E2E2E2E2E2E2E2
310
E2E2E2E2E2E2E2E2E2E2E2E2E2E2E2E2E2E2E2E2E2E2E2E2E2E2E2E2E2E2E2E2E2E2E2E2E2E2E2E2E2E2E2E2E2E2E2E2E2E2E2E2E2E2E2E2E2E2E2E2E2E2E2E2E2E2E2E2E2E2E2E2E2E2E2E2E2E2E2E2E2E2E2E2E2E2E2E2E2E2E2E2E2E2E2E2E2E2E2E2E2E2E2E2E2E2E2E2E2E2E2E2E2E2E2E2E2E2E2E2E2E2E2E2E2E2E2
310
E2E2E2E2E2E2E2E2F5E2F5F5EFF5E2F5E2E2E2E2E2E2E2E2E2E2E2E2E2E2E2E2E2E2E2E2E2E2E2E2E2E2E2E2E2E2E2E2E2E2E2E2E2E2E2E2E2E2E2E2E2E2E2E2E2E2E2E2E2E2E2E2E2E2E2E2E2E2E2E2E2E2E2E2E2E2E2E2E2E2E2E2E2E2E2E2E2E2E2E2E2E2E2E2E2E2E2E2E2E2E2E2E2E2E2E2E2E2E2E2E2E2E2E2E2E2E2
310
E2E2E2E2E2E2E2E2E2E2E2E2E2E2E2E2E2E2E2E2E2E2E2E2E2E2E2E2E2E2E2E2E2E2E2E2E2E2E2E2E2E2E2E2E2E2E2E2E2E2E2E2E2E2E2E2E2E2E2E2E2F5E2F5F5EFF5E2F5E2E2E2E2E2E2E2E2E2E2E2E2E2E2E2E2E2E2E2E2E2E2E2E2E2E2E2E2E2E2E2E2E2E2E2E2E2E2E2E2E2E2E2E2E2E2E2E2E2E2E2E2E2E2E2E2E2E2
310
E2E2E2E2E2E2E2E2E2E2E2E2E2E2E2E2E2E2E2E2E2E2E2E2E2E2E2E2E2E2E2E2E2E2E2E2E2E2E2E2E2E2E2E2E2E2E2E2E2E2E2E2E2E2E2E2E2E2E2E2E2E2E2E2E2E2E2E2E2E2E2E2E2E2E2E2E2E2E2E2E2E2E2E2E2E2E2E2E2E2E2E2E2E2E2E2E2E2E2E2E2E2E2E2E2E2E2E2E2E2E2E2E2E2F5E2F5F5EFF5E2F5E2E2E2E2E2
310
E2E2E2E2E2E2E2E2E2E2E2E2E2E2E2E2E2E2E2E2E2E2E2E2E2E2E2E2E2E2E2E2E2E2E2E2E2E2E2E2E2E2E2E2E2E2E2E2E2E2E2E2E2E2E2E2E2E2E2E2E2E2E2E2E2E2E2E2E2E2E2E2E2E2E2E2E2E2E2E2E2E2E2E2E2E2E2E2E2E2E2E2E2E2E2E2E2E2E2E2E2E2E2E2E2E2E2E2E2E2E2E2E2E2E2E2E2E2E2E2E2E2E2E2E2E2E2
310
E2E2E2E2E2E2E2E2E2E2E2E2E2E2E2E2E2E2E2E2E2E2E2E2E2E2E2E2E2E2E2E2E2E2E2E2E2E2E2E2F5E2F5F5EFF5E2F5E2E2E2E2E2E2E2E2E2E2E2E2E2E2E2E2E2E2E2E2E2E2E2E2E2E2E2E2E2E2E2E2E2E2E2E2E2E2E2E2E2E2E2E2E2E2E2E2E2E2E2E2E2E2E2E2E2E2E2E2E2E2E2E2E2E2E2E2E2E2E2E2E2E2E2E2E2E2E2
310
E2E2E2E2E2E2E2E2E2E2E2E2E2E2E2E2E2E2E2E2E2E2E2E2E2E2E2E2E2E2E2E2E2E2E2E2E2E2E2E2E2E2E2E2E2E2E2E2E2E2E2E2E2E2E2E2E2E2E2E2E2E2E2E2E2E2E2E2E2E2E2E2E2E2E2E2E2E2E2E2E2E2E2E2E2E2E2E2E2E2E2E2E2F5E2F5F5EFF5E2F5E2E2E2E2E2E2E2E2E2E2E2E2E2E2E2E2E2E2E2E2E2E2E2E2E2E2
310
E2E2E2E2E2E2E2E2E2E2E2E2E2E2E2E2E2E2E2E2E2E2E2E2E2E2E2E2E2E2E2E2E2E2E2E2E2E2E2E2E2E2E2E2E2E2E2E2E2E2E2E2E2E2E2E2E2E2E2E2E2E2E2E2E2E2E2E2E2E2E2E2E2E2E2E2E2E2E2E2E2E2E2E2E2E2E2E2E2E2E2E2E2E2E2E2E2E2E2E2E2E2E2E2E2E2E2E2E2E2E2E2E2E2E2E2E2E2E2E2E2E2E2E2E2E2E2
310
E2E2E2E2E2E2E2E2E2E2E2E2E2E2E2E2E2E2E2F5E2F5F5EFF5E2F5E2E2E2E2E2E2E2E2E2E2E2E2E2E2E2E2E2E2E2E2E2E2E2E2E2E2E2E2E2E2E2E2E2E2E2E2E2E2E2E2E2E2E2E2E2E2E2E2E2E2E2E2E2E2E2E2E2E2E2E2E2E2E2E2E2E2E2E2E2E2E2E2E2E2E2E2E2E2E2E2E2E2E2E2E2E2E2E2E2E2E2E2E2E2E2E2E2E2E2E2
310
E2E2E2E2E2E2E2E2E2E2E2E2E2E2E2E2E2E2E2E2E2E2E2E2E2E2E2E2E2E2E2E2E2E2E2E2E2E2E2E2E2E2E2E2E2E2E2E2E2E2E2E2E2E2E2E2E2E2E2E2E2E2E2E2E2E2E2E2E2E2E2E2F5E2F5F5EFF5E2F5E2E2E2E2E2E2E2E2E2E2E2E2E2E2E2E2E2E2E2E2E2E2E2E2E2E2E2E2E2E2E2E2E2E2E2E2E2E2E2E2E2E2E2E2E2E2E2
310
E2E2E2E2E2E2E2E2E2E2E2E2E2E2E2E2E2E2E2E2E2E2E2E2E2E2E2E2E2E2E2E2E2E2E2E2E2E2E2E2E2E2E2E2E2E2E2E2E2E2E2E2E2E2E2E2E2E2E2E2E2E2E2E2E2E2E2E2E2E2E2E2E2E2E2E2E2E2E2E2E2E2E2E2E2E2E2E2E2E2E2E2E2E2E2E2E2E2E2E2E2E2E2E2E2E2E2E2E2E2E2E2E2E2E2E2E2E2E2E2E2E2E2E2E2F5E2
310
F5F5EFF5E2F5E2E2E2E2E2E2E2E2E2E2E2E2E2E2E2E2E2E2E2E2E2E2E2E2E2E2E2E2E2E2E2E2E2E2E2E2E2E2E2E2E2E2E2E2E2E2E2E2E2E2E2E2E2E2E2E2E2E2E2E2E2E2E2E2E2E2E2E2E2E2E2E2E2E2E2E2E2E2E2E2E2E2E2E2E2E2E2E2E2E2E2E2E2E2E2E2E2E2E2E2E2E2E2E2E2E2E2E2E2E2E2E2E2E2E2E2E2E2E2E2E2
310
E2E2E2E2E2E2E2E2E2E2E2E2E2E2E2E2E2E2E2E2E2E2E2E2E2E2E2E2E2E2E2E2E2E2E2E2E2E2E2E2E2E2E2E2E2E2E2E2E2E2E2F5E2F5F5EFF5E2E2E2E2E2E2E2E2E2E2E2E2E2E2E2E2E2E2E2E2E2E2E2E2E2E2E2E2E2E2E2E2E2E2E2E2E2E2E2E2E2E2E2E2E2E2E2E2E2E2E2E2E2E2E2E2E2E2E2E2E2E2E2E2E2E2E2E2E2E2
310
E2E2E2E2E2E2E2E2E2E2E2E2E2E2E2E2E2E2E2E2E2E2E2E2E2E2E2E2E2E2E2E2E2E2E2E2E2E2E2E2E2E2E2E2E2E2E2E2E2E2E2E2E2E2E2E2E2E2E2E2E2E2E2E2E2E2E2E2E2E2E2E2E2E2E2E2E2E2E2E2E2E2E2E2E2E2E2E2E2E2E2E2E2E2E2E2E2E2E2E2E2E2E2E2E2E2F5F5EFF5E2E2E2E2E2E2E2E2E2E2E2E2E2E2E2E2E2
310
E2E2E2E2E2E2E2E2E2E2E2E2E2E2E2E2E2E2E2E2E2E2E2E2E2E2E2E2E2E2E2E2E2E2E2E2E2E2E2E2E2E2E2E2E2E2E2E2E2E2E2E2E2E2E2E2E2E2E2E2E2E2E2E2E2E2E2E2E2E2E2E2E2E2E2E2E2E2E2E2E2E2E2E2E2E2E2E2E2E2E2E2E2E2E2E2E2E2E2E2E2E2E2E2E2E2E2E2E2E2E2E2E2E2E2E2E2E2E2E2E2E2E2E2E2E2E2
310
E2E2E2E2E2E2E2E2E2E2E2E2E2E2E2E2E2E2E2E2E2E2E2E2E2E2E2E2E2E2E2E2F5F5EFF5E2E2E2E2E2E2E2E2E2E2E2E2E2E2E2E2E2E2E2E2E2E2E2E2E2E2E2E2E2E2E2E2E2E2E2E2E2E2E2E2E2E2E2E2E2E2E2E2E2E2E2E2E2E2E2E2E2E2E2E2E2E2E2E2E2E2E2E2E2E2E2E2E2E2E2E2E2E2E2E2E2E2E2E2E2E2E2E2E2E2E2
310
E2E2E2E2E2E2E2E2E2E2E2E2E2E2E2E2E2E2E2E2E2E2E2E2E2E2E2E2E2E2E2E2E2E2E2E2E2E2E2E2E2E2E2E2E2E2E2E2E2E2E2E2E2E2E2E2E2E2E2E2E2E2E2E2E2E2E2E2E2E2E2E2E2E2E2E2E2E2E2E2E2E2E2E2E2F5F5EFF5E2E2E2E2E2E2E2E2E2E2E2E2E2E2E2E2E2E2E2E2E2E2E2E2E2E2E2E2E2E2E2E2E2E2E2E2E2E2
310
E2E2E2E2E2E2E2E2E2E2E2E2E2E2E2E2E2E2E2E2E2E2E2E2E2E2E2E2E2E2E2E2E2E2E2E2E2E2E2E2E2E2E2E2E2E2E2E2E2E2E2E2E2E2E2E2E2E2E2E2E2E2E2E2E2E2E2E2E2E2E2E2E2E2E2E2E2E2E2E2E2E2E2E2E2E2E2E2E2E2E2E2E2E2E2E2E2E2E2E2E2E2E2E2E2E2E2E2E2E2E2E2E2E2E2E2E2E2E2E2E2E2E2E2E2E2E2
310
E2E2E2E2E2E2E2E2E2E2E2F5F5EFF5E2E2E2E2E2E2E2E2E2E2E2E2E2E2E2E2E2E2E2E2E2E2E2E2E2E2E2E2E2E2E2E2E2E2E2E2E2E2E2E2E2E2E2E2E2E2E2E2E2E2E2E2E2E2E2E2E2E2E2E2E2E2E2E2E2E2E2E2E2E2E2E2E2E2E2E2E2E2E2E2E2E2E2E2E2E2E2E2E2E2E2E2E2E2E2E2E2E2E2E2E2E2E2E2E2E2E2E2E2E2E2E2
310
E2E2E2E2E2E2E2E2E2E2E2E2E2E2E2E2E2E2E2E2E2E2E2E2E2E2E2E2E2E2E2E2E2E2E2E2E2E2E2E2E2E2E2E2E2E2E2E2E2E2E2E2E2E2E2E2E2E2E2E2E2E2E2E2F5F5EFF5E2E2E2E2E2E2E2E2E2E2E2E2E2E2E2E2E2E2E2E2E2E2E2E2E2E2E2E2E2E2E2E2E2E2E2E2E2E2E2E2E2E2E2E2E2E2E2E2E2E2E2E2E2E2E2E2E2E2E2
310
E2E2E2E2E2E2E2E2E2E2E2E2E2E2E2E2E2E2E2E2E2E2E2E2E2E2E2E2E2E2E2E2E2E2E2E2E2E2E2E2E2E2E2E2E2E2E2E2E2E2E2E2E2E2E2E2E2E2E2E2E2E2E2E2E2E2E2E2E2E2E2E2E2E2E2E2E2E2E2E2E2E2E2E2E2E2E2E2E2E2E2E2E2E2E2E2E2E2E2E2E2E2E2E2E2E2E2E2E2E2E2E2E2E2E2E2E2F5F5EFF5E2E2E2E2E2E2
310
E2E2E2E2E2E2E2E2E2E2E2E2E2E2E2E2E2E2E2E2E2E2E2E2E2E2E2E2E2E2E2E2E2E2E2E2E2E2E2E2E2E2E2E2E2E2E2E2E2E2E2E2E2E2E2E2E2E2E2E2E2E2E2E2E2E2E2E2E2E2E2E2E2E2E2E2E2E2E2E2E2E2E2E2E2E2E2E2E2E2E2E2E2E2E2E2E2E2E2E2E2E2E2E2E2E2E2E2E2E2E2E2E2E2E2E2E2E2E2E2E2E2E2E2E2E2E2
310
E2E2E2E2E2E2E2E2E2E2E2E2E2E2E2E2E2E2E2E2E2E2E2E2E2E2E2E2E2E2E2E2E2E2E2E2E2E2E2E2E2E2E2F5F5EFF5E2E2E2E2E2E2E2E2E2E2E2E2E2E2E2E2E2E2E2E2E2E2E2E2E2E2E2E2E2E2E2E2E2E2E2E2E2E2E2E2E2E2E2E2E2E2E2E2E2E2E2E2E2E2E2E2E2E2E2E2E2E2E2E2E2E2E2E2E2E2E2E2E2E2E2E2E2E2E2E2
310
E2E2E2E2E2E2E2E2E2E2E2E2E2E2E2E2E2E2E2E2E2E2E2E2E2E2E2E2E2E2E2E2E2E2E2E2E2E2E2E2E2E2E2E2E2E2E2E2E2E2E2E2E2E2E2E2E2E2E2E2E2E2E2E2E2E2E2E2E2E2E2E2E2E2E2E2E2E2E2E2E2E2E2E2E2E2E2E2E2E2E2E2E2E2E2E2F5F5EFF5E2F5E2E2E2E2E2E2E2E2E2E2E2E2E2E2E2E2E2E2E2E2E2E2E2E2E2
310
E2E2E2E2E2E2E2E2E2E2E2E2E2E2E2E2E2E2E2E2E2E2E2E2E2E2E2E2E2E2E2E2E2E2E2E2E2E2E2E2E2E2E2E2E2E2E2E2E2E2E2E2E2E2E2E2E2E2E2E2E2E2E2E2E2E2E2E2E2E2E2E2E2E2E2E2E2E2E2E2E2E2E2E2E2E2E2E2E2E2E2E2E2E2E2E2E2E2E2E2E2E2E2E2E2E2E2E2E2E2E2E2E2E2E2E2E2E2E2E2E2E2E2E2E2E2E2
310
E2E2E2E2E2E2E2E2E2E2E2E2E2E2E2E2E2E2E2E2F5E2F5F5EFF5E2F5E2E2E2E2E2E2E2E2E2E2E2E2E2E2E2E2E2E2E2E2E2E2E2E2E2E2E2E2E2E2E2E2E2E2E2E2E2E2E2E2E2E2E2E2E2E2E2E2E2E2E2E2E2E2E2E2E2E2E2E2E2E2E2E2E2E2E2E2E2E2E2E2E2E2E2E2E2E2E2E2E2E2E2E2E2E2E2E2E2E2E2E2E2E2E2E2E2E2E2
310
E2E2E2E2E2E2E2E2E2E2E2E2E2E2E2E2E2E2E2E2E2E2E2E2E2E2E2E2E2E2E2E2E2E2E2E2E2E2E2E2E2E2E2E2E2E2E2E2E2E2E2E2E2E2E2E2E2E2E2E2E2E2E2E2E2E2E2E2E2E2E2E2E2F5E2F5F5EFF5E2F5E2E2E2E2E2E2E2E2E2E2E2E2E2E2E2E2E2E2E2E2E2E2E2E2E2E2E2E2E2E2E2E2E2E2E2E2E2E2E2E2E2E2E2E2E2E2
310
E2E2E2E2E2E2E2E2E2E2E2E2E2E2E2E2E2E2E2E2E2E2E2E2E2E2E2E2E2E2E2E2E2E2E2E2E2E2E2E2E2E2E2E2E2E2E2E2E2E2E2E2E2E2E2E2E2E2E2E2E2E2E2E2E2E2E2E2E2E2E2E2E2E2E2E2E2E2E2E2E2E2E2E2E2E2E2E2E2E2E2E2E2E2E2E2E2E2E2E2E2E2E2E2E2E2E2E2E2E2E2E2E2E2E2E2E2E2E2E2E2E2E2E2E2E2F5
310
E2F5F5EFF5E2F5E2E2E2E2E2E2E2E2E2E2E2E2E2E2E2E2E2E2E2E2E2E2E2E2E2E2E2E2E2E2E2E2E2E2E2E2E2E2E2E2E2E2E2E2E2E2E2E2E2E2E2E2E2E2E2E2E2E2E2E2E2E2E2E2E2E2E2E2E2E2E2E2E2E2E2E2E2E2E2E2E2E2E2E2E2E2E2E2E2E2E2E2E2E2E2E2E2E2E2E2E2E2E2E2E2E2E2E2E2E2E2E2E2E2E2E2E2E2E2E2
310
E2E2E2E2E2E2E2E2E2E2E2E2E2E2E2E2E2E2E2E2E2E2E2E2E2E2E2E2E2E2E2E2E2E2E2E2E2E2E2E2E2E2E2E2E2E2E2E2E2E2E2E2F5E2F5F5EFF5E2F5E2E2E2E2E2E2E2E2E2E2E2E2E2E2E2E2E2E2E2E2E2E2E2E2E2E2E2E2E2E2E2E2E2E2E2E2E2E2E2E2E2E2E2E2E2E2E2E2E2E2E2E2E2E2E2E2E2E2E2E2E2E2E2E2E2E2E2
310
E2E2E2E2E2E2E2E2E2E2E2E2E2E2E2E2E2E2E2E2E2E2E2E2E2E2E2E2E2E2E2E2E2E2E2E2E2E2E2E2E2E2E2E2E2E2E2E2E2E2E2E2E2E2E2E2E2E2E2E2E2E2E2E2E2E2E2E2E2E2E2E2E2E2E2E2E2E2E2E2E2E2E2E2E2E2E2E2E2E2E2E2E2E2E2E2E2E2E2E2E2E2E2E2E2F5E2F5F5EFF5E2F5E2E2E2E2E2E2E2E2E2E2E2E2E2E2
310
E2E2E2E2E2E2E2E2E2E2E2E2E2E2E2E2E2E2E2E2E2E2E2E2E2E2E2E2E2E2E2E2E2E2E2E2E2E2E2E2E2E2E2E2E2E2E2E2E2E2E2E2E2E2E2E2E2E2E2E2E2E2E2E2E2E2E2E2E2E2E2E2E2E2E2E2E2E2E2E2E2E2E2E2E2E2E2E2E2E2E2E2E2E2E2E2E2E2E2E2E2E2E2E2E2E2E2E2E2E2E2E2E2E2E2E2E2E2E2E2E2E2E2E2E2E2E2
310
E2E2E2E2E2E2E2E2E2E2E2E2E2E2E2E2E2E2E2E2E2E2E2E2E2E2E2E2E2E2E2F5E2F5F5EFF5E2F5E2E2E2E2E2E2E2E2E2E2E2E2E2E2E2E2E2E2E2E2E2E2E2E2E2E2E2E2E2E2E2E2E2E2E2E2E2E2E2E2E2E2E2E2E2E2E2E2E2E2E2E2E2E2E2E2E2E2E2E2E2E2E2E2E2E2E2E2E2E2E2E2E2E2E2E2E2E2E2E2E2E2E2E2E2E2E2E2
310
E2E2E2E2E2E2E2E2E2E2E2E2E2E2E2E2E2E2E2E2E2E2E2E2E2E2E2E2E2E2E2E2E2E2E2E2E2E2E2E2E2E2E2E2E2E2E2E2E2E2E2E2E2E2E2E2E2E2E2E2E2E2E2E2E2E2E2E2E2E2E2E2E2E2E2E2E2E2E2E2E2E2E2E2F5E2F5F5EFF5E2F5E2E2E2E2E2E2E2E2E2E2E2E2E2E2E2E2E2E2E2E2E2E2E2E2E2E2E2E2E2E2E2E2E2E2E2
310
E2E2E2E2E2E2E2E2E2E2E2E2E2E2E2E2E2E2E2E2E2E2E2E2E2E2E2E2E2E2E2E2E2E2E2E2E2E2E2E2E2E2E2E2E2E2E2E2E2E2E2E2E2E2E2E2E2E2E2E2E2E2E2E2E2E2E2E2E2E2E2E2E2E2E2E2E2E2E2E2E2E2E2E2E2E2E2E2E2E2E2E2E2E2E2E2E2E2E2E2E2E2E2E2E2E2E2E2E2E2E2E2E2E2E2E2E2E2E2E2E2E2E2E2E2E2E2
310
E2E2E2E2E2E2E2E2E2E2F5E2F5F5EFF5E2F5E2E2E2E2E2E2E2E2E2E2E2E2E2E2E2E2E2E2E2E2E2E2E2E2E2E2E2E2E2E2E2E2E2E2E2E2E2E2E2E2E2E2E2E2E2E2E2E2E2E2E2E2E2E2E2E2E2E2E2E2E2E2E2E2E2E2E2E2E2E2E2E2E2E2E2E2E2E2E2E2E2E2E2E2E2E2E2E2E2E2E2E2E2E2E2E2E2E2E2E2E2E2E2E2E2E2E2E2E2
310
E2E2E2E2E2E2E2E2E2E2E2E2E2E2E2E2E2E2E2E2E2E2E2E2E2E2E2E2E2E2E2E2E2E2E2E2E2E2E2E2E2E2E2E2E2E2E2E2E2E2E2E2E2E2E2E2E2E2E2E2E2E2E2F5E2F5F5EFF5E2F5E2E2E2E2E2E2E2E2E2E2E2E2E2E2E2E2E2E2E2E2E2E2E2E2E2E2E2E2E2E2E2E2E2E2E2E2E2E2E2E2E2E2E2E2E2E2E2E2E2E2E2E2E2E2E2E2
310
E2E2E2E2E2E2E2E2E2E2E2E2E2E2E2E2E2E2E2E2E2E2E2E2E2E2E2E2E2E2E2E2E2E2E2E2E2E2E2E2E2E2E2E2E2E2E2E2E2E2E2E2E2E2E2E2E2E2E2E2E2E2E2E2E2E2E2E2E2E2E2E2E2E2E2E2E2E2E2E2E2E2E2E2E2E2E2E2E2E2E2E2E2E2E2E2E2E2E2E2E2E2E2E2E2E2E2E2E2E2E2E2E2E2E2E2F5E2F5F5EFF5E2F5E2E2E2
310
E2E2E2E2E2E2E2E2E2E2E2E2E2E2E2E2E2E2E2E2E2E2E2E2E2E2E2E2E2E2E2E2E2E2E2E2E2E2E2E2E2E2E2E2E2E2E2E2E2E2E2E2E2E2E2E2E2E2E2E2E2E2E2E2E2E2E2E2E2E2E2E2E2E2E2E2E2E2E2E2E2E2E2E2E2E2E2E2E2E2E2E2E2E2E2E2E2E2E2E2E2E2E2E2E2E2E2E2E2E2E2E2E2E2E2E2E2E2E2E2E2E2E2E2E2E2E2
310
E2E2E2E2E2E2E2E2E2E2E2E2E2E2E2E2E2E2E2E2E2E2E2E2E2E2E2E2E2E2E2E2E2E2E2E2E2E2E2E2E2E2F5E2F5F5EFF5E2F5E2E2E2E2E2E2E2E2E2E2E2E2E2E2E2E2E2E2E2E2E2E2E2E2E2E2E2E2E2E2E2E2E2E2E2E2E2E2E2E2E2E2E2E2E2E2E2E2E2E2E2E2E2E2E2E2E2E2E2E2E2E2E2E2E2E2E2E2E2E2E2E2E2E2E2E2E2
310
E2E2E2E2E2E2E2E2E2E2E2E2E2E2E2E2E2E2E2E2E2E2E2E2E2E2E2E2E2E2E2E2E2E2E2E2E2E2E2E2E2E2E2E2E2E2E2E2E2E2E2E2E2E2E2E2E2E2E2E2E2E2E2E2E2E2E2E2E2E2E2E2E2E2E2E2E2E2E2E2E2E2E2E2E2E2E2E2E2E2E2E2E2E2E2F5E2F5F5EFF5E2F5E2E2E2E2E2E2E2E2E2E2E2E2E2E2E2E2E2E2E2E2E2E2E2E2
310
E2E2E2E2E2E2E2E2E2E2E2E2E2E2E2E2E2E2E2E2E2E2E2E2E2E2E2E2E2E2E2E2E2E2E2E2E2E2E2E2E2E2E2E2E2E2E2E2E2E2E2E2E2E2E2E2E2E2E2E2E2E2E2E2E2E2E2E2E2E2E2E2E2E2E2E2E2E2E2E2E2E2E2E2E2E2E2E2E2E2E2E2E2E2E2E2E2E2E2E2E2E2E2E2E2E2E2E2E2E2E2E2E2E2E2E2E2E2E2E2E2E2E2E2E2E2E2
310
E2E2E2E2E2E2E2E2E2E2E2E2E2E2E2E2E2E2E2E2E2F5E2F5F5EFF5E2F5E2E2E2E2E2E2E2E2E2E2E2E2E2E2E2E2E2E2E2E2E2E2E2E2E2E2E2E2E2E2E2E2E2E2E2E2E2E2E2E2E2E2E2E2E2E2E2E2E2E2E2E2E2E2E2E2E2E2E2E2E2E2E2E2E2E2E2E2E2E2E2E2E2E2E2E2E2E2E2E2E2E2E2E2E2E2E2E2E2E2E2E2E2E2E2E2E2E2
310
E2E2E2E2E2E2E2E2E2E2E2E2E2E2E2E2E2E2E2E2E2E2E2E2E2E2E2E2E2E2E2E2E2E2E2E2E2E2E2E2E2E2E2E2E2E2E2E2E2E2E2E2E2E2E2E2E2E2E2E2E2E2E2E2E2E2E2E2E2E2E2E2E2E2F5E2F5F5EFF5E2F5E2E2E2E2E2E2E2E2E2E2E2E2E2E2E2E2E2E2E2E2E2E2E2E2E2E2E2E2E2E2E2E2E2E2E2E2E2E2E2E2E2E2E2E2E2
310
E2E2E2E2E2E2E2E2E2E2E2E2E2E2E2E2E2E2E2E2E2E2E2E2E2E2E2E2E2E2E2E2E2E2E2E2E2E2E2E2E2E2E2E2E2E2E2E2E2E2E2E2E2E2E2E2E2E2E2E2E2E2E2E2E2E2E2E2E2E2E2E2E2E2E2E2E2E2E2E2E2E2E2E2E2E2E2E2E2E2E2E2E2E2E2E2E2E2E2E2E2E2E2E2E2E2E2E2E2E2E2E2E2E2E2E2E2E2E2E2E2E2E2E2E2E2E2
310
F5E2F5F5EFF5E2F5E2E2E2E2E2E2E2E2E2E2E2E2E2E2E2E2E2E2E2E2E2E2E2E2E2E2E2E2E2E2E2E2E2E2E2E2E2E2E2E2E2E2E2E2E2E2E2E2E2E2E2E2E2E2E2E2E2E2E2E2E2E2E2E2E2E2E2E2E2E2E2E2E2E2E2E2E2E2E2E2E2E2E2E2E2E2E2E2E2E2E2E2E2E2E2E2E2E2E2E2E2E2E2E2E2E2E2E2E2E2E2E2E2E2E2E2E2E2E2
310
E2E2E2E2E2E2E2E2E2E2E2E2E2E2E2E2E2E2E2E2E2E2E2E2E2E2E2E2E2E2E2E2E2E2E2E2E2E2E2E2E2E2E2E2E2E2E2E2E2E2E2E2E2F5E2F5F5EFF5E2E2E2E2E2E2E2E2E2E2E2E2E2E2E2E2E2E2E2E2E2E2E2E2E2E2E2E2E2E2E2E2E2E2E2E2E2E2E2E2E2E2E2E2E2E2E2E2E2E2E2E2E2E2E2E2E2E2E2E2E2E2E2E2E2E2E2E2
310
E2E2E2E2E2E2E2E2E2E2E2E2E2E2E2E2E2E2E2E2E2E2E2E2E2E2E2E2E2E2E2E2E2E2E2E2E2E2E2E2E2E2E2E2E2E2E2E2E2E2E2E2E2E2E2E2E2E2E2E2E2E2E2E2E2E2E2E2E2E2E2E2E2E2E2E2E2E2E2E2E2E2E2E2E2E2E2E2E2E2E2E2E2E2E2E2E2E2E2E2E2E2E2E2E2E2E2E2F5F5EFF5E2E2E2E2E2E2E2E2E2E2E2E2E2E2E2
310
E2E2E2E2E2E2E2E2E2E2E2E2E2E2E2E2E2E2E2E2E2E2E2E2E2E2E2E2E2E2E2E2E2E2E2E2E2E2E2E2E2E2E2E2E2E2E2E2E2E2E2E2E2E2E2E2E2E2E2E2E2E2E2E2E2E2E2E2E2E2E2E2E2E2E2E2E2E2E2E2E2E2E2E2E2E2E2E2E2E2E2E2E2E2E2E2E2E2E2E2E2E2E2E2E2E2E2E2E2E2E2E2E2E2E2E2E2E2E2E2E2E2E2E2E2E2E2
310
E2E2E2E2E2E2E2E2E2E2E2E2E2E2E2E2E2E2E2E2E2E2E2E2E2E2E2E2E2E2E2E2E2E2F5F5EFF5E2E2E2E2E2E2E2E2E2E2E2E2E2E2E2E2E2E2E2E2E2E2E2E2E2E2E2E2E2E2E2E2E2E2E2E2E2E2E2E2E2E2E2E2E2E2E2E2E2E2E2E2E2E2E2E2E2E2E2E2E2E2E2E2E2E2E2E2E2E2E2E2E2E2E2E2E2E2E2E2E2E2E2E2E2E2E2E2E2
310
E2E2E2E2E2E2E2E2E2E2E2E2E2E2E2E2E2E2E2E2E2E2E2E2E2E2E2E2E2E2E2E2E2E2E2E2E2E2E2E2E2E2E2E2E2E2E2E2E2E2E2E2E2E2E2E2E2E2E2E2E2E2E2E2E2E2E2E2E2E2E2E2E2E2E2E2E2E2E2E2E2E2E2E2E2E2E2F5F5EFF5E2E2E2E2E2E2E2E2E2E2E2E2E2E2E2E2E2E2E2E2E2E2E2E2E2E2E2E2E2E2E2E2E2E2E2E2
310
E2E2E2E2E2E2E2E2E2E2E2E2E2E2E2E2E2E2E2E2E2E2E2E2E2E2E2E2E2E2E2E2E2E2E2E2E2E2E2E2E2E2E2E2E2E2E2E2E2E2E2E2E2E2E2E2E2E2E2E2E2E2E2E2E2E2E2E2E2E2E2E2E2E2E2E2E2E2E2E2E2E2E2E2E2E2E2E2E2E2E2E2E2E2E2E2E2E2E2E2E2E2E2E2E2E2E2E2E2E2E2E2E2E2E2E2E2E2E2E2E2E2E2E2E2E2E2
310
E2E2E2E2E2E2E2E2E2E2E2E2E2F5F5EFF5E2E2E2E2E2E2E2E2E2E2E2E2E2E2E2E2E2E2E2E2E2E2E2E2E2E2E2E2E2E2E2E2E2E2E2E2E2E2E2E2E2E2E2E2E2E2E2E2E2E2E2E2E2E2E2E2E2E2E2E2E2E2E2E2E2E2E2E2E2E2E2E2E2E2E2E2E2E2E2E2E2E2E2E2E2E2E2E2E2E2E2E2E2E2E2E2E2E2E2E2E2E2E2E2E2E2E2E2E2E2
310
E2E2E2E2E2E2E2E2E2E2E2E2E2E2E2E2E2E2E2E2E2E2E2E2E2E2E2E2E2E2E2E2E2E2E2E2E2E2E2E2E2E2E2E2E2E2E2E2E2E2E2E2E2E2E2E2E2E2E2E2E2E2E2E2E2E2F5F5EFF5E2E2E2E2E2E2E2E2E2E2E2E2E2E2E2E2E2E2E2E2E2E2E2E2E2E2E2E2E2E2E2E2E2E2E2E2E2E2E2E2E2E2E2E2E2E2E2E2E2E2E2E2E2E2E2E2E2
310
E2E2E2E2E2E2E2E2E2E2E2E2E2E2E2E2E2E2E2E2E2E2E2E2E2E2E2E2E2E2E2E2E2E2E2E2E2E2E2E2E2E2E2E2E2E2E2E2E2E2E2E2E2E2E2E2E2E2E2E2E2E2E2E2E2E2E2E2E2E2E2E2E2E2E2E2E2E2E2E2E2E2E2E2E2E2E2E2E2E2E2E2E2E2E2E2E2E2E2E2E2E2E2E2E2E2E2E2E2E2E2E2E2E2E2E2E2E2E2F5F5EFF5E2E2E2E2
310
E2E2E2E2E2E2E2E2E2E2E2E2E2E2E2E2E2E2E2E2E2E2E2E2E2E2E2E2E2E2E2E2E2E2E2E2E2E2E2E2E2E2E2E2E2E2E2E2E2E2E2E2E2E2E2E2E2E2E2E2E2E2E2E2E2E2E2E2E2E2E2E2E2E2E2E2E2E2E2E2E2E2E2E2E2E2E2E2E2E2E2E2E2E2E2E2E2E2E2E2E2E2E2E2E2E2E2E2E2E2E2E2E2E2E2E2E2E2E2E2E2E2E2E2E2E2E2
310
E2E2E2E2E2E2E2E2E2E2E2E2E2E2E2E2E2E2E2E2E2E2E2E2E2E2E2E2E2E2E2E2E2E2E2E2E2E2E2E2E2E2E2E2E2F5F5EFF5E2E2E2E2E2E2E2E2E2E2E2E2E2E2E2E2E2E2E2E2E2E2E2E2E2E2E2E2E2E2E2E2E2E2E2E2E2E2E2E2E2E2E2E2E2E2E2E2E2E2E2E2E2E2E2E2E2E2E2E2E2E2E2E2E2E2E2E2E2E2E2E2E2E2E2E2E2E2
310
E2E2E2E2E2E2E2E2E2E2E2E2E2E2E2E2E2E2E2E2E2E2E2E2E2E2E2E2E2E2E2E2E2E2E2E2E2E2E2E2E2E2E2E2E2E2E2E2E2E2E2E2E2E2E2E2E2E2E2E2E2E2E2E2E2E2E2E2E2E2E2E2E2E2E2E2E2E2E2E2E2E2E2E2E2E2E2E2E2E2E2E2E2E2E2E2E2E2F5F5EFF5E2E2E2E2E2E2E2E2E2E2E2E2E2E2E2E2E2E2E2E2E2E2E2E2E2
310
E2E2E2E2E2E2E2E2E2E2E2E2E2E2E2E2E2E2E2E2E2E2E2E2E2E2E2E2E2E2E2E2E2E2E2E2E2E2E2E2E2E2E2E2E2E2E2E2E2E2E2E2E2E2E2E2E2E2E2E2E2E2E2E2E2E2E2E2E2E2E2E2E2E2E2E2E2E2E2E2E2E2E2E2E2E2E2E2E2E2E2E2E2E2E2E2E2E2E2E2E2E2E2E2E2E2E2E2E2E2E2E2E2E2E2E2E2E2E2E2E2E2E2E2E2E2E2
310
E2E2E2E2E2E2E2E2E2E2E2E2E2E2E2E2E2E2E2E2E2E2E2E2F5F5EFF5E2F5E2E2E2E2E2E2E2E2E2E2E2E2E2E2E2E2E2E2E2E2E2E2E2E2E2E2E2E2E2E2E2E2E2E2E2E2E2E2E2E2E2E2E2E2E2E2E2E2E2E2E2E2E2E2E2E2E2E2E2E2E2E2E2E2E2E2E2E2E2E2E2E2E2E2E2E2E2E2E2E2E2E2E2E2E2E2E2E2E2E2E2E2E2E2E2E2E2
310
E2E2E2E2E2E2E2E2E2E2E2E2E2E2E2E2E2E2E2E2E2E2E2E2E2E2E2E2E2E2E2E2E2E2E2E2E2E2E2E2E2E2E2E2E2E2E2E2E2E2E2E2E2E2E2E2E2E2E2E2E2E2E2E2E2E2E2E2E2E2E2E2E2E2E2F5E2F5F5EFF5E2F5E2E2E2E2E2E2E2E2E2E2E2E2E2E2E2E2E2E2E2E2E2E2E2E2E2E2E2E2E2E2E2E2E2E2E2E2E2E2E2E2E2E2E2E2
310
E2E2E2E2E2E2E2E2E2E2E2E2E2E2E2E2E2E2E2E2E2E2E2E2E2E2E2E2E2E2E2E2E2E2E2E2E2E2E2E2E2E2E2E2E2E2E2E2E2E2E2E2E2E2E2E2E2E2E2E2E2E2E2E2E2E2E2E2E2E2E2E2E2E2E2E2E2E2E2E2E2E2E2E2E2E2E2E2E2E2E2E2E2E2E2E2E2E2E2E2E2E2E2E2E2E2E2E2E2E2E2E2E2E2E2E2E2E2E2E2E2E2E2E2E2E2E2
310
E2F5E2F5F5EFF5E2F5E2E2E2E2E2E2E2E2E2E2E2E2E2E2E2E2E2E2E2E2E2E2E2E2E2E2E2E2E2E2E2E2E2E2E2E2E2E2E2E2E2E2E2E2E2E2E2E2E2E2E2E2E2E2E2E2E2E2E2E2E2E2E2E2E2E2E2E2E2E2E2E2E2E2E2E2E2E2E2E2E2E2E2E2E2E2E2E2E2E2E2E2E2E2E2E2E2E2E2E2E2E2E2E2E2E2E2E2E2E2E2E2E2E2E2E2E2E2
310
E2E2E2E2E2E2E2E2E2E2E2E2E2E2E2E2E2E2E2E2E2E2E2E2E2E2E2E2E2E2E2E2E2E2E2E2E2E2E2E2E2E2E2E2E2E2E2E2E2E2E2E2E2E2F5E2F5F5EFF5E2F5E2E2E2E2E2E2E2E2E2E2E2E2E2E2E2E2E2E2E2E2E2E2E2E2E2E2E2E2E2E2E2E2E2E2E2E2E2E2E2E2E2E2E2E2E2E2E2E2E2E2E2E2E2E2E2E2E2E2E2E2E2E2E2E2E2
310
E2E2E2E2E2E2E2E2E2E2E2E2E2E2E2E2E2E2E2E2E2E2E2E2E2E2E2E2E2E2E2E2E2E2E2E2E2E2E2E2E2E2E2E2E2E2E2E2E2E2E2E2E2E2E2E2E2E2E2E2E2E2E2E2E2E2E2E2E2E2E2E2E2E2E2E2E2E2E2E2E2E2E2E2E2E2E2E2E2E2E2E2E2E2E2E2E2E2E2E2E2E2E2E2E2E2E2F5E2F5F5EFF5E2F5E2E2E2E2E2E2E2E2E2E2E2E2
310
E2E2E2E2E2E2E2E2E2E2E2E2E2E2E2E2E2E2E2E2E2E2E2E2E2E2E2E2E2E2E2E2E2E2E2E2E2E2E2E2E2E2E2E2E2E2E2E2E2E2E2E2E2E2E2E2E2E2E2E2E2E2E2E2E2E2E2E2E2E2E2E2E2E2E2E2E2E2E2E2E2E2E2E2E2E2E2E2E2E2E2E2E2E2E2E2E2E2E2E2E2E2E2E2E2E2E2E2E2E2E2E2E2E2E2E2E2E2E2E2E2E2E2E2E2E2E2
310
E2E2E2E2E2E2E2E2E2E2E2E2E2E2E2E2E2E2E2E2E2E2E2E2E2E2E2E2E2E2E2E2E2F5E2F5F5EFF5E2F5E2E2E2E2E2E2E2E2E2E2E2E2E2E2E2E2E2E2E2E2E2E2E2E2E2E2E2E2E2E2E2E2E2E2E2E2E2E2E2E2E2E2E2E2E2E2E2E2E2E2E2E2E2E2E2E2E2E2E2E2E2E2E2E2E2E2E2E2E2E2E2E2E2E2E2E2E2E2E2E2E2E2E2E2E2E2
310
E2E2E2E2E2E2E2E2E2E2E2E2E2E2E2E2E2E2E2E2E2E2E2E2E2E2E2E2E2E2E2E2E2E2E2E2E2E2E2E2E2E2E2E2E2E2E2E2E2E2E2E2E2E2E2E2E2E2E2E2E2E2E2E2E2E2E2E2E2E2E2E2E2E2E2E2E2E2E2E2E2E2E2E2E2E2F5E2F5F5EFF5E2F5E2E2E2E2E2E2E2E2E2E2E2E2E2E2E2E2E2E2E2E2E2E2E2E2E2E2E2E2E2E2E2E2E2
310
E2E2E2E2E2E2E2E2E2E2E2E2E2E2E2E2E2E2E2E2E2E2E2E2E2E2E2E2E2E2E2E2E2E2E2E2E2E2E2E2E2E2E2E2E2E2E2E2E2E2E2E2E2E2E2E2E2E2E2E2E2E2E2E2E2E2E2E2E2E2E2E2E2E2E2E2E2E2E2E2E2E2E2E2E2E2E2E2E2E2E2E2E2E2E2E2E2E2E2E2E2E2E2E2E2E2E2E2E2E2E2E2E2E2E2E2E2E2E2E2E2E2E2E2E2E2E2
310
E2E2E2E2E2E2E2E2E2E2E2E2F5E2F5F5EFF5E2F5F5F5F5F5F5F5F5E2E2E2E2E2E2E2E2E2F5F5F5F5F5F5F5F5F5F5F5F5F5F5F5F5E2E2E2E2E2E2E2E2E2F5F5F5F5F5F5F5F5F5F5F5F5F5F5F5F5E2E2E2E2E2E2E2E2E2F5F5F5F5F5F5F5F5F5F5F5F5F5F5F5F5E2E2E2E2E2E2E2E2F5F5F5F5F5F5F5F5F5F5F5F5F5F5F5F5E2
310
E2E2E2E2E2E2E2E2F5F5F5F5F5F5F5F5F5F5F5F5F5F5F5F5E2E2E2E2E2E2E2E2E2F5F5F5F5F5F5F5F5F5F5F5F5F5F5F5F5E2E2E2E2E2E2E2E2E2F5F5F5F5F5F5F5F5E2F5F5EFF5E2E2E2E2E2E2E2E2E2E2E2E2E2E2E2E2E2E2E2E2E2E2E2E2E2E2E2E2E2E2E2E2E2E2E2E2E2E2E2E2E2E2E2E2E2E2E2E2E2E2E2E2E2E2E2E2
310
E2E2E2E2E2E2E2E2E2E2E2E2E2E2E2E2E2E2E2E2E2E2E2E2E2E2E2E2E2E2E2E2E2E2E2E2E2E2E2E2E2E2E2E2E2E2E2E2E2E2E2E2E2E2E2E2E2E2E2E2E2E2E2E2E2E2E2E2E2E2E2E2E2E2E2E2E2E2E2E2E2E2E2E2E2E2E2E2E2E2E2E2E2E2E2E2E2E2E2E2E2E2E2E2E2E2E2E2E2E2E2E2E2E2E2E2E2E2E2E2F5EFEFF5F5F5F5
310
F5F5F5F5F5F5F5F5F5F5F5F5F5F5F5F5F5F5F5F5F5F5F5F5F5F5F5F5F5F5F5F5F5F5F5F5F5F5F5F5F5F5F5F5F5F5F5F5F5F5F5F5F5F5F5F5F5F5F5F5F5F5F5F5F5F5F5F5F5F5F5F5F5F5F5F5F5F5F5F5F5F5F5F5F5F5F5F5F5F5F5F5F5F5F5F5F5F5F5F5F5F5F5F5F5F5F5F5F5F5F5F5F5F5F5F5F5F5F5F5F5F5F5F5F5F5F5
310
F5F5F5F5F5F5F5F5F5F5F5F5F5F5F5F5F5F5F5F5F5F5F5F5F5F5F5F5F5F5F5F5F5F5F5F5F5F5F5F5F5F5F5F5F5F5F5EF
  0
ENDSEC
  0
EOF
