  0
SECTION
  2
HEADER
  9
$ACADVER
  1
AC1018
  9
$ACADMAINTVER
 70
     0
  9
$DWGCODEPAGE
  3
ANSI_932
  9
$LASTSAVEDBY
  1
otat
  9
$INSBASE
 10
0.0
 20
0.0
 30
0.0
  9
$EXTMIN
 10
-90.31255759987175
 20
-111.6812463972601
 30
0.0
  9
$EXTMAX
 10
3959.294109081543
 20
2688.052086920791
 30
0.0
  9
$LIMMIN
 10
0.0
 20
0.0
  9
$LIMMAX
 10
12.0
 20
9.0
  9
$ORTHOMODE
 70
     1
  9
$REGENMODE
 70
     1
  9
$FILLMODE
 70
     1
  9
$QTEXTMODE
 70
     0
  9
$MIRRTEXT
 70
     1
  9
$LTSCALE
 40
5.08
  9
$ATTMODE
 70
     1
  9
$TEXTSIZE
 40
0.2
  9
$TRACEWID
 40
1.0
  9
$TEXTSTYLE
  7
STANDARD
  9
$CLAYER
  8
一般
  9
$CELTYPE
  6
ByLayer
  9
$CECOLOR
 62
   256
  9
$CELTSCALE
 40
1.0
  9
$DISPSILH
 70
     0
  9
$DIMSCALE
 40
1.0
  9
$DIMASZ
 40
2.24482421875
  9
$DIMEXO
 40
1.5875
  9
$DIMDLI
 40
10.16
  9
$DIMRND
 40
0.0
  9
$DIMDLE
 40
1.5875
  9
$DIMEXE
 40
3.175
  9
$DIMTP
 40
0.0
  9
$DIMTM
 40
0.0
  9
$DIMTXT
 40
2.171788744601404
  9
$DIMCEN
 40
0.0
  9
$DIMTSZ
 40
0.0
  9
$DIMTOL
 70
     0
  9
$DIMLIM
 70
     0
  9
$DIMTIH
 70
     0
  9
$DIMTOH
 70
     0
  9
$DIMSE1
 70
     0
  9
$DIMSE2
 70
     0
  9
$DIMTAD
 70
     1
  9
$DIMZIN
 70
     8
  9
$DIMBLK
  1
VW_SLASH
  9
$DIMASO
 70
     1
  9
$DIMSHO
 70
     1
  9
$DIMPOST
  1
<>
  9
$DIMAPOST
  1
[]
  9
$DIMALT
 70
     0
  9
$DIMALTD
 70
     3
  9
$DIMALTF
 40
0.0393700787401575
  9
$DIMLFAC
 40
1.0
  9
$DIMTOFL
 70
     1
  9
$DIMTVP
 40
0.0
  9
$DIMTIX
 70
     1
  9
$DIMSOXD
 70
     0
  9
$DIMSAH
 70
     0
  9
$DIMBLK1
  1
VW_SLASH
  9
$DIMBLK2
  1
VW_SLASH
  9
$DIMSTYLE
  2
Arch
  9
$DIMCLRD
 70
     0
  9
$DIMCLRE
 70
     0
  9
$DIMCLRT
 70
     0
  9
$DIMTFAC
 40
1.0
  9
$DIMGAP
 40
1.5875
  9
$DIMJUST
 70
     0
  9
$DIMSD1
 70
     0
  9
$DIMSD2
 70
     0
  9
$DIMTOLJ
 70
     1
  9
$DIMTZIN
 70
     8
  9
$DIMALTZ
 70
     8
  9
$DIMALTTZ
 70
     8
  9
$DIMUPT
 70
     0
  9
$DIMDEC
 70
     0
  9
$DIMTDEC
 70
     0
  9
$DIMALTU
 70
     4
  9
$DIMALTTD
 70
     2
  9
$DIMTXSTY
  7
ＭＳ ゴシック
  9
$DIMAUNIT
 70
     0
  9
$DIMADEC
 70
     2
  9
$DIMALTRND
 40
0.0
  9
$DIMAZIN
 70
     0
  9
$DIMDSEP
 70
    46
  9
$DIMATFIT
 70
     0
  9
$DIMFRAC
 70
     2
  9
$DIMLDRBLK
  1
VW_FILLEDARROW
  9
$DIMLUNIT
 70
     2
  9
$DIMLWD
 70
    -2
  9
$DIMLWE
 70
    -2
  9
$DIMTMOVE
 70
     0
  9
$LUNITS
 70
     2
  9
$LUPREC
 70
     4
  9
$SKETCHINC
 40
0.1
  9
$FILLETRAD
 40
0.5
  9
$AUNITS
 70
     0
  9
$AUPREC
 70
     0
  9
$MENU
  1
.
  9
$ELEVATION
 40
0.0
  9
$PELEVATION
 40
0.0
  9
$THICKNESS
 40
0.0
  9
$LIMCHECK
 70
     0
  9
$CHAMFERA
 40
0.5
  9
$CHAMFERB
 40
0.5
  9
$CHAMFERC
 40
1.0
  9
$CHAMFERD
 40
0.0
  9
$SKPOLY
 70
     0
  9
$TDCREATE
 40
2457471.45499044
  9
$TDUCREATE
 40
2457471.07999044
  9
$TDUPDATE
 40
2457851.48815853
  9
$TDUUPDATE
 40
2457851.11315853
  9
$TDINDWG
 40
0.0023638657
  9
$TDUSRTIMER
 40
2457851.112525938
  9
$USRTIMER
 70
     1
  9
$ANGBASE
 50
0.0
  9
$ANGDIR
 70
     0
  9
$PDMODE
 70
     1
  9
$PDSIZE
 40
-2.0
  9
$PLINEWID
 40
0.0
  9
$SPLFRAME
 70
     0
  9
$SPLINETYPE
 70
     6
  9
$SPLINESEGS
 70
     8
  9
$HANDSEED
  5
967
  9
$SURFTAB1
 70
     6
  9
$SURFTAB2
 70
     6
  9
$SURFTYPE
 70
     6
  9
$SURFU
 70
     6
  9
$SURFV
 70
     6
  9
$UCSBASE
  2

  9
$UCSNAME
  2

  9
$UCSORG
 10
0.0
 20
0.0
 30
0.0
  9
$UCSXDIR
 10
1.0
 20
0.0
 30
0.0
  9
$UCSYDIR
 10
0.0
 20
1.0
 30
0.0
  9
$UCSORTHOREF
  2

  9
$UCSORTHOVIEW
 70
     0
  9
$UCSORGTOP
 10
0.0
 20
0.0
 30
0.0
  9
$UCSORGBOTTOM
 10
0.0
 20
0.0
 30
0.0
  9
$UCSORGLEFT
 10
0.0
 20
0.0
 30
0.0
  9
$UCSORGRIGHT
 10
0.0
 20
0.0
 30
0.0
  9
$UCSORGFRONT
 10
0.0
 20
0.0
 30
0.0
  9
$UCSORGBACK
 10
0.0
 20
0.0
 30
0.0
  9
$PUCSBASE
  2

  9
$PUCSNAME
  2

  9
$PUCSORG
 10
0.0
 20
0.0
 30
0.0
  9
$PUCSXDIR
 10
1.0
 20
0.0
 30
0.0
  9
$PUCSYDIR
 10
0.0
 20
1.0
 30
0.0
  9
$PUCSORTHOREF
  2

  9
$PUCSORTHOVIEW
 70
     0
  9
$PUCSORGTOP
 10
0.0
 20
0.0
 30
0.0
  9
$PUCSORGBOTTOM
 10
0.0
 20
0.0
 30
0.0
  9
$PUCSORGLEFT
 10
0.0
 20
0.0
 30
0.0
  9
$PUCSORGRIGHT
 10
0.0
 20
0.0
 30
0.0
  9
$PUCSORGFRONT
 10
0.0
 20
0.0
 30
0.0
  9
$PUCSORGBACK
 10
0.0
 20
0.0
 30
0.0
  9
$USERI1
 70
     0
  9
$USERI2
 70
     0
  9
$USERI3
 70
     0
  9
$USERI4
 70
     0
  9
$USERI5
 70
     0
  9
$USERR1
 40
0.0
  9
$USERR2
 40
0.0
  9
$USERR3
 40
0.0
  9
$USERR4
 40
0.0
  9
$USERR5
 40
0.0
  9
$WORLDVIEW
 70
     1
  9
$SHADEDGE
 70
     3
  9
$SHADEDIF
 70
    70
  9
$TILEMODE
 70
     1
  9
$MAXACTVP
 70
    64
  9
$PINSBASE
 10
0.0
 20
0.0
 30
0.0
  9
$PLIMCHECK
 70
     0
  9
$PEXTMIN
 10
1.000000000000000E+20
 20
1.000000000000000E+20
 30
1.000000000000000E+20
  9
$PEXTMAX
 10
-1.000000000000000E+20
 20
-1.000000000000000E+20
 30
-1.000000000000000E+20
  9
$PLIMMIN
 10
-20.0
 20
-7.5
  9
$PLIMMAX
 10
277.0
 20
202.5
  9
$UNITMODE
 70
     0
  9
$VISRETAIN
 70
     1
  9
$PLINEGEN
 70
     0
  9
$PSLTSCALE
 70
     1
  9
$TREEDEPTH
 70
  3020
  9
$CMLSTYLE
  2
Standard
  9
$CMLJUST
 70
     0
  9
$CMLSCALE
 40
1.0
  9
$PROXYGRAPHICS
 70
     1
  9
$MEASUREMENT
 70
     1
  9
$CELWEIGHT
370
    -1
  9
$ENDCAPS
280
     0
  9
$JOINSTYLE
280
     0
  9
$LWDISPLAY
290
     1
  9
$INSUNITS
 70
     4
  9
$HYPERLINKBASE
  1

  9
$STYLESHEET
  1

  9
$XEDIT
290
     1
  9
$CEPSNTYPE
380
     0
  9
$PSTYLEMODE
290
     1
  9
$FINGERPRINTGUID
  2
{70B7EBD9-0E45-419C-9C07-57DCDF6CE115}
  9
$VERSIONGUID
  2
{FAEB1C32-E019-11D5-929B-00C0DF256EC4}
  9
$EXTNAMES
290
     1
  9
$PSVPSCALE
 40
0.0
  9
$OLESTARTUP
290
     0
  9
$SORTENTS
280
   127
  9
$INDEXCTL
280
     0
  9
$HIDETEXT
280
     1
  9
$XCLIPFRAME
290
     0
  9
$HALOGAP
280
     0
  9
$OBSCOLOR
 70
   257
  9
$OBSLTYPE
280
     0
  9
$INTERSECTIONDISPLAY
280
     0
  9
$INTERSECTIONCOLOR
 70
   257
  9
$DIMASSOC
280
     2
  9
$PROJECTNAME
  1

  0
ENDSEC
  0
SECTION
  2
CLASSES
  0
CLASS
  1
ACDBDICTIONARYWDFLT
  2
AcDbDictionaryWithDefault
  3
ObjectDBX Classes
 90
        0
 91
       16
280
     0
281
     0
  0
CLASS
  1
VISUALSTYLE
  2
AcDbVisualStyle
  3
ObjectDBX Classes
 90
     4095
 91
       16
280
     0
281
     0
  0
CLASS
  1
MATERIAL
  2
AcDbMaterial
  3
ObjectDBX Classes
 90
     1153
 91
       16
280
     0
281
     0
  0
CLASS
  1
SUN
  2
AcDbSun
  3
SCENEOE
 90
     1153
 91
       16
280
     0
281
     0
  0
CLASS
  1
WIPEOUTVARIABLES
  2
AcDbWipeoutVariables
  3
WipeOut|AutoCAD Express Tool|expresstools@autodesk.com
 90
        0
 91
       16
280
     0
281
     0
  0
CLASS
  1
WIPEOUT
  2
AcDbWipeout
  3
WipeOut|AutoCAD Express Tool|expresstools@autodesk.com
 90
      127
 91
       16
280
     0
281
     1
  0
CLASS
  1
SCALE
  2
AcDbScale
  3
ObjectDBX Classes
 90
     1153
 91
       16
280
     0
281
     0
  0
CLASS
  1
DICTIONARYVAR
  2
AcDbDictionaryVar
  3
ObjectDBX Classes
 90
        0
 91
       16
280
     0
281
     0
  0
CLASS
  1
TABLESTYLE
  2
AcDbTableStyle
  3
ObjectDBX Classes
 90
     4095
 91
       16
280
     0
281
     0
  0
CLASS
  1
MLEADERSTYLE
  2
AcDbMLeaderStyle
  3
ACDB_MLEADERSTYLE_CLASS
 90
     4095
 91
       16
280
     0
281
     0
  0
CLASS
  1
RASTERVARIABLES
  2
AcDbRasterVariables
  3
ISM
 90
        0
 91
       16
280
     0
281
     0
  0
CLASS
  1
CELLSTYLEMAP
  2
AcDbCellStyleMap
  3
ObjectDBX Classes
 90
     1152
 91
       15
280
     0
281
     0
  0
ENDSEC
  0
SECTION
  2
TABLES
  0
TABLE
  2
VPORT
  5
8
330
0
100
AcDbSymbolTable
 70
     1
  0
VPORT
  5
29
330
8
100
AcDbSymbolTableRecord
100
AcDbViewportTableRecord
  2
*Active
 70
     0
 10
0.0
 20
0.0
 11
1.0
 21
1.0
 12
2759.909733328633
 22
1190.794533729458
 13
0.0
 23
0.0
 14
0.5
 24
0.5
 15
0.5
 25
0.5
 16
0.0
 26
0.0
 36
1.0
 17
0.0
 27
0.0
 37
0.0
 40
3259.31857027817
 41
2.201133144475921
 42
2000.0
 43
0.0
 44
0.0
 50
0.0
 51
0.0
 71
    16
 72
   100
 73
     1
 74
     3
 75
     0
 76
     0
 77
     0
 78
     0
281
     0
 65
     1
110
0.0
120
0.0
130
0.0
111
1.0
121
0.0
131
0.0
112
0.0
122
1.0
132
0.0
 79
     0
146
0.0
  0
ENDTAB
  0
TABLE
  2
LTYPE
  5
5
330
0
100
AcDbSymbolTable
 70
    13
  0
LTYPE
  5
14
330
5
100
AcDbSymbolTableRecord
100
AcDbLinetypeTableRecord
  2
ByBlock
 70
     0
  3

 72
    65
 73
     0
 40
0.0
  0
LTYPE
  5
15
330
5
100
AcDbSymbolTableRecord
100
AcDbLinetypeTableRecord
  2
ByLayer
 70
     0
  3

 72
    65
 73
     0
 40
0.0
  0
LTYPE
  5
16
330
5
100
AcDbSymbolTableRecord
100
AcDbLinetypeTableRecord
  2
Continuous
 70
     0
  3
Solid line
 72
    65
 73
     0
 40
0.0
  0
LTYPE
  5
B2
330
5
100
AcDbSymbolTableRecord
100
AcDbLinetypeTableRecord
  2
ラインタイプ-2
 70
     0
  3

 72
    65
 73
     2
 40
0.694427490234375
 49
0.4860687255859375
 74
     0
 49
-0.2083587646484375
 74
     0
  0
LTYPE
  5
BA
330
5
100
AcDbSymbolTableRecord
100
AcDbLinetypeTableRecord
  2
ISO-02 破線
 70
     0
  3

 72
    65
 73
     2
 40
0.75
 49
0.6
 74
     0
 49
-0.15
 74
     0
  0
ENDTAB
  0
TABLE
  2
LAYER
  5
2
330
0
100
AcDbSymbolTable
 70
    17
  0
LAYER
  5
10
330
2
100
AcDbSymbolTableRecord
100
AcDbLayerTableRecord
  2
0
 70
     0
 62
     7
  6
Continuous
370
    18
390
F
1001
AcCmTransparency
1071
 33554687
  0
LAYER
  5
BB
330
2
100
AcDbSymbolTableRecord
100
AcDbLayerTableRecord
  2
一般
 70
     0
 62
     7
  6
Continuous
370
     5
390
F
1001
AcCmTransparency
1071
 33554687
  0
LAYER
  5
BD
330
2
100
AcDbSymbolTableRecord
100
AcDbLayerTableRecord
  2
寸法
 70
     0
 62
     7
  6
Continuous
370
     5
390
F
1001
AcCmTransparency
1071
 33554687
  0
LAYER
  5
BF
330
2
100
AcDbSymbolTableRecord
100
AcDbLayerTableRecord
  2
3
 70
     0
 62
     7
  6
Continuous
370
    13
390
F
1001
AcCmTransparency
1071
 33554687
  0
LAYER
  5
C1
330
2
100
AcDbSymbolTableRecord
100
AcDbLayerTableRecord
  2
160-文字
 70
     0
 62
     7
  6
Continuous
370
    18
390
F
1001
AcCmTransparency
1071
 33554687
  0
LAYER
  5
C2
330
2
100
AcDbSymbolTableRecord
100
AcDbLayerTableRecord
  2
190-図面外枠
 70
     0
 62
     7
  6
Continuous
370
    18
390
F
1001
AcCmTransparency
1071
 33554687
  0
LAYER
  5
C3
330
2
100
AcDbSymbolTableRecord
100
AcDbLayerTableRecord
  2
191-図面内枠
 70
     0
 62
     7
  6
Continuous
370
    18
390
F
1001
AcCmTransparency
1071
 33554687
  0
LAYER
  5
C7
330
2
100
AcDbSymbolTableRecord
100
AcDbLayerTableRecord
  2
DEFPOINTS
 70
     0
 62
     7
  6
Continuous
290
     0
370
    18
390
F
1001
AcCmTransparency
1071
 33554687
  0
ENDTAB
  0
TABLE
  2
STYLE
  5
3
330
0
100
AcDbSymbolTable
 70
     3
  0
STYLE
  5
11
330
3
100
AcDbSymbolTableRecord
100
AcDbTextStyleTableRecord
  2
STANDARD
 70
     0
 40
0.0
 41
1.0
 50
0.0
 71
     0
 42
0.2
  3
msgothic.ttc
  4

1001
ACAD
1000
MS Gothic
1071
        0
  0
STYLE
  5
AE
330
3
100
AcDbSymbolTableRecord
100
AcDbTextStyleTableRecord
  2
ＭＳ ゴシック
 70
     0
 40
0.0
 41
1.0
 50
0.0
 71
     0
 42
0.0
  3

  4
ＭＳ ゴシック
1001
ACAD
1000
ＭＳ ゴシック
1071
        0
  0
ENDTAB
  0
TABLE
  2
VIEW
  5
6
330
0
100
AcDbSymbolTable
 70
     0
  0
ENDTAB
  0
TABLE
  2
UCS
  5
7
330
0
100
AcDbSymbolTable
 70
     0
  0
ENDTAB
  0
TABLE
  2
APPID
  5
9
330
0
100
AcDbSymbolTable
 70
     3
  0
APPID
  5
12
330
9
100
AcDbSymbolTableRecord
100
AcDbRegAppTableRecord
  2
ACAD
 70
     0
  0
APPID
  5
BC
330
9
100
AcDbSymbolTableRecord
100
AcDbRegAppTableRecord
  2
AcCmTransparency
 70
     0
  0
APPID
  5
8E8
330
9
100
AcDbSymbolTableRecord
100
AcDbRegAppTableRecord
  2
ACAD_MLEADERVER
 70
     0
  0
ENDTAB
  0
TABLE
  2
DIMSTYLE
  5
A
330
0
100
AcDbSymbolTable
 70
     3
100
AcDbDimStyleTable
  0
DIMSTYLE
105
27
330
A
100
AcDbSymbolTableRecord
100
AcDbDimStyleTableRecord
  2
Standard
 70
     0
178
     0
340
11
  0
DIMSTYLE
105
CC
102
{ACAD_REACTORS
330
34A
330
3A7
330
3A8
330
3A9
330
3AA
330
3B1
330
3C5
330
3C6
330
3C7
330
3D1
330
3D2
330
3D3
330
3D5
330
3D6
330
3D7
330
3D8
330
3D9
330
3DD
330
3DE
330
3DF
330
3E0
330
3E2
330
3E3
330
3E4
330
3E5
330
3E6
330
3E7
330
44C
330
4A8
330
4A9
330
4AA
330
4AB
330
4B2
330
4C6
330
4C7
330
4C8
330
4D2
330
4D3
330
4D4
330
4D6
330
4D7
330
4D8
330
4D9
330
4DA
330
4DE
330
4DF
330
4E0
330
4E1
330
4E3
330
4E4
330
4E5
330
4E6
330
4E7
330
4E8
102
}
330
A
100
AcDbSymbolTableRecord
100
AcDbDimStyleTableRecord
  2
ﾏﾉｰﾈ_
 70
     0
  3
<>
  4
[]
 41
0.5007446289062499
 42
2.0
 43
0.0
 44
0.0
 73
     0
 74
     0
 77
     1
 78
     8
140
2.171788744601404
141
0.0
143
0.0393700787401575
147
0.05
171
     3
172
     1
174
     1
178
     0
179
     2
271
     0
272
     0
273
     4
276
     2
284
     8
285
     8
286
     8
289
     0
340
AE
341
CD
342
CD
343
CD
344
CD
  0
DIMSTYLE
105
D5
330
A
100
AcDbSymbolTableRecord
100
AcDbDimStyleTableRecord
  2
Arch
 70
     0
  3
<>
  4
[]
 41
2.24482421875
 42
1.5875
 43
10.16
 44
3.175
 46
1.5875
 73
     0
 74
     0
 77
     1
 78
     8
140
2.171788744601404
141
0.0
143
0.0393700787401575
147
1.5875
171
     3
172
     1
174
     1
178
     0
179
     2
271
     0
272
     0
273
     4
276
     2
284
     8
285
     8
286
     8
289
     0
340
AE
341
DE
342
D6
343
D6
344
D6
  0
ENDTAB
  0
TABLE
  2
BLOCK_RECORD
  5
1
330
0
100
AcDbSymbolTable
 70
    66
  0
BLOCK_RECORD
  5
1F
330
1
100
AcDbSymbolTableRecord
100
AcDbBlockTableRecord
  2
*Model_Space
340
22
  0
BLOCK_RECORD
  5
1B
330
1
100
AcDbSymbolTableRecord
100
AcDbBlockTableRecord
  2
*Paper_Space
340
1E
  0
BLOCK_RECORD
  5
40
330
1
100
AcDbSymbolTableRecord
100
AcDbBlockTableRecord
  2
A$C5D946DDC
340
0
102
{BLKREFS
331
EC
331
67D
102
}
  0
BLOCK_RECORD
  5
CD
330
1
100
AcDbSymbolTableRecord
100
AcDbBlockTableRecord
  2
_DOT
340
0
102
{BLKREFS
331
1F0
331
1F1
331
1F9
331
1FA
331
205
331
206
331
211
331
212
331
21D
331
21E
331
22A
331
22B
331
235
331
236
331
241
331
242
331
24D
331
24E
331
259
331
25A
331
265
331
266
331
271
331
272
331
27D
331
27E
331
289
331
28A
331
295
331
296
331
2A1
331
2A2
331
2AD
331
2AE
331
2B9
331
2BA
331
2C5
331
2C6
331
2D1
331
2D2
331
2DD
331
2DE
331
2E9
331
2EA
331
2F7
331
2F8
331
301
331
302
331
30D
331
30E
331
319
331
31A
331
326
331
327
331
4F4
331
4F5
331
501
331
502
331
50D
331
50E
331
519
331
51A
331
525
331
526
331
532
331
533
331
53E
331
53F
331
54A
331
54B
331
556
331
557
331
562
331
563
331
56E
331
56F
331
57A
331
57B
331
586
331
587
331
592
331
593
331
59E
331
59F
331
5AA
331
5AB
331
5B6
331
5B7
331
5C2
331
5C3
331
5CE
331
5CF
331
5DA
331
5DB
331
5E6
331
5E7
331
5F2
331
5F3
331
600
331
601
331
60C
331
60D
331
618
331
619
331
624
331
625
331
631
331
632
102
}
  0
BLOCK_RECORD
  5
D6
330
1
100
AcDbSymbolTableRecord
100
AcDbBlockTableRecord
  2
VW_SLASH
340
0
  0
BLOCK_RECORD
  5
DE
330
1
100
AcDbSymbolTableRecord
100
AcDbBlockTableRecord
  2
VW_FILLEDARROW
340
0
  0
BLOCK_RECORD
  5
4ED
330
1
100
AcDbSymbolTableRecord
100
AcDbBlockTableRecord
  2
*D39
340
0
  0
BLOCK_RECORD
  5
4FB
330
1
100
AcDbSymbolTableRecord
100
AcDbBlockTableRecord
  2
*D40
340
0
  0
BLOCK_RECORD
  5
507
330
1
100
AcDbSymbolTableRecord
100
AcDbBlockTableRecord
  2
*D41
340
0
  0
BLOCK_RECORD
  5
513
330
1
100
AcDbSymbolTableRecord
100
AcDbBlockTableRecord
  2
*D42
340
0
  0
BLOCK_RECORD
  5
51F
330
1
100
AcDbSymbolTableRecord
100
AcDbBlockTableRecord
  2
*D43
340
0
  0
BLOCK_RECORD
  5
52B
330
1
100
AcDbSymbolTableRecord
100
AcDbBlockTableRecord
  2
*D44
340
0
  0
BLOCK_RECORD
  5
538
330
1
100
AcDbSymbolTableRecord
100
AcDbBlockTableRecord
  2
*D45
340
0
  0
BLOCK_RECORD
  5
544
330
1
100
AcDbSymbolTableRecord
100
AcDbBlockTableRecord
  2
*D46
340
0
  0
BLOCK_RECORD
  5
550
330
1
100
AcDbSymbolTableRecord
100
AcDbBlockTableRecord
  2
*D47
340
0
  0
BLOCK_RECORD
  5
55C
330
1
100
AcDbSymbolTableRecord
100
AcDbBlockTableRecord
  2
*D48
340
0
  0
BLOCK_RECORD
  5
568
330
1
100
AcDbSymbolTableRecord
100
AcDbBlockTableRecord
  2
*D49
340
0
  0
BLOCK_RECORD
  5
574
330
1
100
AcDbSymbolTableRecord
100
AcDbBlockTableRecord
  2
*D50
340
0
  0
BLOCK_RECORD
  5
580
330
1
100
AcDbSymbolTableRecord
100
AcDbBlockTableRecord
  2
*D51
340
0
  0
BLOCK_RECORD
  5
58C
330
1
100
AcDbSymbolTableRecord
100
AcDbBlockTableRecord
  2
*D52
340
0
  0
BLOCK_RECORD
  5
598
330
1
100
AcDbSymbolTableRecord
100
AcDbBlockTableRecord
  2
*D53
340
0
  0
BLOCK_RECORD
  5
5A4
330
1
100
AcDbSymbolTableRecord
100
AcDbBlockTableRecord
  2
*D54
340
0
  0
BLOCK_RECORD
  5
5B0
330
1
100
AcDbSymbolTableRecord
100
AcDbBlockTableRecord
  2
*D55
340
0
  0
BLOCK_RECORD
  5
5BC
330
1
100
AcDbSymbolTableRecord
100
AcDbBlockTableRecord
  2
*D56
340
0
  0
BLOCK_RECORD
  5
5C8
330
1
100
AcDbSymbolTableRecord
100
AcDbBlockTableRecord
  2
*D57
340
0
  0
BLOCK_RECORD
  5
5D4
330
1
100
AcDbSymbolTableRecord
100
AcDbBlockTableRecord
  2
*D58
340
0
  0
BLOCK_RECORD
  5
5E0
330
1
100
AcDbSymbolTableRecord
100
AcDbBlockTableRecord
  2
*D59
340
0
  0
BLOCK_RECORD
  5
5EC
330
1
100
AcDbSymbolTableRecord
100
AcDbBlockTableRecord
  2
*D60
340
0
  0
BLOCK_RECORD
  5
5F8
330
1
100
AcDbSymbolTableRecord
100
AcDbBlockTableRecord
  2
*D61
340
0
  0
BLOCK_RECORD
  5
606
330
1
100
AcDbSymbolTableRecord
100
AcDbBlockTableRecord
  2
*D62
340
0
  0
BLOCK_RECORD
  5
612
330
1
100
AcDbSymbolTableRecord
100
AcDbBlockTableRecord
  2
*D63
340
0
  0
BLOCK_RECORD
  5
61E
330
1
100
AcDbSymbolTableRecord
100
AcDbBlockTableRecord
  2
*D64
340
0
  0
BLOCK_RECORD
  5
62A
330
1
100
AcDbSymbolTableRecord
100
AcDbBlockTableRecord
  2
*D65
340
0
  0
ENDTAB
  0
ENDSEC
  0
SECTION
  2
BLOCKS
  0
BLOCK
  5
20
330
1F
100
AcDbEntity
  8
0
100
AcDbBlockBegin
  2
*Model_Space
 70
     0
 10
0.0
 20
0.0
 30
0.0
  3
*Model_Space
  1
*Model_Space
  0
ENDBLK
  5
21
330
1F
100
AcDbEntity
  8
0
100
AcDbBlockEnd
  0
BLOCK
  5
1C
330
1B
100
AcDbEntity
 67
     1
  8
0
100
AcDbBlockBegin
  2
*Paper_Space
 70
     0
 10
0.0
 20
0.0
 30
0.0
  3
*Paper_Space
  1
*Paper_Space
  0
ENDBLK
  5
1D
330
1B
100
AcDbEntity
 67
     1
  8
0
100
AcDbBlockEnd
  0
BLOCK
  5
41
330
40
100
AcDbEntity
  8
0
100
AcDbBlockBegin
  2
A$C5D946DDC
 70
     0
 10
0.0
 20
0.0
 30
0.0
  3
A$C5D946DDC
  1
A$C5D946DDC
  0
LINE
  5
E7
330
40
100
AcDbEntity
  8
190-図面外枠
 62
     0
100
AcDbLine
 10
9888.788560603352
 20
7699.966666664756
 30
0.0
 11
10901.19022727002
 21
7699.966666664756
 31
0.0
  0
LINE
  5
E8
330
40
100
AcDbEntity
  8
190-図面外枠
 62
     0
100
AcDbLine
 10
10901.19022727002
 20
7699.966666664756
 30
0.0
 11
10901.19022727002
 21
7000.033333331424
 31
0.0
  0
LINE
  5
E9
330
40
100
AcDbEntity
  8
190-図面外枠
 62
     0
100
AcDbLine
 10
10901.19022727002
 20
7000.033333331424
 30
0.0
 11
9888.788560603352
 21
7000.033333331424
 31
0.0
  0
LINE
  5
EA
330
40
100
AcDbEntity
  8
190-図面外枠
 62
     0
100
AcDbLine
 10
9888.788560603352
 20
7000.033333331424
 30
0.0
 11
9888.788560603352
 21
7699.966666664756
 31
0.0
  0
ENDBLK
  5
42
330
40
100
AcDbEntity
  8
0
100
AcDbBlockEnd
  0
BLOCK
  5
CE
330
CD
100
AcDbEntity
  8
0
100
AcDbBlockBegin
  2
_DOT
 70
     0
 10
0.0
 20
0.0
 30
0.0
  3
_DOT
  1
_DOT
  0
POLYLINE
  5
D0
330
CD
100
AcDbEntity
  8
0
  6
ByBlock
 62
     0
100
AcDb2dPolyline
 66
     1
 10
0.0
 20
0.0
 30
0.0
 70
     1
 40
0.5
 41
0.5
  0
VERTEX
  5
D2
330
D0
100
AcDbEntity
  8
0
  6
ByBlock
 62
     0
100
AcDbVertex
100
AcDb2dVertex
 10
-0.25
 20
0.0
 30
0.0
 42
1.0
  0
VERTEX
  5
D3
330
D0
100
AcDbEntity
  8
0
  6
ByBlock
 62
     0
100
AcDbVertex
100
AcDb2dVertex
 10
0.25
 20
0.0
 30
0.0
 42
1.0
  0
SEQEND
  5
D4
330
D0
100
AcDbEntity
  8
0
  6
ByBlock
 62
     0
  0
LINE
  5
D1
330
CD
100
AcDbEntity
  8
0
  6
ByBlock
 62
     0
370
    -2
100
AcDbLine
 10
-0.5
 20
0.0
 30
0.0
 11
-1.0
 21
0.0
 31
0.0
  0
ENDBLK
  5
CF
330
CD
100
AcDbEntity
  8
0
100
AcDbBlockEnd
  0
BLOCK
  5
D7
330
D6
100
AcDbEntity
  8
0
100
AcDbBlockBegin
  2
VW_SLASH
 70
     0
 10
0.0
 20
0.0
 30
0.0
  3
VW_SLASH
  1
VW_SLASH
  0
LINE
  5
D9
330
D6
100
AcDbEntity
  8
0
  6
ByBlock
 62
     0
370
    -2
100
AcDbLine
 10
0.7071823204419889
 20
0.0
 30
0.0
 11
-1.0
 21
0.0
 31
0.0
  0
POLYLINE
  5
DA
330
D6
100
AcDbEntity
  8
0
  6
ISO-02 破線
 62
     0
370
    20
100
AcDb2dPolyline
 66
     1
 10
0.0
 20
0.0
 30
0.0
 70
   128
  0
VERTEX
  5
DB
330
DA
100
AcDbEntity
  8
0
  6
ISO-02 破線
 62
     0
370
    20
100
AcDbVertex
100
AcDb2dVertex
 10
0.5000534143197685
 20
0.5000534143197685
 30
0.0
  0
VERTEX
  5
DC
330
DA
100
AcDbEntity
  8
0
  6
ISO-02 破線
 62
     0
370
    20
100
AcDbVertex
100
AcDb2dVertex
 10
-0.5000534143197685
 20
-0.5000534143197685
 30
0.0
  0
SEQEND
  5
DD
330
DA
100
AcDbEntity
  8
0
  6
ISO-02 破線
 62
     0
370
    20
  0
ENDBLK
  5
D8
330
D6
100
AcDbEntity
  8
0
100
AcDbBlockEnd
  0
BLOCK
  5
DF
330
DE
100
AcDbEntity
  8
0
100
AcDbBlockBegin
  2
VW_FILLEDARROW
 70
     0
 10
0.0
 20
0.0
 30
0.0
  3
VW_FILLEDARROW
  1
VW_FILLEDARROW
  0
POLYLINE
  5
E1
102
{ACAD_REACTORS
330
E6
102
}
330
DE
100
AcDbEntity
  8
0
  6
ISO-02 破線
 62
     0
370
     5
100
AcDb2dPolyline
 66
     1
 10
0.0
 20
0.0
 30
0.0
 70
   129
  0
VERTEX
  5
E2
330
E1
100
AcDbEntity
  8
0
  6
ISO-02 破線
 62
     0
370
     5
100
AcDbVertex
100
AcDb2dVertex
 10
-1.414364640883978
 20
0.3789778633279968
 30
0.0
  0
VERTEX
  5
E3
330
E1
100
AcDbEntity
  8
0
  6
ISO-02 破線
 62
     0
370
     5
100
AcDbVertex
100
AcDb2dVertex
 10
0.0
 20
0.0
 30
0.0
  0
VERTEX
  5
E4
330
E1
100
AcDbEntity
  8
0
  6
ISO-02 破線
 62
     0
370
     5
100
AcDbVertex
100
AcDb2dVertex
 10
-1.414364640883978
 20
-0.3789778633279972
 30
0.0
  0
SEQEND
  5
E5
330
E1
100
AcDbEntity
  8
0
  6
ISO-02 破線
 62
     0
370
     5
  0
HATCH
  5
E6
330
DE
100
AcDbEntity
  8
0
  6
Continuous
 62
     0
370
     0
100
AcDbHatch
 10
0.0
 20
0.0
 30
0.0
210
0.0
220
0.0
230
1.0
  2
SOLID
 70
     1
 71
     1
 91
        1
 92
        1
 93
        3
 72
     1
 10
-1.414364640883978
 20
0.3789778633279968
 11
0.0
 21
0.0
 72
     1
 10
0.0
 20
0.0
 11
-1.414364640883978
 21
-0.3789778633279972
 72
     1
 10
-1.414364640883978
 20
-0.3789778633279972
 11
-1.414364640883978
 21
0.3789778633279968
 97
        1
330
E1
 75
     0
 76
     1
 98
        1
 10
0.0
 20
0.0
  0
ENDBLK
  5
E0
330
DE
100
AcDbEntity
  8
0
100
AcDbBlockEnd
  0
BLOCK
  5
4EE
330
4ED
100
AcDbEntity
  8
0
100
AcDbBlockBegin
  2
*D39
 70
     1
 10
0.0
 20
0.0
 30
0.0
  3
*D39
  1
*D39
  0
LINE
  5
4F0
330
4ED
100
AcDbEntity
  8
寸法
 62
     0
370
    -2
100
AcDbLine
 10
2757.486403225596
 20
754.6023056279146
 30
0.0
 11
1771.6426751384
 21
754.6023056279146
 31
0.0
  0
LINE
  5
4F1
330
4ED
100
AcDbEntity
  8
寸法
 62
     0
370
    -2
100
AcDbLine
 10
1280.90061678797
 20
1083.188092065542
 30
0.0
 11
1494.824603744124
 21
869.2641051093876
 31
0.0
  0
ARC
  5
4F2
330
4ED
100
AcDbEntity
  8
寸法
 62
     0
370
    -2
100
AcDbCircle
 10
1609.486403225597
 20
754.6023056279146
 30
0.0
 40
162.1562719128034
100
AcDbArc
 50
0.176931579096955
 51
58.79506333559337
  0
ARC
  5
4F3
330
4ED
100
AcDbEntity
  8
寸法
 62
     0
370
    -2
100
AcDbCircle
 10
1609.486403225597
 20
754.6023056279146
 30
0.0
 40
162.1562719128034
100
AcDbArc
 50
76.20493666440724
 51
134.823068420903
  0
INSERT
  5
4F4
330
4ED
100
AcDbEntity
  8
寸法
 62
     0
370
    -2
100
AcDbBlockReference
  2
_DOT
 10
1771.6426751384
 20
754.6023056279146
 30
0.0
 41
0.5007446289062499
 42
0.5007446289062499
 43
0.5007446289062499
 50
270.0884657895485
  0
INSERT
  5
4F5
330
4ED
100
AcDbEntity
  8
寸法
 62
     0
370
    -2
100
AcDbBlockReference
  2
_DOT
 10
1494.824603744124
 20
869.2641051093876
 30
0.0
 41
0.5007446289062499
 42
0.5007446289062499
 43
0.5007446289062499
 50
224.9115342104515
  0
MTEXT
  5
4F6
330
4ED
100
AcDbEntity
  8
寸法
 62
     0
100
AcDbMText
 10
1671.732263656897
 20
904.877106082744
 30
0.0
 40
21.71788744601404
 41
0.0
 71
     5
 72
     1
  1
\A1;135%%d 
  7
ＭＳ ゴシック
 11
0.9238795325112891
 21
-0.3826834323650844
 31
0.0
 73
     1
 44
1.0
  0
POINT
  5
4F7
330
4ED
100
AcDbEntity
  8
DEFPOINTS
 62
     0
100
AcDbPoint
 10
1609.486403225597
 20
754.6023056279146
 30
0.0
  0
POINT
  5
4F8
330
4ED
100
AcDbEntity
  8
DEFPOINTS
 62
     0
100
AcDbPoint
 10
2759.486403225596
 20
754.6023056279146
 30
0.0
  0
POINT
  5
4F9
330
4ED
100
AcDbEntity
  8
DEFPOINTS
 62
     0
100
AcDbPoint
 10
1279.486403225597
 20
1084.602305627915
 30
0.0
  0
POINT
  5
4FA
330
4ED
100
AcDbEntity
  8
DEFPOINTS
 62
     0
100
AcDbPoint
 10
1724.14820270707
 20
869.2641051093874
 30
0.0
  0
ENDBLK
  5
4EF
330
4ED
100
AcDbEntity
  8
0
100
AcDbBlockEnd
  0
BLOCK
  5
4FC
330
4FB
100
AcDbEntity
  8
0
100
AcDbBlockBegin
  2
*D40
 70
     1
 10
0.0
 20
0.0
 30
0.0
  3
*D40
  1
*D40
  0
LINE
  5
4FE
330
4FB
100
AcDbEntity
  8
寸法
 62
     0
370
    -2
100
AcDbLine
 10
1157.486403225597
 20
1497.032751623458
 30
0.0
 11
1011.890472273809
 21
1497.032751623458
 31
0.0
  0
LINE
  5
4FF
330
4FB
100
AcDbEntity
  8
寸法
 62
     0
370
    -2
100
AcDbLine
 10
1157.486403225597
 20
2247.032751623458
 30
0.0
 11
1011.890472273809
 21
2247.032751623458
 31
0.0
  0
LINE
  5
500
330
4FB
100
AcDbEntity
  8
寸法
 62
     0
370
    -2
100
AcDbLine
 10
1011.890472273809
 20
1497.533496252364
 30
0.0
 11
1011.890472273809
 21
2246.532006994551
 31
0.0
  0
INSERT
  5
501
330
4FB
100
AcDbEntity
  8
寸法
 62
     0
370
    -2
100
AcDbBlockReference
  2
_DOT
 10
1011.890472273809
 20
1497.032751623458
 30
0.0
 41
0.5007446289062499
 42
0.5007446289062499
 43
0.5007446289062499
 50
270.0
  0
INSERT
  5
502
330
4FB
100
AcDbEntity
  8
寸法
 62
     0
370
    -2
100
AcDbBlockReference
  2
_DOT
 10
1011.890472273809
 20
2247.032751623458
 30
0.0
 41
0.5007446289062499
 42
0.5007446289062499
 43
0.5007446289062499
 50
90.0
  0
MTEXT
  5
503
330
4FB
100
AcDbEntity
  8
寸法
 62
     0
100
AcDbMText
 10
1000.531528388991
 20
1872.032751623458
 30
0.0
 40
21.71788776963578
 41
0.0
 71
     5
 72
     1
  1
\A1;D750
  7
ＭＳ ゴシック
 11
0.0
 21
1.0
 31
0.0
 73
     1
 44
1.0
  0
POINT
  5
504
330
4FB
100
AcDbEntity
  8
DEFPOINTS
 62
     0
100
AcDbPoint
 10
1159.486403225597
 20
1497.032751623458
 30
0.0
  0
POINT
  5
505
330
4FB
100
AcDbEntity
  8
DEFPOINTS
 62
     0
100
AcDbPoint
 10
1159.486403225597
 20
2247.032751623458
 30
0.0
  0
POINT
  5
506
330
4FB
100
AcDbEntity
  8
DEFPOINTS
 62
     0
100
AcDbPoint
 10
1011.890472273809
 20
2247.032751623458
 30
0.0
  0
ENDBLK
  5
4FD
330
4FB
100
AcDbEntity
  8
0
100
AcDbBlockEnd
  0
BLOCK
  5
508
330
507
100
AcDbEntity
  8
0
100
AcDbBlockBegin
  2
*D41
 70
     1
 10
0.0
 20
0.0
 30
0.0
  3
*D41
  1
*D41
  0
LINE
  5
50A
330
507
100
AcDbEntity
  8
寸法
 62
     0
370
    -2
100
AcDbLine
 10
3027.486403225596
 20
595.6023056279146
 30
0.0
 11
2932.835490657667
 21
595.6023056279146
 31
0.0
  0
LINE
  5
50B
330
507
100
AcDbEntity
  8
寸法
 62
     0
370
    -2
100
AcDbLine
 10
3027.486403225596
 20
614.6023056279146
 30
0.0
 11
2932.835490657667
 21
614.6023056279146
 31
0.0
  0
LINE
  5
50C
330
507
100
AcDbEntity
  8
寸法
 62
     0
370
    -2
100
AcDbLine
 10
2932.835490657667
 20
596.1030502568208
 30
0.0
 11
2932.835490657667
 21
614.1015609990084
 31
0.0
  0
INSERT
  5
50D
330
507
100
AcDbEntity
  8
寸法
 62
     0
370
    -2
100
AcDbBlockReference
  2
_DOT
 10
2932.835490657667
 20
595.6023056279146
 30
0.0
 41
0.5007446289062499
 42
0.5007446289062499
 43
0.5007446289062499
 50
270.0
  0
INSERT
  5
50E
330
507
100
AcDbEntity
  8
寸法
 62
     0
370
    -2
100
AcDbBlockReference
  2
_DOT
 10
2932.835490657667
 20
614.6023056279146
 30
0.0
 41
0.5007446289062499
 42
0.5007446289062499
 43
0.5007446289062499
 50
90.0
  0
MTEXT
  5
50F
330
507
100
AcDbEntity
  8
寸法
 62
     0
100
AcDbMText
 10
2918.724379546456
 20
609.7134167390259
 30
0.0
 40
21.71788194444445
 41
0.0
 71
     5
 72
     1
  1
\A1;19
  7
ＭＳ ゴシック
 11
0.0
 21
1.0
 31
0.0
 73
     1
 44
1.0
  0
POINT
  5
510
330
507
100
AcDbEntity
  8
DEFPOINTS
 62
     0
100
AcDbPoint
 10
3029.486403225596
 20
595.6023056279146
 30
0.0
  0
POINT
  5
511
330
507
100
AcDbEntity
  8
DEFPOINTS
 62
     0
100
AcDbPoint
 10
3029.486403225596
 20
614.6023056279146
 30
0.0
  0
POINT
  5
512
330
507
100
AcDbEntity
  8
DEFPOINTS
 62
     0
100
AcDbPoint
 10
2932.835490657667
 20
614.6023056279146
 30
0.0
  0
ENDBLK
  5
509
330
507
100
AcDbEntity
  8
0
100
AcDbBlockEnd
  0
BLOCK
  5
514
330
513
100
AcDbEntity
  8
0
100
AcDbBlockBegin
  2
*D42
 70
     1
 10
0.0
 20
0.0
 30
0.0
  3
*D42
  1
*D42
  0
LINE
  5
516
330
513
100
AcDbEntity
  8
寸法
 62
     0
370
    -2
100
AcDbLine
 10
3027.486403225596
 20
384.6023056279146
 30
0.0
 11
2932.835490657667
 21
384.6023056279146
 31
0.0
  0
LINE
  5
517
330
513
100
AcDbEntity
  8
寸法
 62
     0
370
    -2
100
AcDbLine
 10
3027.486403225596
 20
595.6023056279146
 30
0.0
 11
2932.835490657667
 21
595.6023056279146
 31
0.0
  0
LINE
  5
518
330
513
100
AcDbEntity
  8
寸法
 62
     0
370
    -2
100
AcDbLine
 10
2932.835490657667
 20
385.1030502568208
 30
0.0
 11
2932.835490657667
 21
595.1015609990084
 31
0.0
  0
INSERT
  5
519
330
513
100
AcDbEntity
  8
寸法
 62
     0
370
    -2
100
AcDbBlockReference
  2
_DOT
 10
2932.835490657667
 20
384.6023056279146
 30
0.0
 41
0.5007446289062499
 42
0.5007446289062499
 43
0.5007446289062499
 50
270.0
  0
INSERT
  5
51A
330
513
100
AcDbEntity
  8
寸法
 62
     0
370
    -2
100
AcDbBlockReference
  2
_DOT
 10
2932.835490657667
 20
595.6023056279146
 30
0.0
 41
0.5007446289062499
 42
0.5007446289062499
 43
0.5007446289062499
 50
90.0
  0
MTEXT
  5
51B
330
513
100
AcDbEntity
  8
寸法
 62
     0
100
AcDbMText
 10
2921.476549685445
 20
490.1023056279146
 30
0.0
 40
21.71788194444445
 41
0.0
 71
     5
 72
     1
  1
\A1;211
  7
ＭＳ ゴシック
 11
0.0
 21
1.0
 31
0.0
 73
     1
 44
1.0
  0
POINT
  5
51C
330
513
100
AcDbEntity
  8
DEFPOINTS
 62
     0
100
AcDbPoint
 10
3029.486403225596
 20
384.6023056279146
 30
0.0
  0
POINT
  5
51D
330
513
100
AcDbEntity
  8
DEFPOINTS
 62
     0
100
AcDbPoint
 10
3029.486403225596
 20
595.6023056279146
 30
0.0
  0
POINT
  5
51E
330
513
100
AcDbEntity
  8
DEFPOINTS
 62
     0
100
AcDbPoint
 10
2932.835490657667
 20
595.6023056279146
 30
0.0
  0
ENDBLK
  5
515
330
513
100
AcDbEntity
  8
0
100
AcDbBlockEnd
  0
BLOCK
  5
520
330
51F
100
AcDbEntity
  8
0
100
AcDbBlockBegin
  2
*D43
 70
     1
 10
0.0
 20
0.0
 30
0.0
  3
*D43
  1
*D43
  0
LINE
  5
522
330
51F
100
AcDbEntity
  8
寸法
 62
     0
370
    -2
100
AcDbLine
 10
2761.486403225596
 20
384.6023056279146
 30
0.0
 11
2823.986403225596
 21
384.6023056279146
 31
0.0
  0
LINE
  5
523
330
51F
100
AcDbEntity
  8
寸法
 62
     0
370
    -2
100
AcDbLine
 10
2761.486403225596
 20
754.6023056279146
 30
0.0
 11
2823.986403225596
 21
754.6023056279146
 31
0.0
  0
LINE
  5
524
330
51F
100
AcDbEntity
  8
寸法
 62
     0
370
    -2
100
AcDbLine
 10
2823.986403225596
 20
385.1030502568208
 30
0.0
 11
2823.986403225596
 21
754.1015609990084
 31
0.0
  0
INSERT
  5
525
330
51F
100
AcDbEntity
  8
寸法
 62
     0
370
    -2
100
AcDbBlockReference
  2
_DOT
 10
2823.986403225596
 20
384.6023056279146
 30
0.0
 41
0.5007446289062499
 42
0.5007446289062499
 43
0.5007446289062499
 50
270.0
  0
INSERT
  5
526
330
51F
100
AcDbEntity
  8
寸法
 62
     0
370
    -2
100
AcDbBlockReference
  2
_DOT
 10
2823.986403225596
 20
754.6023056279146
 30
0.0
 41
0.5007446289062499
 42
0.5007446289062499
 43
0.5007446289062499
 50
90.0
  0
MTEXT
  5
527
330
51F
100
AcDbEntity
  8
寸法
 62
     0
100
AcDbMText
 10
2812.627462253374
 20
569.6023056279146
 30
0.0
 40
21.71788194444445
 41
0.0
 71
     5
 72
     1
  1
\A1;SH370
  7
ＭＳ ゴシック
 11
0.0
 21
1.0
 31
0.0
 73
     1
 44
1.0
  0
POINT
  5
528
330
51F
100
AcDbEntity
  8
DEFPOINTS
 62
     0
100
AcDbPoint
 10
2759.486403225596
 20
384.6023056279146
 30
0.0
  0
POINT
  5
529
330
51F
100
AcDbEntity
  8
DEFPOINTS
 62
     0
100
AcDbPoint
 10
2759.486403225596
 20
754.6023056279146
 30
0.0
  0
POINT
  5
52A
330
51F
100
AcDbEntity
  8
DEFPOINTS
 62
     0
100
AcDbPoint
 10
2823.986403225596
 20
754.6023056279146
 30
0.0
  0
ENDBLK
  5
521
330
51F
100
AcDbEntity
  8
0
100
AcDbBlockEnd
  0
BLOCK
  5
52C
330
52B
100
AcDbEntity
  8
0
100
AcDbBlockBegin
  2
*D44
 70
     1
 10
0.0
 20
0.0
 30
0.0
  3
*D44
  1
*D44
  0
LINE
  5
52E
330
52B
100
AcDbEntity
  8
寸法
 62
     0
370
    -2
100
AcDbLine
 10
1376.230882379455
 20
798.1521989892847
 30
0.0
 11
1354.908853024043
 21
819.4742283446963
 31
0.0
  0
LINE
  5
52F
330
52B
100
AcDbEntity
  8
寸法
 62
     0
370
    -2
100
AcDbLine
 10
1438.347453204056
 20
905.7412556494553
 30
0.0
 11
1439.761666766429
 21
904.3270420870822
 31
0.0
  0
LINE
  5
530
330
52B
100
AcDbEntity
  8
寸法
 62
     0
370
    -2
100
AcDbLine
 10
1355.262932946785
 20
819.8283082674386
 30
0.0
 11
1381.878885547713
 21
846.444260868366
 31
0.0
  0
LINE
  5
531
330
52B
100
AcDbEntity
  8
寸法
 62
     0
370
    -2
100
AcDbLine
 10
1439.407586843687
 20
903.9729621643398
 30
0.0
 11
1409.798351076879
 21
874.3637263975322
 31
0.0
  0
INSERT
  5
532
330
52B
100
AcDbEntity
  8
寸法
 62
     0
370
    -2
100
AcDbBlockReference
  2
_DOT
 10
1354.908853024043
 20
819.4742283446963
 30
0.0
 41
0.5007446289062499
 42
0.5007446289062499
 43
0.5007446289062499
 50
225.0
  0
INSERT
  5
533
330
52B
100
AcDbEntity
  8
寸法
 62
     0
370
    -2
100
AcDbBlockReference
  2
_DOT
 10
1439.761666766429
 20
904.3270420870822
 30
0.0
 41
0.5007446289062499
 42
0.5007446289062499
 43
0.5007446289062499
 50
45.0
  0
MTEXT
  5
534
330
52B
100
AcDbEntity
  8
寸法
 62
     0
100
AcDbMText
 10
1395.838618312296
 20
860.4039936329492
 30
0.0
 40
21.71788194444445
 41
0.0
 71
     5
 72
     1
  1
\A1;120
  7
ＭＳ ゴシック
 11
0.7071067811865475
 21
0.7071067811865475
 31
0.0
 73
     1
 44
1.0
  0
POINT
  5
535
330
52B
100
AcDbEntity
  8
DEFPOINTS
 62
     0
100
AcDbPoint
 10
1377.645095941828
 20
796.7379854269116
 30
0.0
  0
POINT
  5
536
330
52B
100
AcDbEntity
  8
DEFPOINTS
 62
     0
100
AcDbPoint
 10
1439.761666766429
 20
904.3270420870822
 30
0.0
  0
POINT
  5
537
330
52B
100
AcDbEntity
  8
DEFPOINTS
 62
     0
100
AcDbPoint
 10
1439.761666766429
 20
904.3270420870822
 30
0.0
  0
ENDBLK
  5
52D
330
52B
100
AcDbEntity
  8
0
100
AcDbBlockEnd
  0
BLOCK
  5
539
330
538
100
AcDbEntity
  8
0
100
AcDbBlockBegin
  2
*D45
 70
     1
 10
0.0
 20
0.0
 30
0.0
  3
*D45
  1
*D45
  0
LINE
  5
53B
330
538
100
AcDbEntity
  8
寸法
 62
     0
370
    -2
100
AcDbLine
 10
2759.486403225596
 20
1066.602305627915
 30
0.0
 11
2759.486403225596
 21
1147.602305627915
 31
0.0
  0
LINE
  5
53C
330
538
100
AcDbEntity
  8
寸法
 62
     0
370
    -2
100
AcDbLine
 10
1609.486403225597
 20
736.6023056279146
 30
0.0
 11
1609.486403225597
 21
1147.602305627915
 31
0.0
  0
LINE
  5
53D
330
538
100
AcDbEntity
  8
寸法
 62
     0
370
    -2
100
AcDbLine
 10
2758.98565859669
 20
1147.602305627915
 30
0.0
 11
1609.987147854503
 21
1147.602305627915
 31
0.0
  0
INSERT
  5
53E
330
538
100
AcDbEntity
  8
寸法
 62
     0
370
    -2
100
AcDbBlockReference
  2
_DOT
 10
2759.486403225596
 20
1147.602305627915
 30
0.0
 41
0.5007446289062499
 42
0.5007446289062499
 43
0.5007446289062499
  0
INSERT
  5
53F
330
538
100
AcDbEntity
  8
寸法
 62
     0
370
    -2
100
AcDbBlockReference
  2
_DOT
 10
1609.486403225597
 20
1147.602305627915
 30
0.0
 41
0.5007446289062499
 42
0.5007446289062499
 43
0.5007446289062499
 50
180.0
  0
MTEXT
  5
540
330
538
100
AcDbEntity
  8
寸法
 62
     0
100
AcDbMText
 10
2184.486403225596
 20
1158.961246600137
 30
0.0
 40
21.71788194444445
 41
0.0
 71
     5
 72
     1
  1
\A1;1150
  7
ＭＳ ゴシック
 73
     1
 44
1.0
  0
POINT
  5
541
330
538
100
AcDbEntity
  8
DEFPOINTS
 62
     0
100
AcDbPoint
 10
2759.486403225596
 20
1064.602305627915
 30
0.0
  0
POINT
  5
542
330
538
100
AcDbEntity
  8
DEFPOINTS
 62
     0
100
AcDbPoint
 10
1609.486403225597
 20
734.6023056279146
 30
0.0
  0
POINT
  5
543
330
538
100
AcDbEntity
  8
DEFPOINTS
 62
     0
100
AcDbPoint
 10
1609.486403225597
 20
1147.602305627915
 30
0.0
  0
ENDBLK
  5
53A
330
538
100
AcDbEntity
  8
0
100
AcDbBlockEnd
  0
BLOCK
  5
545
330
544
100
AcDbEntity
  8
0
100
AcDbBlockBegin
  2
*D46
 70
     1
 10
0.0
 20
0.0
 30
0.0
  3
*D46
  1
*D46
  0
LINE
  5
547
330
544
100
AcDbEntity
  8
寸法
 62
     0
370
    -2
100
AcDbLine
 10
1279.486403225597
 20
1066.602305627915
 30
0.0
 11
1279.486403225597
 21
1147.602305627915
 31
0.0
  0
LINE
  5
548
330
544
100
AcDbEntity
  8
寸法
 62
     0
370
    -2
100
AcDbLine
 10
1159.486403225597
 20
1066.602305627915
 30
0.0
 11
1159.486403225597
 21
1147.602305627915
 31
0.0
  0
LINE
  5
549
330
544
100
AcDbEntity
  8
寸法
 62
     0
370
    -2
100
AcDbLine
 10
1278.985658596691
 20
1147.602305627915
 30
0.0
 11
1159.987147854503
 21
1147.602305627915
 31
0.0
  0
INSERT
  5
54A
330
544
100
AcDbEntity
  8
寸法
 62
     0
370
    -2
100
AcDbBlockReference
  2
_DOT
 10
1279.486403225597
 20
1147.602305627915
 30
0.0
 41
0.5007446289062499
 42
0.5007446289062499
 43
0.5007446289062499
  0
INSERT
  5
54B
330
544
100
AcDbEntity
  8
寸法
 62
     0
370
    -2
100
AcDbBlockReference
  2
_DOT
 10
1159.486403225597
 20
1147.602305627915
 30
0.0
 41
0.5007446289062499
 42
0.5007446289062499
 43
0.5007446289062499
 50
180.0
  0
MTEXT
  5
54C
330
544
100
AcDbEntity
  8
寸法
 62
     0
100
AcDbMText
 10
1219.486403225597
 20
1158.961246600137
 30
0.0
 40
21.71788194444445
 41
0.0
 71
     5
 72
     1
  1
\A1;120
  7
ＭＳ ゴシック
 73
     1
 44
1.0
  0
POINT
  5
54D
330
544
100
AcDbEntity
  8
DEFPOINTS
 62
     0
100
AcDbPoint
 10
1279.486403225597
 20
1064.602305627915
 30
0.0
  0
POINT
  5
54E
330
544
100
AcDbEntity
  8
DEFPOINTS
 62
     0
100
AcDbPoint
 10
1159.486403225597
 20
1064.602305627915
 30
0.0
  0
POINT
  5
54F
330
544
100
AcDbEntity
  8
DEFPOINTS
 62
     0
100
AcDbPoint
 10
1159.486403225597
 20
1147.602305627915
 30
0.0
  0
ENDBLK
  5
546
330
544
100
AcDbEntity
  8
0
100
AcDbBlockEnd
  0
BLOCK
  5
551
330
550
100
AcDbEntity
  8
0
100
AcDbBlockBegin
  2
*D47
 70
     1
 10
0.0
 20
0.0
 30
0.0
  3
*D47
  1
*D47
  0
LINE
  5
553
330
550
100
AcDbEntity
  8
寸法
 62
     0
370
    -2
100
AcDbLine
 10
1609.486403225597
 20
736.6023056279146
 30
0.0
 11
1609.486403225597
 21
1147.602305627915
 31
0.0
  0
LINE
  5
554
330
550
100
AcDbEntity
  8
寸法
 62
     0
370
    -2
100
AcDbLine
 10
1279.486403225597
 20
1066.602305627915
 30
0.0
 11
1279.486403225597
 21
1147.602305627915
 31
0.0
  0
LINE
  5
555
330
550
100
AcDbEntity
  8
寸法
 62
     0
370
    -2
100
AcDbLine
 10
1608.985658596691
 20
1147.602305627915
 30
0.0
 11
1279.987147854503
 21
1147.602305627915
 31
0.0
  0
INSERT
  5
556
330
550
100
AcDbEntity
  8
寸法
 62
     0
370
    -2
100
AcDbBlockReference
  2
_DOT
 10
1609.486403225597
 20
1147.602305627915
 30
0.0
 41
0.5007446289062499
 42
0.5007446289062499
 43
0.5007446289062499
  0
INSERT
  5
557
330
550
100
AcDbEntity
  8
寸法
 62
     0
370
    -2
100
AcDbBlockReference
  2
_DOT
 10
1279.486403225597
 20
1147.602305627915
 30
0.0
 41
0.5007446289062499
 42
0.5007446289062499
 43
0.5007446289062499
 50
180.0
  0
MTEXT
  5
558
330
550
100
AcDbEntity
  8
寸法
 62
     0
100
AcDbMText
 10
1444.486403225597
 20
1158.961246600137
 30
0.0
 40
21.71788194444445
 41
0.0
 71
     5
 72
     1
  1
\A1;330
  7
ＭＳ ゴシック
 73
     1
 44
1.0
  0
POINT
  5
559
330
550
100
AcDbEntity
  8
DEFPOINTS
 62
     0
100
AcDbPoint
 10
1609.486403225597
 20
734.6023056279146
 30
0.0
  0
POINT
  5
55A
330
550
100
AcDbEntity
  8
DEFPOINTS
 62
     0
100
AcDbPoint
 10
1279.486403225597
 20
1064.602305627915
 30
0.0
  0
POINT
  5
55B
330
550
100
AcDbEntity
  8
DEFPOINTS
 62
     0
100
AcDbPoint
 10
1279.486403225597
 20
1147.602305627915
 30
0.0
  0
ENDBLK
  5
552
330
550
100
AcDbEntity
  8
0
100
AcDbBlockEnd
  0
BLOCK
  5
55D
330
55C
100
AcDbEntity
  8
0
100
AcDbBlockBegin
  2
*D48
 70
     1
 10
0.0
 20
0.0
 30
0.0
  3
*D48
  1
*D48
  0
LINE
  5
55F
330
55C
100
AcDbEntity
  8
寸法
 62
     0
370
    -2
100
AcDbLine
 10
3559.486403225596
 20
756.6023056279146
 30
0.0
 11
3559.486403225596
 21
1143.602305627915
 31
0.0
  0
LINE
  5
560
330
55C
100
AcDbEntity
  8
寸法
 62
     0
370
    -2
100
AcDbLine
 10
3029.486403225596
 20
1076.602305627915
 30
0.0
 11
3029.486403225596
 21
1143.602305627915
 31
0.0
  0
LINE
  5
561
330
55C
100
AcDbEntity
  8
寸法
 62
     0
370
    -2
100
AcDbLine
 10
3558.98565859669
 20
1143.602305627915
 30
0.0
 11
3029.987147854502
 21
1143.602305627915
 31
0.0
  0
INSERT
  5
562
330
55C
100
AcDbEntity
  8
寸法
 62
     0
370
    -2
100
AcDbBlockReference
  2
_DOT
 10
3559.486403225596
 20
1143.602305627915
 30
0.0
 41
0.5007446289062499
 42
0.5007446289062499
 43
0.5007446289062499
  0
INSERT
  5
563
330
55C
100
AcDbEntity
  8
寸法
 62
     0
370
    -2
100
AcDbBlockReference
  2
_DOT
 10
3029.486403225596
 20
1143.602305627915
 30
0.0
 41
0.5007446289062499
 42
0.5007446289062499
 43
0.5007446289062499
 50
180.0
  0
MTEXT
  5
564
330
55C
100
AcDbEntity
  8
寸法
 62
     0
100
AcDbMText
 10
3294.486403225596
 20
1154.961246761948
 30
0.0
 40
21.71788226806608
 41
0.0
 71
     5
 72
     1
  1
\A1;530
  7
ＭＳ ゴシック
 73
     1
 44
1.0
  0
POINT
  5
565
330
55C
100
AcDbEntity
  8
DEFPOINTS
 62
     0
100
AcDbPoint
 10
3559.486403225596
 20
754.6023056279146
 30
0.0
  0
POINT
  5
566
330
55C
100
AcDbEntity
  8
DEFPOINTS
 62
     0
100
AcDbPoint
 10
3029.486403225596
 20
1074.602305627915
 30
0.0
  0
POINT
  5
567
330
55C
100
AcDbEntity
  8
DEFPOINTS
 62
     0
100
AcDbPoint
 10
3029.486403225596
 20
1143.602305627915
 30
0.0
  0
ENDBLK
  5
55E
330
55C
100
AcDbEntity
  8
0
100
AcDbBlockEnd
  0
BLOCK
  5
569
330
568
100
AcDbEntity
  8
0
100
AcDbBlockBegin
  2
*D49
 70
     1
 10
0.0
 20
0.0
 30
0.0
  3
*D49
  1
*D49
  0
LINE
  5
56B
330
568
100
AcDbEntity
  8
寸法
 62
     0
370
    -2
100
AcDbLine
 10
3659.486403225596
 20
1076.602305627915
 30
0.0
 11
3659.486403225596
 21
1143.602305627915
 31
0.0
  0
LINE
  5
56C
330
568
100
AcDbEntity
  8
寸法
 62
     0
370
    -2
100
AcDbLine
 10
3559.486403225596
 20
776.6023056279146
 30
0.0
 11
3559.486403225596
 21
1143.602305627915
 31
0.0
  0
LINE
  5
56D
330
568
100
AcDbEntity
  8
寸法
 62
     0
370
    -2
100
AcDbLine
 10
3658.98565859669
 20
1143.602305627915
 30
0.0
 11
3559.987147854502
 21
1143.602305627915
 31
0.0
  0
INSERT
  5
56E
330
568
100
AcDbEntity
  8
寸法
 62
     0
370
    -2
100
AcDbBlockReference
  2
_DOT
 10
3659.486403225596
 20
1143.602305627915
 30
0.0
 41
0.5007446289062499
 42
0.5007446289062499
 43
0.5007446289062499
  0
INSERT
  5
56F
330
568
100
AcDbEntity
  8
寸法
 62
     0
370
    -2
100
AcDbBlockReference
  2
_DOT
 10
3559.486403225596
 20
1143.602305627915
 30
0.0
 41
0.5007446289062499
 42
0.5007446289062499
 43
0.5007446289062499
 50
180.0
  0
MTEXT
  5
570
330
568
100
AcDbEntity
  8
寸法
 62
     0
100
AcDbMText
 10
3609.486403225596
 20
1154.961246761948
 30
0.0
 40
21.71788226806608
 41
0.0
 71
     5
 72
     1
  1
\A1;100
  7
ＭＳ ゴシック
 73
     1
 44
1.0
  0
POINT
  5
571
330
568
100
AcDbEntity
  8
DEFPOINTS
 62
     0
100
AcDbPoint
 10
3659.486403225596
 20
1074.602305627915
 30
0.0
  0
POINT
  5
572
330
568
100
AcDbEntity
  8
DEFPOINTS
 62
     0
100
AcDbPoint
 10
3559.486403225596
 20
774.6023056279146
 30
0.0
  0
POINT
  5
573
330
568
100
AcDbEntity
  8
DEFPOINTS
 62
     0
100
AcDbPoint
 10
3559.486403225596
 20
1143.602305627915
 30
0.0
  0
ENDBLK
  5
56A
330
568
100
AcDbEntity
  8
0
100
AcDbBlockEnd
  0
BLOCK
  5
575
330
574
100
AcDbEntity
  8
0
100
AcDbBlockBegin
  2
*D50
 70
     1
 10
0.0
 20
0.0
 30
0.0
  3
*D50
  1
*D50
  0
LINE
  5
577
330
574
100
AcDbEntity
  8
寸法
 62
     0
370
    -2
100
AcDbLine
 10
1279.486403225597
 20
1495.032751623458
 30
0.0
 11
1279.486403225597
 21
1397.032751623458
 31
0.0
  0
LINE
  5
578
330
574
100
AcDbEntity
  8
寸法
 62
     0
370
    -2
100
AcDbLine
 10
1159.486403225597
 20
1495.032751623458
 30
0.0
 11
1159.486403225597
 21
1397.032751623458
 31
0.0
  0
LINE
  5
579
330
574
100
AcDbEntity
  8
寸法
 62
     0
370
    -2
100
AcDbLine
 10
1278.985658596691
 20
1397.032751623458
 30
0.0
 11
1159.987147854503
 21
1397.032751623458
 31
0.0
  0
INSERT
  5
57A
330
574
100
AcDbEntity
  8
寸法
 62
     0
370
    -2
100
AcDbBlockReference
  2
_DOT
 10
1279.486403225597
 20
1397.032751623458
 30
0.0
 41
0.5007446289062499
 42
0.5007446289062499
 43
0.5007446289062499
  0
INSERT
  5
57B
330
574
100
AcDbEntity
  8
寸法
 62
     0
370
    -2
100
AcDbBlockReference
  2
_DOT
 10
1159.486403225597
 20
1397.032751623458
 30
0.0
 41
0.5007446289062499
 42
0.5007446289062499
 43
0.5007446289062499
 50
180.0
  0
MTEXT
  5
57C
330
574
100
AcDbEntity
  8
寸法
 62
     0
100
AcDbMText
 10
1219.486403225597
 20
1408.391692757491
 30
0.0
 40
21.71788226806608
 41
0.0
 71
     5
 72
     1
  1
\A1;120
  7
ＭＳ ゴシック
 73
     1
 44
1.0
  0
POINT
  5
57D
330
574
100
AcDbEntity
  8
DEFPOINTS
 62
     0
100
AcDbPoint
 10
1279.486403225597
 20
1497.032751623458
 30
0.0
  0
POINT
  5
57E
330
574
100
AcDbEntity
  8
DEFPOINTS
 62
     0
100
AcDbPoint
 10
1159.486403225597
 20
1497.032751623458
 30
0.0
  0
POINT
  5
57F
330
574
100
AcDbEntity
  8
DEFPOINTS
 62
     0
100
AcDbPoint
 10
1159.486403225597
 20
1397.032751623458
 30
0.0
  0
ENDBLK
  5
576
330
574
100
AcDbEntity
  8
0
100
AcDbBlockEnd
  0
BLOCK
  5
581
330
580
100
AcDbEntity
  8
0
100
AcDbBlockBegin
  2
*D51
 70
     1
 10
0.0
 20
0.0
 30
0.0
  3
*D51
  1
*D51
  0
LINE
  5
583
330
580
100
AcDbEntity
  8
寸法
 62
     0
370
    -2
100
AcDbLine
 10
3027.486403225596
 20
754.6023056279146
 30
0.0
 11
2932.835490657667
 21
754.6023056279146
 31
0.0
  0
LINE
  5
584
330
580
100
AcDbEntity
  8
寸法
 62
     0
370
    -2
100
AcDbLine
 10
3027.486403225596
 20
1074.602305627915
 30
0.0
 11
2932.835490657667
 21
1074.602305627915
 31
0.0
  0
LINE
  5
585
330
580
100
AcDbEntity
  8
寸法
 62
     0
370
    -2
100
AcDbLine
 10
2932.835490657667
 20
755.1030502568208
 30
0.0
 11
2932.835490657667
 21
1074.101560999009
 31
0.0
  0
INSERT
  5
586
330
580
100
AcDbEntity
  8
寸法
 62
     0
370
    -2
100
AcDbBlockReference
  2
_DOT
 10
2932.835490657667
 20
754.6023056279146
 30
0.0
 41
0.5007446289062499
 42
0.5007446289062499
 43
0.5007446289062499
 50
270.0
  0
INSERT
  5
587
330
580
100
AcDbEntity
  8
寸法
 62
     0
370
    -2
100
AcDbBlockReference
  2
_DOT
 10
2932.835490657667
 20
1074.602305627915
 30
0.0
 41
0.5007446289062499
 42
0.5007446289062499
 43
0.5007446289062499
 50
90.0
  0
MTEXT
  5
588
330
580
100
AcDbEntity
  8
寸法
 62
     0
100
AcDbMText
 10
2921.476549523634
 20
914.6023056279148
 30
0.0
 40
21.71788226806608
 41
0.0
 71
     5
 72
     1
  1
\A1;320
  7
ＭＳ ゴシック
 11
0.0
 21
1.0
 31
0.0
 73
     1
 44
1.0
  0
POINT
  5
589
330
580
100
AcDbEntity
  8
DEFPOINTS
 62
     0
100
AcDbPoint
 10
3029.486403225596
 20
754.6023056279146
 30
0.0
  0
POINT
  5
58A
330
580
100
AcDbEntity
  8
DEFPOINTS
 62
     0
100
AcDbPoint
 10
3029.486403225596
 20
1074.602305627915
 30
0.0
  0
POINT
  5
58B
330
580
100
AcDbEntity
  8
DEFPOINTS
 62
     0
100
AcDbPoint
 10
2932.835490657667
 20
1074.602305627915
 30
0.0
  0
ENDBLK
  5
582
330
580
100
AcDbEntity
  8
0
100
AcDbBlockEnd
  0
BLOCK
  5
58D
330
58C
100
AcDbEntity
  8
0
100
AcDbBlockBegin
  2
*D52
 70
     1
 10
0.0
 20
0.0
 30
0.0
  3
*D52
  1
*D52
  0
LINE
  5
58F
330
58C
100
AcDbEntity
  8
寸法
 62
     0
370
    -2
100
AcDbLine
 10
3027.486403225596
 20
754.6023056279146
 30
0.0
 11
2932.835490657667
 21
754.6023056279146
 31
0.0
  0
LINE
  5
590
330
58C
100
AcDbEntity
  8
寸法
 62
     0
370
    -2
100
AcDbLine
 10
3037.486403225596
 20
614.6023056279146
 30
0.0
 11
2932.835490657667
 21
614.6023056279146
 31
0.0
  0
LINE
  5
591
330
58C
100
AcDbEntity
  8
寸法
 62
     0
370
    -2
100
AcDbLine
 10
2932.835490657667
 20
754.1015609990084
 30
0.0
 11
2932.835490657667
 21
615.1030502568208
 31
0.0
  0
INSERT
  5
592
330
58C
100
AcDbEntity
  8
寸法
 62
     0
370
    -2
100
AcDbBlockReference
  2
_DOT
 10
2932.835490657667
 20
754.6023056279146
 30
0.0
 41
0.5007446289062499
 42
0.5007446289062499
 43
0.5007446289062499
 50
90.0
  0
INSERT
  5
593
330
58C
100
AcDbEntity
  8
寸法
 62
     0
370
    -2
100
AcDbBlockReference
  2
_DOT
 10
2932.835490657667
 20
614.6023056279146
 30
0.0
 41
0.5007446289062499
 42
0.5007446289062499
 43
0.5007446289062499
 50
270.0
  0
MTEXT
  5
594
330
58C
100
AcDbEntity
  8
寸法
 62
     0
100
AcDbMText
 10
2921.476549523634
 20
684.6023056279146
 30
0.0
 40
21.71788226806608
 41
0.0
 71
     5
 72
     1
  1
\A1;140
  7
ＭＳ ゴシック
 11
0.0
 21
1.0
 31
0.0
 73
     1
 44
1.0
  0
POINT
  5
595
330
58C
100
AcDbEntity
  8
DEFPOINTS
 62
     0
100
AcDbPoint
 10
3029.486403225596
 20
754.6023056279146
 30
0.0
  0
POINT
  5
596
330
58C
100
AcDbEntity
  8
DEFPOINTS
 62
     0
100
AcDbPoint
 10
3039.486403225596
 20
614.6023056279146
 30
0.0
  0
POINT
  5
597
330
58C
100
AcDbEntity
  8
DEFPOINTS
 62
     0
100
AcDbPoint
 10
2932.835490657667
 20
614.6023056279146
 30
0.0
  0
ENDBLK
  5
58E
330
58C
100
AcDbEntity
  8
0
100
AcDbBlockEnd
  0
BLOCK
  5
599
330
598
100
AcDbEntity
  8
0
100
AcDbBlockBegin
  2
*D53
 70
     1
 10
0.0
 20
0.0
 30
0.0
  3
*D53
  1
*D53
  0
LINE
  5
59B
330
598
100
AcDbEntity
  8
寸法
 62
     0
370
    -2
100
AcDbLine
 10
2759.486403225596
 20
2249.032751623458
 30
0.0
 11
2759.486403225596
 21
2322.032751623458
 31
0.0
  0
LINE
  5
59C
330
598
100
AcDbEntity
  8
寸法
 62
     0
370
    -2
100
AcDbLine
 10
1159.486403225597
 20
2249.032751623458
 30
0.0
 11
1159.486403225597
 21
2322.032751623458
 31
0.0
  0
LINE
  5
59D
330
598
100
AcDbEntity
  8
寸法
 62
     0
370
    -2
100
AcDbLine
 10
2758.98565859669
 20
2322.032751623458
 30
0.0
 11
1159.987147854503
 21
2322.032751623458
 31
0.0
  0
INSERT
  5
59E
330
598
100
AcDbEntity
  8
寸法
 62
     0
370
    -2
100
AcDbBlockReference
  2
_DOT
 10
2759.486403225596
 20
2322.032751623458
 30
0.0
 41
0.5007446289062499
 42
0.5007446289062499
 43
0.5007446289062499
  0
INSERT
  5
59F
330
598
100
AcDbEntity
  8
寸法
 62
     0
370
    -2
100
AcDbBlockReference
  2
_DOT
 10
1159.486403225597
 20
2322.032751623458
 30
0.0
 41
0.5007446289062499
 42
0.5007446289062499
 43
0.5007446289062499
 50
180.0
  0
MTEXT
  5
5A0
330
598
100
AcDbEntity
  8
寸法
 62
     0
100
AcDbMText
 10
1959.486403225596
 20
2333.391692757491
 30
0.0
 40
21.71788226806608
 41
0.0
 71
     5
 72
     1
  1
\A1;W1600
  7
ＭＳ ゴシック
 73
     1
 44
1.0
  0
POINT
  5
5A1
330
598
100
AcDbEntity
  8
DEFPOINTS
 62
     0
100
AcDbPoint
 10
2759.486403225596
 20
2247.032751623458
 30
0.0
  0
POINT
  5
5A2
330
598
100
AcDbEntity
  8
DEFPOINTS
 62
     0
100
AcDbPoint
 10
1159.486403225597
 20
2247.032751623458
 30
0.0
  0
POINT
  5
5A3
330
598
100
AcDbEntity
  8
DEFPOINTS
 62
     0
100
AcDbPoint
 10
1159.486403225597
 20
2322.032751623458
 30
0.0
  0
ENDBLK
  5
59A
330
598
100
AcDbEntity
  8
0
100
AcDbBlockEnd
  0
BLOCK
  5
5A5
330
5A4
100
AcDbEntity
  8
0
100
AcDbBlockBegin
  2
*D54
 70
     1
 10
0.0
 20
0.0
 30
0.0
  3
*D54
  1
*D54
  0
LINE
  5
5A7
330
5A4
100
AcDbEntity
  8
寸法
 62
     0
370
    -2
100
AcDbLine
 10
1609.486403225597
 20
1495.032751623458
 30
0.0
 11
1609.486403225597
 21
1397.032751623458
 31
0.0
  0
LINE
  5
5A8
330
5A4
100
AcDbEntity
  8
寸法
 62
     0
370
    -2
100
AcDbLine
 10
1279.486403225597
 20
1475.032751623458
 30
0.0
 11
1279.486403225597
 21
1397.032751623458
 31
0.0
  0
LINE
  5
5A9
330
5A4
100
AcDbEntity
  8
寸法
 62
     0
370
    -2
100
AcDbLine
 10
1608.985658596691
 20
1397.032751623458
 30
0.0
 11
1279.987147854503
 21
1397.032751623458
 31
0.0
  0
INSERT
  5
5AA
330
5A4
100
AcDbEntity
  8
寸法
 62
     0
370
    -2
100
AcDbBlockReference
  2
_DOT
 10
1609.486403225597
 20
1397.032751623458
 30
0.0
 41
0.5007446289062499
 42
0.5007446289062499
 43
0.5007446289062499
  0
INSERT
  5
5AB
330
5A4
100
AcDbEntity
  8
寸法
 62
     0
370
    -2
100
AcDbBlockReference
  2
_DOT
 10
1279.486403225597
 20
1397.032751623458
 30
0.0
 41
0.5007446289062499
 42
0.5007446289062499
 43
0.5007446289062499
 50
180.0
  0
MTEXT
  5
5AC
330
5A4
100
AcDbEntity
  8
寸法
 62
     0
100
AcDbMText
 10
1444.486403225597
 20
1408.391692757491
 30
0.0
 40
21.71788226806608
 41
0.0
 71
     5
 72
     1
  1
\A1;330
  7
ＭＳ ゴシック
 73
     1
 44
1.0
  0
POINT
  5
5AD
330
5A4
100
AcDbEntity
  8
DEFPOINTS
 62
     0
100
AcDbPoint
 10
1609.486403225597
 20
1497.032751623458
 30
0.0
  0
POINT
  5
5AE
330
5A4
100
AcDbEntity
  8
DEFPOINTS
 62
     0
100
AcDbPoint
 10
1279.486403225597
 20
1477.032751623458
 30
0.0
  0
POINT
  5
5AF
330
5A4
100
AcDbEntity
  8
DEFPOINTS
 62
     0
100
AcDbPoint
 10
1279.486403225597
 20
1397.032751623458
 30
0.0
  0
ENDBLK
  5
5A6
330
5A4
100
AcDbEntity
  8
0
100
AcDbBlockEnd
  0
BLOCK
  5
5B1
330
5B0
100
AcDbEntity
  8
0
100
AcDbBlockBegin
  2
*D55
 70
     1
 10
0.0
 20
0.0
 30
0.0
  3
*D55
  1
*D55
  0
LINE
  5
5B3
330
5B0
100
AcDbEntity
  8
寸法
 62
     0
370
    -2
100
AcDbLine
 10
2759.486403225596
 20
1495.032751623458
 30
0.0
 11
2759.486403225596
 21
1397.032751623458
 31
0.0
  0
LINE
  5
5B4
330
5B0
100
AcDbEntity
  8
寸法
 62
     0
370
    -2
100
AcDbLine
 10
1609.486403225597
 20
1495.032751623458
 30
0.0
 11
1609.486403225597
 21
1397.032751623458
 31
0.0
  0
LINE
  5
5B5
330
5B0
100
AcDbEntity
  8
寸法
 62
     0
370
    -2
100
AcDbLine
 10
2758.98565859669
 20
1397.032751623458
 30
0.0
 11
1609.987147854503
 21
1397.032751623458
 31
0.0
  0
INSERT
  5
5B6
330
5B0
100
AcDbEntity
  8
寸法
 62
     0
370
    -2
100
AcDbBlockReference
  2
_DOT
 10
2759.486403225596
 20
1397.032751623458
 30
0.0
 41
0.5007446289062499
 42
0.5007446289062499
 43
0.5007446289062499
  0
INSERT
  5
5B7
330
5B0
100
AcDbEntity
  8
寸法
 62
     0
370
    -2
100
AcDbBlockReference
  2
_DOT
 10
1609.486403225597
 20
1397.032751623458
 30
0.0
 41
0.5007446289062499
 42
0.5007446289062499
 43
0.5007446289062499
 50
180.0
  0
MTEXT
  5
5B8
330
5B0
100
AcDbEntity
  8
寸法
 62
     0
100
AcDbMText
 10
2184.486403225596
 20
1408.391692757491
 30
0.0
 40
21.71788226806608
 41
0.0
 71
     5
 72
     1
  1
\A1;1150
  7
ＭＳ ゴシック
 73
     1
 44
1.0
  0
POINT
  5
5B9
330
5B0
100
AcDbEntity
  8
DEFPOINTS
 62
     0
100
AcDbPoint
 10
2759.486403225596
 20
1497.032751623458
 30
0.0
  0
POINT
  5
5BA
330
5B0
100
AcDbEntity
  8
DEFPOINTS
 62
     0
100
AcDbPoint
 10
1609.486403225597
 20
1497.032751623458
 30
0.0
  0
POINT
  5
5BB
330
5B0
100
AcDbEntity
  8
DEFPOINTS
 62
     0
100
AcDbPoint
 10
1609.486403225597
 20
1397.032751623458
 30
0.0
  0
ENDBLK
  5
5B2
330
5B0
100
AcDbEntity
  8
0
100
AcDbBlockEnd
  0
BLOCK
  5
5BD
330
5BC
100
AcDbEntity
  8
0
100
AcDbBlockBegin
  2
*D56
 70
     1
 10
0.0
 20
0.0
 30
0.0
  3
*D56
  1
*D56
  0
LINE
  5
5BF
330
5BC
100
AcDbEntity
  8
寸法
 62
     0
370
    -2
100
AcDbLine
 10
3781.486403225596
 20
384.6023056279146
 30
0.0
 11
3857.486403225596
 21
384.6023056279146
 31
0.0
  0
LINE
  5
5C0
330
5BC
100
AcDbEntity
  8
寸法
 62
     0
370
    -2
100
AcDbLine
 10
3781.486403225596
 20
1074.602305627915
 30
0.0
 11
3857.486403225596
 21
1074.602305627915
 31
0.0
  0
LINE
  5
5C1
330
5BC
100
AcDbEntity
  8
寸法
 62
     0
370
    -2
100
AcDbLine
 10
3857.486403225596
 20
385.1030502568208
 30
0.0
 11
3857.486403225596
 21
1074.101560999009
 31
0.0
  0
INSERT
  5
5C2
330
5BC
100
AcDbEntity
  8
寸法
 62
     0
370
    -2
100
AcDbBlockReference
  2
_DOT
 10
3857.486403225596
 20
384.6023056279146
 30
0.0
 41
0.5007446289062499
 42
0.5007446289062499
 43
0.5007446289062499
 50
270.0
  0
INSERT
  5
5C3
330
5BC
100
AcDbEntity
  8
寸法
 62
     0
370
    -2
100
AcDbBlockReference
  2
_DOT
 10
3857.486403225596
 20
1074.602305627915
 30
0.0
 41
0.5007446289062499
 42
0.5007446289062499
 43
0.5007446289062499
 50
90.0
  0
MTEXT
  5
5C4
330
5BC
100
AcDbEntity
  8
寸法
 62
     0
100
AcDbMText
 10
3846.127462091563
 20
729.6023056279148
 30
0.0
 40
21.71788226806608
 41
0.0
 71
     5
 72
     1
  1
\A1;690
  7
ＭＳ ゴシック
 11
0.0
 21
1.0
 31
0.0
 73
     1
 44
1.0
  0
POINT
  5
5C5
330
5BC
100
AcDbEntity
  8
DEFPOINTS
 62
     0
100
AcDbPoint
 10
3779.486403225596
 20
384.6023056279146
 30
0.0
  0
POINT
  5
5C6
330
5BC
100
AcDbEntity
  8
DEFPOINTS
 62
     0
100
AcDbPoint
 10
3779.486403225596
 20
1074.602305627915
 30
0.0
  0
POINT
  5
5C7
330
5BC
100
AcDbEntity
  8
DEFPOINTS
 62
     0
100
AcDbPoint
 10
3857.486403225596
 20
1074.602305627915
 30
0.0
  0
ENDBLK
  5
5BE
330
5BC
100
AcDbEntity
  8
0
100
AcDbBlockEnd
  0
BLOCK
  5
5C9
330
5C8
100
AcDbEntity
  8
0
100
AcDbBlockBegin
  2
*D57
 70
     1
 10
0.0
 20
0.0
 30
0.0
  3
*D57
  1
*D57
  0
LINE
  5
5CB
330
5C8
100
AcDbEntity
  8
寸法
 62
     0
370
    -2
100
AcDbLine
 10
3659.486403225596
 20
1076.602305627915
 30
0.0
 11
3659.486403225596
 21
1143.602305627915
 31
0.0
  0
LINE
  5
5CC
330
5C8
100
AcDbEntity
  8
寸法
 62
     0
370
    -2
100
AcDbLine
 10
3779.486403225596
 20
1076.602305627915
 30
0.0
 11
3779.486403225596
 21
1143.602305627915
 31
0.0
  0
LINE
  5
5CD
330
5C8
100
AcDbEntity
  8
寸法
 62
     0
370
    -2
100
AcDbLine
 10
3659.987147854502
 20
1143.602305627915
 30
0.0
 11
3778.98565859669
 21
1143.602305627915
 31
0.0
  0
INSERT
  5
5CE
330
5C8
100
AcDbEntity
  8
寸法
 62
     0
370
    -2
100
AcDbBlockReference
  2
_DOT
 10
3659.486403225596
 20
1143.602305627915
 30
0.0
 41
0.5007446289062499
 42
0.5007446289062499
 43
0.5007446289062499
 50
180.0
  0
INSERT
  5
5CF
330
5C8
100
AcDbEntity
  8
寸法
 62
     0
370
    -2
100
AcDbBlockReference
  2
_DOT
 10
3779.486403225596
 20
1143.602305627915
 30
0.0
 41
0.5007446289062499
 42
0.5007446289062499
 43
0.5007446289062499
  0
MTEXT
  5
5D0
330
5C8
100
AcDbEntity
  8
寸法
 62
     0
100
AcDbMText
 10
3719.486403225596
 20
1154.961246761948
 30
0.0
 40
21.71788226806608
 41
0.0
 71
     5
 72
     1
  1
\A1;120
  7
ＭＳ ゴシック
 73
     1
 44
1.0
  0
POINT
  5
5D1
330
5C8
100
AcDbEntity
  8
DEFPOINTS
 62
     0
100
AcDbPoint
 10
3659.486403225596
 20
1074.602305627915
 30
0.0
  0
POINT
  5
5D2
330
5C8
100
AcDbEntity
  8
DEFPOINTS
 62
     0
100
AcDbPoint
 10
3779.486403225596
 20
1074.602305627915
 30
0.0
  0
POINT
  5
5D3
330
5C8
100
AcDbEntity
  8
DEFPOINTS
 62
     0
100
AcDbPoint
 10
3779.486403225596
 20
1143.602305627915
 30
0.0
  0
ENDBLK
  5
5CA
330
5C8
100
AcDbEntity
  8
0
100
AcDbBlockEnd
  0
BLOCK
  5
5D5
330
5D4
100
AcDbEntity
  8
0
100
AcDbBlockBegin
  2
*D58
 70
     1
 10
0.0
 20
0.0
 30
0.0
  3
*D58
  1
*D58
  0
LINE
  5
5D7
330
5D4
100
AcDbEntity
  8
寸法
 62
     0
370
    -2
100
AcDbLine
 10
846.8904722738091
 20
382.6023056279146
 30
0.0
 11
846.8904722738091
 21
280.6023056279146
 31
0.0
  0
LINE
  5
5D8
330
5D4
100
AcDbEntity
  8
寸法
 62
     0
370
    -2
100
AcDbLine
 10
296.8904722738091
 20
382.6023056279146
 30
0.0
 11
296.8904722738091
 21
280.6023056279146
 31
0.0
  0
LINE
  5
5D9
330
5D4
100
AcDbEntity
  8
寸法
 62
     0
370
    -2
100
AcDbLine
 10
846.3897276449029
 20
280.6023056279146
 30
0.0
 11
297.3912169027154
 21
280.6023056279146
 31
0.0
  0
INSERT
  5
5DA
330
5D4
100
AcDbEntity
  8
寸法
 62
     0
370
    -2
100
AcDbBlockReference
  2
_DOT
 10
846.8904722738091
 20
280.6023056279146
 30
0.0
 41
0.5007446289062499
 42
0.5007446289062499
 43
0.5007446289062499
  0
INSERT
  5
5DB
330
5D4
100
AcDbEntity
  8
寸法
 62
     0
370
    -2
100
AcDbBlockReference
  2
_DOT
 10
296.8904722738091
 20
280.6023056279146
 30
0.0
 41
0.5007446289062499
 42
0.5007446289062499
 43
0.5007446289062499
 50
180.0
  0
MTEXT
  5
5DC
330
5D4
100
AcDbEntity
  8
寸法
 62
     0
100
AcDbMText
 10
571.8904722738091
 20
291.9612467619476
 30
0.0
 40
21.71788226806608
 41
0.0
 71
     5
 72
     1
  1
\A1;550
  7
ＭＳ ゴシック
 73
     1
 44
1.0
  0
POINT
  5
5DD
330
5D4
100
AcDbEntity
  8
DEFPOINTS
 62
     0
100
AcDbPoint
 10
846.8904722738091
 20
384.6023056279146
 30
0.0
  0
POINT
  5
5DE
330
5D4
100
AcDbEntity
  8
DEFPOINTS
 62
     0
100
AcDbPoint
 10
296.8904722738091
 20
384.6023056279146
 30
0.0
  0
POINT
  5
5DF
330
5D4
100
AcDbEntity
  8
DEFPOINTS
 62
     0
100
AcDbPoint
 10
296.8904722738091
 20
280.6023056279146
 30
0.0
  0
ENDBLK
  5
5D6
330
5D4
100
AcDbEntity
  8
0
100
AcDbBlockEnd
  0
BLOCK
  5
5E1
330
5E0
100
AcDbEntity
  8
0
100
AcDbBlockBegin
  2
*D59
 70
     1
 10
0.0
 20
0.0
 30
0.0
  3
*D59
  1
*D59
  0
LINE
  5
5E3
330
5E0
100
AcDbEntity
  8
寸法
 62
     0
370
    -2
100
AcDbLine
 10
296.8904722738091
 20
382.6023056279146
 30
0.0
 11
296.8904722738091
 21
280.6023056279146
 31
0.0
  0
LINE
  5
5E4
330
5E0
100
AcDbEntity
  8
寸法
 62
     0
370
    -2
100
AcDbLine
 10
196.8904722738109
 20
382.6023056279146
 30
0.0
 11
196.8904722738109
 21
280.6023056279146
 31
0.0
  0
LINE
  5
5E5
330
5E0
100
AcDbEntity
  8
寸法
 62
     0
370
    -2
100
AcDbLine
 10
296.3897276449028
 20
280.6023056279146
 30
0.0
 11
197.3912169027172
 21
280.6023056279146
 31
0.0
  0
INSERT
  5
5E6
330
5E0
100
AcDbEntity
  8
寸法
 62
     0
370
    -2
100
AcDbBlockReference
  2
_DOT
 10
296.8904722738091
 20
280.6023056279146
 30
0.0
 41
0.5007446289062499
 42
0.5007446289062499
 43
0.5007446289062499
  0
INSERT
  5
5E7
330
5E0
100
AcDbEntity
  8
寸法
 62
     0
370
    -2
100
AcDbBlockReference
  2
_DOT
 10
196.8904722738109
 20
280.6023056279146
 30
0.0
 41
0.5007446289062499
 42
0.5007446289062499
 43
0.5007446289062499
 50
180.0
  0
MTEXT
  5
5E8
330
5E0
100
AcDbEntity
  8
寸法
 62
     0
100
AcDbMText
 10
246.89047227381
 20
291.9612467619476
 30
0.0
 40
21.71788226806608
 41
0.0
 71
     5
 72
     1
  1
\A1;100
  7
ＭＳ ゴシック
 73
     1
 44
1.0
  0
POINT
  5
5E9
330
5E0
100
AcDbEntity
  8
DEFPOINTS
 62
     0
100
AcDbPoint
 10
296.8904722738091
 20
384.6023056279146
 30
0.0
  0
POINT
  5
5EA
330
5E0
100
AcDbEntity
  8
DEFPOINTS
 62
     0
100
AcDbPoint
 10
196.8904722738109
 20
384.6023056279146
 30
0.0
  0
POINT
  5
5EB
330
5E0
100
AcDbEntity
  8
DEFPOINTS
 62
     0
100
AcDbPoint
 10
196.8904722738109
 20
280.6023056279146
 30
0.0
  0
ENDBLK
  5
5E2
330
5E0
100
AcDbEntity
  8
0
100
AcDbBlockEnd
  0
BLOCK
  5
5ED
330
5EC
100
AcDbEntity
  8
0
100
AcDbBlockBegin
  2
*D60
 70
     1
 10
0.0
 20
0.0
 30
0.0
  3
*D60
  1
*D60
  0
LINE
  5
5EF
330
5EC
100
AcDbEntity
  8
寸法
 62
     0
370
    -2
100
AcDbLine
 10
1279.486403225597
 20
382.6023056279146
 30
0.0
 11
1279.486403225597
 21
240.6023056279146
 31
0.0
  0
LINE
  5
5F0
330
5EC
100
AcDbEntity
  8
寸法
 62
     0
370
    -2
100
AcDbLine
 10
1159.486403225597
 20
1017.038813766875
 30
0.0
 11
1159.486403225597
 21
240.6023056279146
 31
0.0
  0
LINE
  5
5F1
330
5EC
100
AcDbEntity
  8
寸法
 62
     0
370
    -2
100
AcDbLine
 10
1278.985658596691
 20
240.6023056279146
 30
0.0
 11
1159.987147854503
 21
240.6023056279146
 31
0.0
  0
INSERT
  5
5F2
330
5EC
100
AcDbEntity
  8
寸法
 62
     0
370
    -2
100
AcDbBlockReference
  2
_DOT
 10
1279.486403225597
 20
240.6023056279146
 30
0.0
 41
0.5007446289062499
 42
0.5007446289062499
 43
0.5007446289062499
  0
INSERT
  5
5F3
330
5EC
100
AcDbEntity
  8
寸法
 62
     0
370
    -2
100
AcDbBlockReference
  2
_DOT
 10
1159.486403225597
 20
240.6023056279146
 30
0.0
 41
0.5007446289062499
 42
0.5007446289062499
 43
0.5007446289062499
 50
180.0
  0
MTEXT
  5
5F4
330
5EC
100
AcDbEntity
  8
寸法
 62
     0
100
AcDbMText
 10
1219.486403225597
 20
251.9612467619476
 30
0.0
 40
21.71788226806608
 41
0.0
 71
     5
 72
     1
  1
\A1;120
  7
ＭＳ ゴシック
 73
     1
 44
1.0
  0
POINT
  5
5F5
330
5EC
100
AcDbEntity
  8
DEFPOINTS
 62
     0
100
AcDbPoint
 10
1279.486403225597
 20
384.6023056279146
 30
0.0
  0
POINT
  5
5F6
330
5EC
100
AcDbEntity
  8
DEFPOINTS
 62
     0
100
AcDbPoint
 10
1159.486403225597
 20
1019.038813766875
 30
0.0
  0
POINT
  5
5F7
330
5EC
100
AcDbEntity
  8
DEFPOINTS
 62
     0
100
AcDbPoint
 10
1159.486403225597
 20
240.6023056279146
 30
0.0
  0
ENDBLK
  5
5EE
330
5EC
100
AcDbEntity
  8
0
100
AcDbBlockEnd
  0
BLOCK
  5
5F9
330
5F8
100
AcDbEntity
  8
0
100
AcDbBlockBegin
  2
*D61
 70
     1
 10
0.0
 20
0.0
 30
0.0
  3
*D61
  1
*D61
  0
LINE
  5
5FB
330
5F8
100
AcDbEntity
  8
寸法
 62
     0
370
    -2
100
AcDbLine
 10
2759.486403225596
 20
382.6023056279146
 30
0.0
 11
2759.486403225596
 21
298.1023056279146
 31
0.0
  0
LINE
  5
5FC
330
5F8
100
AcDbEntity
  8
寸法
 62
     0
370
    -2
100
AcDbLine
 10
2740.486403225596
 20
382.6023056279146
 30
0.0
 11
2740.486403225596
 21
298.1023056279146
 31
0.0
  0
LINE
  5
5FD
330
5F8
100
AcDbEntity
  8
寸法
 62
     0
370
    -2
100
AcDbLine
 10
2759.486403225596
 20
298.1023056279146
 30
0.0
 11
2740.486403225596
 21
298.1023056279146
 31
0.0
  0
LINE
  5
5FE
330
5F8
100
AcDbEntity
  8
寸法
 62
     0
370
    -2
100
AcDbLine
 10
2759.987147854502
 20
298.1023056279146
 30
0.0
 11
2760.487892483409
 21
298.1023056279146
 31
0.0
  0
LINE
  5
5FF
330
5F8
100
AcDbEntity
  8
寸法
 62
     0
370
    -2
100
AcDbLine
 10
2739.98565859669
 20
298.1023056279146
 30
0.0
 11
2739.484913967783
 21
298.1023056279146
 31
0.0
  0
INSERT
  5
600
330
5F8
100
AcDbEntity
  8
寸法
 62
     0
370
    -2
100
AcDbBlockReference
  2
_DOT
 10
2759.486403225596
 20
298.1023056279146
 30
0.0
 41
0.5007446289062499
 42
0.5007446289062499
 43
0.5007446289062499
 50
180.0
  0
INSERT
  5
601
330
5F8
100
AcDbEntity
  8
寸法
 62
     0
370
    -2
100
AcDbBlockReference
  2
_DOT
 10
2740.486403225596
 20
298.1023056279146
 30
0.0
 41
0.5007446289062499
 42
0.5007446289062499
 43
0.5007446289062499
  0
MTEXT
  5
602
330
5F8
100
AcDbEntity
  8
寸法
 62
     0
100
AcDbMText
 10
2749.986403225596
 20
309.4612467619476
 30
0.0
 40
21.71788226806608
 41
0.0
 71
     5
 72
     1
  1
\A1;19
  7
ＭＳ ゴシック
 73
     1
 44
1.0
  0
POINT
  5
603
330
5F8
100
AcDbEntity
  8
DEFPOINTS
 62
     0
100
AcDbPoint
 10
2759.486403225596
 20
384.6023056279146
 30
0.0
  0
POINT
  5
604
330
5F8
100
AcDbEntity
  8
DEFPOINTS
 62
     0
100
AcDbPoint
 10
2740.486403225596
 20
384.6023056279146
 30
0.0
  0
POINT
  5
605
330
5F8
100
AcDbEntity
  8
DEFPOINTS
 62
     0
100
AcDbPoint
 10
2740.486403225596
 20
298.1023056279146
 30
0.0
  0
ENDBLK
  5
5FA
330
5F8
100
AcDbEntity
  8
0
100
AcDbBlockEnd
  0
BLOCK
  5
607
330
606
100
AcDbEntity
  8
0
100
AcDbBlockBegin
  2
*D62
 70
     1
 10
0.0
 20
0.0
 30
0.0
  3
*D62
  1
*D62
  0
LINE
  5
609
330
606
100
AcDbEntity
  8
寸法
 62
     0
370
    -2
100
AcDbLine
 10
1279.486403225597
 20
382.6023056279146
 30
0.0
 11
1279.486403225597
 21
240.6023056279146
 31
0.0
  0
LINE
  5
60A
330
606
100
AcDbEntity
  8
寸法
 62
     0
370
    -2
100
AcDbLine
 10
2759.486403225596
 20
382.6023056279146
 30
0.0
 11
2759.486403225596
 21
240.6023056279146
 31
0.0
  0
LINE
  5
60B
330
606
100
AcDbEntity
  8
寸法
 62
     0
370
    -2
100
AcDbLine
 10
1279.987147854503
 20
240.6023056279146
 30
0.0
 11
2758.98565859669
 21
240.6023056279146
 31
0.0
  0
INSERT
  5
60C
330
606
100
AcDbEntity
  8
寸法
 62
     0
370
    -2
100
AcDbBlockReference
  2
_DOT
 10
1279.486403225597
 20
240.6023056279146
 30
0.0
 41
0.5007446289062499
 42
0.5007446289062499
 43
0.5007446289062499
 50
180.0
  0
INSERT
  5
60D
330
606
100
AcDbEntity
  8
寸法
 62
     0
370
    -2
100
AcDbBlockReference
  2
_DOT
 10
2759.486403225596
 20
240.6023056279146
 30
0.0
 41
0.5007446289062499
 42
0.5007446289062499
 43
0.5007446289062499
  0
MTEXT
  5
60E
330
606
100
AcDbEntity
  8
寸法
 62
     0
100
AcDbMText
 10
2019.486403225596
 20
251.9612467619476
 30
0.0
 40
21.71788226806608
 41
0.0
 71
     5
 72
     1
  1
\A1;1480
  7
ＭＳ ゴシック
 73
     1
 44
1.0
  0
POINT
  5
60F
330
606
100
AcDbEntity
  8
DEFPOINTS
 62
     0
100
AcDbPoint
 10
1279.486403225597
 20
384.6023056279146
 30
0.0
  0
POINT
  5
610
330
606
100
AcDbEntity
  8
DEFPOINTS
 62
     0
100
AcDbPoint
 10
2759.486403225596
 20
384.6023056279146
 30
0.0
  0
POINT
  5
611
330
606
100
AcDbEntity
  8
DEFPOINTS
 62
     0
100
AcDbPoint
 10
2759.486403225596
 20
240.6023056279146
 30
0.0
  0
ENDBLK
  5
608
330
606
100
AcDbEntity
  8
0
100
AcDbBlockEnd
  0
BLOCK
  5
613
330
612
100
AcDbEntity
  8
0
100
AcDbBlockBegin
  2
*D63
 70
     1
 10
0.0
 20
0.0
 30
0.0
  3
*D63
  1
*D63
  0
LINE
  5
615
330
612
100
AcDbEntity
  8
寸法
 62
     0
370
    -2
100
AcDbLine
 10
2759.486403225596
 20
612.6023056279146
 30
0.0
 11
2759.486403225596
 21
469.6023056279146
 31
0.0
  0
LINE
  5
616
330
612
100
AcDbEntity
  8
寸法
 62
     0
370
    -2
100
AcDbLine
 10
1560.490775740827
 20
612.6023056279146
 30
0.0
 11
1560.490775740827
 21
469.6023056279146
 31
0.0
  0
LINE
  5
617
330
612
100
AcDbEntity
  8
寸法
 62
     0
370
    -2
100
AcDbLine
 10
2758.98565859669
 20
469.6023056279146
 30
0.0
 11
1560.991520369733
 21
469.6023056279146
 31
0.0
  0
INSERT
  5
618
330
612
100
AcDbEntity
  8
寸法
 62
     0
370
    -2
100
AcDbBlockReference
  2
_DOT
 10
2759.486403225596
 20
469.6023056279146
 30
0.0
 41
0.5007446289062499
 42
0.5007446289062499
 43
0.5007446289062499
  0
INSERT
  5
619
330
612
100
AcDbEntity
  8
寸法
 62
     0
370
    -2
100
AcDbBlockReference
  2
_DOT
 10
1560.490775740827
 20
469.6023056279146
 30
0.0
 41
0.5007446289062499
 42
0.5007446289062499
 43
0.5007446289062499
 50
180.0
  0
MTEXT
  5
61A
330
612
100
AcDbEntity
  8
寸法
 62
     0
100
AcDbMText
 10
2159.988589483211
 20
480.9612467619476
 30
0.0
 40
21.71788226806608
 41
0.0
 71
     5
 72
     1
  1
\A1;1199
  7
ＭＳ ゴシック
 73
     1
 44
1.0
  0
POINT
  5
61B
330
612
100
AcDbEntity
  8
DEFPOINTS
 62
     0
100
AcDbPoint
 10
2759.486403225596
 20
614.6023056279146
 30
0.0
  0
POINT
  5
61C
330
612
100
AcDbEntity
  8
DEFPOINTS
 62
     0
100
AcDbPoint
 10
1560.490775740827
 20
614.6023056279146
 30
0.0
  0
POINT
  5
61D
330
612
100
AcDbEntity
  8
DEFPOINTS
 62
     0
100
AcDbPoint
 10
1560.490775740827
 20
469.6023056279146
 30
0.0
  0
ENDBLK
  5
614
330
612
100
AcDbEntity
  8
0
100
AcDbBlockEnd
  0
BLOCK
  5
61F
330
61E
100
AcDbEntity
  8
0
100
AcDbBlockBegin
  2
*D64
 70
     1
 10
0.0
 20
0.0
 30
0.0
  3
*D64
  1
*D64
  0
LINE
  5
621
330
61E
100
AcDbEntity
  8
寸法
 62
     0
370
    -2
100
AcDbLine
 10
946.8904722738091
 20
382.6023056279146
 30
0.0
 11
946.8904722738091
 21
225.6023056279146
 31
0.0
  0
LINE
  5
622
330
61E
100
AcDbEntity
  8
寸法
 62
     0
370
    -2
100
AcDbLine
 10
196.8904722738109
 20
382.6023056279146
 30
0.0
 11
196.8904722738109
 21
225.6023056279146
 31
0.0
  0
LINE
  5
623
330
61E
100
AcDbEntity
  8
寸法
 62
     0
370
    -2
100
AcDbLine
 10
946.3897276449029
 20
225.6023056279146
 30
0.0
 11
197.3912169027172
 21
225.6023056279146
 31
0.0
  0
INSERT
  5
624
330
61E
100
AcDbEntity
  8
寸法
 62
     0
370
    -2
100
AcDbBlockReference
  2
_DOT
 10
946.8904722738091
 20
225.6023056279146
 30
0.0
 41
0.5007446289062499
 42
0.5007446289062499
 43
0.5007446289062499
  0
INSERT
  5
625
330
61E
100
AcDbEntity
  8
寸法
 62
     0
370
    -2
100
AcDbBlockReference
  2
_DOT
 10
196.8904722738109
 20
225.6023056279146
 30
0.0
 41
0.5007446289062499
 42
0.5007446289062499
 43
0.5007446289062499
 50
180.0
  0
MTEXT
  5
626
330
61E
100
AcDbEntity
  8
寸法
 62
     0
100
AcDbMText
 10
571.89047227381
 20
236.9612467619476
 30
0.0
 40
21.71788226806608
 41
0.0
 71
     5
 72
     1
  1
\A1;750
  7
ＭＳ ゴシック
 73
     1
 44
1.0
  0
POINT
  5
627
330
61E
100
AcDbEntity
  8
DEFPOINTS
 62
     0
100
AcDbPoint
 10
946.8904722738091
 20
384.6023056279146
 30
0.0
  0
POINT
  5
628
330
61E
100
AcDbEntity
  8
DEFPOINTS
 62
     0
100
AcDbPoint
 10
196.8904722738109
 20
384.6023056279146
 30
0.0
  0
POINT
  5
629
330
61E
100
AcDbEntity
  8
DEFPOINTS
 62
     0
100
AcDbPoint
 10
196.8904722738109
 20
225.6023056279146
 30
0.0
  0
ENDBLK
  5
620
330
61E
100
AcDbEntity
  8
0
100
AcDbBlockEnd
  0
BLOCK
  5
62B
330
62A
100
AcDbEntity
  8
0
100
AcDbBlockBegin
  2
*D65
 70
     1
 10
0.0
 20
0.0
 30
0.0
  3
*D65
  1
*D65
  0
LINE
  5
62D
330
62A
100
AcDbEntity
  8
寸法
 62
     0
370
    -2
100
AcDbLine
 10
3630.045643964983
 20
1040.074387709761
 30
0.0
 11
3596.472850958926
 21
908.3657382244578
 31
0.0
  0
LINE
  5
62E
330
62A
100
AcDbEntity
  8
寸法
 62
     0
370
    -2
100
AcDbLine
 10
3051.486403225596
 20
754.6023056279146
 30
0.0
 11
3398.598037770999
 21
754.6023056279146
 31
0.0
  0
ARC
  5
62F
330
62A
100
AcDbEntity
  8
寸法
 62
     0
370
    -2
100
AcDbCircle
 10
3557.278250493141
 20
754.6023056279146
 30
0.0
 40
158.6802127221419
100
AcDbArc
 50
75.88053000791818
 51
118.9527051675735
  0
ARC
  5
630
330
62A
100
AcDbEntity
  8
寸法
 62
     0
370
    -2
100
AcDbCircle
 10
3557.278250493141
 20
754.6023056279146
 30
0.0
 40
158.6802127221419
100
AcDbArc
 50
136.7470173832414
 51
179.8191925428965
  0
INSERT
  5
631
330
62A
100
AcDbEntity
  8
寸法
 62
     0
370
    -2
100
AcDbBlockReference
  2
_DOT
 10
3596.472850958926
 20
908.3657382244578
 30
0.0
 41
0.5007446289062499
 42
0.5007446289062499
 43
0.5007446289062499
 50
345.7901262793664
  0
INSERT
  5
632
330
62A
100
AcDbEntity
  8
寸法
 62
     0
370
    -2
100
AcDbBlockReference
  2
_DOT
 10
3398.598037770999
 20
754.6023056279146
 30
0.0
 41
0.5007446289062499
 42
0.5007446289062499
 43
0.5007446289062499
 50
269.9095962714483
  0
MTEXT
  5
633
330
62A
100
AcDbEntity
  8
寸法
 62
     0
100
AcDbMText
 10
3459.606155626173
 20
880.2943976884904
 30
0.0
 40
21.71788226806608
 41
0.0
 71
     5
 72
     1
  1
\A1;104%%d 
  7
ＭＳ ゴシック
 11
0.7896213349078676
 21
0.6135944486860336
 31
0.0
 73
     1
 44
1.0
  0
POINT
  5
634
330
62A
100
AcDbEntity
  8
DEFPOINTS
 62
     0
100
AcDbPoint
 10
3557.278250493141
 20
754.6023056279146
 30
0.0
  0
POINT
  5
635
330
62A
100
AcDbEntity
  8
DEFPOINTS
 62
     0
100
AcDbPoint
 10
3630.53965137515
 20
1042.012416780415
 30
0.0
  0
POINT
  5
636
330
62A
100
AcDbEntity
  8
DEFPOINTS
 62
     0
100
AcDbPoint
 10
3049.486403225596
 20
754.6023056279146
 30
0.0
  0
POINT
  5
637
330
62A
100
AcDbEntity
  8
DEFPOINTS
 62
     0
100
AcDbPoint
 10
3501.794228273684
 20
903.2661317185102
 30
0.0
  0
ENDBLK
  5
62C
330
62A
100
AcDbEntity
  8
0
100
AcDbBlockEnd
  0
ENDSEC
  0
SECTION
  2
ENTITIES
  0
MTEXT
  5
3EE
330
1F
100
AcDbEntity
  8
一般
100
AcDbMText
 10
216.0
 20
116.4255232577323
 30
0.0
 40
4.886524966612579
 41
0.0
 71
     1
 72
     1
  1
{\fＭＳ ゴシック|b0|i0|c128|p0;　　　　　　　　　　　　　}
 73
     1
 44
0.7828267384257843
  0
LINE
  5
42E
330
1F
100
AcDbEntity
  8
一般
  6
Continuous
 62
     0
370
    25
100
AcDbLine
 10
1279.486403225597
 20
384.6023056279146
 30
0.0
 11
2759.486403225596
 21
384.6023056279146
 31
0.0
  0
LINE
  5
42F
330
1F
100
AcDbEntity
  8
一般
  6
Continuous
 62
     0
370
    25
100
AcDbLine
 10
1617.770674473058
 20
754.6023056279146
 30
0.0
 11
2739.486403225596
 21
754.6023056279146
 31
0.0
  0
LINE
  5
430
330
1F
100
AcDbEntity
  8
一般
  6
Continuous
 62
     0
370
    25
100
AcDbLine
 10
2739.486403225596
 20
754.6023056279146
 30
0.0
 11
2759.486403225596
 21
754.6023056279146
 31
0.0
  0
LINE
  5
431
330
1F
100
AcDbEntity
  8
一般
  6
Continuous
 62
     0
370
    25
100
AcDbLine
 10
1609.486403225597
 20
734.6023056279146
 30
0.0
 11
2759.486403225596
 21
734.6023056279146
 31
0.0
  0
LINE
  5
432
330
1F
100
AcDbEntity
  8
一般
  6
Continuous
 62
     0
370
    25
100
AcDbLine
 10
1560.490775740827
 20
614.6023056279146
 30
0.0
 11
2759.486403225596
 21
614.6023056279146
 31
0.0
  0
LINE
  5
433
330
1F
100
AcDbEntity
  8
一般
  6
Continuous
 62
     0
370
    25
100
AcDbLine
 10
2729.486403225596
 20
614.6023056279146
 30
0.0
 11
2759.486403225596
 21
614.6023056279146
 31
0.0
  0
LINE
  5
434
330
1F
100
AcDbEntity
  8
一般
  6
Continuous
 62
     0
370
    25
100
AcDbLine
 10
1552.620718055737
 20
595.6023056279146
 30
0.0
 11
2759.486403225596
 21
595.6023056279146
 31
0.0
  0
LINE
  5
435
330
1F
100
AcDbEntity
  8
一般
  6
Continuous
 62
     0
370
    25
100
AcDbLine
 10
206.8904722738091
 20
1074.602305627915
 30
0.0
 11
936.8904722738091
 21
1074.602305627915
 31
0.0
  0
LINE
  5
436
330
1F
100
AcDbEntity
  8
一般
  6
Continuous
 62
     0
370
    25
100
AcDbLine
 10
936.8904722738091
 20
1074.602305627915
 30
0.0
 11
946.8904722738091
 21
1074.602305627915
 31
0.0
  0
LINE
  5
437
330
1F
100
AcDbEntity
  8
一般
  6
Continuous
 62
     0
370
    25
100
AcDbLine
 10
196.8904722738091
 20
1074.602305627915
 30
0.0
 11
206.8904722738091
 21
1074.602305627915
 31
0.0
  0
LINE
  5
438
330
1F
100
AcDbEntity
  8
一般
  6
Continuous
 62
     0
370
    25
100
AcDbLine
 10
196.8904722738091
 20
1064.602305627915
 30
0.0
 11
946.8904722738091
 21
1064.602305627915
 31
0.0
  0
LINE
  5
439
330
1F
100
AcDbEntity
  8
一般
  6
Continuous
 62
     0
370
    25
100
AcDbLine
 10
1160.196403225598
 20
1074.602305627915
 30
0.0
 11
1257.059318235749
 21
1074.602305627915
 31
0.0
  0
LINE
  5
43A
330
1F
100
AcDbEntity
  8
一般
  6
Continuous
 62
     0
370
    25
100
AcDbLine
 10
1257.059996354404
 20
1074.602305627915
 30
0.0
 11
2749.486403225596
 21
1074.602305627915
 31
0.0
  0
LINE
  5
43B
330
1F
100
AcDbEntity
  8
一般
  6
Continuous
 62
     0
370
    25
100
AcDbLine
 10
2749.486403225596
 20
1074.602305627915
 30
0.0
 11
2759.486403225596
 21
1074.602305627915
 31
0.0
  0
LINE
  5
43C
330
1F
100
AcDbEntity
  8
一般
  6
Continuous
 62
     0
370
    25
100
AcDbLine
 10
1160.196403225598
 20
1064.602305627915
 30
0.0
 11
1287.769996354405
 21
1064.602305627915
 31
0.0
  0
LINE
  5
43D
330
1F
100
AcDbEntity
  8
一般
  6
Continuous
 62
     0
370
    25
100
AcDbLine
 10
1287.059996354404
 20
1064.602305627915
 30
0.0
 11
2759.486403225596
 21
1064.602305627915
 31
0.0
  0
LINE
  5
43E
330
1F
100
AcDbEntity
  8
一般
  6
Continuous
 62
     0
370
    25
100
AcDbLine
 10
3039.486403225596
 20
1074.602305627915
 30
0.0
 11
3659.486403225596
 21
1074.602305627915
 31
0.0
  0
LINE
  5
43F
330
1F
100
AcDbEntity
  8
一般
  6
Continuous
 62
     0
370
    25
100
AcDbLine
 10
3029.486403225596
 20
1074.602305627915
 30
0.0
 11
3039.486403225596
 21
1074.602305627915
 31
0.0
  0
LINE
  5
440
330
1F
100
AcDbEntity
  8
一般
  6
Continuous
 62
     0
370
    25
100
AcDbLine
 10
3659.61008743496
 20
1064.602305627915
 30
0.0
 11
3779.486403225596
 21
1064.602305627915
 31
0.0
  0
LINE
  5
441
330
1F
100
AcDbEntity
  8
一般
  6
Continuous
 62
     0
370
    25
100
AcDbLine
 10
3636.297858336277
 20
1064.602305627915
 30
0.0
 11
3659.61008743496
 21
1064.602305627915
 31
0.0
  0
LINE
  5
442
330
1F
100
AcDbEntity
  8
一般
  6
Continuous
 62
     0
370
    25
100
AcDbLine
 10
3029.486403225596
 20
1064.602305627915
 30
0.0
 11
3636.297858336277
 21
1064.602305627915
 31
0.0
  0
LINE
  5
443
330
1F
100
AcDbEntity
  8
一般
  6
Continuous
 62
     0
370
    25
100
AcDbLine
 10
3667.257146258492
 20
1074.602305627915
 30
0.0
 11
3779.486403225596
 21
1074.602305627915
 31
0.0
  0
LINE
  5
444
330
1F
100
AcDbEntity
  8
一般
  6
Continuous
 62
     0
370
    25
100
AcDbLine
 10
3659.486403225596
 20
1074.602305627915
 30
0.0
 11
3667.257146258492
 21
1074.602305627915
 31
0.0
  0
LINE
  5
445
330
1F
100
AcDbEntity
  8
一般
  6
Continuous
 62
     0
370
    25
100
AcDbLine
 10
2759.486403225596
 20
734.6023056279146
 30
0.0
 11
2759.486403225596
 21
384.6023056279146
 31
0.0
  0
LINE
  5
446
330
1F
100
AcDbEntity
  8
一般
  6
Continuous
 62
     0
370
    25
100
AcDbLine
 10
2759.486403225596
 20
744.6023056279146
 30
0.0
 11
2759.486403225596
 21
734.6023056279146
 31
0.0
  0
LINE
  5
447
330
1F
100
AcDbEntity
  8
一般
  6
Continuous
 62
     0
370
    25
100
AcDbLine
 10
2759.486403225596
 20
604.6023056279146
 30
0.0
 11
2759.486403225596
 21
384.6023056279146
 31
0.0
  0
LINE
  5
448
330
1F
100
AcDbEntity
  8
一般
  6
Continuous
 62
     0
370
    25
100
AcDbLine
 10
2759.486403225596
 20
1064.602305627915
 30
0.0
 11
2759.486403225596
 21
774.6023056279146
 31
0.0
  0
LINE
  5
449
330
1F
100
AcDbEntity
  8
一般
  6
Continuous
 62
     0
370
    25
100
AcDbLine
 10
2759.486403225596
 20
1074.602305627915
 30
0.0
 11
2759.486403225596
 21
1064.602305627915
 31
0.0
  0
LINE
  5
44A
330
1F
100
AcDbEntity
  8
一般
  6
Continuous
 62
     0
370
    25
100
AcDbLine
 10
2759.486403225596
 20
774.6023056279146
 30
0.0
 11
2759.486403225596
 21
734.6023056279146
 31
0.0
  0
LINE
  5
44B
330
1F
100
AcDbEntity
  8
一般
  6
Continuous
 62
     0
370
    25
100
AcDbLine
 10
2740.486403225596
 20
595.6023056279146
 30
0.0
 11
2740.486403225596
 21
384.6023056279146
 31
0.0
  0
DIMENSION
  5
44C
330
1F
100
AcDbEntity
  8
寸法
 62
     0
100
AcDbDimension
  2
*D39
 10
1724.14820270707
 20
869.2641051093874
 30
0.0
 11
1671.732263656897
 21
904.877106082744
 31
0.0
 70
   165
 71
     5
 42
2.356194490192344
  3
ﾏﾉｰﾈ_
100
AcDb3PointAngularDimension
 13
1279.486403225597
 23
1084.602305627915
 33
0.0
 14
2759.486403225596
 24
754.6023056279146
 34
0.0
 15
1609.486403225597
 25
754.6023056279146
 35
0.0
1001
ACAD
1000
DSTYLE
1002
{
1070
   147
1040
0.5
1070
     3
1000
<> 
1070
   140
1040
21.71788744601404
1070
   340
1005
AE
1070
   342
1005
CD
1070
   279
1070
     2
1070
   275
1070
     0
1070
   179
1070
     0
1002
}
  0
LINE
  5
44D
330
1F
100
AcDbEntity
  8
一般
  6
Continuous
 62
     0
370
    25
100
AcDbLine
 10
3029.486403225596
 20
384.6023056279146
 30
0.0
 11
3779.486403225596
 21
384.6023056279146
 31
0.0
  0
LINE
  5
44E
330
1F
100
AcDbEntity
  8
一般
  6
Continuous
 62
     0
370
    25
100
AcDbLine
 10
3039.486403225596
 20
614.6023056279146
 30
0.0
 11
3769.486403225596
 21
614.6023056279146
 31
0.0
  0
LINE
  5
44F
330
1F
100
AcDbEntity
  8
一般
  6
Continuous
 62
     0
370
    25
100
AcDbLine
 10
3029.486403225596
 20
614.6023056279146
 30
0.0
 11
3039.486403225596
 21
614.6023056279146
 31
0.0
  0
LINE
  5
450
330
1F
100
AcDbEntity
  8
一般
  6
Continuous
 62
     0
370
    25
100
AcDbLine
 10
3769.486403225596
 20
614.6023056279146
 30
0.0
 11
3779.486403225596
 21
614.6023056279146
 31
0.0
  0
LINE
  5
451
330
1F
100
AcDbEntity
  8
一般
  6
ラインタイプ-2
 62
     0
370
    25
100
AcDbLine
 10
3129.486403225596
 20
595.6023056279146
 30
0.0
 11
3129.486403225596
 21
384.6023056279146
 31
0.0
  0
LINE
  5
452
330
1F
100
AcDbEntity
  8
一般
  6
ラインタイプ-2
 62
     0
370
    25
100
AcDbLine
 10
3148.486403225596
 20
595.6023056279146
 30
0.0
 11
3148.486403225596
 21
384.6023056279146
 31
0.0
  0
LINE
  5
453
330
1F
100
AcDbEntity
  8
一般
  6
Continuous
 62
     0
370
    25
100
AcDbLine
 10
1279.486403225597
 20
868.0266204580539
 30
0.0
 11
1279.486403225597
 21
384.6023056279146
 31
0.0
  0
LINE
  5
454
330
1F
100
AcDbEntity
  8
一般
  6
ラインタイプ-2
 62
     0
370
    25
100
AcDbLine
 10
1379.486403225597
 20
768.0266204580539
 30
0.0
 11
1379.486403225597
 21
384.6023056279146
 31
0.0
  0
LINE
  5
455
330
1F
100
AcDbEntity
  8
一般
  6
ラインタイプ-2
 62
     0
370
    25
100
AcDbLine
 10
1398.486403225597
 20
749.0266204580539
 30
0.0
 11
1398.486403225597
 21
384.6023056279146
 31
0.0
  0
LINE
  5
456
330
1F
100
AcDbEntity
  8
一般
  6
Continuous
 62
     0
370
    25
100
AcDbLine
 10
3029.486403225596
 20
595.6023056279146
 30
0.0
 11
3779.486403225596
 21
595.6023056279146
 31
0.0
  0
ARC
  5
457
330
1F
100
AcDbEntity
  8
一般
  6
Continuous
 62
     0
370
    25
100
AcDbCircle
 10
2749.486403225596
 20
624.6023056279146
 30
0.0
 40
10.0
100
AcDbArc
 50
270.0
 51
0.0
  0
LINE
  5
458
330
1F
100
AcDbEntity
  8
一般
  6
Continuous
 62
     0
370
    25
100
AcDbLine
 10
1159.496983646203
 20
1019.866820970029
 30
0.0
 11
1160.196403225598
 21
1074.602305627915
 31
0.0
  0
LINE
  5
459
330
1F
100
AcDbEntity
  8
一般
  6
Continuous
 62
     0
370
    25
100
AcDbLine
 10
1159.443100131862
 20
1015.649981236878
 30
0.0
 11
1159.496983646203
 21
1019.866820970029
 31
0.0
  0
LINE
  5
45A
330
1F
100
AcDbEntity
  8
一般
  6
Continuous
 62
     0
370
    25
100
AcDbLine
 10
3029.486403225596
 20
614.6023056279146
 30
0.0
 11
3029.486403225596
 21
734.6023056279146
 31
0.0
  0
LINE
  5
45B
330
1F
100
AcDbEntity
  8
一般
  6
Continuous
 62
     0
370
    25
100
AcDbLine
 10
3029.486403225596
 20
734.6023056279146
 30
0.0
 11
3029.486403225596
 21
754.6023056279146
 31
0.0
  0
LINE
  5
45C
330
1F
100
AcDbEntity
  8
一般
  6
Continuous
 62
     0
370
    25
100
AcDbLine
 10
3029.486403225596
 20
614.6023056279155
 30
0.0
 11
3029.486403225596
 21
624.6023056279146
 31
0.0
  0
LINE
  5
45D
330
1F
100
AcDbEntity
  8
一般
  6
Continuous
 62
     0
370
    25
100
AcDbLine
 10
3029.486403225596
 20
384.6023056279146
 30
0.0
 11
3029.486403225596
 21
614.6023056279146
 31
0.0
  0
LINE
  5
45E
330
1F
100
AcDbEntity
  8
一般
  6
Continuous
 62
     0
370
    25
100
AcDbLine
 10
3029.486403225596
 20
754.6023056279146
 30
0.0
 11
3029.486403225596
 21
1064.602305627915
 31
0.0
  0
LINE
  5
45F
330
1F
100
AcDbEntity
  8
一般
  6
Continuous
 62
     0
370
    25
100
AcDbLine
 10
3029.486403225596
 20
1064.602305627915
 30
0.0
 11
3029.486403225596
 21
1074.602305627915
 31
0.0
  0
LINE
  5
460
330
1F
100
AcDbEntity
  8
一般
  6
Continuous
 62
     0
370
    25
100
AcDbLine
 10
3779.486403225596
 20
614.6023056279146
 30
0.0
 11
3779.486403225596
 21
1064.602305627915
 31
0.0
  0
LINE
  5
461
330
1F
100
AcDbEntity
  8
一般
  6
Continuous
 62
     0
370
    25
100
AcDbLine
 10
3779.486403225596
 20
614.6023056279146
 30
0.0
 11
3779.486403225596
 21
624.6023056279146
 31
0.0
  0
LINE
  5
462
330
1F
100
AcDbEntity
  8
一般
  6
Continuous
 62
     0
370
    25
100
AcDbLine
 10
3779.486403225596
 20
624.6023056279146
 30
0.0
 11
3779.486403225596
 21
1074.602305627915
 31
0.0
  0
LINE
  5
463
330
1F
100
AcDbEntity
  8
一般
  6
Continuous
 62
     0
370
    25
100
AcDbLine
 10
3779.486403225596
 20
384.6023056279146
 30
0.0
 11
3779.486403225596
 21
614.6023056279146
 31
0.0
  0
LINE
  5
464
330
1F
100
AcDbEntity
  8
一般
  6
Continuous
 62
     0
370
    25
100
AcDbLine
 10
3559.486403225596
 20
754.6023056279146
 30
0.0
 11
3565.423733942594
 21
745.6963095524193
 31
0.0
  0
LINE
  5
465
330
1F
100
AcDbEntity
  8
一般
  6
ラインタイプ-2
 62
     0
370
    25
100
AcDbLine
 10
3679.486403225596
 20
595.6023056279146
 30
0.0
 11
3679.486403225596
 21
384.6023056279146
 31
0.0
  0
LINE
  5
466
330
1F
100
AcDbEntity
  8
一般
  6
ラインタイプ-2
 62
     0
370
    25
100
AcDbLine
 10
3660.486403225596
 20
595.6023056279146
 30
0.0
 11
3660.486403225596
 21
384.6023056279146
 31
0.0
  0
ARC
  5
467
330
1F
100
AcDbEntity
  8
一般
  6
Continuous
 62
     0
370
    25
100
AcDbCircle
 10
2739.486403225596
 20
734.6023056279146
 30
0.0
 40
20.0
100
AcDbArc
 50
0.0
 51
90.0
  0
ARC
  5
468
330
1F
100
AcDbEntity
  8
一般
  6
Continuous
 62
     0
370
    25
100
AcDbCircle
 10
2739.486403225596
 20
774.6023056279146
 30
0.0
 40
20.0
100
AcDbArc
 50
270.0
 51
0.0
  0
LINE
  5
469
330
1F
100
AcDbEntity
  8
一般
  6
Continuous
 62
     0
370
    25
100
AcDbLine
 10
936.8904722738091
 20
384.6023056279146
 30
0.0
 11
206.8904722738091
 21
384.6023056279146
 31
0.0
  0
LINE
  5
46A
330
1F
100
AcDbEntity
  8
一般
  6
ラインタイプ-2
 62
     0
370
    25
100
AcDbLine
 10
926.8904722738091
 20
614.6023056279146
 30
0.0
 11
216.8904722738091
 21
614.6023056279146
 31
0.0
  0
LINE
  5
46B
330
1F
100
AcDbEntity
  8
一般
  6
Continuous
 62
     0
370
    25
100
AcDbLine
 10
216.8904722738091
 20
614.6023056279146
 30
0.0
 11
196.8904722738091
 21
614.6023056279146
 31
0.0
  0
LINE
  5
46C
330
1F
100
AcDbEntity
  8
一般
  6
Continuous
 62
     0
370
    25
100
AcDbLine
 10
946.8904722738091
 20
614.6023056279146
 30
0.0
 11
926.8904722738091
 21
614.6023056279146
 31
0.0
  0
LINE
  5
46D
330
1F
100
AcDbEntity
  8
一般
  6
Continuous
 62
     0
370
    25
100
AcDbLine
 10
846.8904722738091
 20
868.0266204580539
 30
0.0
 11
846.8904722738091
 21
585.6023056279146
 31
0.0
  0
LINE
  5
46E
330
1F
100
AcDbEntity
  8
一般
  6
Continuous
 62
     0
370
    25
100
AcDbLine
 10
846.8904722738091
 20
585.6023056279146
 30
0.0
 11
846.8904722738091
 21
384.6023056279146
 31
0.0
  0
LINE
  5
46F
330
1F
100
AcDbEntity
  8
一般
  6
Continuous
 62
     0
370
    25
100
AcDbLine
 10
827.8904722738091
 20
868.0266204580539
 30
0.0
 11
827.8904722738091
 21
384.6023056279146
 31
0.0
  0
LINE
  5
470
330
1F
100
AcDbEntity
  8
一般
  6
Continuous
 62
     0
370
    25
100
AcDbLine
 10
946.8904722738091
 20
595.6023056279146
 30
0.0
 11
836.8904722738091
 21
595.6023056279146
 31
0.0
  0
LINE
  5
471
330
1F
100
AcDbEntity
  8
一般
  6
ラインタイプ-2
 62
     0
370
    25
100
AcDbLine
 10
817.8904722738091
 20
595.6023056279146
 30
0.0
 11
325.8904722738091
 21
595.6023056279146
 31
0.0
  0
LINE
  5
472
330
1F
100
AcDbEntity
  8
一般
  6
Continuous
 62
     0
370
    25
100
AcDbLine
 10
306.8904722738091
 20
595.6023056279146
 30
0.0
 11
196.8904722738091
 21
595.6023056279146
 31
0.0
  0
LINE
  5
473
330
1F
100
AcDbEntity
  8
一般
  6
Continuous
 62
     0
370
    25
100
AcDbLine
 10
946.8904722738091
 20
614.6023056279146
 30
0.0
 11
946.8904722738091
 21
634.6023056279146
 31
0.0
  0
LINE
  5
474
330
1F
100
AcDbEntity
  8
一般
  6
Continuous
 62
     0
370
    25
100
AcDbLine
 10
946.8904722738091
 20
384.6023056279146
 30
0.0
 11
946.8904722738091
 21
604.6023056279146
 31
0.0
  0
LINE
  5
475
330
1F
100
AcDbEntity
  8
一般
  6
Continuous
 62
     0
370
    25
100
AcDbLine
 10
946.8904722738091
 20
624.602305627915
 30
0.0
 11
946.8904722738091
 21
1064.602305627915
 31
0.0
  0
LINE
  5
476
330
1F
100
AcDbEntity
  8
一般
  6
Continuous
 62
     0
370
    25
100
AcDbLine
 10
946.8904722738091
 20
1064.602305627915
 30
0.0
 11
946.8904722738091
 21
1074.602305627915
 31
0.0
  0
LINE
  5
477
330
1F
100
AcDbEntity
  8
一般
  6
Continuous
 62
     0
370
    25
100
AcDbLine
 10
196.8904722738091
 20
624.6023056279146
 30
0.0
 11
196.8904722738091
 21
1064.602305627915
 31
0.0
  0
LINE
  5
478
330
1F
100
AcDbEntity
  8
一般
  6
Continuous
 62
     0
370
    25
100
AcDbLine
 10
196.8904722738091
 20
1064.602305627915
 30
0.0
 11
196.8904722738091
 21
1074.602305627915
 31
0.0
  0
LINE
  5
479
330
1F
100
AcDbEntity
  8
一般
  6
Continuous
 62
     0
370
    25
100
AcDbLine
 10
196.8904722738091
 20
614.6023056279146
 30
0.0
 11
196.8904722738091
 21
634.6023056279146
 31
0.0
  0
LINE
  5
47A
330
1F
100
AcDbEntity
  8
一般
  6
Continuous
 62
     0
370
    25
100
AcDbLine
 10
196.8904722738091
 20
384.6023056279146
 30
0.0
 11
196.8904722738091
 21
604.6023056279146
 31
0.0
  0
LINE
  5
47B
330
1F
100
AcDbEntity
  8
一般
  6
Continuous
 62
     0
370
    25
100
AcDbLine
 10
296.8904722738091
 20
868.0266204580539
 30
0.0
 11
296.8904722738091
 21
585.6023056279146
 31
0.0
  0
LINE
  5
47C
330
1F
100
AcDbEntity
  8
一般
  6
Continuous
 62
     0
370
    25
100
AcDbLine
 10
296.8904722738091
 20
585.6023056279146
 30
0.0
 11
296.8904722738091
 21
384.6023056279146
 31
0.0
  0
LINE
  5
47D
330
1F
100
AcDbEntity
  8
一般
  6
Continuous
 62
     0
370
    25
100
AcDbLine
 10
315.8904722738091
 20
868.0266204580539
 30
0.0
 11
315.8904722738091
 21
384.6023056279146
 31
0.0
  0
ARC
  5
47E
330
1F
100
AcDbEntity
  8
一般
  6
Continuous
 62
     0
370
    25
100
AcDbCircle
 10
926.8904722738091
 20
634.6023056279146
 30
0.0
 40
20.0
100
AcDbArc
 50
270.0
 51
0.0
  0
ARC
  5
47F
330
1F
100
AcDbEntity
  8
一般
  6
Continuous
 62
     0
370
    25
100
AcDbCircle
 10
216.8904722738091
 20
634.6023056279146
 30
0.0
 40
20.0
100
AcDbArc
 50
180.0
 51
270.0
  0
LINE
  5
480
330
1F
100
AcDbEntity
  8
一般
  6
Continuous
 62
     0
370
    25
100
AcDbLine
 10
196.8904722738091
 20
604.6023056279146
 30
0.0
 11
196.8904722738091
 21
971.2570678363545
 31
0.0
  0
LINE
  5
481
330
1F
100
AcDbEntity
  8
一般
  6
Continuous
 62
     0
370
    25
100
AcDbLine
 10
946.8904722738091
 20
604.6023056279146
 30
0.0
 11
946.8904722738091
 21
971.2570678363545
 31
0.0
  0
LINE
  5
482
330
1F
100
AcDbEntity
  8
一般
  6
Continuous
 62
     0
370
    25
100
AcDbLine
 10
846.8904722738091
 20
868.0266204580539
 30
0.0
 11
827.8904722738109
 21
868.0266204580539
 31
0.0
  0
LINE
  5
483
330
1F
100
AcDbEntity
  8
一般
  6
Continuous
 62
     0
370
    25
100
AcDbLine
 10
315.8904722738091
 20
868.0266204580539
 30
0.0
 11
296.8904722738091
 21
868.0266204580539
 31
0.0
  0
LINE
  5
484
330
1F
100
AcDbEntity
  8
一般
  6
Continuous
 62
     0
370
    25
100
AcDbLine
 10
1172.901601969497
 20
975.3214217141544
 30
0.0
 11
1186.336630812041
 21
988.7564505566993
 31
0.0
  0
LINE
  5
485
330
1F
100
AcDbEntity
  8
一般
  6
Continuous
 62
     0
370
    25
100
AcDbLine
 10
1159.486403225597
 20
1517.032751623458
 30
0.0
 11
1159.486403225597
 21
2227.032751623458
 31
0.0
  0
LINE
  5
486
330
1F
100
AcDbEntity
  8
一般
  6
Continuous
 62
     0
370
    25
100
AcDbLine
 10
1279.486403225597
 20
1517.032751623458
 30
0.0
 11
1279.486403225597
 21
2127.032751623458
 31
0.0
  0
LINE
  5
487
330
1F
100
AcDbEntity
  8
一般
  6
Continuous
 62
     0
370
    25
100
AcDbLine
 10
1279.486403225597
 20
1497.032751623458
 30
0.0
 11
1279.486403225597
 21
1517.032751623458
 31
0.0
  0
LINE
  5
488
330
1F
100
AcDbEntity
  8
一般
  6
Continuous
 62
     0
370
    25
100
AcDbLine
 10
1159.486403225597
 20
1497.032751623458
 30
0.0
 11
1159.486403225597
 21
1517.032751623458
 31
0.0
  0
LINE
  5
489
330
1F
100
AcDbEntity
  8
一般
  6
Continuous
 62
     0
370
    25
100
AcDbLine
 10
1159.486403225597
 20
2227.032751623458
 30
0.0
 11
1159.486403225597
 21
2247.032751623458
 31
0.0
  0
LINE
  5
48A
330
1F
100
AcDbEntity
  8
一般
  6
Continuous
 62
     0
370
    25
100
AcDbLine
 10
1179.486403225597
 20
2247.032751623458
 30
0.0
 11
2759.486403225596
 21
2247.032751623458
 31
0.0
  0
LINE
  5
48B
330
1F
100
AcDbEntity
  8
一般
  6
Continuous
 62
     0
370
    25
100
AcDbLine
 10
1279.486403225597
 20
2127.032751623458
 30
0.0
 11
2729.486403225596
 21
2127.032751623458
 31
0.0
  0
LINE
  5
48C
330
1F
100
AcDbEntity
  8
一般
  6
Continuous
 62
     0
370
    25
100
AcDbLine
 10
2729.486403225596
 20
2127.032751623458
 30
0.0
 11
2759.486403225596
 21
2127.032751623458
 31
0.0
  0
LINE
  5
48D
330
1F
100
AcDbEntity
  8
一般
  6
Continuous
 62
     0
370
    25
100
AcDbLine
 10
1159.486403225597
 20
2247.032751623458
 30
0.0
 11
1179.486403225597
 21
2247.032751623458
 31
0.0
  0
LINE
  5
48E
330
1F
100
AcDbEntity
  8
一般
  6
Continuous
 62
     0
370
    25
100
AcDbLine
 10
1179.486403225597
 20
1497.032751623458
 30
0.0
 11
1259.486403225597
 21
1497.032751623458
 31
0.0
  0
LINE
  5
48F
330
1F
100
AcDbEntity
  8
一般
  6
Continuous
 62
     0
370
    25
100
AcDbLine
 10
1259.486403225597
 20
1497.032751623458
 30
0.0
 11
1279.486403225597
 21
1497.032751623458
 31
0.0
  0
LINE
  5
490
330
1F
100
AcDbEntity
  8
一般
  6
Continuous
 62
     0
370
    25
100
AcDbLine
 10
1299.486403225597
 20
1497.032751623458
 30
0.0
 11
1589.486403225597
 21
1497.032751623458
 31
0.0
  0
LINE
  5
491
330
1F
100
AcDbEntity
  8
一般
  6
Continuous
 62
     0
370
    25
100
AcDbLine
 10
1279.486403225597
 20
1497.032751623458
 30
0.0
 11
1299.486403225597
 21
1497.032751623458
 31
0.0
  0
LINE
  5
492
330
1F
100
AcDbEntity
  8
一般
  6
Continuous
 62
     0
370
    25
100
AcDbLine
 10
1629.486403225597
 20
1497.032751623458
 30
0.0
 11
2739.486403225596
 21
1497.032751623458
 31
0.0
  0
LINE
  5
493
330
1F
100
AcDbEntity
  8
一般
  6
Continuous
 62
     0
370
    25
100
AcDbLine
 10
1589.486403225597
 20
1497.032751623458
 30
0.0
 11
1629.486403225597
 21
1497.032751623458
 31
0.0
  0
LINE
  5
494
330
1F
100
AcDbEntity
  8
一般
  6
Continuous
 62
     0
370
    25
100
AcDbLine
 10
1159.486403225597
 20
1497.032751623458
 30
0.0
 11
1179.486403225597
 21
1497.032751623458
 31
0.0
  0
LINE
  5
495
330
1F
100
AcDbEntity
  8
一般
  6
Continuous
 62
     0
370
    25
100
AcDbLine
 10
2739.486403225596
 20
1497.032751623458
 30
0.0
 11
2759.486403225596
 21
1497.032751623458
 31
0.0
  0
LINE
  5
496
330
1F
100
AcDbEntity
  8
一般
  6
Continuous
 62
     0
370
    25
100
AcDbLine
 10
2759.486403225596
 20
1517.032751623458
 30
0.0
 11
2759.486403225596
 21
2007.032751623458
 31
0.0
  0
LINE
  5
497
330
1F
100
AcDbEntity
  8
一般
  6
Continuous
 62
     0
370
    25
100
AcDbLine
 10
2759.486403225596
 20
2157.032751623458
 30
0.0
 11
2759.486403225596
 21
2247.032751623458
 31
0.0
  0
LINE
  5
498
330
1F
100
AcDbEntity
  8
一般
  6
Continuous
 62
     0
370
    25
100
AcDbLine
 10
2759.486403225596
 20
2007.032751623458
 30
0.0
 11
2759.486403225596
 21
2157.032751623458
 31
0.0
  0
LINE
  5
499
330
1F
100
AcDbEntity
  8
一般
  6
Continuous
 62
     0
370
    25
100
AcDbLine
 10
2759.486403225596
 20
1497.032751623458
 30
0.0
 11
2759.486403225596
 21
1517.032751623458
 31
0.0
  0
LINE
  5
49A
330
1F
100
AcDbEntity
  8
一般
  6
Continuous
 62
     0
370
    25
100
AcDbLine
 10
1609.486403225597
 20
1517.032751623458
 30
0.0
 11
1609.486403225597
 21
2007.032751623458
 31
0.0
  0
LINE
  5
49B
330
1F
100
AcDbEntity
  8
一般
  6
Continuous
 62
     0
370
    25
100
AcDbLine
 10
1609.486403225597
 20
2007.032751623458
 30
0.0
 11
1609.486403225597
 21
2027.032751623458
 31
0.0
  0
LINE
  5
49C
330
1F
100
AcDbEntity
  8
一般
  6
Continuous
 62
     0
370
    25
100
AcDbLine
 10
1609.486403225597
 20
1497.032751623458
 30
0.0
 11
1609.486403225597
 21
1517.032751623458
 31
0.0
  0
LINE
  5
49D
330
1F
100
AcDbEntity
  8
一般
  6
Continuous
 62
     0
370
    25
100
AcDbLine
 10
2739.486403225596
 20
2027.032751623458
 30
0.0
 11
1629.486403225597
 21
2027.032751623458
 31
0.0
  0
LINE
  5
49E
330
1F
100
AcDbEntity
  8
一般
  6
Continuous
 62
     0
370
    25
100
AcDbLine
 10
2759.486403225596
 20
2027.032751623458
 30
0.0
 11
2739.486403225596
 21
2027.032751623458
 31
0.0
  0
LINE
  5
49F
330
1F
100
AcDbEntity
  8
一般
  6
Continuous
 62
     0
370
    25
100
AcDbLine
 10
1629.486403225597
 20
2027.032751623458
 30
0.0
 11
1609.486403225597
 21
2027.032751623458
 31
0.0
  0
LINE
  5
4A0
330
1F
100
AcDbEntity
  8
一般
  6
Continuous
 62
     0
370
    25
100
AcDbLine
 10
1609.486403225597
 20
2027.032751623458
 30
0.0
 11
1307.770674473058
 21
2103.945062247049
 31
0.0
  0
ARC
  5
4A1
330
1F
100
AcDbEntity
  8
一般
  6
Continuous
 62
     0
370
    25
100
AcDbCircle
 10
2739.486403225596
 20
1517.032751623458
 30
0.0
 40
20.0
100
AcDbArc
 50
270.0
 51
0.0
  0
ARC
  5
4A2
330
1F
100
AcDbEntity
  8
一般
  6
Continuous
 62
     0
370
    25
100
AcDbCircle
 10
2739.486403225596
 20
2227.032751623458
 30
0.0
 40
20.0
100
AcDbArc
 50
0.0
 51
90.0
  0
ARC
  5
4A3
330
1F
100
AcDbEntity
  8
一般
  6
Continuous
 62
     0
370
    25
100
AcDbCircle
 10
1179.486403225597
 20
2227.032751623458
 30
0.0
 40
20.0
100
AcDbArc
 50
90.0
 51
180.0
  0
ARC
  5
4A4
330
1F
100
AcDbEntity
  8
一般
  6
Continuous
 62
     0
370
    25
100
AcDbCircle
 10
1179.486403225597
 20
1517.032751623458
 30
0.0
 40
20.0
100
AcDbArc
 50
180.0
 51
270.0
  0
ARC
  5
4A5
330
1F
100
AcDbEntity
  8
一般
  6
Continuous
 62
     0
370
    25
100
AcDbCircle
 10
1589.486403225597
 20
1517.032751623458
 30
0.0
 40
20.0
100
AcDbArc
 50
270.0
 51
0.0
  0
ARC
  5
4A6
330
1F
100
AcDbEntity
  8
一般
  6
Continuous
 62
     0
370
    25
100
AcDbCircle
 10
1629.486403225597
 20
1517.032751623458
 30
0.0
 40
20.0
100
AcDbArc
 50
180.0
 51
270.0
  0
ARC
  5
4A7
330
1F
100
AcDbEntity
  8
一般
  6
Continuous
 62
     0
370
    25
100
AcDbCircle
 10
1629.486403225597
 20
2007.032751623458
 30
0.0
 40
20.0
100
AcDbArc
 50
90.0
 51
180.0
  0
DIMENSION
  5
4A8
330
1F
100
AcDbEntity
  8
寸法
 62
     0
100
AcDbDimension
  2
*D40
 10
1011.890472273809
 20
2247.032751623458
 30
0.0
 11
1000.531528388991
 21
1872.032751623458
 31
0.0
 70
    32
 71
     5
 42
750.0
  3
ﾏﾉｰﾈ_
100
AcDbAlignedDimension
 13
1159.486403225597
 23
1497.032751623458
 33
0.0
 14
1159.486403225597
 24
2247.032751623458
 34
0.0
 50
-90.0
100
AcDbRotatedDimension
1001
ACAD
1000
DSTYLE
1002
{
1070
   147
1040
0.5
1070
     3
1000
D<>
1070
   140
1040
21.71788776963578
1070
   340
1005
AE
1070
   279
1070
     2
1070
   271
1070
     2
1002
}
  0
DIMENSION
  5
4A9
330
1F
100
AcDbEntity
  8
寸法
 62
     0
100
AcDbDimension
  2
*D41
 10
2932.835490657667
 20
614.6023056279146
 30
0.0
 11
2918.724379546456
 21
609.7134167390259
 31
0.0
 70
   160
 71
     5
 42
19.0
  3
ﾏﾉｰﾈ_
100
AcDbAlignedDimension
 13
3029.486403225596
 23
595.6023056279146
 33
0.0
 14
3029.486403225596
 24
614.6023056279146
 34
0.0
 50
-90.0
100
AcDbRotatedDimension
1001
ACAD
1000
DSTYLE
1002
{
1070
   147
1040
0.0000000001
1070
   140
1040
21.71788194444445
1070
   340
1005
AE
1070
   279
1070
     2
1070
   271
1070
     2
1002
}
  0
DIMENSION
  5
4AA
330
1F
100
AcDbEntity
  8
寸法
 62
     0
100
AcDbDimension
  2
*D42
 10
2932.835490657667
 20
595.6023056279146
 30
0.0
 11
2921.476549685445
 21
490.1023056279146
 31
0.0
 70
    32
 71
     5
 42
211.0
  3
ﾏﾉｰﾈ_
100
AcDbAlignedDimension
 13
3029.486403225596
 23
384.6023056279146
 33
0.0
 14
3029.486403225596
 24
595.6023056279146
 34
0.0
 50
-90.0
100
AcDbRotatedDimension
1001
ACAD
1000
DSTYLE
1002
{
1070
   147
1040
0.5
1070
   140
1040
21.71788194444445
1070
   340
1005
AE
1070
   279
1070
     2
1070
   271
1070
     2
1002
}
  0
DIMENSION
  5
4AB
330
1F
100
AcDbEntity
  8
寸法
 62
     0
100
AcDbDimension
  2
*D43
 10
2823.986403225596
 20
754.6023056279146
 30
0.0
 11
2812.627462253374
 21
569.6023056279146
 31
0.0
 70
    32
 71
     5
 42
370.0
  3
ﾏﾉｰﾈ_
100
AcDbAlignedDimension
 13
2759.486403225596
 23
384.6023056279146
 33
0.0
 14
2759.486403225596
 24
754.6023056279146
 34
0.0
 50
-90.0
100
AcDbRotatedDimension
1001
ACAD
1000
DSTYLE
1002
{
1070
   147
1040
0.5
1070
     3
1000
SH<>
1070
   140
1040
21.71788194444445
1070
   340
1005
AE
1070
   279
1070
     2
1070
   271
1070
     2
1002
}
  0
ARC
  5
4AC
330
1F
100
AcDbEntity
  8
一般
  6
Continuous
 62
     0
370
    25
100
AcDbCircle
 10
3769.486403225596
 20
1064.602305627915
 30
0.0
 40
10.0
100
AcDbArc
 50
0.0
 51
90.0
  0
ARC
  5
4AD
330
1F
100
AcDbEntity
  8
一般
  6
Continuous
 62
     0
370
    25
100
AcDbCircle
 10
3039.486403225596
 20
1064.602305627915
 30
0.0
 40
10.0
100
AcDbArc
 50
90.0
 51
180.0
  0
ARC
  5
4AE
330
1F
100
AcDbEntity
  8
一般
  6
Continuous
 62
     0
370
    25
100
AcDbCircle
 10
3769.486403225596
 20
624.6023056279146
 30
0.0
 40
10.0
100
AcDbArc
 50
270.0
 51
0.0
  0
ARC
  5
4AF
330
1F
100
AcDbEntity
  8
一般
  6
Continuous
 62
     0
370
    25
100
AcDbCircle
 10
3039.486403225596
 20
624.6023056279146
 30
0.0
 40
10.0
100
AcDbArc
 50
180.0
 51
270.0
  0
ARC
  5
4B0
330
1F
100
AcDbEntity
  8
一般
  6
Continuous
 62
     0
370
    25
100
AcDbCircle
 10
2749.486403225596
 20
1064.602305627915
 30
0.0
 40
10.0
100
AcDbArc
 50
0.0
 51
90.0
  0
ARC
  5
4B1
330
1F
100
AcDbEntity
  8
一般
  6
Continuous
 62
     0
370
    25
100
AcDbCircle
 10
1179.116403225598
 20
1051.762305627914
 30
0.0
 40
22.86551989349917
100
AcDbArc
 50
87.29275899357849
 51
145.8373433605775
  0
DIMENSION
  5
4B2
330
1F
100
AcDbEntity
  8
寸法
 62
     0
100
AcDbDimension
  2
*D44
 10
1439.761666766429
 20
904.3270420870822
 30
0.0
 11
1395.838618312296
 21
860.4039936329492
 31
0.0
 70
   160
 71
     5
 42
120.0000000000002
  3
ﾏﾉｰﾈ_
100
AcDbAlignedDimension
 13
1377.645095941828
 23
796.7379854269116
 33
0.0
 14
1439.761666766429
 24
904.3270420870822
 34
0.0
 50
45.0
100
AcDbRotatedDimension
1001
ACAD
1000
DSTYLE
1002
{
1070
   147
1040
0.4999999999994458
1070
   140
1040
21.71788194444445
1070
   340
1005
AE
1070
   279
1070
     2
1070
   271
1070
     2
1002
}
  0
LINE
  5
4B3
330
1F
100
AcDbEntity
  8
一般
  6
Continuous
 62
     0
370
    25
100
AcDbLine
 10
3029.486403225596
 20
734.6023056279146
 30
0.0
 11
3572.81973655893
 21
734.6023056279146
 31
0.0
  0
LINE
  5
4B4
330
1F
100
AcDbEntity
  8
一般
  6
Continuous
 62
     0
370
    25
100
AcDbLine
 10
3049.486403225596
 20
754.6023056279146
 30
0.0
 11
3548.782728055837
 21
754.6023056279146
 31
0.0
  0
LINE
  5
4B5
330
1F
100
AcDbEntity
  8
一般
  6
Continuous
 62
     0
370
    25
100
AcDbLine
 10
3548.782728055837
 20
754.6023056279146
 30
0.0
 11
3557.278250493141
 21
754.6023056279146
 31
0.0
  0
LINE
  5
4B6
330
1F
100
AcDbEntity
  8
一般
  6
Continuous
 62
     0
370
    25
100
AcDbLine
 10
3029.486403225596
 20
754.6023056279146
 30
0.0
 11
3049.486403225596
 21
754.6023056279146
 31
0.0
  0
LINE
  5
4B7
330
1F
100
AcDbEntity
  8
一般
  6
Continuous
 62
     0
370
    25
100
AcDbLine
 10
3572.81973655893
 20
734.6023056279146
 30
0.0
 11
3657.567000905222
 21
1067.072342678748
 31
0.0
  0
LINE
  5
4B8
330
1F
100
AcDbEntity
  8
一般
  6
Continuous
 62
     0
370
    25
100
AcDbLine
 10
3657.567000905222
 20
1067.072342678748
 30
0.0
 11
3659.486403225596
 21
1074.602305627915
 31
0.0
  0
LINE
  5
4B9
330
1F
100
AcDbEntity
  8
一般
  6
Continuous
 62
     0
370
    25
100
AcDbLine
 10
3560.087980119203
 20
765.6250910840022
 30
0.0
 11
3630.53965137515
 21
1042.012416780415
 31
0.0
  0
LINE
  5
4BA
330
1F
100
AcDbEntity
  8
一般
  6
Continuous
 62
     0
370
    25
100
AcDbLine
 10
3630.53965137515
 20
1042.012416780415
 30
0.0
 11
3636.297858336277
 21
1064.602305627915
 31
0.0
  0
LINE
  5
4BB
330
1F
100
AcDbEntity
  8
一般
  6
Continuous
 62
     0
370
    25
100
AcDbLine
 10
3557.278250493141
 20
754.6023056279146
 30
0.0
 11
3560.087980119203
 21
765.6250910840022
 31
0.0
  0
ARC
  5
4BC
330
1F
100
AcDbEntity
  8
一般
  6
Continuous
 62
     0
370
    25
100
AcDbCircle
 10
1259.486403225597
 20
1517.032751623458
 30
0.0
 40
20.0
100
AcDbArc
 50
270.0
 51
0.0
  0
ARC
  5
4BD
330
1F
100
AcDbEntity
  8
一般
  6
Continuous
 62
     0
370
    25
100
AcDbCircle
 10
1299.486403225597
 20
1517.032751623458
 30
0.0
 40
20.0
100
AcDbArc
 50
180.0
 51
270.0
  0
ARC
  5
4BE
330
1F
100
AcDbEntity
  8
一般
  6
Continuous
 62
     0
370
    25
100
AcDbCircle
 10
2739.486403225596
 20
2007.032751623458
 30
0.0
 40
20.0
100
AcDbArc
 50
0.0
 51
90.0
  0
ARC
  5
4BF
330
1F
100
AcDbEntity
  8
一般
  6
Continuous
 62
     0
370
    25
100
AcDbCircle
 10
1260.566403225597
 20
1051.762305627914
 30
0.0
 40
22.86551989349917
100
AcDbArc
 50
34.16265663942252
 51
92.70724100642151
  0
LINE
  5
4C0
330
1F
100
AcDbEntity
  8
一般
  6
Continuous
 62
     0
370
    25
100
AcDbLine
 10
1279.486403225597
 20
1064.602305627915
 30
0.0
 11
1609.486403225597
 21
734.6023056279146
 31
0.0
  0
LINE
  5
4C1
330
1F
100
AcDbEntity
  8
一般
  6
Continuous
 62
     0
370
    25
100
AcDbLine
 10
1322.415335413732
 20
1049.957644687242
 30
0.0
 11
1617.770674473058
 21
754.6023056279146
 31
0.0
  0
LINE
  5
4C2
330
1F
100
AcDbEntity
  8
一般
  6
Continuous
 62
     0
370
    25
100
AcDbLine
 10
1307.770674473058
 20
1064.602305627915
 30
0.0
 11
1322.415335413732
 21
1049.957644687242
 31
0.0
  0
LINE
  5
4C3
330
1F
100
AcDbEntity
  8
一般
  6
Continuous
 62
     0
370
    25
100
AcDbLine
 10
1162.425099525573
 20
1012.667981843168
 30
0.0
 11
1579.490775740827
 21
595.6023056279146
 31
0.0
  0
LINE
  5
4C4
330
1F
100
AcDbEntity
  8
一般
  6
Continuous
 62
     0
370
    25
100
AcDbLine
 10
1159.486403225597
 20
1015.606678143144
 30
0.0
 11
1162.425099525573
 21
1012.667981843168
 31
0.0
  0
LINE
  5
4C5
330
1F
100
AcDbEntity
  8
一般
  6
Continuous
 62
     0
370
    25
100
AcDbLine
 10
1172.901601969497
 20
975.321421714154
 30
0.0
 11
1552.620718055737
 21
595.6023056279146
 31
0.0
  0
DIMENSION
  5
4C6
330
1F
100
AcDbEntity
  8
寸法
 62
     0
100
AcDbDimension
  2
*D45
 10
1609.486403225597
 20
1147.602305627915
 30
0.0
 11
2184.486403225596
 21
1158.961246600137
 31
0.0
 70
    32
 71
     5
 42
1149.999999999999
  3
ﾏﾉｰﾈ_
100
AcDbAlignedDimension
 13
2759.486403225596
 23
1064.602305627915
 33
0.0
 14
1609.486403225597
 24
734.6023056279146
 34
0.0
100
AcDbRotatedDimension
1001
ACAD
1000
DSTYLE
1002
{
1070
   147
1040
0.5
1070
   140
1040
21.71788194444445
1070
   340
1005
AE
1070
   279
1070
     2
1070
   271
1070
     2
1002
}
  0
DIMENSION
  5
4C7
330
1F
100
AcDbEntity
  8
寸法
 62
     0
100
AcDbDimension
  2
*D46
 10
1159.486403225597
 20
1147.602305627915
 30
0.0
 11
1219.486403225597
 21
1158.961246600137
 31
0.0
 70
    32
 71
     5
 42
120.0
  3
ﾏﾉｰﾈ_
100
AcDbAlignedDimension
 13
1279.486403225597
 23
1064.602305627915
 33
0.0
 14
1159.486403225597
 24
1064.602305627915
 34
0.0
100
AcDbRotatedDimension
1001
ACAD
1000
DSTYLE
1002
{
1070
   147
1040
0.5
1070
   140
1040
21.71788194444445
1070
   340
1005
AE
1070
   279
1070
     2
1070
   271
1070
     2
1002
}
  0
DIMENSION
  5
4C8
330
1F
100
AcDbEntity
  8
寸法
 62
     0
100
AcDbDimension
  2
*D47
 10
1279.486403225597
 20
1147.602305627915
 30
0.0
 11
1444.486403225597
 21
1158.961246600137
 31
0.0
 70
    32
 71
     5
 42
330.0
  3
ﾏﾉｰﾈ_
100
AcDbAlignedDimension
 13
1609.486403225597
 23
734.6023056279146
 33
0.0
 14
1279.486403225597
 24
1064.602305627915
 34
0.0
100
AcDbRotatedDimension
1001
ACAD
1000
DSTYLE
1002
{
1070
   147
1040
0.5
1070
   140
1040
21.71788194444445
1070
   340
1005
AE
1070
   279
1070
     2
1070
   271
1070
     2
1002
}
  0
ARC
  5
4C9
330
1F
100
AcDbEntity
  8
一般
  6
Continuous
 62
     0
370
    25
100
AcDbCircle
 10
3049.486403225596
 20
734.6023056279146
 30
0.0
 40
20.0
100
AcDbArc
 50
90.0
 51
180.0
  0
ARC
  5
4CA
330
1F
100
AcDbEntity
  8
一般
  6
Continuous
 62
     0
370
    25
100
AcDbCircle
 10
3667.257146258492
 20
1064.602305627914
 30
0.0
 40
10.00000000000091
100
AcDbArc
 50
90.0
 51
165.6997225508095
  0
ARC
  5
4CB
330
1F
100
AcDbEntity
  8
一般
  6
Continuous
 62
     0
370
    25
100
AcDbCircle
 10
3548.782728055837
 20
734.6023056279146
 30
0.0
 40
20.00000000000003
100
AcDbArc
 50
33.69006752598015
 51
90.0
  0
ARC
  5
4CC
330
1F
100
AcDbEntity
  8
一般
  6
Continuous
 62
     0
370
    25
100
AcDbCircle
 10
3579.468270825743
 20
760.685016982336
 30
0.0
 40
19.99999999999893
100
AcDbArc
 50
165.6997225508171
 51
213.690067525983
  0
ARC
  5
4CD
330
1F
100
AcDbEntity
  8
一般
  6
Continuous
 62
     0
370
    25
100
AcDbCircle
 10
206.8904722738091
 20
1064.602305627915
 30
0.0
 40
10.0
100
AcDbArc
 50
90.0
 51
180.0
  0
ARC
  5
4CE
330
1F
100
AcDbEntity
  8
一般
  6
Continuous
 62
     0
370
    25
100
AcDbCircle
 10
936.8904722738091
 20
1064.602305627915
 30
0.0
 40
10.0
100
AcDbArc
 50
0.0
 51
90.0
  0
ARC
  5
4CF
330
1F
100
AcDbEntity
  8
一般
  6
Continuous
 62
     0
370
    25
100
AcDbCircle
 10
1287.059996354402
 20
1014.602305627915
 30
0.0
 40
50.00000000000137
100
AcDbArc
 50
44.99999999999779
 51
89.9999999999979
  0
LINE
  5
4D0
330
1F
100
AcDbEntity
  8
一般
  6
Continuous
 62
     0
370
    25
100
AcDbLine
 10
1617.770674473058
 20
754.6023056279146
 30
0.0
 11
1609.486403225597
 21
734.6023056279146
 31
0.0
  0
ARC
  5
4D1
330
1F
100
AcDbEntity
  8
一般
  6
Continuous
 62
     0
370
    25
100
AcDbCircle
 10
3659.610087434962
 20
1034.602305627915
 30
0.0
 40
29.99999999999909
100
AcDbArc
 50
90.00000000000348
 51
165.6997225508168
  0
DIMENSION
  5
4D2
330
1F
100
AcDbEntity
  8
寸法
 62
     0
100
AcDbDimension
  2
*D48
 10
3029.486403225596
 20
1143.602305627915
 30
0.0
 11
3294.486403225596
 21
1154.961246761948
 31
0.0
 70
    32
 71
     5
 42
530.0
  3
ﾏﾉｰﾈ_
100
AcDbAlignedDimension
 13
3559.486403225596
 23
754.6023056279146
 33
0.0
 14
3029.486403225596
 24
1074.602305627915
 34
0.0
100
AcDbRotatedDimension
1001
ACAD
1000
DSTYLE
1002
{
1070
   147
1040
0.5
1070
   140
1040
21.71788226806608
1070
   340
1005
AE
1070
   279
1070
     2
1070
   271
1070
     2
1002
}
  0
DIMENSION
  5
4D3
330
1F
100
AcDbEntity
  8
寸法
 62
     0
100
AcDbDimension
  2
*D49
 10
3559.486403225596
 20
1143.602305627915
 30
0.0
 11
3609.486403225596
 21
1154.961246761948
 31
0.0
 70
    32
 71
     5
 42
100.0
  3
ﾏﾉｰﾈ_
100
AcDbAlignedDimension
 13
3659.486403225596
 23
1074.602305627915
 33
0.0
 14
3559.486403225596
 24
774.6023056279146
 34
0.0
100
AcDbRotatedDimension
1001
ACAD
1000
DSTYLE
1002
{
1070
   147
1040
0.5
1070
   140
1040
21.71788226806608
1070
   340
1005
AE
1070
   279
1070
     2
1070
   271
1070
     2
1002
}
  0
DIMENSION
  5
4D4
330
1F
100
AcDbEntity
  8
寸法
 62
     0
100
AcDbDimension
  2
*D50
 10
1159.486403225597
 20
1397.032751623458
 30
0.0
 11
1219.486403225597
 21
1408.391692757491
 31
0.0
 70
    32
 71
     5
 42
120.0
  3
ﾏﾉｰﾈ_
100
AcDbAlignedDimension
 13
1279.486403225597
 23
1497.032751623458
 33
0.0
 14
1159.486403225597
 24
1497.032751623458
 34
0.0
100
AcDbRotatedDimension
1001
ACAD
1000
DSTYLE
1002
{
1070
   147
1040
0.5
1070
   140
1040
21.71788226806608
1070
   340
1005
AE
1070
   279
1070
     2
1070
   271
1070
     2
1002
}
  0
ARC
  5
4D5
330
1F
100
AcDbEntity
  8
一般
  6
Continuous
 62
     0
370
    25
100
AcDbCircle
 10
2729.486403225596
 20
2157.032751623458
 30
0.0
 40
30.0
100
AcDbArc
 50
270.0
 51
0.0
  0
DIMENSION
  5
4D6
330
1F
100
AcDbEntity
  8
寸法
 62
     0
100
AcDbDimension
  2
*D51
 10
2932.835490657667
 20
1074.602305627915
 30
0.0
 11
2921.476549523634
 21
914.6023056279148
 31
0.0
 70
    32
 71
     5
 42
320.0000000000005
  3
ﾏﾉｰﾈ_
100
AcDbAlignedDimension
 13
3029.486403225596
 23
754.6023056279146
 33
0.0
 14
3029.486403225596
 24
1074.602305627915
 34
0.0
 50
-90.0
100
AcDbRotatedDimension
1001
ACAD
1000
DSTYLE
1002
{
1070
   147
1040
0.5
1070
   140
1040
21.71788226806608
1070
   340
1005
AE
1070
   279
1070
     2
1070
   271
1070
     2
1002
}
  0
DIMENSION
  5
4D7
330
1F
100
AcDbEntity
  8
寸法
 62
     0
100
AcDbDimension
  2
*D52
 10
2932.835490657667
 20
614.6023056279146
 30
0.0
 11
2921.476549523634
 21
684.6023056279146
 31
0.0
 70
    32
 71
     5
 42
140.0
  3
ﾏﾉｰﾈ_
100
AcDbAlignedDimension
 13
3029.486403225596
 23
754.6023056279146
 33
0.0
 14
3039.486403225596
 24
614.6023056279146
 34
0.0
 50
-90.0
100
AcDbRotatedDimension
1001
ACAD
1000
DSTYLE
1002
{
1070
   147
1040
0.5
1070
   140
1040
21.71788226806608
1070
   340
1005
AE
1070
   279
1070
     2
1070
   271
1070
     2
1002
}
  0
DIMENSION
  5
4D8
330
1F
100
AcDbEntity
  8
寸法
 62
     0
100
AcDbDimension
  2
*D53
 10
1159.486403225597
 20
2322.032751623458
 30
0.0
 11
1959.486403225596
 21
2333.391692757491
 31
0.0
 70
    32
 71
     5
 42
1599.999999999999
  3
ﾏﾉｰﾈ_
100
AcDbAlignedDimension
 13
2759.486403225596
 23
2247.032751623458
 33
0.0
 14
1159.486403225597
 24
2247.032751623458
 34
0.0
100
AcDbRotatedDimension
1001
ACAD
1000
DSTYLE
1002
{
1070
   147
1040
0.5
1070
     3
1000
W<>
1070
   140
1040
21.71788226806608
1070
   340
1005
AE
1070
   279
1070
     2
1070
   271
1070
     2
1002
}
  0
DIMENSION
  5
4D9
330
1F
100
AcDbEntity
  8
寸法
 62
     0
100
AcDbDimension
  2
*D54
 10
1279.486403225597
 20
1397.032751623458
 30
0.0
 11
1444.486403225597
 21
1408.391692757491
 31
0.0
 70
    32
 71
     5
 42
330.0
  3
ﾏﾉｰﾈ_
100
AcDbAlignedDimension
 13
1609.486403225597
 23
1497.032751623458
 33
0.0
 14
1279.486403225597
 24
1477.032751623458
 34
0.0
100
AcDbRotatedDimension
1001
ACAD
1000
DSTYLE
1002
{
1070
   147
1040
0.5
1070
   140
1040
21.71788226806608
1070
   340
1005
AE
1070
   279
1070
     2
1070
   271
1070
     2
1002
}
  0
DIMENSION
  5
4DA
330
1F
100
AcDbEntity
  8
寸法
 62
     0
100
AcDbDimension
  2
*D55
 10
1609.486403225597
 20
1397.032751623458
 30
0.0
 11
2184.486403225596
 21
1408.391692757491
 31
0.0
 70
    32
 71
     5
 42
1149.999999999999
  3
ﾏﾉｰﾈ_
100
AcDbAlignedDimension
 13
2759.486403225596
 23
1497.032751623458
 33
0.0
 14
1609.486403225597
 24
1497.032751623458
 34
0.0
100
AcDbRotatedDimension
1001
ACAD
1000
DSTYLE
1002
{
1070
   147
1040
0.5
1070
   140
1040
21.71788226806608
1070
   340
1005
AE
1070
   279
1070
     2
1070
   271
1070
     2
1002
}
  0
LINE
  5
4DB
330
1F
100
AcDbEntity
  8
一般
  6
Continuous
 62
     0
370
    25
100
AcDbLine
 10
1307.770674473058
 20
1497.032751623458
 30
0.0
 11
1307.770674473058
 21
2103.945062247048
 31
0.0
  0
LINE
  5
4DC
330
1F
100
AcDbEntity
  8
一般
  6
Continuous
 62
     0
370
    25
100
AcDbLine
 10
2759.486403225596
 20
2103.945062247049
 30
0.0
 11
1307.770674473058
 21
2103.945062247049
 31
0.0
  0
LINE
  5
4DD
330
1F
100
AcDbEntity
  8
一般
  6
Continuous
 62
     0
370
    25
100
AcDbLine
 10
1307.770674473058
 20
2103.945062247049
 30
0.0
 11
1279.486403225597
 21
2127.032751623458
 31
0.0
  0
DIMENSION
  5
4DE
330
1F
100
AcDbEntity
  8
寸法
 62
     0
100
AcDbDimension
  2
*D56
 10
3857.486403225596
 20
1074.602305627915
 30
0.0
 11
3846.127462091563
 21
729.6023056279148
 31
0.0
 70
    32
 71
     5
 42
690.0000000000005
  3
ﾏﾉｰﾈ_
100
AcDbAlignedDimension
 13
3779.486403225596
 23
384.6023056279146
 33
0.0
 14
3779.486403225596
 24
1074.602305627915
 34
0.0
 50
-90.0
100
AcDbRotatedDimension
1001
ACAD
1000
DSTYLE
1002
{
1070
   147
1040
0.5
1070
   140
1040
21.71788226806608
1070
   340
1005
AE
1070
   279
1070
     2
1070
   271
1070
     2
1002
}
  0
DIMENSION
  5
4DF
330
1F
100
AcDbEntity
  8
寸法
 62
     0
100
AcDbDimension
  2
*D57
 10
3779.486403225596
 20
1143.602305627915
 30
0.0
 11
3719.486403225596
 21
1154.961246761948
 31
0.0
 70
    32
 71
     5
 42
120.0
  3
ﾏﾉｰﾈ_
100
AcDbAlignedDimension
 13
3659.486403225596
 23
1074.602305627915
 33
0.0
 14
3779.486403225596
 24
1074.602305627915
 34
0.0
100
AcDbRotatedDimension
1001
ACAD
1000
DSTYLE
1002
{
1070
   147
1040
0.5
1070
   140
1040
21.71788226806608
1070
   340
1005
AE
1070
   279
1070
     2
1070
   271
1070
     2
1002
}
  0
DIMENSION
  5
4E0
330
1F
100
AcDbEntity
  8
寸法
 62
     0
100
AcDbDimension
  2
*D58
 10
296.8904722738091
 20
280.6023056279146
 30
0.0
 11
571.8904722738091
 21
291.9612467619476
 31
0.0
 70
    32
 71
     5
 42
550.0
  3
ﾏﾉｰﾈ_
100
AcDbAlignedDimension
 13
846.8904722738091
 23
384.6023056279146
 33
0.0
 14
296.8904722738091
 24
384.6023056279146
 34
0.0
100
AcDbRotatedDimension
1001
ACAD
1000
DSTYLE
1002
{
1070
   147
1040
0.5
1070
   140
1040
21.71788226806608
1070
   340
1005
AE
1070
   279
1070
     2
1070
   271
1070
     2
1002
}
  0
DIMENSION
  5
4E1
330
1F
100
AcDbEntity
  8
寸法
 62
     0
100
AcDbDimension
  2
*D59
 10
196.8904722738109
 20
280.6023056279146
 30
0.0
 11
246.89047227381
 21
291.9612467619476
 31
0.0
 70
    32
 71
     5
 42
99.99999999999821
  3
ﾏﾉｰﾈ_
100
AcDbAlignedDimension
 13
296.8904722738091
 23
384.6023056279146
 33
0.0
 14
196.8904722738109
 24
384.6023056279146
 34
0.0
100
AcDbRotatedDimension
1001
ACAD
1000
DSTYLE
1002
{
1070
   147
1040
0.5
1070
   140
1040
21.71788226806608
1070
   340
1005
AE
1070
   279
1070
     2
1070
   271
1070
     2
1002
}
  0
LINE
  5
4E2
330
1F
100
AcDbEntity
  8
一般
  6
Continuous
 62
     0
370
    25
100
AcDbLine
 10
827.8904722738091
 20
768.0266204580539
 30
0.0
 11
315.8904722738091
 21
768.0266204580539
 31
0.0
  0
DIMENSION
  5
4E3
330
1F
100
AcDbEntity
  8
寸法
 62
     0
100
AcDbDimension
  2
*D60
 10
1159.486403225597
 20
240.6023056279146
 30
0.0
 11
1219.486403225597
 21
251.9612467619476
 31
0.0
 70
    32
 71
     5
 42
120.0
  3
ﾏﾉｰﾈ_
100
AcDbAlignedDimension
 13
1279.486403225597
 23
384.6023056279146
 33
0.0
 14
1159.486403225597
 24
1019.038813766875
 34
0.0
100
AcDbRotatedDimension
1001
ACAD
1000
DSTYLE
1002
{
1070
   147
1040
0.5
1070
   140
1040
21.71788226806608
1070
   340
1005
AE
1070
   279
1070
     2
1070
   271
1070
     2
1002
}
  0
DIMENSION
  5
4E4
330
1F
100
AcDbEntity
  8
寸法
 62
     0
100
AcDbDimension
  2
*D61
 10
2740.486403225596
 20
298.1023056279146
 30
0.0
 11
2749.986403225596
 21
309.4612467619476
 31
0.0
 70
    32
 71
     5
 42
19.0
  3
ﾏﾉｰﾈ_
100
AcDbAlignedDimension
 13
2759.486403225596
 23
384.6023056279146
 33
0.0
 14
2740.486403225596
 24
384.6023056279146
 34
0.0
100
AcDbRotatedDimension
1001
ACAD
1000
DSTYLE
1002
{
1070
   147
1040
0.5
1070
   140
1040
21.71788226806608
1070
   340
1005
AE
1070
   279
1070
     2
1070
   271
1070
     2
1002
}
  0
DIMENSION
  5
4E5
330
1F
100
AcDbEntity
  8
寸法
 62
     0
100
AcDbDimension
  2
*D62
 10
2759.486403225596
 20
240.6023056279146
 30
0.0
 11
2019.486403225596
 21
251.9612467619476
 31
0.0
 70
    32
 71
     5
 42
1479.999999999999
  3
ﾏﾉｰﾈ_
100
AcDbAlignedDimension
 13
1279.486403225597
 23
384.6023056279146
 33
0.0
 14
2759.486403225596
 24
384.6023056279146
 34
0.0
100
AcDbRotatedDimension
1001
ACAD
1000
DSTYLE
1002
{
1070
   147
1040
0.5
1070
   140
1040
21.71788226806608
1070
   340
1005
AE
1070
   279
1070
     2
1070
   271
1070
     2
1002
}
  0
DIMENSION
  5
4E6
330
1F
100
AcDbEntity
  8
寸法
 62
     0
100
AcDbDimension
  2
*D63
 10
1560.490775740827
 20
469.6023056279146
 30
0.0
 11
2159.988589483211
 21
480.9612467619476
 31
0.0
 70
    32
 71
     5
 42
1198.995627484769
  3
ﾏﾉｰﾈ_
100
AcDbAlignedDimension
 13
2759.486403225596
 23
614.6023056279146
 33
0.0
 14
1560.490775740827
 24
614.6023056279146
 34
0.0
100
AcDbRotatedDimension
1001
ACAD
1000
DSTYLE
1002
{
1070
   147
1040
0.5
1070
   140
1040
21.71788226806608
1070
   340
1005
AE
1070
   279
1070
     2
1070
   271
1070
     2
1002
}
  0
DIMENSION
  5
4E7
330
1F
100
AcDbEntity
  8
寸法
 62
     0
100
AcDbDimension
  2
*D64
 10
196.8904722738109
 20
225.6023056279146
 30
0.0
 11
571.89047227381
 21
236.9612467619476
 31
0.0
 70
    33
 71
     5
 42
749.9999999999982
  3
ﾏﾉｰﾈ_
100
AcDbAlignedDimension
 13
946.8904722738091
 23
384.6023056279146
 33
0.0
 14
196.8904722738109
 24
384.6023056279146
 34
0.0
1001
ACAD
1000
DSTYLE
1002
{
1070
   147
1040
0.5
1070
   140
1040
21.71788226806608
1070
   340
1005
AE
1070
   279
1070
     2
1070
   271
1070
     2
1002
}
  0
DIMENSION
  5
4E8
330
1F
100
AcDbEntity
  8
寸法
 62
     0
100
AcDbDimension
  2
*D65
 10
3501.794228273684
 20
903.2661317185102
 30
0.0
 11
3459.606155626173
 21
880.2943976884904
 31
0.0
 70
   165
 71
     5
 42
1.820383252231877
  3
ﾏﾉｰﾈ_
100
AcDb3PointAngularDimension
 13
3049.486403225596
 23
754.6023056279146
 33
0.0
 14
3630.53965137515
 24
1042.012416780415
 34
0.0
 15
3557.278250493141
 25
754.6023056279146
 35
0.0
1001
ACAD
1000
DSTYLE
1002
{
1070
   147
1040
0.5
1070
     3
1000
<> 
1070
   140
1040
21.71788226806608
1070
   340
1005
AE
1070
   342
1005
CD
1070
   279
1070
     2
1070
   275
1070
     0
1070
   179
1070
     0
1002
}
  0
LINE
  5
4E9
330
1F
100
AcDbEntity
  8
一般
  6
Continuous
 62
     0
370
    25
100
AcDbLine
 10
946.8904722738091
 20
974.6143149329673
 30
0.0
 11
196.8904722738091
 21
974.6143149329673
 31
0.0
  0
LINE
  5
4EA
330
1F
100
AcDbEntity
  8
一般
  6
Continuous
 62
     0
370
    25
100
AcDbLine
 10
946.8904722738091
 20
988.0493437755126
 30
0.0
 11
196.8904722738091
 21
988.0493437755126
 31
0.0
  0
LINE
  5
4EB
330
1F
100
AcDbEntity
  8
一般
  6
Continuous
 62
     0
370
    25
100
AcDbLine
 10
1307.770674473058
 20
1064.602305627915
 30
0.0
 11
1297.770674473058
 21
1074.602305627915
 31
0.0
  0
ARC
  5
4EC
330
1F
100
AcDbEntity
  8
一般
  6
Continuous
 62
     0
370
    25
100
AcDbCircle
 10
1169.496167337438
 20
1019.739049655033
 30
0.0
 40
9.999999999998852
100
AcDbArc
 50
179.2679043701465
 51
225.0
  0
CIRCLE
  5
673
330
1F
100
AcDbEntity
  8
0
 62
     0
370
    13
100
AcDbCircle
 10
69.1965857222151
 20
750.76689722352
 30
0.0
 40
31.33875999999873
  0
POLYLINE
  5
674
330
1F
100
AcDbEntity
  8
0
 62
     0
370
    13
100
AcDb2dPolyline
 66
     1
 10
0.0
 20
0.0
 30
0.0
 70
   128
  0
VERTEX
  5
675
330
674
100
AcDbEntity
  8
0
 62
     0
370
    13
100
AcDbVertex
100
AcDb2dVertex
 10
417.5298657222168
 20
496.1836172235206
 30
0.0
  0
VERTEX
  5
676
330
674
100
AcDbEntity
  8
0
 62
     0
370
    13
100
AcDbVertex
100
AcDb2dVertex
 10
93.47774572221556
 20
726.4857372235195
 30
0.0
  0
VERTEX
  5
677
330
674
100
AcDbEntity
  8
0
 62
     0
370
    13
100
AcDbVertex
100
AcDb2dVertex
 10
91.3563157222136
 20
728.6070172235185
 30
0.0
  0
SEQEND
  5
678
330
674
100
AcDbEntity
  8
0
 62
     0
370
    13
  0
INSERT
  5
67D
330
1F
100
AcDbEntity
  8
190-図面外枠
 62
     0
100
AcDbBlockReference
  2
A$C5D946DDC
 10
-39645.46680015718
 20
-28111.81457957015
 30
0.0
 41
4.000000000014552
 42
3.999999999978171
 43
10.0
  0
LINE
  5
67E
330
1F
100
AcDbEntity
  8
191-図面内枠
 62
     0
100
AcDbLine
 10
-90.31255759987175
 20
160.7620871113422
 30
0.0
 11
3959.294109053836
 21
160.7620871113422
 31
0.0
  0
POINT
  5
680
330
1F
100
AcDbEntity
  8
191-図面内枠
  6
Continuous
 62
     0
370
     5
100
AcDbPoint
 10
-90.31255759987175
 20
-111.5479128878005
 30
0.0
  0
LINE
  5
685
330
1F
100
AcDbEntity
  8
191-図面内枠
 62
     0
100
AcDbLine
 10
3665.816792388197
 20
160.7620871113422
 30
0.0
 11
3665.816792388197
 21
-111.5479128878005
 31
0.0
  0
LINE
  5
687
330
1F
100
AcDbEntity
  8
191-図面内枠
 62
     0
100
AcDbLine
 10
3031.857593598471
 20
160.7620871113422
 30
0.0
 11
3031.857593598471
 21
-111.5479128878005
 31
0.0
  0
LINE
  5
688
330
1F
100
AcDbEntity
  8
191-図面内枠
 62
     0
100
AcDbLine
 10
2857.281322412583
 20
160.7620871113422
 30
0.0
 11
2857.281322412583
 21
-111.5479128878005
 31
0.0
  0
LINE
  5
689
330
1F
100
AcDbEntity
  8
191-図面内枠
 62
     0
100
AcDbLine
 10
2857.281322412583
 20
109.3132537781653
 30
0.0
 11
3031.857593598471
 21
109.3132537781653
 31
0.0
  0
LINE
  5
68A
330
1F
100
AcDbEntity
  8
191-図面内枠
 62
     0
100
AcDbLine
 10
1316.441417536272
 20
160.7620871113422
 30
0.0
 11
1316.441417536272
 21
-111.5479128878005
 31
0.0
  0
LINE
  5
68B
330
1F
100
AcDbEntity
  8
191-図面内枠
 62
     0
100
AcDbLine
 10
1362.479804716696
 20
160.7620871113422
 30
0.0
 11
1362.479804716696
 21
-111.5479128878005
 31
0.0
  0
LINE
  5
68C
330
1F
100
AcDbEntity
  8
191-図面内枠
 62
     0
100
AcDbLine
 10
1422.801074616656
 20
160.7620871113422
 30
0.0
 11
1422.801074616656
 21
-111.5479128878005
 31
0.0
  0
LINE
  5
68E
330
1F
100
AcDbEntity
  8
191-図面内枠
 62
     0
100
AcDbLine
 10
1362.479804716696
 20
-2.214579554855391
 30
0.0
 11
2857.281322412583
 21
-2.214579554855391
 31
0.0
  0
LINE
  5
68F
330
1F
100
AcDbEntity
  8
191-図面内枠
 62
     0
100
AcDbLine
 10
1362.479804716696
 20
-56.88124622152236
 30
0.0
 11
2857.281322412583
 21
-56.88124622152236
 31
0.0
  0
LINE
  5
693
330
1F
100
AcDbEntity
  8
191-図面内枠
 62
     0
100
AcDbLine
 10
1362.479804716696
 20
52.11875377848082
 30
0.0
 11
2857.281322412701
 21
52.11875377848082
 31
0.0
  0
LINE
  5
697
330
1F
100
AcDbEntity
  8
191-図面内枠
 62
     0
100
AcDbLine
 10
1362.479804716696
 20
106.4520871118125
 30
0.0
 11
2857.281322412701
 21
106.4520871118125
 31
0.0
  0
LINE
  5
698
330
1F
100
AcDbEntity
  8
191-図面内枠
 62
     0
100
AcDbLine
 10
1641.015018774934
 20
160.7620871113422
 30
0.0
 11
1641.015018774934
 21
-111.5479128878005
 31
0.0
  0
LINE
  5
69B
330
1F
100
AcDbEntity
  8
190-図面外枠
 62
     0
100
AcDbLine
 10
-90.31255759987175
 20
2612.839292511354
 30
0.0
 11
3959.294109062913
 21
2612.839292511354
 31
0.0
  0
LINE
  5
6A5
330
1F
100
AcDbEntity
  8
0
 62
     0
370
    13
100
AcDbLine
 10
2972.527471077384
 20
2559.452625844695
 30
0.0
 11
3941.079348505692
 21
2559.452625844695
 31
0.0
  0
LINE
  5
6A6
330
1F
100
AcDbEntity
  8
0
 62
     0
370
    13
100
AcDbLine
 10
2972.527471077384
 20
2513.869275844696
 30
0.0
 11
3941.079348505692
 21
2513.869275844696
 31
0.0
  0
LINE
  5
6A7
330
1F
100
AcDbEntity
  8
0
 62
     0
370
    13
100
AcDbLine
 10
2972.527471077384
 20
2468.285935844695
 30
0.0
 11
3941.079348505692
 21
2468.285935844695
 31
0.0
  0
LINE
  5
6A8
330
1F
100
AcDbEntity
  8
0
 62
     0
370
    13
100
AcDbLine
 10
2972.527471077384
 20
2422.702607530769
 30
0.0
 11
3941.079348505692
 21
2422.702628241001
 31
0.0
  0
LINE
  5
6A9
330
1F
100
AcDbEntity
  8
0
 62
     0
370
    13
100
AcDbLine
 10
2972.527471077384
 20
2377.119285844695
 30
0.0
 11
3941.079348505692
 21
2377.119285844695
 31
0.0
  0
LINE
  5
6AA
330
1F
100
AcDbEntity
  8
0
 62
     0
370
    13
100
AcDbLine
 10
2972.527471077384
 20
2331.535945844695
 30
0.0
 11
3941.079348505692
 21
2331.535945844695
 31
0.0
  0
LINE
  5
6AB
330
1F
100
AcDbEntity
  8
0
 62
     0
370
    13
100
AcDbLine
 10
2972.527471077384
 20
2559.452625844695
 30
0.0
 11
2972.527471077384
 21
2149.202615844693
 31
0.0
  0
LINE
  5
6AC
330
1F
100
AcDbEntity
  8
0
 62
     0
370
    13
100
AcDbLine
 10
3078.191231077381
 20
2559.452625844695
 30
0.0
 11
3078.191231077381
 21
2149.202615844693
 31
0.0
  0
LINE
  5
6AD
330
1F
100
AcDbEntity
  8
0
 62
     0
370
    13
100
AcDbLine
 10
3716.9442285057
 20
2559.452625844695
 30
0.0
 11
3716.9442285057
 21
2149.202615844693
 31
0.0
  0
LINE
  5
6AE
330
1F
100
AcDbEntity
  8
0
 62
     0
370
    13
100
AcDbLine
 10
3829.011788505696
 20
2559.452625844695
 30
0.0
 11
3829.011788505696
 21
2149.202615844693
 31
0.0
  0
LINE
  5
6B5
330
1F
100
AcDbEntity
  8
0
 62
     0
370
    13
100
AcDbLine
 10
2972.527471077384
 20
2285.952605844694
 30
0.0
 11
3941.079348505692
 21
2285.952605844694
 31
0.0
  0
LINE
  5
6B6
330
1F
100
AcDbEntity
  8
0
 62
     0
370
    13
100
AcDbLine
 10
2972.527471077384
 20
2240.369277530768
 30
0.0
 11
3941.079348505692
 21
2240.369298240999
 31
0.0
  0
LINE
  5
6B7
330
1F
100
AcDbEntity
  8
0
 62
     0
370
    13
100
AcDbLine
 10
2972.527471077384
 20
2194.785955844693
 30
0.0
 11
3941.079348505692
 21
2194.785955844693
 31
0.0
  0
LINE
  5
6B8
330
1F
100
AcDbEntity
  8
0
 62
     0
370
    13
100
AcDbLine
 10
2972.527471077384
 20
2149.202615844693
 30
0.0
 11
3941.079348505692
 21
2149.202615844693
 31
0.0
  0
LINE
  5
6C3
330
1F
100
AcDbEntity
  8
0
 62
     0
370
    13
100
AcDbLine
 10
3829.011788505696
 20
2559.452625844695
 30
0.0
 11
3829.011788505696
 21
2149.202615844693
 31
0.0
  0
LINE
  5
6C4
330
1F
100
AcDbEntity
  8
0
 62
     0
370
    13
100
AcDbLine
 10
3941.079348505692
 20
2559.452625844695
 30
0.0
 11
3941.079348505692
 21
2149.202615844693
 31
0.0
  0
CIRCLE
  5
6C9
330
1F
100
AcDbEntity
  8
0
 62
     0
370
    13
100
AcDbCircle
 10
1038.183555740825
 20
859.0917110273717
 30
0.0
 40
31.33875999999873
  0
POLYLINE
  5
6CA
330
1F
100
AcDbEntity
  8
0
 62
     0
370
    13
100
AcDb2dPolyline
 66
     1
 10
0.0
 20
0.0
 30
0.0
 70
   128
  0
VERTEX
  5
6CB
330
6CA
100
AcDbEntity
  8
0
 62
     0
370
    13
100
AcDbVertex
100
AcDb2dVertex
 10
1386.516835740826
 20
604.5084310273724
 30
0.0
  0
VERTEX
  5
6CC
330
6CA
100
AcDbEntity
  8
0
 62
     0
370
    13
100
AcDbVertex
100
AcDb2dVertex
 10
1062.464715740825
 20
834.8105510273713
 30
0.0
  0
VERTEX
  5
6CD
330
6CA
100
AcDbEntity
  8
0
 62
     0
370
    13
100
AcDbVertex
100
AcDb2dVertex
 10
1060.343285740823
 20
836.9318310273702
 30
0.0
  0
SEQEND
  5
6CE
330
6CA
100
AcDbEntity
  8
0
 62
     0
370
    13
  0
CIRCLE
  5
6D2
330
1F
100
AcDbEntity
  8
0
 62
     0
370
    13
100
AcDbCircle
 10
860.485284140055
 20
1207.617640261768
 30
0.0
 40
31.33875999999873
  0
POLYLINE
  5
6D3
330
1F
100
AcDbEntity
  8
0
 62
     0
370
    13
100
AcDb2dPolyline
 66
     1
 10
0.0
 20
0.0
 30
0.0
 70
   128
  0
VERTEX
  5
6D4
330
6D3
100
AcDbEntity
  8
0
 62
     0
370
    13
100
AcDbVertex
100
AcDb2dVertex
 10
1208.818564140057
 20
953.0343602617684
 30
0.0
  0
VERTEX
  5
6D5
330
6D3
100
AcDbEntity
  8
0
 62
     0
370
    13
100
AcDbVertex
100
AcDb2dVertex
 10
884.7664441400555
 20
1183.336480261767
 30
0.0
  0
VERTEX
  5
6D6
330
6D3
100
AcDbEntity
  8
0
 62
     0
370
    13
100
AcDbVertex
100
AcDb2dVertex
 10
882.6450141400535
 20
1185.457760261766
 30
0.0
  0
SEQEND
  5
6D7
330
6D3
100
AcDbEntity
  8
0
 62
     0
370
    13
  0
CIRCLE
  5
6DB
330
1F
100
AcDbEntity
  8
0
 62
     0
370
    13
100
AcDbCircle
 10
1087.273984033284
 20
391.9281201828146
 30
0.0
 40
31.33875999999873
  0
LINE
  5
6DC
330
1F
100
AcDbEntity
  8
0
 62
     0
370
    13
100
AcDbLine
 10
1466.597573688747
 20
451.1268787875441
 30
0.0
 11
1118.612744033283
 21
391.9281201828146
 31
0.0
  0
CIRCLE
  5
6E0
330
1F
100
AcDbEntity
  8
0
 62
     0
370
    13
100
AcDbCircle
 10
3569.573025437795
 20
269.7935781908525
 30
0.0
 40
31.33875999999873
  0
POLYLINE
  5
6E1
330
1F
100
AcDbEntity
  8
0
 62
     0
370
    13
100
AcDb2dPolyline
 66
     1
 10
0.0
 20
0.0
 30
0.0
 70
   128
  0
VERTEX
  5
6E2
330
6E1
100
AcDbEntity
  8
0
 62
     0
370
    13
100
AcDbVertex
100
AcDb2dVertex
 10
3312.383977774295
 20
451.1268787875441
 30
0.0
  0
VERTEX
  5
6E3
330
6E1
100
AcDbEntity
  8
0
 62
     0
370
    13
100
AcDbVertex
100
AcDb2dVertex
 10
3541.859708371523
 20
288.4702416395057
 30
0.0
  0
VERTEX
  5
6E4
330
6E1
100
AcDbEntity
  8
0
 62
     0
370
    13
100
AcDbVertex
100
AcDb2dVertex
 10
3543.361987385038
 20
286.9720345398523
 30
0.0
  0
SEQEND
  5
6E5
330
6E1
100
AcDbEntity
  8
0
 62
     0
370
    13
  0
CIRCLE
  5
76B
330
1F
100
AcDbEntity
  8
0
 62
     0
370
    13
100
AcDbCircle
 10
2999.784965722217
 20
2060.042110261768
 30
0.0
 40
31.33875999999873
  0
POLYLINE
  5
76C
330
1F
100
AcDbEntity
  8
0
 62
     0
370
    13
100
AcDb2dPolyline
 66
     1
 10
0.0
 20
0.0
 30
0.0
 70
   128
  0
VERTEX
  5
76D
330
76C
100
AcDbEntity
  8
0
 62
     0
370
    13
100
AcDbVertex
100
AcDb2dVertex
 10
2651.451685722215
 20
1805.458830261769
 30
0.0
  0
VERTEX
  5
76E
330
76C
100
AcDbEntity
  8
0
 62
     0
370
    13
100
AcDbVertex
100
AcDb2dVertex
 10
2975.503805722216
 20
2035.760950261767
 30
0.0
  0
VERTEX
  5
76F
330
76C
100
AcDbEntity
  8
0
 62
     0
370
    13
100
AcDbVertex
100
AcDb2dVertex
 10
2977.625235722218
 20
2037.882230261766
 30
0.0
  0
SEQEND
  5
770
330
76C
100
AcDbEntity
  8
0
 62
     0
370
    13
  0
CIRCLE
  5
7B0
102
{ACAD_REACTORS
330
7B1
102
}
330
1F
100
AcDbEntity
  8
0
 62
     0
370
    13
100
AcDbCircle
 10
417.5298657222165
 20
496.1836172235207
 30
0.0
 40
4.998505032241866
  0
HATCH
  5
7B1
330
1F
100
AcDbEntity
  8
0
  6
Continuous
 62
     7
370
     0
100
AcDbHatch
 10
0.0
 20
0.0
 30
0.0
210
0.0
220
0.0
230
1.0
  2
SOLID
 70
     1
 71
     1
 91
        1
 92
        1
 93
        1
 72
     2
 10
417.5298657222165
 20
496.1836172235207
 40
4.998505032241866
 50
0.0
 51
360.0
 73
     1
 97
        1
330
7B0
 75
     0
 76
     1
 98
        1
 10
413.8337747222167
 20
567.0600240403837
  0
CIRCLE
  5
7EE
102
{ACAD_REACTORS
330
7EF
102
}
330
1F
100
AcDbEntity
  8
0
 62
     0
370
    13
100
AcDbCircle
 10
1469.713090950837
 20
450.5257221716754
 30
0.0
 40
4.998505032241866
  0
HATCH
  5
7EF
330
1F
100
AcDbEntity
  8
0
  6
Continuous
 62
     7
370
     0
100
AcDbHatch
 10
0.0
 20
0.0
 30
0.0
210
0.0
220
0.0
230
1.0
  2
SOLID
 70
     1
 71
     1
 91
        1
 92
        1
 93
        1
 72
     2
 10
1469.713090950837
 20
450.5257221716754
 40
4.998505032241866
 50
0.0
 51
360.0
 73
     1
 97
        1
330
7EE
 75
     0
 76
     1
 98
        1
 10
1466.016999950837
 20
521.4021289885384
  0
CIRCLE
  5
82C
102
{ACAD_REACTORS
330
82D
102
}
330
1F
100
AcDbEntity
  8
0
 62
     0
370
    13
100
AcDbCircle
 10
1386.516835740826
 20
604.5084310273725
 30
0.0
 40
4.998505032241866
  0
HATCH
  5
82D
330
1F
100
AcDbEntity
  8
0
  6
Continuous
 62
     7
370
     0
100
AcDbHatch
 10
0.0
 20
0.0
 30
0.0
210
0.0
220
0.0
230
1.0
  2
SOLID
 70
     1
 71
     1
 91
        1
 92
        1
 93
        1
 72
     2
 10
1386.516835740826
 20
604.5084310273725
 40
4.998505032241866
 50
0.0
 51
360.0
 73
     1
 97
        1
330
82C
 75
     0
 76
     1
 98
        1
 10
1382.820744740826
 20
675.3848378442354
  0
CIRCLE
  5
86A
102
{ACAD_REACTORS
330
86B
102
}
330
1F
100
AcDbEntity
  8
0
 62
     0
370
    13
100
AcDbCircle
 10
1208.818564140056
 20
953.0343602617685
 30
0.0
 40
4.998505032241866
  0
HATCH
  5
86B
330
1F
100
AcDbEntity
  8
0
  6
Continuous
 62
     7
370
     0
100
AcDbHatch
 10
0.0
 20
0.0
 30
0.0
210
0.0
220
0.0
230
1.0
  2
SOLID
 70
     1
 71
     1
 91
        1
 92
        1
 93
        1
 72
     2
 10
1208.818564140056
 20
953.0343602617685
 40
4.998505032241866
 50
0.0
 51
360.0
 73
     1
 97
        1
330
86A
 75
     0
 76
     1
 98
        1
 10
1205.122473140057
 20
1023.910767078631
  0
CIRCLE
  5
8A8
102
{ACAD_REACTORS
330
8A9
102
}
330
1F
100
AcDbEntity
  8
0
 62
     0
370
    13
100
AcDbCircle
 10
2651.451685722214
 20
1805.458830261769
 30
0.0
 40
4.998505032241866
  0
HATCH
  5
8A9
330
1F
100
AcDbEntity
  8
0
  6
Continuous
 62
     7
370
     0
100
AcDbHatch
 10
0.0
 20
0.0
 30
0.0
210
0.0
220
0.0
230
1.0
  2
SOLID
 70
     1
 71
     1
 91
        1
 92
        1
 93
        1
 72
     2
 10
2651.451685722214
 20
1805.458830261769
 40
4.998505032241866
 50
0.0
 51
360.0
 73
     1
 97
        1
330
8A8
 75
     0
 76
     1
 98
        1
 10
2647.755594722214
 20
1876.335237078632
  0
CIRCLE
  5
8E6
102
{ACAD_REACTORS
330
8E7
102
}
330
1F
100
AcDbEntity
  8
0
 62
     0
370
    13
100
AcDbCircle
 10
3312.383977774295
 20
451.1268787875442
 30
0.0
 40
4.998505032241866
  0
HATCH
  5
8E7
330
1F
100
AcDbEntity
  8
0
  6
Continuous
 62
     7
370
     0
100
AcDbHatch
 10
0.0
 20
0.0
 30
0.0
210
0.0
220
0.0
230
1.0
  2
SOLID
 70
     1
 71
     1
 91
        1
 92
        1
 93
        1
 72
     2
 10
3312.383977774295
 20
451.1268787875442
 40
4.998505032241866
 50
0.0
 51
360.0
 73
     1
 97
        1
330
8E6
 75
     0
 76
     1
 98
        1
 10
3308.687886774295
 20
522.0032856044072
  0
TEXT
  5
92D
330
1F
100
AcDbEntity
  8
一般
  6
Continuous
 62
     0
100
AcDbText
 10
54.7210110694351
 20
729.7539520415461
 30
0.0
 40
38.00629340277779
  1
3
100
AcDbText
  0
TEXT
  5
92E
330
1F
100
AcDbEntity
  8
0
  6
Continuous
 62
     0
100
AcDbText
 10
3707.370921619507
 20
-12.54603854210524
 30
0.0
 40
35.58323828883285
  1
001
100
AcDbText
  0
TEXT
  5
92F
330
1F
100
AcDbEntity
  8
0
  6
Continuous
 62
     0
100
AcDbText
 10
3797.451011341688
 20
-12.54603854210524
 30
0.0
 40
34.82175698945183
  1
489-0
100
AcDbText
  0
TEXT
  5
930
330
1F
100
AcDbEntity
  8
191-図面内枠
  6
Continuous
 62
     0
100
AcDbText
 10
-75.66805659992445
 20
124.8186704447828
 30
0.0
 40
21.99999999992996
  1
備考欄/NOTE
100
AcDbText
  0
TEXT
  5
931
330
1F
100
AcDbEntity
  8
160-文字
  6
Continuous
 62
     0
100
AcDbText
 10
2905.907854234886
 20
2.04191761424039
 30
0.0
 40
30.0
  1
1/10
100
AcDbText
  0
TEXT
  5
932
330
1F
100
AcDbEntity
  8
160-文字
  6
Continuous
 62
     0
100
AcDbText
 10
2907.137854234886
 20
-42.01808238575824
 30
0.0
 40
30.0
  1
(A3)
100
AcDbText
  0
TEXT
  5
933
330
1F
100
AcDbEntity
  8
191-図面内枠
  6
Continuous
 62
     0
100
AcDbText
 10
3676.158367388097
 20
124.8186704447828
 30
0.0
 40
21.99999999992997
  1
図面番号/NO.
100
AcDbText
  0
TEXT
  5
934
330
1F
100
AcDbEntity
  8
191-図面内枠
  6
Continuous
 62
     0
100
AcDbText
 10
3044.606197850407
 20
124.8186704447828
 30
0.0
 40
21.99999999992997
  1
図面名称/TITLE
100
AcDbText
  0
TEXT
  5
935
330
1F
100
AcDbEntity
  8
191-図面内枠
  6
Continuous
 62
     0
100
AcDbText
 10
2876.089062525591
 20
124.8186704447828
 30
0.0
 40
21.99999999992997
  1
縮尺/SCALE
100
AcDbText
  0
TEXT
  5
936
330
1F
100
AcDbEntity
  8
160-文字
  6
Continuous
 62
     0
100
AcDbText
 10
1323.692611126425
 20
48.77141594498122
 30
0.0
 40
24.0
  1
改
100
AcDbText
  0
TEXT
  5
937
330
1F
100
AcDbEntity
  8
160-文字
  6
Continuous
 62
     0
100
AcDbText
 10
1323.752611126425
 20
-22.09324172183059
 30
0.0
 40
24.0
  1
訂
100
AcDbText
  0
TEXT
  5
938
330
1F
100
AcDbEntity
  8
160-文字
  6
Continuous
 62
     0
100
AcDbText
 10
1386.240439666731
 20
-94.21457955466258
 30
0.0
 40
20.0
  1
0
100
AcDbText
  0
TEXT
  5
939
330
1F
100
AcDbEntity
  8
160-文字
  6
Continuous
 62
     0
100
AcDbText
 10
1466.8080466958
 20
-94.21457955485585
 30
0.0
 40
20.0
  1
2016.03.10
100
AcDbText
  0
TEXT
  5
93A
330
1F
100
AcDbEntity
  8
160-文字
  6
Continuous
 62
     0
100
AcDbText
 10
1387.410439666731
 20
-39.54791288799106
 30
0.0
 40
20.0
  1
1
100
AcDbText
  0
TEXT
  5
93B
330
1F
100
AcDbEntity
  8
160-文字
  6
Continuous
 62
     0
100
AcDbText
 10
1386.250439666731
 20
14.95208711200257
 30
0.0
 40
20.0
  1
2
100
AcDbText
  0
TEXT
  5
93C
330
1F
100
AcDbEntity
  8
160-文字
  6
Continuous
 62
     0
100
AcDbText
 10
1386.350439666731
 20
69.28542044515234
 30
0.0
 40
20.0
  1
3
100
AcDbText
  0
TEXT
  5
93D
330
1F
100
AcDbEntity
  8
160-文字
  6
Continuous
 62
     0
100
AcDbText
 10
1386.190439666731
 20
123.5954204446844
 30
0.0
 40
20.0
  1
4
100
AcDbText
  0
TEXT
  5
93E
330
1F
100
AcDbEntity
  8
160-文字
  6
Continuous
 62
     0
100
AcDbText
 10
1648.031266913139
 20
-93.44457955446703
 30
0.0
 40
20.0
  1
新規作成
100
AcDbText
  0
TEXT
  5
93F
330
1F
100
AcDbEntity
  8
160-文字
  6
Continuous
 62
     0
100
AcDbText
 10
-61.22723398823837
 20
87.97155085293582
 30
0.0
 40
23.99999999999999
  1
1、仕様は改良のため予告なく変更することがあります。
100
AcDbText
  0
TEXT
  5
940
330
1F
100
AcDbEntity
  8
3
  6
Continuous
 62
     0
100
AcDbText
 10
3136.554787734829
 20
14.62951550556576
 30
0.0
 40
32.57682291666666
  1
ＰＯＬソファスラント
100
AcDbText
  0
TEXT
  5
941
330
1F
100
AcDbEntity
  8
3
  6
Continuous
 62
     0
100
AcDbText
 10
3125.152899713995
 20
-29.86101741256508
 30
0.0
 40
32.57682291666666
  1
（２シーター）Ｌ仕様
100
AcDbText
  0
TEXT
  5
942
330
1F
100
AcDbEntity
  8
3
  6
Continuous
 62
     0
100
AcDbText
 10
-71.35981298229589
 20
2629.658958387058
 30
0.0
 40
38.00629340277779
  1
ＰＯＬ　ソファ　スラント（２シーター）　Ｌ仕様
100
AcDbText
  0
TEXT
  5
943
330
1F
100
AcDbEntity
  8
0
  6
Continuous
 62
     0
100
AcDbText
 10
2976.189709914588
 20
2518.402625844695
 30
0.0
 40
35.0
  1
品番
100
AcDbText
  0
TEXT
  5
944
330
1F
100
AcDbEntity
  8
0
  6
Continuous
 62
     0
100
AcDbText
 10
3350.492395075121
 20
2518.549957390664
 30
0.0
 40
35.0
  1
品名
100
AcDbText
  0
TEXT
  5
945
330
1F
100
AcDbEntity
  8
0
  6
Continuous
 62
     0
100
AcDbText
 10
3725.104120033936
 20
2517.702625844695
 30
0.0
 40
35.0
  1
数量
100
AcDbText
  0
TEXT
  5
946
330
1F
100
AcDbEntity
  8
0
  6
Continuous
 62
     0
100
AcDbText
 10
3010.414321077384
 20
2473.869275844696
 30
0.0
 40
35.0
  1
1
100
AcDbText
  0
TEXT
  5
947
330
1F
100
AcDbEntity
  8
0
  6
Continuous
 62
     0
100
AcDbText
 10
3756.190799655384
 20
2473.869275844696
 30
0.0
 40
35.0
  1
1
100
AcDbText
  0
TEXT
  5
948
330
1F
100
AcDbEntity
  8
0
  6
Continuous
 62
     0
100
AcDbText
 10
3012.724321077384
 20
2428.285935844695
 30
0.0
 40
35.0
  1
2
100
AcDbText
  0
TEXT
  5
949
330
1F
100
AcDbEntity
  8
0
  6
Continuous
 62
     0
100
AcDbText
 10
3012.899321077384
 20
2382.702625844696
 30
0.0
 40
35.0
  1
3
100
AcDbText
  0
TEXT
  5
94A
330
1F
100
AcDbEntity
  8
3
  6
Continuous
 62
     0
100
AcDbText
 10
3093.712624897671
 20
2478.871850941488
 30
0.0
 40
21.71788194444444
  1
ＰＯＬソファー　本体スラントＬ座面
100
AcDbText
  0
TEXT
  5
94B
330
1F
100
AcDbEntity
  8
3
  6
Continuous
 62
     0
100
AcDbText
 10
3094.905925440889
 20
2434.098648768619
 30
0.0
 40
21.71788194444444
  1
ＰＯＬソファー　天板
100
AcDbText
  0
TEXT
  5
94C
330
1F
100
AcDbEntity
  8
3
  6
Continuous
 62
     0
100
AcDbText
 10
3094.905925440889
 20
2388.87185094149
 30
0.0
 40
21.71788194444444
  1
ＰＯＬソファー　側板
100
AcDbText
  0
TEXT
  5
94D
330
1F
100
AcDbEntity
  8
0
  6
Continuous
 62
     0
100
AcDbText
 10
3012.899321077384
 20
2291.535945844695
 30
0.0
 40
35.0
  1
5
100
AcDbText
  0
TEXT
  5
94E
330
1F
100
AcDbEntity
  8
0
  6
Continuous
 62
     0
100
AcDbText
 10
3012.374321077384
 20
2245.952605844694
 30
0.0
 40
35.0
  1
6
100
AcDbText
  0
TEXT
  5
94F
330
1F
100
AcDbEntity
  8
0
  6
Continuous
 62
     0
100
AcDbText
 10
3012.024321077384
 20
2200.369295844695
 30
0.0
 40
35.0
  1
7
100
AcDbText
  0
TEXT
  5
950
330
1F
100
AcDbEntity
  8
3
  6
Continuous
 62
     0
100
AcDbText
 10
3093.712624897671
 20
2296.647110351208
 30
0.0
 40
21.71788194444444
  1
ＰＯＬソファー　取付部品セット
100
AcDbText
  0
TEXT
  5
951
330
1F
100
AcDbEntity
  8
3
  6
Continuous
 62
     0
100
AcDbText
 10
3094.905925440889
 20
2342.535360649303
 30
0.0
 40
21.71788194444444
  1
ＰＯＬソファー　前後板
100
AcDbText
  0
TEXT
  5
952
330
1F
100
AcDbEntity
  8
0
  6
Continuous
 62
     0
100
AcDbText
 10
3013.424321077384
 20
2337.863726206443
 30
0.0
 40
35.0
  1
4
100
AcDbText
  0
TEXT
  5
953
330
1F
100
AcDbEntity
  8
0
  6
Continuous
 62
     0
100
AcDbText
 10
3012.899321077384
 20
2155.415744599582
 30
0.0
 40
35.0
  1
8
100
AcDbText
  0
TEXT
  5
954
330
1F
100
AcDbEntity
  8
0
  6
Continuous
 62
     0
100
AcDbText
 10
3756.190799655389
 20
2428.285935844695
 30
0.0
 40
35.0
  1
1
100
AcDbText
  0
TEXT
  5
955
330
1F
100
AcDbEntity
  8
0
  6
Continuous
 62
     0
100
AcDbText
 10
3756.190799655389
 20
2382.702625844696
 30
0.0
 40
35.0
  1
1
100
AcDbText
  0
TEXT
  5
956
330
1F
100
AcDbEntity
  8
0
  6
Continuous
 62
     0
100
AcDbText
 10
3756.190799655389
 20
2337.119285844695
 30
0.0
 40
35.0
  1
1
100
AcDbText
  0
TEXT
  5
957
330
1F
100
AcDbEntity
  8
0
  6
Continuous
 62
     0
100
AcDbText
 10
3756.190799655389
 20
2291.535945844695
 30
0.0
 40
35.0
  1
1
100
AcDbText
  0
TEXT
  5
958
330
1F
100
AcDbEntity
  8
0
  6
Continuous
 62
     0
100
AcDbText
 10
3836.996680033932
 20
2517.702625844695
 30
0.0
 40
35.0
  1
入数
100
AcDbText
  0
TEXT
  5
959
330
1F
100
AcDbEntity
  8
0
  6
Continuous
 62
     0
100
AcDbText
 10
3868.25835965538
 20
2473.869275844696
 30
0.0
 40
35.0
  1
1
100
AcDbText
  0
TEXT
  5
95A
330
1F
100
AcDbEntity
  8
0
  6
Continuous
 62
     0
100
AcDbText
 10
3868.258359655385
 20
2428.285935844695
 30
0.0
 40
35.0
  1
1
100
AcDbText
  0
TEXT
  5
95B
330
1F
100
AcDbEntity
  8
0
  6
Continuous
 62
     0
100
AcDbText
 10
3870.743359655385
 20
2382.702625844696
 30
0.0
 40
35.0
  1
3
100
AcDbText
  0
TEXT
  5
95C
330
1F
100
AcDbEntity
  8
0
  6
Continuous
 62
     0
100
AcDbText
 10
3870.568359655385
 20
2337.119285844695
 30
0.0
 40
35.0
  1
2
100
AcDbText
  0
TEXT
  5
95D
330
1F
100
AcDbEntity
  8
0
  6
Continuous
 62
     0
100
AcDbText
 10
3868.258359655385
 20
2291.535945844695
 30
0.0
 40
35.0
  1
1
100
AcDbText
  0
TEXT
  5
95E
330
1F
100
AcDbEntity
  8
一般
  6
Continuous
 62
     0
100
AcDbText
 10
1023.517949621031
 20
838.0787658453978
 30
0.0
 40
38.00629340277779
  1
2
100
AcDbText
  0
TEXT
  5
95F
330
1F
100
AcDbEntity
  8
一般
  6
Continuous
 62
     0
100
AcDbText
 10
846.0097094872748
 20
1186.604695079794
 30
0.0
 40
38.00629340277779
  1
3
100
AcDbText
  0
TEXT
  5
960
330
1F
100
AcDbEntity
  8
一般
  6
Continuous
 62
     0
100
AcDbText
 10
1074.06825021275
 20
375.7109758173234
 30
0.0
 40
38.00629340277779
  1
4
100
AcDbText
  0
TEXT
  5
961
330
1F
100
AcDbEntity
  8
一般
  6
Continuous
 62
     0
100
AcDbText
 10
3554.397704353816
 20
253.5764338253614
 30
0.0
 40
38.00629340277779
  1
3
100
AcDbText
  0
TEXT
  5
962
330
1F
100
AcDbEntity
  8
一般
  6
Continuous
 62
     0
100
AcDbText
 10
2982.610944237844
 20
2039.029165079794
 30
0.0
 40
38.00629340277779
  1
1
100
AcDbText
  0
VIEWPORT
  5
3F6
330
1B
100
AcDbEntity
 67
     1
  8
0
100
AcDbViewport
 10
128.5
 20
97.5
 30
0.0
 40
314.226
 41
222.18
 68
     1
 69
     1
 12
128.5
 22
97.5
 13
0.0
 23
0.0
 14
10.0
 24
10.0
 15
10.0
 25
10.0
 16
0.0
 26
0.0
 36
1.0
 17
0.0
 27
0.0
 37
0.0
 42
50.0
 43
0.0
 44
0.0
 45
222.18
 50
0.0
 51
0.0
 72
   100
 90
   557152
  1

281
     0
 71
     1
 74
     0
110
0.0
120
0.0
130
0.0
111
1.0
121
0.0
131
0.0
112
0.0
122
1.0
132
0.0
 79
     0
146
0.0
170
     0
  0
ENDSEC
  0
SECTION
  2
OBJECTS
  0
DICTIONARY
  5
C
330
0
100
AcDbDictionary
281
     1
  3
ACAD_DETAILVIEWSTYLE
350
8EF
  3
ACAD_GROUP
350
D
  3
ACAD_IMAGE_VARS
350
42C
  3
ACAD_LAYOUT
350
1A
  3
ACAD_MATERIAL
350
3B
  3
ACAD_MLEADERSTYLE
350
41D
  3
ACAD_MLINESTYLE
350
17
  3
ACAD_PLOTSETTINGS
350
19
  3
ACAD_PLOTSTYLENAME
350
E
  3
ACAD_SCALELIST
350
3F8
  3
ACAD_SECTIONVIEWSTYLE
350
8F0
  3
ACAD_TABLESTYLE
350
41C
  3
ACAD_WIPEOUT_VARS
350
AC
  3
ACDB_RECOMPOSE_DATA
350
966
  3
AcDbVariableDictionary
350
41A
  3
APPDATA
350
42B
  0
DICTIONARY
  5
8EF
102
{ACAD_REACTORS
330
C
102
}
330
C
100
AcDbDictionary
281
     1
  0
DICTIONARY
  5
D
102
{ACAD_REACTORS
330
C
102
}
330
C
100
AcDbDictionary
281
     1
  0
RASTERVARIABLES
  5
42C
102
{ACAD_REACTORS
330
C
102
}
330
C
100
AcDbRasterVariables
 90
        0
 70
     1
 71
     1
 72
     1
  0
DICTIONARY
  5
1A
102
{ACAD_REACTORS
330
C
102
}
330
C
100
AcDbDictionary
281
     1
  3
Layout1
350
1E
  3
Model
350
22
  0
DICTIONARY
  5
3B
102
{ACAD_REACTORS
330
C
102
}
330
C
100
AcDbDictionary
281
     1
  3
ByLayer
350
3C
  3
Global
350
3E
  0
DICTIONARY
  5
41D
102
{ACAD_REACTORS
330
C
102
}
330
C
100
AcDbDictionary
281
     1
  3
Standard
350
42A
  0
DICTIONARY
  5
17
102
{ACAD_REACTORS
330
C
102
}
330
C
100
AcDbDictionary
281
     1
  3
Standard
350
18
  0
DICTIONARY
  5
19
102
{ACAD_REACTORS
330
C
102
}
330
C
100
AcDbDictionary
281
     1
  0
ACDBDICTIONARYWDFLT
  5
E
102
{ACAD_REACTORS
330
C
102
}
330
C
100
AcDbDictionary
281
     1
  3
Normal
350
F
100
AcDbDictionaryWithDefault
340
F
  0
DICTIONARY
  5
3F8
102
{ACAD_REACTORS
330
C
102
}
330
C
100
AcDbDictionary
281
     1
  3
A0
350
3F9
  3
A1
350
3FA
  3
A2
350
3FB
  3
A3
350
3FC
  3
A4
350
3FD
  3
A5
350
3FE
  3
A6
350
3FF
  3
A7
350
400
  3
A8
350
401
  3
A9
350
402
  3
B0
350
403
  3
B1
350
404
  3
B2
350
405
  3
B3
350
406
  3
B4
350
407
  3
B5
350
408
  3
B6
350
409
  3
B7
350
40A
  3
B8
350
40B
  3
B9
350
40C
  3
C0
350
40D
  3
C1
350
40E
  3
C2
350
40F
  3
C3
350
410
  3
C4
350
411
  3
C5
350
412
  3
C6
350
413
  3
C7
350
414
  3
C8
350
415
  3
C9
350
416
  3
D0
350
417
  3
D1
350
418
  3
D2
350
419
  0
DICTIONARY
  5
8F0
102
{ACAD_REACTORS
330
C
102
}
330
C
100
AcDbDictionary
281
     1
  0
DICTIONARY
  5
41C
102
{ACAD_REACTORS
330
C
102
}
330
C
100
AcDbDictionary
281
     1
  3
Standard
350
429
  0
WIPEOUTVARIABLES
  5
AC
102
{ACAD_REACTORS
330
C
102
}
330
C
100
AcDbWipeoutVariables
 70
     0
  0
XRECORD
  5
966
102
{ACAD_REACTORS
330
C
102
}
330
C
100
AcDbXrecord
280
     1
 90
        1
330
429
  0
DICTIONARY
  5
41A
102
{ACAD_REACTORS
330
C
102
}
330
C
100
AcDbDictionary
281
     1
  3
CANNOSCALE
350
41B
  3
CMLEADERSTYLE
350
8EE
  3
CTABLESTYLE
350
8ED
  3
HPTRANSPARENCY
350
92C
  3
MSLTSCALE
350
910
  3
WIPEOUTFRAME
350
8F1
  3
XCLIPFRAME
350
41E
  0
DICTIONARY
  5
42B
102
{ACAD_REACTORS
330
C
102
}
330
C
100
AcDbDictionary
281
     1
  0
LAYOUT
  5
1E
102
{ACAD_REACTORS
330
1A
102
}
330
1A
100
AcDbPlotSettings
  1

  2
none_device
  4
ISO_A4_(210.00_x_297.00_MM)
  6

 40
7.5
 41
20.0
 42
7.5
 43
20.0
 44
210.0
 45
297.0
 46
0.0
 47
0.0
 48
0.0
 49
0.0
140
0.0
141
0.0
142
1.0
143
1.0
 70
   688
 72
     1
 73
     1
 74
     5
  7

 75
    16
 76
     0
 77
     2
 78
   300
147
1.0
148
0.0
149
0.0
100
AcDbLayout
  1
Layout1
 70
     1
 71
     1
 10
-20.0
 20
-7.5
 11
277.0
 21
202.5
 12
0.0
 22
0.0
 32
0.0
 14
1.000000000000000E+20
 24
1.000000000000000E+20
 34
1.000000000000000E+20
 15
-1.000000000000000E+20
 25
-1.000000000000000E+20
 35
-1.000000000000000E+20
146
0.0
 13
0.0
 23
0.0
 33
0.0
 16
1.0
 26
0.0
 36
0.0
 17
0.0
 27
1.0
 37
0.0
 76
     0
330
1B
331
3F6
  0
LAYOUT
  5
22
102
{ACAD_REACTORS
330
1A
102
}
330
1A
100
AcDbPlotSettings
  1

  2
none_device
  4

  6

 40
0.0
 41
0.0
 42
0.0
 43
0.0
 44
0.0
 45
0.0
 46
0.0
 47
0.0
 48
0.0
 49
0.0
140
0.0
141
0.0
142
1.0
143
1.0
 70
  1712
 72
     0
 73
     0
 74
     0
  7

 75
     0
 76
     0
 77
     2
 78
   300
147
1.0
148
0.0
149
0.0
100
AcDbLayout
  1
Model
 70
     1
 71
     0
 10
0.0
 20
0.0
 11
12.0
 21
9.0
 12
0.0
 22
0.0
 32
0.0
 14
-90.31255759987175
 24
-111.6812463972601
 34
0.0
 15
3959.294109081543
 25
2688.052086920791
 35
0.0
146
0.0
 13
0.0
 23
0.0
 33
0.0
 16
1.0
 26
0.0
 36
0.0
 17
0.0
 27
1.0
 37
0.0
 76
     0
330
1F
331
29
  0
MATERIAL
  5
3C
102
{ACAD_REACTORS
330
3B
102
}
330
3B
100
AcDbMaterial
  1
ByLayer
  0
MATERIAL
  5
3E
102
{ACAD_REACTORS
330
3B
102
}
330
3B
100
AcDbMaterial
  1
Global
  0
MLEADERSTYLE
  5
42A
102
{ACAD_REACTORS
330
41D
102
}
330
41D
100
AcDbMLeaderStyle
170
     2
171
     1
172
     0
 90
        2
 40
0.0
 41
0.0
173
     1
 91
-1056964608
340
14
 92
       -2
290
     1
 42
2.0
291
     1
 43
8.0
  3
Standard
341
0
 44
4.0
300

342
11
174
     1
178
     6
175
     1
176
     0
 93
-1056964608
 45
4.0
292
     0
297
     0
 46
4.0
343
0
 94
-1056964608
 47
1.0
 49
1.0
140
1.0
293
     1
141
0.0
294
     1
177
     0
142
1.0
295
     0
296
     0
143
3.75
1001
ACAD_MLEADERVER
1070
     2
  0
MLINESTYLE
  5
18
102
{ACAD_REACTORS
330
17
102
}
330
17
100
AcDbMlineStyle
  2
Standard
 70
     0
  3

 62
   256
 51
90.0
 52
90.0
 71
     2
 49
0.5
 62
   256
  6
BYLAYER
 49
-0.5
 62
   256
  6
BYLAYER
  0
ACDBPLACEHOLDER
  5
F
102
{ACAD_REACTORS
330
E
102
}
330
E
  0
SCALE
  5
3F9
102
{ACAD_REACTORS
330
3F8
102
}
330
3F8
100
AcDbScale
 70
     0
300
1:1
140
1.0
141
1.0
290
     1
  0
SCALE
  5
3FA
102
{ACAD_REACTORS
330
3F8
102
}
330
3F8
100
AcDbScale
 70
     0
300
1:2
140
1.0
141
2.0
290
     0
  0
SCALE
  5
3FB
102
{ACAD_REACTORS
330
3F8
102
}
330
3F8
100
AcDbScale
 70
     0
300
1:4
140
1.0
141
4.0
290
     0
  0
SCALE
  5
3FC
102
{ACAD_REACTORS
330
3F8
102
}
330
3F8
100
AcDbScale
 70
     0
300
1:5
140
1.0
141
5.0
290
     0
  0
SCALE
  5
3FD
102
{ACAD_REACTORS
330
3F8
102
}
330
3F8
100
AcDbScale
 70
     0
300
1:8
140
1.0
141
8.0
290
     0
  0
SCALE
  5
3FE
102
{ACAD_REACTORS
330
3F8
102
}
330
3F8
100
AcDbScale
 70
     0
300
1:10
140
1.0
141
10.0
290
     0
  0
SCALE
  5
3FF
102
{ACAD_REACTORS
330
3F8
102
}
330
3F8
100
AcDbScale
 70
     0
300
1:16
140
1.0
141
16.0
290
     0
  0
SCALE
  5
400
102
{ACAD_REACTORS
330
3F8
102
}
330
3F8
100
AcDbScale
 70
     0
300
1:20
140
1.0
141
20.0
290
     0
  0
SCALE
  5
401
102
{ACAD_REACTORS
330
3F8
102
}
330
3F8
100
AcDbScale
 70
     0
300
1:30
140
1.0
141
30.0
290
     0
  0
SCALE
  5
402
102
{ACAD_REACTORS
330
3F8
102
}
330
3F8
100
AcDbScale
 70
     0
300
1:40
140
1.0
141
40.0
290
     0
  0
SCALE
  5
403
102
{ACAD_REACTORS
330
3F8
102
}
330
3F8
100
AcDbScale
 70
     0
300
1:50
140
1.0
141
50.0
290
     0
  0
SCALE
  5
404
102
{ACAD_REACTORS
330
3F8
102
}
330
3F8
100
AcDbScale
 70
     0
300
1:100
140
1.0
141
100.0
290
     0
  0
SCALE
  5
405
102
{ACAD_REACTORS
330
3F8
102
}
330
3F8
100
AcDbScale
 70
     0
300
2:1
140
2.0
141
1.0
290
     0
  0
SCALE
  5
406
102
{ACAD_REACTORS
330
3F8
102
}
330
3F8
100
AcDbScale
 70
     0
300
4:1
140
4.0
141
1.0
290
     0
  0
SCALE
  5
407
102
{ACAD_REACTORS
330
3F8
102
}
330
3F8
100
AcDbScale
 70
     0
300
8:1
140
8.0
141
1.0
290
     0
  0
SCALE
  5
408
102
{ACAD_REACTORS
330
3F8
102
}
330
3F8
100
AcDbScale
 70
     0
300
10:1
140
10.0
141
1.0
290
     0
  0
SCALE
  5
409
102
{ACAD_REACTORS
330
3F8
102
}
330
3F8
100
AcDbScale
 70
     0
300
100:1
140
100.0
141
1.0
290
     0
  0
SCALE
  5
40A
102
{ACAD_REACTORS
330
3F8
102
}
330
3F8
100
AcDbScale
 70
     0
300
1/128" = 1'-0"
140
0.0078125
141
12.0
290
     0
  0
SCALE
  5
40B
102
{ACAD_REACTORS
330
3F8
102
}
330
3F8
100
AcDbScale
 70
     0
300
1/64" = 1'-0"
140
0.015625
141
12.0
290
     0
  0
SCALE
  5
40C
102
{ACAD_REACTORS
330
3F8
102
}
330
3F8
100
AcDbScale
 70
     0
300
1/32" = 1'-0"
140
0.03125
141
12.0
290
     0
  0
SCALE
  5
40D
102
{ACAD_REACTORS
330
3F8
102
}
330
3F8
100
AcDbScale
 70
     0
300
1/16" = 1'-0"
140
0.0625
141
12.0
290
     0
  0
SCALE
  5
40E
102
{ACAD_REACTORS
330
3F8
102
}
330
3F8
100
AcDbScale
 70
     0
300
3/32" = 1'-0"
140
0.09375
141
12.0
290
     0
  0
SCALE
  5
40F
102
{ACAD_REACTORS
330
3F8
102
}
330
3F8
100
AcDbScale
 70
     0
300
1/8" = 1'-0"
140
0.125
141
12.0
290
     0
  0
SCALE
  5
410
102
{ACAD_REACTORS
330
3F8
102
}
330
3F8
100
AcDbScale
 70
     0
300
3/16" = 1'-0"
140
0.1875
141
12.0
290
     0
  0
SCALE
  5
411
102
{ACAD_REACTORS
330
3F8
102
}
330
3F8
100
AcDbScale
 70
     0
300
1/4" = 1'-0"
140
0.25
141
12.0
290
     0
  0
SCALE
  5
412
102
{ACAD_REACTORS
330
3F8
102
}
330
3F8
100
AcDbScale
 70
     0
300
3/8" = 1'-0"
140
0.375
141
12.0
290
     0
  0
SCALE
  5
413
102
{ACAD_REACTORS
330
3F8
102
}
330
3F8
100
AcDbScale
 70
     0
300
1/2" = 1'-0"
140
0.5
141
12.0
290
     0
  0
SCALE
  5
414
102
{ACAD_REACTORS
330
3F8
102
}
330
3F8
100
AcDbScale
 70
     0
300
3/4" = 1'-0"
140
0.75
141
12.0
290
     0
  0
SCALE
  5
415
102
{ACAD_REACTORS
330
3F8
102
}
330
3F8
100
AcDbScale
 70
     0
300
1" = 1'-0"
140
1.0
141
12.0
290
     0
  0
SCALE
  5
416
102
{ACAD_REACTORS
330
3F8
102
}
330
3F8
100
AcDbScale
 70
     0
300
1-1/2" = 1'-0"
140
1.5
141
12.0
290
     0
  0
SCALE
  5
417
102
{ACAD_REACTORS
330
3F8
102
}
330
3F8
100
AcDbScale
 70
     0
300
3" = 1'-0"
140
3.0
141
12.0
290
     0
  0
SCALE
  5
418
102
{ACAD_REACTORS
330
3F8
102
}
330
3F8
100
AcDbScale
 70
     0
300
6" = 1'-0"
140
6.0
141
12.0
290
     0
  0
SCALE
  5
419
102
{ACAD_REACTORS
330
3F8
102
}
330
3F8
100
AcDbScale
 70
     0
300
1'-0" = 1'-0"
140
12.0
141
12.0
290
     0
  0
TABLESTYLE
  5
429
102
{ACAD_REACTORS
330
41C
102
}
102
{ACAD_XDICTIONARY
360
963
102
}
330
41C
100
AcDbTableStyle
  3
Standard
 70
     0
 71
     0
 40
0.06
 41
0.06
280
     0
281
     0
  7
STANDARD
140
4.5
170
     2
 62
     0
 63
   257
283
     0
274
    -2
284
     1
 64
     0
275
    -2
285
     1
 65
     0
276
    -2
286
     1
 66
     0
277
    -2
287
     1
 67
     0
278
    -2
288
     1
 68
     0
279
    -2
289
     1
 69
     0
  7
STANDARD
140
6.0
170
     5
 62
     0
 63
   257
283
     0
274
    -2
284
     1
 64
     0
275
    -2
285
     1
 65
     0
276
    -2
286
     1
 66
     0
277
    -2
287
     1
 67
     0
278
    -2
288
     1
 68
     0
279
    -2
289
     1
 69
     0
  7
STANDARD
140
4.5
170
     5
 62
     0
 63
   257
283
     0
274
    -2
284
     1
 64
     0
275
    -2
285
     1
 65
     0
276
    -2
286
     1
 66
     0
277
    -2
287
     1
 67
     0
278
    -2
288
     1
 68
     0
279
    -2
289
     1
 69
     0
  0
DICTIONARYVAR
  5
41B
102
{ACAD_REACTORS
330
41A
102
}
330
41A
100
DictionaryVariables
280
     0
  1
1:1
  0
DICTIONARYVAR
  5
8EE
102
{ACAD_REACTORS
330
41A
102
}
330
41A
100
DictionaryVariables
280
     0
  1
Standard
  0
DICTIONARYVAR
  5
8ED
102
{ACAD_REACTORS
330
41A
102
}
330
41A
100
DictionaryVariables
280
     0
  1
Standard
  0
DICTIONARYVAR
  5
92C
102
{ACAD_REACTORS
330
41A
102
}
330
41A
100
DictionaryVariables
280
     0
  1
ByLayer
  0
DICTIONARYVAR
  5
910
102
{ACAD_REACTORS
330
41A
102
}
330
41A
100
DictionaryVariables
280
     0
  1
0
  0
DICTIONARYVAR
  5
8F1
102
{ACAD_REACTORS
330
41A
102
}
330
41A
100
DictionaryVariables
280
     0
  1
0
  0
DICTIONARYVAR
  5
41E
102
{ACAD_REACTORS
330
41A
102
}
330
41A
100
DictionaryVariables
280
     0
  1
0
  0
DICTIONARY
  5
963
330
429
100
AcDbDictionary
280
     1
281
     1
  3
ACAD_ROUNDTRIP_2008_TABLESTYLE_CELLSTYLEMAP
360
965
  3
ACAD_XREC_ROUNDTRIP
360
964
  0
CELLSTYLEMAP
  5
965
102
{ACAD_REACTORS
330
963
102
}
330
963
100
AcDbCellStyleMap
 90
        3
300
CELLSTYLE
  1
TABLEFORMAT_BEGIN
 90
        5
170
     1
 91
        0
 92
    32768
 62
   257
 93
        1
300
CONTENTFORMAT
  1
CONTENTFORMAT_BEGIN
 90
        0
 91
        0
 92
        4
 93
        0
300

 40
0.0
140
1.0
 94
        5
 62
     0
340
11
144
6.0
309
CONTENTFORMAT_END
171
     1
301
MARGIN
  1
CELLMARGIN_BEGIN
 40
1.5
 40
1.5
 40
1.5
 40
1.5
 40
1.5
 40
1.5
309
CELLMARGIN_END
 94
        6
 95
        1
302
GRIDFORMAT
  1
GRIDFORMAT_BEGIN
 90
        0
 91
        1
 62
     0
 92
       -2
340
14
 93
        0
 40
0.045
309
GRIDFORMAT_END
 95
        2
302
GRIDFORMAT
  1
GRIDFORMAT_BEGIN
 90
        0
 91
        1
 62
     0
 92
       -2
340
14
 93
        0
 40
0.045
309
GRIDFORMAT_END
 95
        4
302
GRIDFORMAT
  1
GRIDFORMAT_BEGIN
 90
        0
 91
        1
 62
     0
 92
       -2
340
14
 93
        0
 40
0.045
309
GRIDFORMAT_END
 95
        8
302
GRIDFORMAT
  1
GRIDFORMAT_BEGIN
 90
        0
 91
        1
 62
     0
 92
       -2
340
14
 93
        0
 40
0.045
309
GRIDFORMAT_END
 95
       16
302
GRIDFORMAT
  1
GRIDFORMAT_BEGIN
 90
        0
 91
        1
 62
     0
 92
       -2
340
14
 93
        0
 40
0.045
309
GRIDFORMAT_END
 95
       32
302
GRIDFORMAT
  1
GRIDFORMAT_BEGIN
 90
        0
 91
        1
 62
     0
 92
       -2
340
14
 93
        0
 40
0.045
309
GRIDFORMAT_END
309
TABLEFORMAT_END
  1
CELLSTYLE_BEGIN
 90
        1
 91
        1
300
_TITLE
309
CELLSTYLE_END
300
CELLSTYLE
  1
TABLEFORMAT_BEGIN
 90
        5
170
     1
 91
        0
 92
        0
 62
   257
 93
        1
300
CONTENTFORMAT
  1
CONTENTFORMAT_BEGIN
 90
        0
 91
        0
 92
        4
 93
        0
300

 40
0.0
140
1.0
 94
        5
 62
     0
340
11
144
4.5
309
CONTENTFORMAT_END
171
     1
301
MARGIN
  1
CELLMARGIN_BEGIN
 40
1.5
 40
1.5
 40
1.5
 40
1.5
 40
1.5
 40
1.5
309
CELLMARGIN_END
 94
        6
 95
        1
302
GRIDFORMAT
  1
GRIDFORMAT_BEGIN
 90
        0
 91
        1
 62
     0
 92
       -2
340
14
 93
        0
 40
0.045
309
GRIDFORMAT_END
 95
        2
302
GRIDFORMAT
  1
GRIDFORMAT_BEGIN
 90
        0
 91
        1
 62
     0
 92
       -2
340
14
 93
        0
 40
0.045
309
GRIDFORMAT_END
 95
        4
302
GRIDFORMAT
  1
GRIDFORMAT_BEGIN
 90
        0
 91
        1
 62
     0
 92
       -2
340
14
 93
        0
 40
0.045
309
GRIDFORMAT_END
 95
        8
302
GRIDFORMAT
  1
GRIDFORMAT_BEGIN
 90
        0
 91
        1
 62
     0
 92
       -2
340
14
 93
        0
 40
0.045
309
GRIDFORMAT_END
 95
       16
302
GRIDFORMAT
  1
GRIDFORMAT_BEGIN
 90
        0
 91
        1
 62
     0
 92
       -2
340
14
 93
        0
 40
0.045
309
GRIDFORMAT_END
 95
       32
302
GRIDFORMAT
  1
GRIDFORMAT_BEGIN
 90
        0
 91
        1
 62
     0
 92
       -2
340
14
 93
        0
 40
0.045
309
GRIDFORMAT_END
309
TABLEFORMAT_END
  1
CELLSTYLE_BEGIN
 90
        2
 91
        1
300
_HEADER
309
CELLSTYLE_END
300
CELLSTYLE
  1
TABLEFORMAT_BEGIN
 90
        5
170
     1
 91
        0
 92
        0
 62
   257
 93
        1
300
CONTENTFORMAT
  1
CONTENTFORMAT_BEGIN
 90
        0
 91
        0
 92
        4
 93
        0
300

 40
0.0
140
1.0
 94
        2
 62
     0
340
11
144
4.5
309
CONTENTFORMAT_END
171
     1
301
MARGIN
  1
CELLMARGIN_BEGIN
 40
1.5
 40
1.5
 40
1.5
 40
1.5
 40
1.5
 40
1.5
309
CELLMARGIN_END
 94
        6
 95
        1
302
GRIDFORMAT
  1
GRIDFORMAT_BEGIN
 90
        0
 91
        1
 62
     0
 92
       -2
340
14
 93
        0
 40
0.045
309
GRIDFORMAT_END
 95
        2
302
GRIDFORMAT
  1
GRIDFORMAT_BEGIN
 90
        0
 91
        1
 62
     0
 92
       -2
340
14
 93
        0
 40
0.045
309
GRIDFORMAT_END
 95
        4
302
GRIDFORMAT
  1
GRIDFORMAT_BEGIN
 90
        0
 91
        1
 62
     0
 92
       -2
340
14
 93
        0
 40
0.045
309
GRIDFORMAT_END
 95
        8
302
GRIDFORMAT
  1
GRIDFORMAT_BEGIN
 90
        0
 91
        1
 62
     0
 92
       -2
340
14
 93
        0
 40
0.045
309
GRIDFORMAT_END
 95
       16
302
GRIDFORMAT
  1
GRIDFORMAT_BEGIN
 90
        0
 91
        1
 62
     0
 92
       -2
340
14
 93
        0
 40
0.045
309
GRIDFORMAT_END
 95
       32
302
GRIDFORMAT
  1
GRIDFORMAT_BEGIN
 90
        0
 91
        1
 62
     0
 92
       -2
340
14
 93
        0
 40
0.045
309
GRIDFORMAT_END
309
TABLEFORMAT_END
  1
CELLSTYLE_BEGIN
 90
        3
 91
        2
300
_DATA
309
CELLSTYLE_END
  0
XRECORD
  5
964
102
{ACAD_REACTORS
330
963
102
}
330
963
100
AcDbXrecord
280
     1
102
ACAD_ROUNDTRIP_PRE2007_TABLESTYLE
 90
        4
 91
        0
  1

 92
        4
 93
        0
  2

 94
        4
 95
        0
  3

  0
ENDSEC
  0
EOF
